osu file format v14

[General]
AudioFilename: audio.ogg
AudioLeadIn: 0
PreviewTime: 57021
Countdown: 0
SampleSet: Soft
StackLeniency: 0.5
Mode: 0
LetterboxInBreaks: 0
WidescreenStoryboard: 1

[Editor]
DistanceSpacing: 0.9
BeatDivisor: 4
GridSize: 4
TimelineZoom: 1.2

[Metadata]
Title:Ibitsuna Kotoba (TV Size)
TitleUnicode:イビツナコトバ (TV Size)
Artist:DAZBEE
ArtistUnicode:ダズビー
Creator:Doyak
Version:Dailycare's Tsun-Insane
Source:ツンデレ悪役令嬢リーゼロッテと実況の遠藤くんと解説の小林さん
Tags:다즈비 REQ Accelers Dailycare Sure ykcarrot Japanese anime Tsundere Akuyaku Reijou Liselotte to Jikkyou no Endou-kun Kaisetsu Kobayashi-san opening
BeatmapID:4144818
BeatmapSetID:1993694

[Difficulty]
HPDrainRate:5
CircleSize:4
OverallDifficulty:8
ApproachRate:9
SliderMultiplier:1.6
SliderTickRate:1

[Events]
//Background and Video events
0,0,"tsundere-villainess-opening-and-ending-video.jpg",0,0
Video,170,"aaaaaaagaga.mp4"
//Break Periods
//Storyboard Layer 0 (Background)
//Storyboard Layer 1 (Fail)
//Storyboard Layer 2 (Pass)
//Storyboard Layer 3 (Foreground)
//Storyboard Layer 4 (Overlay)
//Storyboard Sound Samples

[TimingPoints]
-4504,337.078651685393,4,2,1,40,1,0
552,-117.647058823529,4,2,1,40,0,0
6282,-117.647058823529,4,2,1,50,0,0
9147,-117.647058823529,4,2,1,30,0,0
9231,-117.647058823529,4,2,1,33,0,0
9316,-117.647058823529,4,2,1,36,0,0
9400,-117.647058823529,4,2,1,39,0,0
9484,-117.647058823529,4,2,1,42,0,0
9569,-117.647058823529,4,2,1,45,0,0
9653,-117.647058823529,4,2,1,48,0,0
9737,-117.647058823529,4,2,1,51,0,0
9821,-117.647058823529,4,2,1,54,0,0
9906,-117.647058823529,4,2,1,57,0,0
9990,-117.647058823529,4,2,1,60,0,0
10158,-117.647058823529,4,2,1,50,0,0
11507,-100,4,2,1,75,0,0
16479,-100,4,2,1,5,0,0
16563,-100,4,2,1,75,0,0
17069,-100,4,2,1,80,0,0
17827,-100,4,2,1,5,0,0
17911,-100,4,2,1,80,0,0
18501,-100,4,2,1,5,0,0
18585,-100,4,2,1,80,0,0
19175,-100,4,2,1,5,0,0
19260,-100,4,2,1,80,0,0
19597,-100,4,2,1,85,0,0
20945,-100,4,2,1,90,0,0
21788,-100,4,2,1,95,0,0
22462,-117.647058823529,4,2,2,50,0,0
27855,-117.647058823529,4,2,2,60,0,0
31563,-117.647058823529,4,2,1,60,0,0
31731,-111.111111111111,4,2,1,90,0,0
31984,-111.111111111111,4,2,1,5,0,0
32069,-111.111111111111,4,2,1,90,0,0
32321,-111.111111111111,4,2,1,5,0,0
32406,-111.111111111111,4,2,1,90,0,0
32658,-111.111111111111,4,2,1,5,0,0
32743,-105.263157894737,4,2,1,90,0,0
33248,-105.263157894737,4,2,1,70,0,0
38642,-105.263157894737,4,2,1,75,0,0
44035,-105.263157894737,4,2,1,70,0,0
47574,-105.263157894737,4,2,1,80,0,0
48080,-117.647058823529,4,2,1,90,0,0
49344,-117.647058823529,4,2,1,5,0,0
49428,-105.263157894737,4,2,1,70,0,0
52125,-105.263157894737,4,2,1,80,0,0
56001,-105.263157894737,4,2,1,90,0,0
57097,-105.263157894737,4,2,1,5,0,0
57181,-105.263157894737,4,2,1,80,0,0
57518,-100,4,2,1,85,0,1
60467,-100,4,2,1,5,0,1
60552,-100,4,2,1,85,0,1
61647,-100,4,2,1,5,0,1
61731,-100,4,2,1,85,0,1
62321,-100,4,2,1,5,0,1
62406,-100,4,2,1,85,0,1
63164,-100,4,2,1,5,0,1
63248,-100,4,2,1,85,0,1
64344,-100,4,2,1,5,0,1
64428,-100,4,2,1,85,0,1
65608,-100,4,2,1,90,0,1
66788,-100,4,2,1,95,0,1
67462,-100,4,2,1,100,0,1
68389,-100,4,2,1,85,0,1
71254,-100,4,2,1,5,0,1
71338,-100,4,2,1,85,0,1
73698,-100,4,2,1,90,0,1
74456,-100,4,2,1,5,0,1
74540,-100,4,2,1,90,0,1
75130,-100,4,2,1,5,0,1
75215,-100,4,2,1,90,0,1
76479,-100,4,2,1,5,0,1
76563,-100,4,2,1,70,0,1
76731,-100,4,2,1,75,0,1
76900,-100,4,2,1,80,0,1
77069,-100,4,2,1,85,0,1
77237,-100,4,2,1,90,0,1
77406,-100,4,2,1,95,0,1
77574,-100,4,2,1,100,0,1
78922,-100,4,2,1,100,0,0
79007,-100,4,2,1,80,0,0
83894,-100,4,2,1,5,0,0
83979,-100,4,2,1,80,0,0
84484,-100,4,2,1,85,0,0
85243,-100,4,2,1,5,0,0
85327,-100,4,2,1,85,0,0
85917,-100,4,2,1,5,0,0
86001,-100,4,2,1,85,0,0
86591,-100,4,2,1,5,0,0
86675,-100,4,2,1,85,0,0
87012,-100,4,2,1,90,0,0
88361,-100,4,2,1,95,0,0
89203,-100,4,2,1,100,0,0
89878,-100,4,2,1,40,0,0
93922,-100,4,2,1,5,0,0

[Colours]
Combo1 : 69,133,228
Combo2 : 233,194,41
Combo3 : 213,230,91
Combo4 : 65,226,206

[HitObjects]
402,122,552,6,0,P|411:151|421:193,1,68.0000012969971,2|2,2:2|2:2,0:0:0:0:
378,266,889,2,0,P|431:232|517:240,2,136.000002593994,2|0|2,2:2|2:2|2:2,2:2:0:0:
233,231,1731,1,2,2:2:0:0:
280,316,1900,1,2,2:2:0:0:
336,187,2069,6,0,P|350:115|371:37,1,136.000002593994,2|0,2:2|2:2,2:2:0:0:
243,6,2574,2,0,P|262:41|267:83,1,68.0000012969971,2|0,2:2|2:2,0:0:0:0:
211,140,2911,2,0,B|139:129|161:170|57:155,1,136.000002593994,2|2,2:2|2:2,2:2:0:0:
0,195,3417,1,2,2:2:0:0:
125,245,3585,6,0,P|138:308|94:366,2,136.000002593994,0|0|2,2:2|2:2|2:2,2:2:0:0:
202,134,4428,1,2,2:2:0:0:
250,219,4597,1,2,2:2:0:0:
78,157,4765,6,0,P|72:126|55:65,1,68.0000012969971,2|0,2:2|0:0,0:0:0:0:
149,43,5102,2,0,P|215:35|273:69,2,136.000002593994,2|2|2,2:2|2:2|2:2,0:0:0:0:
202,134,5945,1,0,2:2:0:0:
202,134,6113,1,2,2:2:0:0:
369,81,6282,6,0,P|360:48|354:14,1,68.0000012969971,2|0,2:2|2:2,2:2:0:0:
300,155,6619,1,2,2:2:0:0:
378,221,6788,2,0,P|444:228|502:194,1,136.000002593994,2|2,2:2|2:2,2:2:0:0:
220,317,7293,1,2,2:2:0:0:
317,373,7462,6,0,P|306:318|284:219,1,136.000002593994,2|0,2:2|2:2,2:2:0:0:
154,142,7967,1,2,2:2:0:0:
197,233,8136,1,0,2:2:0:0:
316,73,8304,2,0,P|307:106|304:140,1,68.0000012969971,2|0,2:2|2:2,2:2:0:0:
222,77,8642,1,2,2:2:0:0:
112,219,8810,6,0,P|53:228|-17:161,1,136.000002593994,2|0,2:2|2:2,2:2:0:0:
20,110,9231,1,2,2:2:0:0:
26,104,9316,2,0,L|14:66,7,34.0000006484985,2|2|2|2|2|2|2|2,2:2|2:2|2:2|2:2|2:2|2:2|2:2|2:2,2:2:0:0:
65,6,9990,1,2,2:2:0:0:
189,134,10158,2,0,P|156:124|112:117,1,68.0000012969971,2|0,2:2|2:2,2:2:0:0:
253,44,10495,5,2,2:2:0:0:
339,116,10664,2,0,P|344:82|354:50,1,68.0000012969971,2|2,2:2|2:2,0:0:0:0:
189,134,11001,2,0,P|198:166|204:199,1,68.0000012969971,2|0,2:2|2:2,2:2:0:0:
360,300,11338,1,2,2:2:0:0:
282,354,11507,6,0,P|264:304|337:208,1,160,6|2,2:2|3:2,2:2:0:0:
496,200,12012,2,0,P|483:239|468:297,1,80,10|0,2:2|0:0,2:2:0:0:
297,108,12349,1,2,3:2:0:0:
360,300,12518,1,2,3:2:0:0:
411,162,12687,1,10,2:2:0:0:
214,210,12855,6,0,P|145:195|52:181,1,160,2|2,3:2|3:2,2:2:0:0:
0,79,13361,1,8,2:2:0:0:
122,4,13529,2,0,P|135:45|142:91,1,80,2|0,3:2|2:2,2:2:0:0:
214,210,13866,1,2,3:2:0:0:
307,20,14035,1,8,2:2:0:0:
236,120,14203,5,0,2:2:0:0:
236,120,14288,1,0,2:2:0:0:
236,120,14372,2,0,P|305:105|398:91,1,160,2|8,3:2|2:2,2:2:0:0:
512,205,14878,1,0,2:2:0:0:
512,205,14962,1,0,2:2:0:0:
512,205,15046,2,0,P|470:195|420:190,1,80,2|2,3:2|2:2,0:0:0:0:
307,20,15383,1,10,2:2:0:0:
336,192,15552,6,0,P|314:263|292:356,2,160,2|2|2,3:2|3:2|3:2,0:0:0:0:
8,367,16563,1,2,2:2:0:0:
155,283,16731,1,10,2:2:0:0:
28,206,16900,5,2,2:2:0:0:
28,206,16984,1,0,2:2:0:0:
28,206,17069,2,0,P|42:247|53:292,1,80,14|2,2:2|3:2,0:0:0:0:
227,156,17406,1,2,3:2:0:0:
119,187,17574,2,0,P|132:109|151:5,1,160,14|2,2:2|3:2,2:2:0:0:
288,249,18080,1,2,3:2:0:0:
358,110,18248,6,0,P|290:98|222:178,1,160,14|2,2:2|3:2,2:2:0:0:
387,262,18754,1,2,3:2:0:0:
486,103,18922,2,0,P|474:141|465:180,1,80,14|0,2:2|0:0,2:2:0:0:
297,353,19260,1,10,2:2:0:0:
492,280,19428,1,10,2:2:0:0:
328,191,19597,6,0,P|315:113|296:9,1,160,14|0,2:2|3:2,2:2:0:0:
247,252,20102,2,0,P|214:244|145:234,1,80,8|0,2:2|3:2,0:0:0:0:
168,236,20355,1,0,3:2:0:0:
168,236,20439,1,0,3:2:0:0:
99,92,20608,1,8,2:2:0:0:
234,144,20776,1,0,3:2:0:0:
37,190,20945,6,0,P|1:230|15:343,1,160,6|6,3:2|3:2,2:2:0:0:
163,384,21451,1,14,2:2:0:0:
279,240,21619,5,10,2:2:0:0:
279,240,21703,1,8,2:2:0:0:
279,240,21788,1,14,2:2:0:0:
110,283,21956,1,14,2:2:0:0:
110,283,22462,6,0,P|96:217|79:142,1,136.000002593994,4|10,3:2|2:2,2:2:0:0:
253,85,22967,1,10,2:2:0:0:
195,10,23136,1,2,3:2:0:0:
195,10,23304,2,0,P|157:64|176:139,1,136.000002593994,2|2,2:2|2:2,2:2:0:0:
296,208,23810,6,0,P|362:193|390:188,1,68.0000012969971,0|2,3:2|2:2,0:0:0:0:
465,39,24147,1,10,2:2:0:0:
512,118,24316,2,0,P|442:131|381:75,1,136.000002593994,10|2,2:2|2:2,2:2:0:0:
282,49,24821,2,0,P|293:84|303:138,1,68.0000012969971,8|2,2:2|2:2,0:0:0:0:
432,279,25158,2,0,P|439:246|450:214,1,68.0000012969971,0|0,3:2|0:0,2:2:0:0:
234,350,25495,5,10,2:2:0:0:
344,288,25664,1,10,2:2:0:0:
217,200,25833,1,2,3:2:0:0:
217,200,26001,2,0,P|205:231|196:264,1,68.0000012969971,2|8,2:2|2:2,2:2:0:0:
135,374,26338,6,0,P|97:338|3:347,1,136.000002593994,2|2,3:2|2:2,2:2:0:0:
125,230,26844,1,10,2:2:0:0:
0,167,27012,2,0,L|20:243,1,68.0000012969971,10|0,2:2|3:2,2:2:0:0:
170,133,27349,1,2,2:2:0:0:
89,28,27518,2,0,P|71:55|74:106,1,68.0000012969971,8|0,2:2|2:2,0:0:0:0:
129,235,27855,6,0,P|194:215|260:199,1,136.000002593994,4|10,3:2|2:2,2:2:0:0:
411,128,28361,1,8,2:2:0:0:
348,9,28529,2,0,P|338:38|327:89,1,68.0000012969971,2|0,3:2|2:2,2:2:0:0:
399,215,28866,1,10,2:2:0:0:
505,115,29035,1,2,2:2:0:0:
445,297,29203,6,0,P|389:255|307:276,1,136.000002593994,0|10,3:2|2:2,0:0:0:0:
180,190,29709,1,10,2:2:0:0:
180,190,29878,2,0,P|190:219|201:270,1,68.0000012969971,0|0,3:2|2:2,2:2:0:0:
309,171,30215,1,10,2:2:0:0:
222,52,30383,1,2,2:2:0:0:
100,167,30552,6,0,P|165:147|231:131,1,136.000002593994,0|10,3:2|2:2,2:2:0:0:
457,215,31057,1,10,2:2:0:0:
367,111,31226,1,0,3:2:0:0:
309,288,31394,1,2,3:2:0:0:
279,296,31479,1,0,3:2:0:0:
248,293,31563,1,2,2:2:0:0:
220,279,31647,1,2,2:2:0:0:
198,255,31731,6,0,B|140:266|140:266|120:286|120:286|52:302,2,143.999995605469,6|6|6,2:2|2:2|2:2,2:2:0:0:
497,112,32743,1,6,3:2:0:0:
355,41,32911,1,8,2:2:0:0:
462,12,33080,1,8,2:2:0:0:
398,144,33248,6,0,P|320:127|245:115,1,151.999995941162,4|10,3:2|2:2,2:2:0:0:
130,169,33754,1,2,2:2:0:0:
59,38,33922,1,2,3:2:0:0:
59,38,34091,2,0,P|95:24|146:21,1,75.9999979705811,2|8,2:2|2:2,2:2:0:0:
218,208,34428,6,0,P|201:285|189:361,1,151.999995941162,2|2,3:2|3:2,2:2:0:0:
35,187,34934,1,10,2:2:0:0:
6,309,35102,2,0,P|46:297|93:292,1,75.9999979705811,2|0,3:2|0:0,2:2:0:0:
218,208,35439,1,2,3:2:0:0:
147,96,35608,2,0,P|133:131|130:181,1,75.9999979705811,8|2,2:2|3:2,0:0:0:0:
189,357,35945,6,0,P|263:358|328:307,1,151.999995941162,0|10,3:2|2:2,2:2:0:0:
467,175,36451,1,2,3:2:0:0:
300,223,36619,1,2,2:2:0:0:
468,338,36788,2,0,P|473:300|484:264,1,75.9999979705811,2|8,3:2|2:2,2:2:0:0:
361,104,37125,6,0,P|377:177|395:263,1,151.999995941162,2|2,3:2|3:2,2:2:0:0:
434,48,37630,1,10,2:2:0:0:
275,145,37799,2,0,P|235:133|188:128,1,75.9999979705811,2|0,3:2|2:2,2:2:0:0:
52,0,38136,5,2,3:2:0:0:
146,189,38304,1,10,2:2:0:0:
193,42,38473,1,10,2:2:0:0:
11,137,38642,6,0,P|25:200|46:308,1,151.999995941162,2|10,3:2|2:2,2:2:0:0:
180,379,39147,2,0,P|188:339|199:301,1,75.9999979705811,2|0,2:2|3:2,2:2:0:0:
277,164,39484,1,2,2:2:0:0:
127,237,39653,1,8,2:2:0:0:
285,341,39821,6,0,P|339:306|448:328,1,151.999995941162,2|2,3:2|3:2,2:2:0:0:
455,123,40327,1,10,2:2:0:0:
512,212,40495,2,0,P|437:221|373:183,1,151.999995941162,2|2,3:2|3:2,2:2:0:0:
373,183,40917,1,0,3:2:0:0:
373,183,41001,1,10,2:2:0:0:
230,127,41170,1,2,3:2:0:0:
340,31,41338,6,0,P|329:67|317:115,1,75.9999979705811,2|0,3:2|0:0,2:2:0:0:
166,198,41675,1,10,2:2:0:0:
296,290,41844,2,0,P|286:253|275:216,1,75.9999979705811,2|0,3:2|2:2,2:2:0:0:
114,101,42181,1,2,3:2:0:0:
251,25,42349,1,8,2:2:0:0:
53,183,42518,6,0,P|21:149|40:31,1,151.999995941162,2|0,3:2|3:2,2:2:0:0:
169,0,43024,1,10,2:2:0:0:
240,211,43192,2,0,P|201:203|134:194,1,75.9999979705811,0|2,3:2|2:2,0:0:0:0:
346,39,43529,1,2,3:2:0:0:
346,39,43698,2,0,P|355:78|364:126,1,75.9999979705811,8|0,2:2|2:2,2:2:0:0:
467,279,44035,6,0,P|499:245|480:127,1,151.999995941162,4|10,3:2|2:2,2:2:0:0:
365,317,44540,1,2,2:2:0:0:
326,215,44709,2,0,P|362:205|400:198,1,75.9999979705811,2|0,3:2|0:0,2:2:0:0:
270,374,45046,1,10,2:2:0:0:
238,273,45215,6,0,P|191:236|82:258,1,151.999995941162,2|2,3:2|3:2,2:2:0:0:
52,45,45720,1,10,2:2:0:0:
0,156,45889,2,0,P|82:138|154:124,1,151.999995941162,2|0,3:2|3:2,2:2:0:0:
365,58,46394,1,10,2:2:0:0:
301,155,46563,5,2,2:2:0:0:
301,155,46647,1,0,2:2:0:0:
301,155,46731,2,0,P|249:76|280:3,2,151.999995941162,0|8|0,3:2|2:2|3:2,2:2:0:0:
484,244,47574,1,10,2:2:0:0:
484,244,47658,1,8,2:2:0:0:
484,244,47743,1,10,2:2:0:0:
315,287,47911,1,2,3:2:0:0:
426,122,48080,5,6,2:2:0:0:
364,363,48248,1,6,2:2:0:0:
362,370,48585,1,6,2:2:0:0:
360,380,48922,2,0,P|311:341|226:357,1,136.000002593994,6|0,2:2|0:0,2:2:0:0:
56,293,49428,6,0,P|126:304|188:245,1,151.999995941162,4|10,3:2|2:2,2:2:0:0:
351,143,49933,1,2,2:2:0:0:
282,256,50102,2,0,P|275:218|265:182,1,75.9999979705811,2|0,3:2|2:2,2:2:0:0:
108,58,50439,1,10,2:2:0:0:
203,11,50608,6,0,P|185:93|171:165,1,151.999995941162,2|2,3:2|3:2,2:2:0:0:
388,257,51113,1,10,2:2:0:0:
479,182,51282,2,0,P|423:133|350:143,1,151.999995941162,2|0,3:2|3:2,2:2:0:0:
136,361,51787,1,10,2:2:0:0:
302,228,51956,1,2,2:2:0:0:
149,112,52125,6,0,P|74:128|0:143,1,151.999995941162,4|10,3:2|2:2,2:2:0:0:
198,289,52630,2,0,P|204:251|214:215,1,75.9999979705811,2|0,2:2|3:2,2:2:0:0:
84,30,52967,2,0,P|77:67|67:103,1,75.9999979705811,2|8,2:2|2:2,2:2:0:0:
244,0,53304,1,2,2:2:0:0:
337,192,53473,6,0,P|407:205|473:131,1,151.999995941162,4|8,3:2|2:2,2:2:0:0:
236,122,53979,1,0,2:2:0:0:
236,122,54063,1,0,0:0:0:0:
236,122,54147,1,0,3:2:0:0:
384,69,54316,1,0,2:2:0:0:
260,267,54484,2,0,P|220:255|163:245,1,75.9999979705811,8|0,2:2|2:2,0:0:0:0:
43,102,54821,6,0,P|-2:149|17:256,1,151.999995941162,6|10,3:2|2:2,2:2:0:0:
212,354,55327,1,2,2:2:0:0:
86,188,55495,1,0,3:2:0:0:
45,376,55664,5,2,2:2:0:0:
188,238,55833,1,8,2:2:0:0:
363,332,56001,1,14,2:2:0:0:
370,343,56338,1,14,2:2:0:0:
376,354,56675,2,0,B|420:339|463:358|463:358|486:333|532:326,1,151.999995941162,14|0,2:2|0:0,2:2:0:0:
350,218,57181,5,2,3:2:0:0:
479,94,57349,1,2,2:2:0:0:
479,94,57434,1,0,2:2:0:0:
479,94,57518,2,0,P|459:173|438:281,1,160,6|8,3:2|2:2,2:2:0:0:
268,162,58024,1,0,2:2:0:0:
377,84,58192,1,2,3:2:0:0:
262,272,58361,1,2,2:2:0:0:
170,114,58529,1,10,2:2:0:0:
24,226,58698,6,0,P|-20:174|8:64,1,160,2|0,3:2|3:2,2:2:0:0:
191,36,59203,2,0,P|179:73|166:131,1,80,10|0,2:2|3:2,0:0:0:0:
18,0,59540,2,0,P|62:6|114:25,1,80,2|0,2:2|3:2,0:0:0:0:
332,195,59878,2,0,P|287:188|236:170,1,80,10|2,2:2|2:2,0:0:0:0:
254,177,60130,1,0,2:2:0:0:
254,177,60215,6,0,P|210:229|238:339,2,160,0|8|2,3:2|2:2|3:2,2:2:0:0:
438,111,61057,1,2,2:2:0:0:
278,37,61226,1,10,2:2:0:0:
356,226,61394,6,0,P|429:205|518:188,1,160,2|2,3:2|3:2,2:2:0:0:
328,318,61900,1,8,2:2:0:0:
491,380,62069,2,0,P|491:346|466:288,1,80,2|0,3:2|0:0,2:2:0:0:
315,134,62406,1,2,3:2:0:0:
238,336,62574,1,8,2:2:0:0:
138,196,62743,5,2,2:2:0:0:
138,196,62827,1,0,2:2:0:0:
138,196,62911,2,0,P|127:134|181:78,1,120,2|0,3:2|2:2,2:2:0:0:
155,78,63248,2,0,L|249:96,1,80,8|0,2:2|2:2,2:2:0:0:
395,148,63585,1,2,3:2:0:0:
322,47,63754,1,2,2:2:0:0:
367,264,63922,1,10,2:2:0:0:
503,153,64091,6,0,P|520:94|447:0,1,160,2|2,3:2|3:2,2:2:0:0:
318,168,64597,1,10,2:2:0:0:
211,18,64765,2,0,P|227:63|235:110,1,80,2|0,3:2|2:2,2:2:0:0:
367,264,65102,1,2,3:2:0:0:
213,188,65271,1,10,2:2:0:0:
408,103,65439,1,10,2:2:0:0:
262,281,65608,6,0,P|250:320|242:375,1,80,2|2,3:2|2:2,0:0:0:0:
108,162,65945,2,0,P|119:124|127:85,1,80,10|2,2:2|3:2,0:0:0:0:
9,253,66282,1,2,2:2:0:0:
213,188,66451,1,10,2:2:0:0:
45,69,66619,1,10,2:2:0:0:
94,323,66788,6,0,P|123:289|256:304,1,160,6|10,3:2|2:2,0:0:0:0:
458,357,67293,1,10,2:2:0:0:
326,384,67462,2,0,P|344:306|370:210,1,160,6|2,3:2|3:2,0:0:0:0:
290,25,67967,5,10,2:2:0:0:
459,178,68136,1,10,2:2:0:0:
459,178,68220,1,0,2:2:0:0:
459,178,68304,2,0,P|431:141|298:147,1,160,6|8,3:2|2:2,2:2:0:0:
158,205,68810,1,0,2:2:0:0:
291,317,68978,1,2,3:2:0:0:
224,120,69147,1,2,2:2:0:0:
50,217,69315,1,10,2:2:0:0:
0,19,69484,6,0,P|77:9|137:58,1,160,2|0,3:2|3:2,2:2:0:0:
314,188,69989,2,0,P|323:149|335:110,1,80,10|0,2:2|3:2,0:0:0:0:
144,233,70326,2,0,P|182:221|221:215,1,80,2|0,2:2|3:2,0:0:0:0:
507,145,70664,2,0,P|468:156|429:162,1,80,10|2,2:2|2:2,0:0:0:0:
429,162,70916,1,0,2:2:0:0:
429,162,71001,6,0,P|473:214|445:324,2,160,0|8|2,3:2|2:2|3:2,2:2:0:0:
220,89,71843,1,2,2:2:0:0:
369,38,72012,1,10,2:2:0:0:
289,198,72180,6,0,P|268:271|251:360,1,160,2|2,3:2|3:2,0:0:0:0:
139,192,72686,1,8,2:2:0:0:
76,339,72855,2,0,P|114:327|153:321,1,80,2|0,3:2|2:2,2:2:0:0:
345,293,73192,1,2,3:2:0:0:
223,137,73360,1,8,2:2:0:0:
53,245,73529,5,2,2:2:0:0:
53,245,73613,1,0,2:2:0:0:
53,245,73698,2,0,P|47:205|35:167,1,80,14|0,2:2|3:2,0:0:0:0:
168,66,74035,1,2,3:2:0:0:
297,255,74203,2,0,P|226:271|167:212,1,160,14|2,2:2|3:2,2:2:0:0:
75,44,74709,5,2,3:2:0:0:
247,172,74878,2,0,P|330:153|405:140,1,160,14|0,2:2|3:2,2:2:0:0:
512,322,75383,1,2,3:2:0:0:
358,229,75552,1,12,2:2:0:0:
512,60,75720,6,0,P|499:94|485:162,1,80,2|0,2:2|3:2,0:0:0:0:
326,358,76057,1,14,2:2:0:0:
222,141,76226,2,0,P|273:83|350:89,1,160,2|0,3:2|3:2,2:2:0:0:
403,305,76731,5,8,2:2:0:0:
309,164,76900,1,8,2:2:0:0:
224,363,77069,1,0,3:2:0:0:
207,246,77237,1,8,2:2:0:0:
52,384,77406,1,0,3:2:0:0:
117,151,77574,2,0,L|99:64,1,80,4|0,3:2|2:2,2:2:0:0:
10,214,77911,5,6,3:2:0:0:
157,278,78080,2,0,P|193:261|241:252,1,80,14|2,2:2|3:2,0:0:0:0:
424,171,78417,1,10,2:2:0:0:
309,301,78585,1,2,3:2:0:0:
264,125,78754,1,10,2:2:0:0:
471,257,78922,6,0,P|518:195|502:119,1,160,6|2,2:2|3:2,2:2:0:0:
351,18,79427,2,0,P|360:57|370:117,1,80,10|0,2:2|0:0,2:2:0:0:
309,301,79764,1,2,3:2:0:0:
190,162,79933,1,2,3:2:0:0:
374,207,80102,1,10,2:2:0:0:
201,323,80270,6,0,P|152:276|63:288,1,160,2|2,3:2|3:2,2:2:0:0:
14,128,80776,1,8,2:2:0:0:
190,162,80944,2,0,P|151:174|112:181,1,80,2|0,3:2|2:2,2:2:0:0:
260,87,81281,1,2,3:2:0:0:
294,223,81450,1,8,2:2:0:0:
172,37,81618,5,0,2:2:0:0:
172,37,81703,1,0,2:2:0:0:
172,37,81788,2,0,P|221:-10|310:2,1,160,2|8,3:2|2:2,2:2:0:0:
446,105,82293,1,0,2:2:0:0:
446,105,82377,1,0,2:2:0:0:
446,105,82462,2,0,P|406:111|368:124,1,80,2|2,3:2|2:2,0:0:0:0:
211,224,82798,1,10,2:2:0:0:
260,87,82967,6,0,P|288:163|312:243,2,160,2|2|2,3:2|3:2|3:2,0:0:0:0:
509,374,83978,1,2,2:2:0:0:
342,321,84146,1,10,2:2:0:0:
456,217,84315,5,2,2:2:0:0:
456,217,84400,1,0,2:2:0:0:
456,217,84484,2,0,P|443:254|437:294,1,80,14|2,2:2|3:2,0:0:0:0:
261,137,84822,1,2,3:2:0:0:
214,228,84990,2,0,P|290:241|349:190,1,160,14|2,2:2|3:2,2:2:0:0:
159,107,85495,1,2,3:2:0:0:
133,298,85664,6,0,B|102:258|109:209|109:209|77:196|61:140,1,160,14|2,2:2|3:2,2:2:0:0:
224,30,86170,1,2,3:2:0:0:
0,42,86338,2,0,P|36:52|75:63,1,80,14|0,2:2|0:0,2:2:0:0:
229,178,86676,1,10,2:2:0:0:
23,266,86844,1,10,2:2:0:0:
265,384,87012,6,0,P|312:322|296:246,1,160,14|0,2:2|3:2,2:2:0:0:
125,137,87518,2,0,P|135:175|145:214,1,80,8|0,2:2|3:2,0:0:0:0:
145,214,87771,1,0,3:2:0:0:
145,214,87855,1,0,3:2:0:0:
259,340,88024,1,8,2:2:0:0:
105,311,88192,1,0,3:2:0:0:
296,246,88361,6,0,P|383:240|457:289,1,160,6|6,3:2|3:2,0:0:0:0:
245,106,88866,2,0,P|234:136|229:184,1,80,14|0,2:2|0:0,0:0:0:0:
197,17,89203,1,14,2:2:0:0:
285,258,89372,1,14,2:2:0:0:
285,258,89878,1,2,2:2:0:0:
