osu file format v14

[General]
AudioFilename: audio.mp3
AudioLeadIn: 0
PreviewTime: 59442
Countdown: 0
SampleSet: Soft
StackLeniency: 0.7
Mode: 0
LetterboxInBreaks: 0
WidescreenStoryboard: 0

[Editor]
DistanceSpacing: 1.1
BeatDivisor: 4
GridSize: 4
TimelineZoom: 1

[Metadata]
Title:Uchiage Hanabi
TitleUnicode:打上花火
Artist:DAOKO x Kenshi Yonezu
ArtistUnicode:DAOKO × 米津玄師
Creator:alacat
Version:Insane
Source:打ち上げ花火、下から見るか?横から見るか?
Tags:Shita kara Miru ka? Yoko kara Miru ka? Movie hachi ハチ summer shaft 岩井俊二 Iwai Shunji Fireworks Cut Short Version
BeatmapID:1382258
BeatmapSetID:651825

[Difficulty]
HPDrainRate:6.5
CircleSize:4
OverallDifficulty:7
ApproachRate:8
SliderMultiplier:1.8
SliderTickRate:1

[Events]
//Background and Video events
0,0,"BG.jpg",0,0
Video,0,"OP.flv"
//Break Periods
2,54797,58692
//Storyboard Layer 0 (Background)
//Storyboard Layer 1 (Fail)
//Storyboard Layer 2 (Pass)
//Storyboard Layer 3 (Foreground)
//Storyboard Sound Samples

[TimingPoints]
67,625,4,2,2,30,1,0
67,-125,4,2,2,30,0,0
20067,-125,4,2,1,40,0,0
40067,-100,4,2,1,40,0,0
59442,-100,4,2,1,20,0,0
60067,-66.6666666666667,4,2,2,70,0,1
69442,-100,4,2,2,70,0,0
70067,-66.6666666666667,4,2,2,70,0,1
78817,-66.6666666666667,4,2,2,50,0,1
80067,-100,4,2,2,30,0,0

[Colours]
Combo1 : 184,184,184
Combo2 : 0,255,128
Combo3 : 255,128,192
Combo4 : 255,87,87
Combo5 : 255,128,0
Combo6 : 0,0,138

[HitObjects]
284,368,67,86,0,L|276:296,1,72,2|0,0:0|0:0,0:0:0:0:
340,248,692,2,0,L|348:176,1,72
360,96,1317,1,0,0:0:0:0:
424,144,1629,2,0,P|460:152|496:152,2,72,2|0|0,0:0|0:0|0:0,0:0:0:0:
360,96,2567,69,2,0:0:0:0:
288,128,2879,1,0,0:0:0:0:
212,144,3192,2,0,P|176:144|140:136,1,72
64,112,3817,1,0,0:0:0:0:
64,112,4129,2,0,L|72:184,2,72,2|0|0,0:0|0:0|0:0,0:0:0:0:
52,32,5067,6,0,P|88:40|128:40,1,72,2|0,0:0|0:0,0:0:0:0:
196,68,5692,2,0,P|231:60|266:59,1,72
340,88,6317,1,0,0:0:0:0:
340,88,6629,2,0,L|352:16,2,72,2|0|0,0:0|0:0|0:0,0:0:0:0:
328,168,7567,69,2,0:0:0:0:
316,244,7879,1,0,0:0:0:0:
252,196,8192,2,0,P|216:196|180:204,1,72
124,260,8817,1,0,0:0:0:0:
56,224,9129,2,0,L|64:152,2,72,2|0|0,0:0|0:0|0:0,0:0:0:0:
4,284,10067,6,0,P|32:344|104:360,1,144,2|0,0:0|0:0,0:0:0:0:
176,328,11004,1,0,0:0:0:0:
176,328,11317,2,0,L|248:344,1,72,0|2,0:0|0:0,0:0:0:0:
292,276,11942,2,0,L|221:260,1,72
168,200,12567,69,2,0:0:0:0:
168,200,12879,1,0,0:0:0:0:
224,144,13192,2,0,P|236:112|236:72,1,72
304,32,13817,1,0,0:0:0:0:
304,32,14129,1,2,0:0:0:0:
360,88,14442,2,0,P|392:100|432:100,1,72
368,172,15067,6,0,P|298:160|224:156,1,144,2|0,0:0|0:0,0:0:0:0:
148,176,16004,1,0,0:0:0:0:
148,176,16317,2,0,L|160:104,1,72,0|2,0:0|0:0,0:0:0:0:
84,76,16942,2,0,L|72:148,1,72
60,224,17567,69,2,0:0:0:0:
60,224,17879,1,0,0:0:0:0:
116,280,18192,2,0,P|152:284|188:280,1,72
212,204,18817,2,0,P|176:200|140:204,1,72,0|2,0:0|0:0,0:0:0:0:
28,180,19442,1,0,0:0:0:0:
20,152,19754,1,0,0:0:0:0:
32,124,20067,6,0,P|108:132|180:132,1,144,2|8,0:0|0:0,0:0:0:0:
236,204,21004,2,0,P|312:196|384:196,1,144,0|2,0:0|0:0,0:0:0:0:
480,292,21942,1,0,0:0:0:0:
480,292,22254,1,0,0:0:0:0:
367,351,22567,70,0,L|356:280,1,72,2|0,0:0|0:0,0:0:0:0:
384,128,23192,1,8,0:0:0:0:
356,280,23504,1,0,0:0:0:0:
356,280,24129,2,0,L|248:288,1,108,2|2,0:0|0:0,0:0:0:0:
56,196,25067,6,0,P|108:240|180:232,1,144,2|8,0:0|0:0,0:0:0:0:
344,88,26317,1,0,0:0:0:0:
264,40,26629,1,2,0:0:0:0:
324,176,26942,2,0,L|396:168,1,72
312,48,27567,69,2,0:0:0:0:
240,104,27879,1,0,0:0:0:0:
148,124,28192,2,0,L|76:112,1,72,8|0,0:0|0:0,0:0:0:0:
256,128,28817,1,0,0:0:0:0:
256,128,29129,2,0,P|264:184|268:236,1,108,2|2,0:0|0:0,0:0:0:0:
72,276,30067,6,0,P|76:212|140:224,1,144,2|8,0:0|0:0,0:0:0:0:
116,352,31004,1,0,0:0:0:0:
116,352,31629,1,2,0:0:0:0:
132,268,31942,1,0,0:0:0:0:
148,184,32254,1,0,0:0:0:0:
288,240,32567,70,0,P|324:236|364:236,1,72,2|0,0:0|0:0,0:0:0:0:
219,179,33192,2,0,P|183:183|148:184,1,72,8|0,0:0|0:0,0:0:0:0:
284,24,34129,2,0,P|288:84|296:132,1,108,2|2,0:0|0:0,0:0:0:0:
476,220,35067,6,0,L|332:208,1,144,2|8,0:0|0:0,0:0:0:0:
56,184,36317,1,0,0:0:0:0:
68,100,36629,1,2,0:0:0:0:
152,116,36942,2,0,P|188:116|224:108,1,72
332,208,37567,69,2,0:0:0:0:
468,40,38192,2,0,L|476:116,1,72,8|0,0:0|0:0,0:0:0:0:
384,264,38817,1,0,0:0:0:0:
384,264,39129,2,0,P|384:224|388:156,1,108,2|2,0:0|0:0,0:0:0:0:
476,336,40067,6,0,P|432:339|385:351,1,90,2|0,0:0|0:0,0:0:0:0:
300,228,40692,2,0,P|256:217|211:213,1,90,8|0,0:0|0:0,0:0:0:0:
84,288,41317,1,0,0:0:0:0:
144,160,41629,1,2,0:0:0:0:
228,324,41942,2,0,P|271:313|316:309,1,90
484,192,42567,69,2,0:0:0:0:
360,240,42879,2,0,P|316:229|271:225,2,90,0|8|0,0:0|0:0|0:0,0:0:0:0:
456,112,43817,2,0,P|412:122|367:126,1,90,0|2,0:0|0:0,0:0:0:0:
220,40,44442,1,0,0:0:0:0:
148,108,44754,1,0,0:0:0:0:
176,204,45067,5,2,0:0:0:0:
252,56,45379,1,0,0:0:0:0:
128,84,45692,1,8,0:0:0:0:
276,80,46004,1,0,0:0:0:0:
128,52,46317,1,0,0:0:0:0:
316,188,46629,1,2,0:0:0:0:
316,188,46942,2,0,P|364:176|408:168,1,90
256,268,47567,70,0,L|164:260,1,90,2|0,0:0|0:0,0:0:0:0:
368,356,48192,2,0,L|276:364,1,90,8|0,0:0|0:0,0:0:0:0:
344,216,48817,1,0,0:0:0:0:
344,216,49129,2,0,L|484:228,1,135,2|2,0:0|0:0,0:0:0:0:
288,336,50067,6,0,P|224:320|156:312,1,135,2|0,0:0|0:0,0:0:0:0:
136,320,50692,1,8,0:0:0:0:
180,176,51004,1,0,0:0:0:0:
100,236,51317,2,0,L|8:228,1,90,0|2,0:0|0:0,0:0:0:0:
180,176,51942,2,0,L|269:183,1,90
437,39,52567,69,2,0:0:0:0:
368,161,52879,1,0,0:0:0:0:
342,65,53192,1,8,0:0:0:0:
464,136,53504,1,0,0:0:0:0:
396,244,53817,1,0,0:0:0:0:
396,244,54129,2,0,B|332:228|332:260|260:248,1,135,2|2,0:0|0:0,0:0:0:0:
328,368,59442,6,0,P|336:324|332:280,1,90
296,204,59910,1,0,0:0:0:0:
230,159,60067,38,0,P|238:218|296:204,1,135.000005149842,4|0,0:0|0:0,0:0:0:0:
344,24,60692,2,0,P|280:32|212:52,1,135.000005149842,8|0,0:0|0:0,0:0:0:0:
64,56,61160,2,0,P|128:64|196:84,1,135.000005149842,8|0,0:0|0:0,0:0:0:0:
252,192,61629,1,2,0:0:0:0:
44,360,61942,2,0,P|36:324|32:292,1,67.5000025749208,8|2,0:0|0:0,0:0:0:0:
140,224,62254,2,0,P|150:189|163:159,1,67.5000025749208,0|8,0:0|0:0,0:0:0:0:
284,112,62567,6,0,B|384:100|384:100|364:132,1,135.000005149842,2|0,0:0|0:0,0:0:0:0:
204,272,63192,2,0,L|68:256,1,135.000005149842,8|0,0:0|0:0,0:0:0:0:
28,192,63660,1,8,0:0:0:0:
120,372,63973,1,0,0:0:0:0:
120,372,64129,1,2,0:0:0:0:
282,230,64442,2,0,P|262:166|251:100,1,135.000005149842,10|0,0:0|0:0,0:0:0:0:
332,20,64910,1,8,0:0:0:0:
385,120,65067,37,2,0:0:0:0:
385,120,65692,2,0,P|320:108|249:100,1,135.000005149842,8|0,0:0|0:0,0:0:0:0:
197,168,66160,2,0,P|132:156|61:148,1,135.000005149842,8|0,0:0|0:0,0:0:0:0:
233,252,66629,2,0,P|297:240|369:232,1,135.000005149842,2|8,0:0|0:0,0:0:0:0:
445,272,67098,1,2,0:0:0:0:
131,322,67410,1,8,0:0:0:0:
131,322,67567,6,0,P|199:318|255:354,1,135.000005149842,2|0,0:0|0:0,0:0:0:0:
396,140,68192,1,8,0:0:0:0:
296,284,68504,1,0,0:0:0:0:
292,256,68660,1,8,0:0:0:0:
140,176,68973,1,0,0:0:0:0:
144,148,69129,1,10,0:0:0:0:
304,64,69442,2,0,L|312:108,1,45,10|0,0:0|0:0,0:0:0:0:
196,264,69754,2,0,L|188:308,1,45,0|8,0:0|0:0,0:0:0:0:
40,200,70067,6,0,B|24:112|24:112|44:68,1,135.000005149842,4|0,0:0|0:0,0:0:0:0:
256,168,70692,2,0,L|284:300,1,135.000005149842,8|0,0:0|0:0,0:0:0:0:
240,376,71160,1,8,0:0:0:0:
144,152,71473,1,0,0:0:0:0:
144,152,71629,1,2,0:0:0:0:
312,32,71942,2,0,P|347:37|379:46,1,67.5000025749208,8|2,0:0|0:0,0:0:0:0:
300,200,72254,2,0,P|267:209|234:214,1,67.5000025749208,0|8,0:0|0:0,0:0:0:0:
416,120,72567,6,0,B|436:156|436:156|424:252,1,135.000005149842,2|0,0:0|0:0,0:0:0:0:
120,288,73192,2,0,P|170:245|237:242,1,135.000005149842,8|0,0:0|0:0,0:0:0:0:
334,321,73660,2,0,P|271:298|236:242,1,135.000005149842,8|0,0:0|0:0,0:0:0:0:
276,156,74129,1,2,0:0:0:0:
108,328,74442,2,0,P|76:320|40:316,1,67.5000025749208,10|0,0:0|0:0,0:0:0:0:
96,184,74754,2,0,P|128:192|164:196,1,67.5000025749208,0|8,0:0|0:0,0:0:0:0:
312,68,75067,38,0,L|176:84,1,135.000005149842,4|0,0:0|0:0,0:0:0:0:
56,40,75535,1,0,0:0:0:0:
56,40,75692,2,0,P|68:105|76:176,1,135.000005149842,8|0,0:0|0:0,0:0:0:0:
40,272,76160,2,0,P|105:260|176:252,1,135.000005149842,8|0,0:0|0:0,0:0:0:0:
352,192,76629,2,0,P|288:180|216:172,1,135.000005149842,4|8,0:0|0:0,0:0:0:0:
40,272,77098,1,4,0:0:0:0:
272,356,77410,1,8,0:0:0:0:
272,356,77567,6,0,B|308:356|332:328|332:328|368:328|396:308,1,135.000005149842,4|0,0:0|0:0,0:0:0:0:
228,68,78192,2,0,P|220:140|220:204,1,135.000005149842,12|0,0:0|0:0,0:0:0:0:
156,296,78660,1,0,0:0:0:0:
156,296,78817,2,0,P|152:260|144:228,1,67.5000025749208,8|4,0:3|0:3,0:0:0:0:
300,168,79129,2,0,P|304:204|312:236,1,67.5000025749208,4|4,0:3|0:3,0:0:0:0:
256,348,79442,1,8,0:0:0:0:
256,348,79598,1,4,0:3:0:0:
256,36,80067,53,2,0:0:0:0:
