osu file format v14

[General]
AudioFilename: audio.mp3
AudioLeadIn: 0
PreviewTime: 59442
Countdown: 0
SampleSet: Soft
StackLeniency: 0.7
Mode: 0
LetterboxInBreaks: 0
WidescreenStoryboard: 0

[Editor]
DistanceSpacing: 1.1
BeatDivisor: 4
GridSize: 4
TimelineZoom: 1

[Metadata]
Title:Uchiage Hanabi
TitleUnicode:打上花火
Artist:DAOKO x Kenshi Yonezu
ArtistUnicode:DAOKO × 米津玄師
Creator:alacat
Version:Hard
Source:打ち上げ花火、下から見るか?横から見るか?
Tags:Shita kara Miru ka? Yoko kara Miru ka? Movie hachi ハチ summer shaft 岩井俊二 Iwai Shunji Fireworks Cut Short Version
BeatmapID:1389434
BeatmapSetID:651825

[Difficulty]
HPDrainRate:6
CircleSize:4
OverallDifficulty:6
ApproachRate:7
SliderMultiplier:1.6
SliderTickRate:1

[Events]
//Background and Video events
0,0,"BG.jpg",0,0
Video,0,"OP.flv"
//Break Periods
2,54954,58542
//Storyboard Layer 0 (Background)
//Storyboard Layer 1 (Fail)
//Storyboard Layer 2 (Pass)
//Storyboard Layer 3 (Foreground)
//Storyboard Sound Samples

[TimingPoints]
67,625,4,2,2,40,1,0
67,-125,4,2,2,40,0,0
20067,-100,4,2,1,40,0,0
59442,-100,4,2,1,20,0,0
60067,-76.9230769230769,4,2,2,70,0,1
69442,-76.9230769230769,4,2,2,70,0,0
70067,-76.9230769230769,4,2,2,70,0,1
78817,-76.9230769230769,4,2,2,50,0,1
80067,-100,4,2,2,30,0,0

[Colours]
Combo1 : 184,184,184
Combo2 : 0,255,128
Combo3 : 255,128,192
Combo4 : 255,87,87
Combo5 : 255,128,0
Combo6 : 0,0,138

[HitObjects]
188,200,67,86,0,P|208:132|196:76,2,128,2|0|0,0:0|0:0|0:0,0:0:0:0:
128,260,1629,2,0,L|256:248,1,128,2|0,0:0|0:0,0:0:0:0:
320,300,2567,69,2,0:0:0:0:
468,224,3192,1,0,0:0:0:0:
344,112,3817,1,0,0:0:0:0:
344,112,4129,2,0,L|328:240,1,128,2|0,0:0|0:0,0:0:0:0:
380,304,5067,6,0,P|440:284|508:288,2,128,2|0|0,0:0|0:0|0:0,0:0:0:0:
312,348,6629,2,0,L|184:332,1,128,2|0,0:0|0:0,0:0:0:0:
108,368,7567,69,2,0:0:0:0:
28,220,8192,2,0,L|52:88,1,128
16,20,9129,2,0,P|72:52|136:60,1,128,2|0,0:0|0:0,0:0:0:0:
208,24,10067,5,2,0:0:0:0:
356,100,10692,1,0,0:0:0:0:
208,180,11317,2,0,L|144:172,1,64,2|0,0:0|0:0,0:0:0:0:
100,244,11942,2,0,L|36:236,1,64
116,328,12567,70,0,P|180:304|244:296,1,128,2|0,0:0|0:0,0:0:0:0:
392,360,13817,1,2,0:0:0:0:
472,336,14129,1,0,0:0:0:0:
504,260,14442,2,0,P|508:224|508:196,1,64
464,124,15067,5,2,0:0:0:0:
320,208,15692,1,0,0:0:0:0:
232,68,16317,2,0,L|296:64,2,64,2|0|0,0:0|0:0|0:0,0:0:0:0:
156,32,17254,1,0,0:0:0:0:
76,52,17567,70,0,P|44:116|44:176,1,128,2|0,0:0|0:0,0:0:0:0:
120,336,18817,1,2,0:0:0:0:
188,384,19129,1,0,0:0:0:0:
264,348,19442,2,0,P|268:312|264:284,1,64
196,220,20067,6,0,P|272:256|348:252,1,160,2|8,0:0|0:0,0:0:0:0:
416,200,21004,1,0,0:0:0:0:
416,200,21629,2,0,L|428:280,2,80,2|8|0,0:0|0:0|0:0,0:0:0:0:
332,168,22567,69,2,0:0:0:0:
400,112,22879,1,0,0:0:0:0:
316,80,23192,2,0,L|236:92,1,80,8|0,0:0|0:0,0:0:0:0:
192,168,23817,2,0,L|112:156,1,80,0|2,0:0|0:0,0:0:0:0:
44,104,24442,1,8,0:0:0:0:
124,72,24754,1,0,0:0:0:0:
192,168,25067,6,0,P|264:184|332:132,1,160,2|8,0:0|0:0,0:0:0:0:
440,76,26317,2,0,L|431:156,1,80,0|2,0:0|0:0,0:0:0:0:
416,244,26942,1,8,0:0:0:0:
416,244,27254,1,0,0:0:0:0:
328,232,27567,70,0,P|288:232|244:244,1,80,2|0,0:0|0:0,0:0:0:0:
176,292,28192,1,8,0:0:0:0:
256,328,28504,1,0,0:0:0:0:
164,204,28817,2,0,P|125:194|85:194,1,80,0|2,0:0|0:0,0:0:0:0:
44,272,29442,2,0,P|82:281|122:281,1,80,8|0,0:0|0:0,0:0:0:0:
236,160,30067,6,0,L|396:184,1,160,2|8,0:0|0:0,0:0:0:0:
480,196,31004,1,0,0:0:0:0:
480,196,31629,2,0,L|468:116,1,80,2|8,0:0|0:0,0:0:0:0:
456,28,32254,1,0,0:0:0:0:
384,160,32567,70,0,P|340:160|304:148,1,80,2|0,0:0|0:0,0:0:0:0:
248,84,33192,1,8,0:0:0:0:
300,12,33504,1,0,0:0:0:0:
168,120,34129,1,2,0:0:0:0:
168,120,34442,2,0,L|176:200,1,80,8|0,0:0|0:0,0:0:0:0:
236,264,35067,6,0,P|160:228|80:228,1,160,2|8,0:0|0:0,0:0:0:0:
200,360,36317,1,0,0:0:0:0:
286,343,36629,1,2,0:0:0:0:
372,324,36942,2,0,P|376:280|372:244,1,80,8|0,0:0|0:0,0:0:0:0:
256,152,37567,69,2,0:0:0:0:
256,152,38192,2,0,P|212:152|176:164,1,80,8|0,0:0|0:0,0:0:0:0:
158,324,38817,2,0,P|179:290|188:252,1,80,0|2,0:0|0:0,0:0:0:0:
59,153,39442,2,0,P|78:188|108:216,1,80,8|0,0:0|0:0,0:0:0:0:
256,152,40067,6,0,L|336:168,1,80,2|0,0:0|0:0,0:0:0:0:
376,92,40692,2,0,L|297:76,1,80,8|0,0:0|0:0,0:0:0:0:
168,136,41317,1,0,0:0:0:0:
192,220,41629,1,2,0:0:0:0:
276,240,41942,2,0,L|356:256,1,80,8|0,0:0|0:0,0:0:0:0:
248,328,42567,69,2,0:0:0:0:
248,328,42879,2,0,L|168:344,1,80,0|8,0:0|0:0,0:0:0:0:
84,320,43504,1,0,0:0:0:0:
40,244,43817,2,0,P|40:200|56:164,1,80,0|2,0:0|0:0,0:0:0:0:
124,112,44442,1,8,0:0:0:0:
204,144,44754,1,0,0:0:0:0:
256,72,45067,5,2,0:0:0:0:
204,144,45379,2,0,L|216:224,1,80,0|8,0:0|0:0,0:0:0:0:
308,180,46004,2,0,L|296:260,1,80
272,344,46629,1,2,0:0:0:0:
188,320,46942,1,8,0:0:0:0:
272,344,47254,1,0,0:0:0:0:
348,300,47567,70,0,P|388:300|428:308,1,80,2|0,0:0|0:0,0:0:0:0:
300,224,48192,2,0,P|260:224|220:232,1,80,8|0,0:0|0:0,0:0:0:0:
168,300,48817,1,0,0:0:0:0:
88,268,49129,1,2,0:0:0:0:
88,268,49442,2,0,L|96:188,1,80,8|0,0:0|0:0,0:0:0:0:
164,60,50067,6,0,L|172:140,1,80,2|0,0:0|0:0,0:0:0:0:
248,184,50692,1,8,0:0:0:0:
256,96,51004,1,0,0:0:0:0:
80,112,51317,2,0,L|72:192,1,80,0|2,0:0|0:0,0:0:0:0:
40,272,51942,2,0,L|120:280,1,80,8|0,0:0|0:0,0:0:0:0:
256,352,52567,69,2,0:0:0:0:
168,356,52879,2,0,L|84:360,2,80,0|8|0,0:0|0:0|0:0,0:0:0:0:
272,268,53817,2,0,P|276:224|276:188,1,80,0|2,0:0|0:0,0:0:0:0:
232,112,54442,2,0,P|228:68|228:32,1,80,8|0,0:0|0:0,0:0:0:0:
316,320,59442,6,0,P|352:308|396:308,1,80
432,328,59910,1,0,0:0:0:0:
464,360,60067,38,0,L|480:256,1,103.999995239258,4|0,0:0|0:0,0:0:0:0:
412,104,60692,2,0,P|360:104|312:128,1,103.999995239258,8|0,0:0|0:0,0:0:0:0:
244,80,61160,2,0,P|192:80|144:104,1,103.999995239258,8|0,0:0|0:0,0:0:0:0:
100,172,61629,1,2,0:0:0:0:
180,320,61942,2,0,L|232:308,1,51.999997619629,8|2,0:0|0:0,0:0:0:0:
296,360,62254,2,0,L|348:348,1,51.999997619629,0|8,0:0|0:0,0:0:0:0:
428,328,62567,5,2,0:0:0:0:
296,228,62879,1,0,0:0:0:0:
444,148,63192,2,0,L|468:256,1,103.999995239258,8|0,0:0|0:0,0:0:0:0:
428,328,63660,2,0,P|372:312|324:312,1,103.999995239258,8|0,0:0|0:0,0:0:0:0:
260,364,64129,1,2,0:0:0:0:
140,248,64442,2,0,L|156:144,1,103.999995239258,10|0,0:0|0:0,0:0:0:0:
168,64,64910,1,8,0:0:0:0:
252,76,65067,37,2,0:0:0:0:
252,76,65692,2,0,L|264:180,1,103.999995239258,8|0,0:0|0:0,0:0:0:0:
252,260,66160,2,0,P|304:248|360:248,1,103.999995239258,8|0,0:0|0:0,0:0:0:0:
424,292,66629,1,2,0:0:0:0:
496,140,66942,1,8,0:0:0:0:
496,140,67098,2,0,P|444:139|393:127,1,103.999995239258,2|8,0:0|0:0,0:0:0:0:
344,60,67567,5,2,0:0:0:0:
40,192,68192,1,8,0:0:0:0:
160,76,68504,2,0,L|212:80,1,51.999997619629,0|8,0:0|0:0,0:0:0:0:
296,224,68973,2,0,L|244:220,1,51.999997619629,0|10,0:0|0:0,0:0:0:0:
128,340,69442,2,0,L|180:344,3,51.999997619629,10|0|0|8,0:0|0:0|0:0|0:0,0:0:0:0:
260,372,70067,6,0,P|308:352|360:348,1,103.999995239258,4|0,0:0|0:0,0:0:0:0:
248,224,70692,2,0,P|200:204|148:200,1,103.999995239258,8|0,0:0|0:0,0:0:0:0:
72,236,71160,2,0,L|56:132,1,103.999995239258,8|0,0:0|0:0,0:0:0:0:
44,52,71629,1,2,0:0:0:0:
204,104,71942,2,0,L|256:96,1,51.999997619629,8|2,0:0|0:0,0:0:0:0:
324,140,72254,2,0,L|376:132,1,51.999997619629,0|8,0:0|0:0,0:0:0:0:
444,84,72567,6,0,B|460:124|460:124|444:192,1,103.999995239258,2|0,0:0|0:0,0:0:0:0:
292,248,73192,2,0,P|236:248|188:268,1,103.999995239258,8|0,0:0|0:0,0:0:0:0:
152,336,73660,1,8,0:0:0:0:
28,224,73973,2,0,L|32:172,1,51.999997619629,0|2,0:0|0:0,0:0:0:0:
168,76,74442,2,0,L|172:128,3,51.999997619629,10|0|0|8,0:0|0:0|0:0|0:0,0:0:0:0:
228,188,75067,38,0,P|280:188|324:164,1,103.999995239258,4|0,0:0|0:0,0:0:0:0:
388,112,75535,1,0,0:0:0:0:
388,112,75692,2,0,L|492:124,1,103.999995239258,8|0,0:0|0:0,0:0:0:0:
504,208,76160,2,0,L|400:196,1,103.999995239258,8|0,0:0|0:0,0:0:0:0:
332,244,76629,1,4,0:0:0:0:
256,96,76942,1,8,0:0:0:0:
256,96,77098,1,4,0:0:0:0:
120,192,77410,1,8,0:0:0:0:
120,192,77567,6,0,L|132:296,1,103.999995239258,4|0,0:0|0:0,0:0:0:0:
32,160,78192,2,0,L|20:56,1,103.999995239258,12|0,0:0|0:0,0:0:0:0:
184,80,78817,2,0,L|191:131,1,51.999997619629,8|4,0:3|0:3,0:0:0:0:
268,168,79129,2,0,L|260:219,1,51.999997619629,4|4,0:3|0:3,0:0:0:0:
196,272,79442,2,0,L|203:323,1,51.999997619629,8|4,0:0|0:3,0:0:0:0:
452,192,80067,53,2,0:0:0:0:
