osu file format v14

[General]
AudioFilename: audio.mp3
AudioLeadIn: 0
PreviewTime: 59442
Countdown: 0
SampleSet: Soft
StackLeniency: 0.7
Mode: 0
LetterboxInBreaks: 0
WidescreenStoryboard: 0

[Editor]
DistanceSpacing: 1
BeatDivisor: 4
GridSize: 4
TimelineZoom: 1

[Metadata]
Title:Uchiage Hanabi
TitleUnicode:打上花火
Artist:DAOKO x Kenshi Yonezu
ArtistUnicode:DAOKO × 米津玄師
Creator:alacat
Version:Easy
Source:打ち上げ花火、下から見るか?横から見るか?
Tags:Shita kara Miru ka? Yoko kara Miru ka? Movie hachi ハチ summer shaft 岩井俊二 Iwai Shunji Fireworks Cut Short Version
BeatmapID:1388976
BeatmapSetID:651825

[Difficulty]
HPDrainRate:2
CircleSize:3
OverallDifficulty:2
ApproachRate:3
SliderMultiplier:0.999999999999999
SliderTickRate:1

[Events]
//Background and Video events
0,0,"BG.jpg",0,0
Video,0,"OP.flv"
//Break Periods
2,54642,58002
//Storyboard Layer 0 (Background)
//Storyboard Layer 1 (Fail)
//Storyboard Layer 2 (Pass)
//Storyboard Layer 3 (Foreground)
//Storyboard Sound Samples

[TimingPoints]
67,625,4,2,2,40,1,0
20067,-100,4,2,1,40,0,0
59442,-100,4,2,1,20,0,0
60067,-100,4,2,2,70,0,1
69442,-100,4,2,2,70,0,0
70067,-100,4,2,2,70,0,1
78817,-100,4,2,2,50,0,1
80067,-100,4,2,2,30,0,0

[Colours]
Combo1 : 184,184,184
Combo2 : 0,255,128
Combo3 : 255,128,192
Combo4 : 255,87,87
Combo5 : 255,128,0
Combo6 : 0,0,138

[HitObjects]
256,344,67,86,0,P|348:344|284:252,1,250,2|0,0:0|0:0,0:0:0:0:
152,312,2567,2,0,P|60:312|124:220,1,250,2|0,0:0|0:0,0:0:0:0:
252,292,5067,70,0,B|376:324|376:256|500:296,1,250,2|0,0:0|0:0,0:0:0:0:
504,144,7567,2,0,B|380:112|380:180|256:140,1,250,2|0,0:0|0:0,0:0:0:0:
144,40,10067,6,0,P|44:40|16:124,2,200,2|0|2,0:0|0:0|0:0,0:0:0:0:
256,208,13817,1,0,0:0:0:0:
368,40,15067,70,0,P|468:40|496:124,1,200,2|0,0:0|0:0,0:0:0:0:
452,212,16942,1,0,0:0:0:0:
356,188,17567,2,0,L|152:212,1,200,2|0,0:0|0:0,0:0:0:0:
64,180,19442,1,0,0:0:0:0:
100,88,20067,6,0,L|200:104,1,99.9999999999999,2|8,0:0|0:0,0:0:0:0:
284,160,21317,2,0,L|384:144,1,99.9999999999999,0|8,0:0|0:0,0:0:0:0:
448,68,22567,2,0,P|476:112|480:160,2,99.9999999999999,2|8|0,0:0|0:0|0:0,0:0:0:0:
348,52,24442,1,8,0:0:0:0:
288,132,25067,70,0,L|188:124,1,99.9999999999999,2|8,0:0|0:0,0:0:0:0:
100,80,26317,1,0,0:0:0:0:
32,152,26942,1,8,0:0:0:0:
68,244,27567,2,0,B|56:284|56:284|64:308|64:308|56:344,2,99.9999999999999,2|8|0,0:0|0:0|0:0,0:0:0:0:
168,224,29442,1,8,0:0:0:0:
228,144,30067,6,0,L|216:44,1,99.9999999999999,2|8,0:0|0:0,0:0:0:0:
312,68,31317,2,0,L|324:168,1,99.9999999999999,0|8,0:0|0:0,0:0:0:0:
384,248,32567,1,2,0:0:0:0:
336,336,33192,1,8,0:0:0:0:
240,304,33817,2,0,P|188:304|140:324,1,99.9999999999999,0|8,0:0|0:0,0:0:0:0:
72,252,35067,70,0,P|98:206|104:155,1,99.9999999999999,2|8,0:0|0:0,0:0:0:0:
72,64,36317,1,0,0:0:0:0:
168,40,36942,1,8,0:0:0:0:
168,40,37567,2,0,L|272:48,1,99.9999999999999,2|8,0:0|0:0,0:0:0:0:
356,96,38817,1,0,0:0:0:0:
300,180,39442,2,0,L|308:236,1,50,8|0,0:0|0:0,0:0:0:0:
316,280,40067,6,0,P|268:264|216:264,1,99.9999999999999,2|8,0:0|0:0,0:0:0:0:
140,324,41317,2,0,L|148:380,2,50,0|2|8,0:0|0:0|0:0,0:0:0:0:
124,224,42567,1,2,0:0:0:0:
32,188,43192,1,8,0:0:0:0:
112,128,43817,2,0,L|164:132,1,50,0|2,0:0|0:0,0:0:0:0:
212,136,44442,1,8,0:0:0:0:
292,76,45067,70,0,P|344:84|384:112,1,99.9999999999999,2|8,0:0|0:0,0:0:0:0:
444,188,46317,2,0,L|496:184,2,50,0|2|8,0:0|0:0|0:0,0:0:0:0:
356,240,47567,2,0,L|368:344,1,99.9999999999999,2|8,0:0|0:0,0:0:0:0:
272,368,48817,2,0,L|264:312,1,50,0|2,0:0|0:0,0:0:0:0:
256,268,49442,1,8,0:0:0:0:
172,212,50067,5,2,0:0:0:0:
96,280,50692,1,8,0:0:0:0:
16,224,51317,2,0,L|8:174,1,50,0|2,0:0|0:0,0:0:0:0:
0,124,51942,1,8,0:0:0:0:
80,64,52567,2,0,P|128:80|180:80,1,99.9999999999999,2|8,0:0|0:0,0:0:0:0:
268,36,53817,2,0,P|317:36|365:52,1,99.9999999999999,0|8,0:0|0:0,0:0:0:0:
256,340,59442,86,0,L|256:288,1,50
220,256,60067,38,0,P|172:272|120:272,2,99.9999999999999,4|8|2,0:0|0:0|0:0,0:0:0:0:
276,172,61942,1,8,0:0:0:0:
368,208,62567,1,2,0:0:0:0:
424,124,63192,1,8,0:0:0:0:
364,44,63817,2,0,L|260:44,1,99.9999999999999,2|8,0:0|0:0,0:0:0:0:
193,114,65067,6,0,L|89:114,2,99.9999999999999,2|8|2,0:0|0:0|0:0,0:0:0:0:
263,184,66942,1,8,0:0:0:0:
344,244,67567,2,0,L|444:244,1,99.9999999999999,2|8,0:0|0:0,0:0:0:0:
444,344,68817,1,2,0:0:0:0:
344,344,69442,2,0,L|288:344,1,50,8|0,0:0|0:0,0:0:0:0:
252,316,70067,38,0,P|200:316|156:336,2,99.9999999999999,4|8|2,0:0|0:0|0:0,0:0:0:0:
316,240,71942,1,8,0:0:0:0:
386,310,72567,1,2,0:0:0:0:
456,239,73192,1,8,0:0:0:0:
385,168,73817,2,0,L|384:68,1,99.9999999999999,2|8,0:0|0:0,0:0:0:0:
288,36,75067,6,0,L|188:48,1,99.9999999999999,4|8,0:0|0:0,0:0:0:0:
88,60,76317,1,2,0:0:0:0:
56,156,76942,1,8,0:0:0:0:
156,140,77567,2,0,L|256:128,1,99.9999999999999,2|8,0:0|0:0,0:0:0:0:
336,188,78817,2,0,L|388:180,2,50,8|4|8,0:3|0:3|0:0,0:0:0:0:
256,248,80067,53,2,0:0:0:0:
