osu file format v14

[General]
AudioFilename: audio.mp3
AudioLeadIn: 0
PreviewTime: 63401
Countdown: 0
SampleSet: Soft
StackLeniency: 0.7
Mode: 0
LetterboxInBreaks: 0
WidescreenStoryboard: 0

[Editor]
Bookmarks: 151526
DistanceSpacing: 1.3
BeatDivisor: 4
GridSize: 4
TimelineZoom: 1.1

[Metadata]
Title:Uchiage Hanabi
TitleUnicode:打上花火
Artist:DAOKO x Kenshi Yonezu
ArtistUnicode:DAOKO × 米津玄師
Creator:Yasaija 714
Version:Akija 714's Insane
Source:打ち上げ花火、下から見るか?横から見るか?
Tags:hanabi shita kara miru ka? yoko kara miru ka? movie hachi ハチ corinn akitoshi -Laura- Ryuusei aika
BeatmapID:1391725
BeatmapSetID:654500

[Difficulty]
HPDrainRate:5.5
CircleSize:4
OverallDifficulty:8
ApproachRate:9
SliderMultiplier:2.7
SliderTickRate:1

[Events]
//Background and Video events
0,0,"BG.jpg",0,0
//Break Periods
2,181726,190926
//Storyboard Layer 0 (Background)
//Storyboard Layer 1 (Fail)
//Storyboard Layer 2 (Pass)
//Storyboard Layer 3 (Foreground)
//Storyboard Sound Samples

[TimingPoints]
4026,625,4,2,1,40,1,0
4026,-200,4,2,1,40,0,0
24026,-133.333333333333,4,2,1,50,0,0
44026,-125,4,2,1,60,0,0
58713,-200,4,2,1,40,0,0
59026,-200,4,2,1,30,0,0
61526,-100,4,2,1,40,0,0
63401,-100,4,2,1,50,0,0
64036,625,4,2,1,70,1,1
64036,-100,4,2,1,70,0,1
68409,625,4,2,1,70,1,1
69026,625,4,2,1,70,1,1
76531,625,4,2,1,70,1,1
79026,625,4,2,1,70,1,1
83381,625,4,2,1,70,1,1
83557,625,4,2,1,70,1,1
84026,625,4,2,1,40,1,0
84026,-133.333333333333,4,2,1,40,0,0
93401,-133.333333333333,4,2,1,25,0,0
94026,-125,4,2,1,50,0,0
114026,-117.647058823529,4,2,1,60,0,0
124026,-200,4,2,1,40,0,0
129026,-133.333333333333,4,2,1,50,0,0
131526,-111.111111111111,4,2,1,60,0,0
141526,-100,4,2,1,70,0,1
159658,625,4,2,1,70,1,1
161230,625,4,2,1,70,1,1
161526,625,4,2,1,60,1,0
161526,-100,4,2,1,60,0,0
179026,-100,4,2,2,60,0,0
180276,-166.666666666667,4,2,2,60,0,0
181526,-133.333333333333,4,2,1,30,0,0
204026,-125,4,2,1,30,0,0
206526,-117.647058823529,4,2,1,30,0,0
209026,-100,4,2,1,40,0,0
209651,-100,4,2,1,50,0,0
210276,-100,4,2,1,60,0,0
211526,-100,4,2,2,70,0,1
230881,625,4,2,1,70,1,1
231526,625,4,2,2,70,1,0
231526,-100,4,2,2,70,0,0
251541,625,4,2,1,70,1,0
261531,625,4,2,1,70,1,0
271531,-100,4,2,1,40,0,0

[Colours]
Combo1 : 255,164,119
Combo2 : 234,113,255
Combo3 : 165,254,248
Combo4 : 235,255,121

[HitObjects]
67,153,4026,6,0,P|97:162|158:156,1,67.5,2|0,0:0|0:0,0:0:0:0:
214,216,4651,2,0,P|244:207|305:213,1,67.5,0|0,0:0|0:0,0:0:0:0:
366,249,5276,1,0,0:0:0:0:
331,82,5588,2,0,B|328:117|328:117|330:149,2,67.5,2|0|0,0:0|0:0|0:0,0:0:0:0:
485,140,6526,6,0,P|449:144|408:157,1,67.5,2|0,0:0|0:0,0:0:0:0:
366,249,7151,2,0,P|333:239|299:236,1,67.5,0|0,0:0|0:0,0:0:0:0:
196,271,7776,1,0,0:0:0:0:
101,154,8088,2,0,P|139:157|189:152,2,67.5,2|0|0,0:0|0:0|0:0,0:0:0:0:
232,41,9026,6,0,P|233:82|229:121,1,67.5,2|0,0:0|0:0,0:0:0:0:
325,153,9651,2,0,P|324:194|328:233,1,67.5,0|0,0:0|0:0,0:0:0:0:
232,265,10276,1,0,0:0:0:0:
372,295,10588,2,0,B|406:288|406:288|448:288,2,67.5,2|0|0,0:0|0:0|0:0,0:0:0:0:
232,349,11526,6,0,B|199:349|199:349|165:342,1,67.5,2|0,0:0|0:0,0:0:0:0:
73,260,12151,2,0,B|66:294|66:294|66:326,1,67.5,0|0,0:0|0:0,0:0:0:0:
152,238,12776,1,0,0:0:0:0:
25,195,13088,2,0,B|18:160|18:160|18:128,2,67.5,2|0|0,0:0|0:0|0:0,0:0:0:0:
81,56,14026,6,0,P|131:51|158:51,1,67.5,2|0,0:0|0:0,0:0:0:0:
254,104,14651,2,0,P|304:109|331:109,1,67.5,0|0,0:0|0:0,0:0:0:0:
425,55,15276,1,0,0:0:0:0:
346,178,15588,2,0,P|349:213|344:252,2,67.5,2|0|0,0:0|0:0|0:0,0:0:0:0:
294,35,16526,5,2,0:0:0:0:
265,127,16838,1,0,0:0:0:0:
162,76,17151,1,0,0:0:0:0:
182,170,17463,1,0,0:0:0:0:
68,177,17776,1,0,0:0:0:0:
132,248,18088,1,2,0:0:0:0:
37,311,18401,1,0,0:0:0:0:
128,340,18713,1,0,0:0:0:0:
233,290,19026,6,0,P|266:283|299:281,1,67.5,2|0,0:0|0:0,0:0:0:0:
410,341,19651,1,0,0:0:0:0:
430,235,19963,1,0,0:0:0:0:
299,280,20276,1,0,0:0:0:0:
279,174,20588,1,2,0:0:0:0:
450,129,20901,1,0,0:0:0:0:
430,235,21213,1,0,0:0:0:0:
322,78,21526,6,0,L|251:83,1,67.5,2|0,0:0|0:0,0:0:0:0:
112,140,22151,2,0,L|183:145,1,67.5,0|0,0:0|0:0,0:0:0:0:
297,172,22776,1,0,0:0:0:0:
159,230,23088,1,2,0:0:0:0:
297,172,23401,1,0,0:0:0:0:
188,71,23713,1,0,0:0:0:0:
276,264,24026,6,0,B|325:278|368:231|368:231|404:272|472:264,1,202.500007724762,2|8,0:0|0:0,0:0:0:0:
448,144,24963,2,0,P|436:84|436:44,1,101.250003862381,0|0,0:0|0:0,0:0:0:0:
368,192,25588,1,2,0:0:0:0:
316,28,25901,2,0,P|264:24|212:32,1,101.250003862381,0|0,0:0|0:0,0:0:0:0:
72,80,26526,6,0,L|80:188,1,101.250003862381,2|0,0:0|0:0,0:0:0:0:
192,332,27151,2,0,B|248:348|292:328|292:328|264:272|288:212,1,202.500007724762,8|0,0:0|0:0,0:0:0:0:
380,160,28088,1,2,0:0:0:0:
480,296,28401,1,0,0:0:0:0:
480,296,28557,2,0,P|496:240|492:192,1,101.250003862381,2|0,0:0|0:0,0:0:0:0:
460,108,29026,6,0,P|380:108|304:84,1,151.875005793572,2|0,0:0|0:0,0:0:0:0:
236,32,29651,2,0,P|236:96|224:136,1,101.250003862381,8|0,0:0|0:0,0:0:0:0:
88,196,30276,1,0,0:0:0:0:
232,248,30588,1,2,0:0:0:0:
136,120,30901,1,0,0:0:0:0:
132,276,31213,1,0,0:0:0:0:
304,216,31526,6,0,P|360:208|404:208,1,101.250003862381,2|0,0:0|0:0,0:0:0:0:
324,340,32151,2,0,P|268:348|224:348,1,101.250003862381,8|0,0:0|0:0,0:0:0:0:
136,200,32776,1,0,0:0:0:0:
228,64,33088,2,0,L|216:176,1,101.250003862381,2|0,0:0|0:0,0:0:0:0:
136,200,33557,2,0,L|148:312,1,101.250003862381,2|0,0:0|0:0,0:0:0:0:
223,347,34026,6,0,P|252:248|348:216,1,202.500007724762,2|8,0:0|0:0,0:0:0:0:
464,304,34963,2,0,B|500:200|426:201|464:84,1,202.500007724762,0|2,0:0|0:0,0:0:0:0:
504,16,35901,1,0,0:0:0:0:
360,76,36213,1,0,0:0:0:0:
508,224,36526,6,0,P|440:224|380:244,1,101.250003862381,2|0,0:0|0:0,0:0:0:0:
308,308,37151,1,8,0:0:0:0:
464,304,37463,1,0,0:0:0:0:
344,192,37776,1,0,0:0:0:0:
240,340,38088,2,0,P|224:272|224:236,1,101.250003862381,2|0,0:0|0:0,0:0:0:0:
276,168,38557,2,0,P|292:100|292:64,1,101.250003862381,2|0,0:0|0:0,0:0:0:0:
212,24,39026,6,0,P|116:44|40:32,1,151.875005793572,2|0,0:0|0:0,0:0:0:0:
4,108,39651,2,0,L|16:208,1,101.250003862381,8|0,0:0|0:0,0:0:0:0:
104,292,40276,1,0,0:0:0:0:
148,140,40588,2,0,P|200:132|272:140,2,101.250003862381,2|0|0,0:0|0:0|0:0,0:0:0:0:
292,208,41526,6,0,P|396:216|496:192,1,202.500007724762,2|8,0:0|0:0,0:0:0:0:
424,104,42463,1,0,0:0:0:0:
392,252,42776,1,0,0:0:0:0:
316,100,43088,2,0,P|256:100|208:88,1,101.250003862381,2|0,0:0|0:0,0:0:0:0:
136,52,43557,2,0,B|140:104|140:104|128:156,1,101.250003862381,2|0,0:0|0:0,0:0:0:0:
60,208,44026,6,0,P|126:249|136:326,1,162,2|0,0:0|0:0,0:0:0:0:
51,296,44651,2,0,P|81:252|132:236,1,108,8|0,0:0|0:0,0:0:0:0:
252,336,45276,1,0,0:0:0:0:
252,336,45588,2,0,B|240:280|240:280|248:224,1,108,2|0,0:0|0:0,0:0:0:0:
292,152,46057,2,0,B|304:96|304:96|296:40,1,108,0|0,0:0|0:0,0:0:0:0:
212,16,46526,5,2,0:0:0:0:
392,72,46838,2,0,P|448:72|500:60,2,108,0|8|0,0:0|0:0|0:0,0:0:0:0:
292,152,47776,1,0,0:0:0:0:
163,137,48088,2,0,P|162:193|175:244,1,108,2|0,0:0|0:0,0:0:0:0:
256,276,48557,2,0,P|312:276|368:296,1,108,2|0,0:0|0:0,0:0:0:0:
420,360,49026,5,2,0:0:0:0:
408,188,49338,1,0,0:0:0:0:
248,232,49651,1,8,0:0:0:0:
392,324,49963,1,0,0:0:0:0:
424,148,50276,1,0,0:0:0:0:
224,196,50588,1,2,0:0:0:0:
304,344,50901,1,0,0:0:0:0:
304,344,51057,2,0,L|296:224,1,108,0|0,0:0|0:0,0:0:0:0:
324,148,51526,6,0,P|372:176|428:184,1,108,2|0,0:0|0:0,0:0:0:0:
344,44,52151,2,0,P|291:52|244:80,1,108,8|0,0:0|0:0,0:0:0:0:
176,200,52776,1,0,0:0:0:0:
339,254,53088,2,0,P|329:204|323:138,1,108,2|0,0:0|0:0,0:0:0:0:
344,44,53557,2,0,P|390:71|443:80,1,108,2|0,0:0|0:0,0:0:0:0:
500,152,54026,5,2,0:0:0:0:
200,100,54494,1,0,0:0:0:0:
200,100,54651,2,0,P|208:156|192:224,1,108,8|0,0:0|0:0,0:0:0:0:
64,284,55276,1,0,0:0:0:0:
244,324,55588,2,0,L|352:296,1,108,2|0,0:0|0:0,0:0:0:0:
420,240,56057,2,0,L|312:212,1,108,0|0,0:0|0:0,0:0:0:0:
240,164,56526,5,2,0:0:0:0:
392,152,56838,2,0,L|500:124,2,108,0|8|0,0:0|0:0|0:0,0:0:0:0:
448,16,57776,1,0,0:0:0:0:
484,208,58088,2,0,P|472:268|428:312,1,108,2|0,0:0|0:0,0:0:0:0:
360,344,58557,2,0,P|308:336|240:336,1,108,2|0,0:0|0:0,0:0:0:0:
164,360,59026,6,0,B|132:296|196:296|164:212,1,135,0|0,0:0|0:0,0:0:0:0:
116,160,59963,1,0,0:0:0:0:
28,136,60276,2,0,P|72:80|144:72,1,135,0|0,0:0|0:0,0:0:0:0:
256,192,61526,12,2,63401,0:0:0:0:
432,116,64036,5,6,0:0:0:0:
432,116,64348,1,0,0:0:0:0:
252,208,64661,1,8,0:0:0:0:
252,208,64817,2,0,L|268:344,1,135,0|8,0:0|0:0,0:0:0:0:
360,364,65286,2,0,L|372:296,1,67.5,0|0,0:0|0:0,0:0:0:0:
168,272,65598,2,0,L|179:338,1,67.5,2|0,0:0|0:0,0:0:0:0:
252,208,65911,1,8,0:0:0:0:
108,192,66067,1,2,0:0:0:0:
184,360,66223,1,0,0:0:0:0:
176,240,66379,1,0,0:0:0:0:
44,348,66536,6,0,L|28:240,1,67.5,6|0,0:0|0:0,0:0:0:0:
48,144,66848,1,0,0:0:0:0:
280,88,67161,1,8,0:0:0:0:
280,88,67317,2,0,P|324:144|352:224,1,135,0|8,0:0|0:0,0:0:0:0:
208,240,67786,2,0,P|240:224|284:220,1,67.5,0|0,0:0|0:0,0:0:0:0:
424,224,68098,2,0,P|458:232|495:257,1,67.5,2|0,0:0|0:0,0:0:0:0:
448,352,68409,1,8,0:0:0:0:
420,196,68565,1,2,0:0:0:0:
340,320,68721,1,0,0:0:0:0:
268,192,68877,1,0,0:0:0:0:
428,172,69026,5,6,0:0:0:0:
56,44,69651,1,8,0:0:0:0:
56,44,69807,2,0,P|48:120|68:196,1,135,0|8,0:0|0:0,0:0:0:0:
160,248,70276,2,0,P|160:212|148:160,1,67.5,0|0,0:0|0:0,0:0:0:0:
284,176,70588,2,0,P|258:150|213:122,1,67.5,8|0,0:0|0:0,0:0:0:0:
96,104,70901,1,8,0:0:0:0:
93,259,71057,1,0,0:0:0:0:
93,259,71213,2,0,P|125:251|173:247,1,67.5,0|0,0:0|0:0,0:0:0:0:
324,248,71526,6,0,P|316:320|300:384,1,135,6|0,0:0|0:0,0:0:0:0:
416,144,72151,2,0,P|424:216|440:280,1,135,8|0,0:0|0:0,0:0:0:0:
324,248,72619,2,0,P|316:320|300:384,1,135,8|0,0:0|0:0,0:0:0:0:
208,272,73088,1,0,0:0:0:0:
320,96,73401,2,0,L|240:108,1,67.5,8|2,0:0|0:0,0:0:0:0:
160,172,73713,1,0,0:0:0:0:
296,188,73869,1,0,0:0:0:0:
167,37,74026,6,0,L|159:189,1,135,6|0,0:0|0:0,0:0:0:0:
16,344,74651,1,8,0:0:0:0:
16,344,74807,2,0,P|88:324|152:324,1,135,0|8,0:0|0:0,0:0:0:0:
257,349,75276,2,0,P|248:316|252:268,1,67.5
344,348,75588,2,0,P|367:324|397:308,1,67.5,2|0,0:0|0:0,0:0:0:0:
508,300,75901,1,8,0:0:0:0:
380,212,76057,1,2,0:0:0:0:
512,200,76213,1,0,0:0:0:0:
356,232,76369,1,0,0:0:0:0:
448,104,76531,6,0,P|428:64|316:32,1,135,6|0,0:0|0:0,0:0:0:0:
152,76,77156,1,8,0:0:0:0:
152,76,77312,2,0,P|160:116|148:216,1,135,0|8,0:0|0:0,0:0:0:0:
216,328,77781,2,0,P|218:294|225:261,1,67.5,0|0,0:0|0:0,0:0:0:0:
292,168,78093,2,0,P|336:176|404:176,1,67.5,2|0,0:0|0:0,0:0:0:0:
456,140,78406,1,8,0:0:0:0:
440,288,78562,1,0,0:0:0:0:
456,140,78718,2,0,P|456:100|444:60,1,67.5,0|0,0:0|0:0,0:0:0:0:
300,28,79026,6,0,B|232:36|232:36|164:24,1,135,6|0,0:0|0:0,0:0:0:0:
24,100,79651,2,0,B|28:188|28:188|56:240,1,135,8|0,0:0|0:0,0:0:0:0:
120,308,80119,1,8,0:0:0:0:
120,308,80276,2,0,P|144:288|188:272,1,67.5,0|0,0:0|0:0,0:0:0:0:
276,308,80588,2,0,P|300:328|344:344,1,67.5,6|0,0:0|0:0,0:0:0:0:
432,308,80901,2,0,P|452:284|468:240,1,67.5,8|6,0:0|0:0,0:0:0:0:
388,124,81213,1,0,0:0:0:0:
372,232,81369,1,0,0:0:0:0:
472,128,81526,6,0,P|440:60|368:40,1,135,6|0,0:0|0:0,0:0:0:0:
212,120,82151,2,0,B|252:188|180:188|224:272,1,135,6|0,0:0|0:0,0:0:0:0:
272,332,82619,1,0,0:0:0:0:
272,332,82776,2,0,P|232:348|184:348,1,67.5,6|0,0:0|0:0,0:0:0:0:
60,312,83088,2,0,P|100:296|148:296,1,67.5,4|0,3:0|0:0,0:0:0:0:
4,368,83381,1,8,0:0:0:0:
32,220,83557,1,4,3:0:0:0:
352,288,84026,6,0,P|348:216|356:168,1,101.250003862381,2|0,0:0|0:0,0:0:0:0:
444,80,84651,1,8,0:0:0:0:
464,220,84963,1,0,0:0:0:0:
444,80,85276,1,2,0:0:0:0:
300,112,85588,2,0,P|248:112|196:96,2,101.250003862381,2|8|0,0:0|0:0|0:0,0:0:0:0:
144,36,86526,5,2,0:0:0:0:
160,168,86839,1,0,0:0:0:0:
300,112,87151,1,8,0:0:0:0:
284,244,87464,1,0,0:0:0:0:
188,372,87776,1,2,0:0:0:0:
172,240,88089,1,2,0:0:0:0:
364,192,88401,1,8,0:0:0:0:
348,324,88714,1,0,0:0:0:0:
252,120,89026,6,0,P|296:108|376:112,1,101.250003862381,2|0,0:0|0:0,0:0:0:0:
492,212,89651,2,0,P|448:224|368:220,1,101.250003862381,8|0,0:0|0:0,0:0:0:0:
192,204,90276,2,0,P|200:256|196:316,1,101.250003862381,2|2,0:0|0:0,0:0:0:0:
100,164,90901,2,0,P|92:112|96:52,1,101.250003862381,8|0,0:0|0:0,0:0:0:0:
240,24,91526,5,2,0:0:0:0:
384,72,91838,1,0,0:0:0:0:
184,100,92151,1,2,0:0:0:0:
328,148,92463,1,0,0:0:0:0:
128,176,92776,1,0,0:0:0:0:
272,224,93088,1,2,0:0:0:0:
272,224,94026,6,0,P|330:227|393:201,1,108,2|0,0:0|0:0,0:0:0:0:
440,144,94494,1,0,0:0:0:0:
440,144,94651,2,0,B|464:192|464:192|460:264,1,108,8|0,0:0|0:0,0:0:0:0:
320,348,95276,2,0,L|212:336,1,108,0|2,0:0|0:0,0:0:0:0:
148,268,95744,1,0,0:0:0:0:
148,268,95901,2,0,P|160:216|160:160,1,108,8|0,0:0|0:0,0:0:0:0:
20,44,96526,6,0,P|88:48|152:36,1,108,2|0,0:0|0:0,0:0:0:0:
216,16,96994,1,0,0:0:0:0:
216,16,97151,2,0,L|212:80,1,54,8|0,0:0|0:0,0:0:0:0:
156,136,97463,2,0,L|160:200,1,54,0|0,0:0|0:0,0:0:0:0:
216,260,97776,2,0,P|280:240|320:240,1,108,0|2,0:0|0:0,0:0:0:0:
496,328,98401,2,0,P|472:328|432:336,1,54,8|2,0:0|0:0,0:0:0:0:
364,376,98713,2,0,P|364:352|356:312,1,54,0|0,0:0|0:0,0:0:0:0:
320,240,99026,6,0,P|308:176|308:100,1,108,2|0,0:0|0:0,0:0:0:0:
348,51,99494,1,0,0:0:0:0:
348,51,99651,2,0,P|274:62|239:64,1,108,8|0,0:0|0:0,0:0:0:0:
149,53,100119,1,0,0:0:0:0:
149,53,100276,2,0,B|163:106|163:106|147:165,1,108,0|2,0:0|0:0,0:0:0:0:
100,234,100744,1,0,0:0:0:0:
100,234,100901,2,0,P|132:232|161:241,1,54,8|0,0:0|0:0,0:0:0:0:
221,297,101213,2,0,P|253:299|282:290,1,54,0|0,0:0|0:0,0:0:0:0:
340,230,101526,6,0,P|352:284|355:338,1,108,2|0,0:0|0:0,0:0:0:0:
476,199,102151,2,0,P|465:250|461:307,1,108,8|0,0:0|0:0,0:0:0:0:
362,150,102776,1,0,0:0:0:0:
492,100,103088,1,2,0:0:0:0:
308,83,103401,1,8,0:0:0:0:
308,83,103557,2,0,P|304:141|290:208,1,108,2|0,0:0|0:0,0:0:0:0:
218,241,104026,6,0,B|162:237|162:237|110:266,1,108,2|0,0:0|0:0,0:0:0:0:
33,301,104494,1,0,0:0:0:0:
33,301,104651,2,0,P|16:225|27:177,1,108,8|0,0:0|0:0,0:0:0:0:
117,40,105276,2,0,L|230:47,1,108,0|2,0:0|0:0,0:0:0:0:
282,117,105744,1,0,0:0:0:0:
282,117,105901,2,0,L|169:124,1,108,8|0,0:0|0:0,0:0:0:0:
339,204,106526,6,0,P|325:262|324:317,1,108,2|0,0:0|0:0,0:0:0:0:
402,356,106994,1,0,0:0:0:0:
468,291,107151,2,0,L|453:230,1,54,8|0,0:0|0:0,0:0:0:0:
369,206,107463,2,0,L|356:258,1,54,0|0,0:0|0:0,0:0:0:0:
296,328,107776,1,0,0:0:0:0:
296,328,107932,2,0,P|222:330|168:315,1,108,0|0,0:0|0:0,0:0:0:0:
121,260,108401,1,8,0:0:0:0:
121,260,108557,2,0,B|138:209|138:209|121:150,1,108,2|0,0:0|0:0,0:0:0:0:
89,71,109026,5,2,0:0:0:0:
261,132,109338,2,0,P|348:134|403:109,1,108,0|8,0:0|0:0,0:0:0:0:
451,164,109807,2,0,P|452:110|446:56,1,108
373,4,110276,1,0,0:0:0:0:
177,47,110588,1,2,0:0:0:0:
122,156,110901,2,0,P|125:219|148:266,1,108,8|0,0:0|0:0,0:0:0:0:
289,344,111526,6,0,B|300:290|300:290|283:232,1,108,2|0,0:0|0:0,0:0:0:0:
207,91,112151,2,0,B|192:141|192:141|203:195,1,108,8|0,0:0|0:0,0:0:0:0:
357,180,112776,2,0,P|386:175|419:174,2,54,0|0|2,0:0|0:0|0:0,0:0:0:0:
465,251,113401,1,8,0:0:0:0:
478,110,113713,1,0,0:0:0:0:
290,144,114026,6,0,P|242:158|152:148,1,114.750002188683,2|0,0:0|0:0,0:0:0:0:
85,85,114651,1,8,0:0:0:0:
85,85,114963,1,0,0:0:0:0:
85,85,115276,2,0,B|94:142|94:142|81:212,1,114.750002188683,0|2,0:0|0:0,0:0:0:0:
33,329,115901,2,0,L|54:266,1,57.3750010943413,8|2,0:0|0:0,0:0:0:0:
83,198,116213,6,0,P|140:203|200:198,1,114.750002188683,0|2,0:0|0:0,0:0:0:0:
272,152,116682,1,0,0:0:0:0:
272,152,116838,2,0,L|280:232,1,57.3750010943413,0|0,0:0|0:0,0:0:0:0:
384,276,117307,2,0,L|389:218,1,57.3750010943413,0|0,0:0|0:0,0:0:0:0:
440,153,117619,2,0,L|456:266,1,114.750002188683
496,340,118088,1,2,0:0:0:0:
359,344,118401,2,0,P|321:345|286:349,1,57.3750010943413,8|2,0:0|0:0,0:0:0:0:
225,376,118713,2,0,P|187:375|152:371,1,57.3750010943413
156,292,119026,6,0,P|160:232|148:168,1,114.750002188683,2|0,0:0|0:0,0:0:0:0:
84,119,119494,2,0,P|133:92|189:98,1,114.750002188683,0|0,0:0|0:0,0:0:0:0:
256,156,119963,1,0,0:0:0:0:
384,44,120276,2,0,P|380:108|384:160,1,114.750002188683,0|2,0:0|0:0,0:0:0:0:
444,224,120744,2,0,P|448:288|444:340,1,114.750002188683,0|0,0:0|0:0,0:0:0:0:
368,384,121213,1,0,0:0:0:0:
256,244,121526,6,0,P|192:232|140:240,1,114.750002188683,2|0,0:0|0:0,0:0:0:0:
232,120,122151,2,0,P|168:132|116:124,1,114.750002188683,8|0,0:0|0:0,0:0:0:0:
44,40,122776,1,0,0:0:0:0:
44,40,122932,1,0,0:0:0:0:
44,40,123088,1,2,0:0:0:0:
52,180,123401,1,8,0:0:0:0:
172,52,123713,1,0,0:0:0:0:
232,120,124026,6,0,L|220:200,1,67.5,2|0,0:0|0:0,0:0:0:0:
304,76,124651,2,0,L|316:156,1,67.5,2|0,0:0|0:0,0:0:0:0:
400,36,125276,2,0,L|384:176,1,135,2|2,0:0|0:0,0:0:0:0:
384,170,126057,1,0,0:0:0:0:
384,170,126213,1,0,0:0:0:0:
436,264,126526,6,0,P|360:264|304:288,1,135,2|2,0:0|0:0,0:0:0:0:
306,286,127307,1,0,0:0:0:0:
306,286,127463,1,0,0:0:0:0:
208,272,127776,2,0,L|200:200,1,67.5,2|0,0:0|0:0,0:0:0:0:
112,312,128401,2,0,L|120:240,1,67.5,2|0,0:0|0:0,0:0:0:0:
144,136,129026,5,2,0:0:0:0:
144,136,129338,1,0,0:0:0:0:
264,96,129651,1,2,0:0:0:0:
264,96,129963,1,2,0:0:0:0:
160,0,130276,1,2,0:0:0:0:
144,136,130588,1,0,0:0:0:0:
264,96,130901,1,2,0:0:0:0:
248,232,131213,1,2,0:0:0:0:
80,292,131526,6,0,P|156:284|224:308,1,121.499996292114,6|0,0:0|0:0,0:0:0:0:
336,356,132151,2,0,B|316:296|316:296|336:240,1,121.499996292114,8|0,0:0|0:0,0:0:0:0:
384,168,132619,2,0,P|324:164|256:136,1,121.499996292114,0|0,0:0|0:0,0:0:0:0:
188,188,133088,2,0,P|128:192|60:220,1,121.499996292114,2|8,0:0|0:0,0:0:0:0:
8,280,133557,1,0,0:0:0:0:
32,96,133869,1,0,0:0:0:0:
32,96,134026,6,0,B|92:96|92:96|152:72,1,121.499996292114,2|0,0:0|0:0,0:0:0:0:
324,24,134651,2,0,P|308:96|324:156,1,121.499996292114,8|0,0:0|0:0,0:0:0:0:
396,192,135119,2,0,B|456:184|456:184|516:208,1,121.499996292114,0|0,0:0|0:0,0:0:0:0:
444,268,135588,2,0,B|384:276|384:276|324:252,1,121.499996292114,2|8,0:0|0:0,0:0:0:0:
256,200,136057,1,2,0:0:0:0:
160,352,136369,1,0,0:0:0:0:
160,352,136526,6,0,P|108:288|40:284,1,121.499996292114,2|0,0:0|0:0,0:0:0:0:
73,104,137151,2,0,P|128:82|160:32,1,121.499996292114,8|0,0:0|0:0,0:0:0:0:
224,96,137619,2,0,B|220:160|220:160|228:224,1,121.499996292114,0|0,0:0|0:0,0:0:0:0:
308,164,138088,2,0,B|315:220|315:220|311:284,1,121.499996292114,2|8,0:0|0:0,0:0:0:0:
236,344,138557,1,0,0:0:0:0:
424,304,138869,1,0,0:0:0:0:
424,304,139026,6,0,P|436:232|424:168,1,121.499996292114,2|0,0:0|0:0,0:0:0:0:
312,60,139651,2,0,P|244:72|176:64,1,121.499996292114,8|0,0:0|0:0,0:0:0:0:
96,32,140119,1,0,0:0:0:0:
0,128,140276,6,0,B|60:136|60:136|120:116,1,121.499996292114,8|2,3:0|0:0,0:0:0:0:
192,67,140744,1,2,0:0:0:0:
176,184,140901,1,0,0:0:0:0:
392,48,141526,5,6,0:0:0:0:
392,48,141838,1,0,0:0:0:0:
360,248,142151,1,8,0:0:0:0:
360,248,142307,2,0,P|292:240|224:256,1,135,0|8,0:0|0:0,0:0:0:0:
248,384,142776,2,0,P|264:348|272:308,1,67.5,0|0,0:0|0:0,0:0:0:0:
136,252,143088,2,0,P|144:284|158:315,1,67.5,2|0,0:0|0:0,0:0:0:0:
184,184,143401,1,8,0:0:0:0:
64,208,143557,1,2,0:0:0:0:
136,252,143713,1,0,0:0:0:0:
148,108,143869,1,0,0:0:0:0:
264,208,144026,6,0,P|296:212|332:208,1,67.5,6|0,0:0|0:0,0:0:0:0:
424,164,144338,1,0,0:0:0:0:
253,77,144651,1,8,0:0:0:0:
253,77,144807,2,0,P|245:145|269:217,1,135,0|8,0:0|0:0,0:0:0:0:
408,272,145276,2,0,P|368:280|328:276,1,67.5,0|0,0:0|0:0,0:0:0:0:
184,280,145588,2,0,P|217:279|250:286,1,67.5,2|0,0:0|0:0,0:0:0:0:
324,368,145901,1,8,0:0:0:0:
368,200,146057,1,2,0:0:0:0:
444,336,146213,1,0,0:0:0:0:
341,278,146369,1,0,0:0:0:0:
492,188,146526,5,6,0:0:0:0:
204,40,147151,1,8,0:0:0:0:
204,40,147307,2,0,P|212:100|208:176,1,135,0|8,0:0|0:0,0:0:0:0:
132,232,147776,2,0,P|100:220|56:216,1,67.5,0|0,0:0|0:0,0:0:0:0:
172,316,148088,2,0,P|198:294|223:258,1,67.5,8|0,0:0|0:0,0:0:0:0:
208,174,148401,1,8,0:0:0:0:
332,216,148557,1,0,0:0:0:0:
332,216,148713,2,0,L|328:296,1,67.5,0|0,0:0|0:0,0:0:0:0:
448,348,149026,6,0,L|452:204,1,135,6|0,0:0|0:0,0:0:0:0:
332,148,149651,2,0,L|328:282,1,135,8|0,0:0|0:0,0:0:0:0:
451,213,150119,2,0,P|464:152|448:68,1,135,8|0,0:0|0:0,0:0:0:0:
360,32,150588,1,0,0:0:0:0:
128,72,150901,2,0,P|136:104|136:148,1,67.5,8|2,0:0|0:0,0:0:0:0:
200,220,151213,2,0,P|192:252|192:296,1,67.5,0|0,0:0|0:0,0:0:0:0:
399,252,151526,6,0,P|335:235|275:263,1,135,6|0,0:0|0:0,0:0:0:0:
477,285,152151,1,8,0:0:0:0:
464,184,152307,2,0,L|473:107,1,67.5,0|0,0:0|0:0,0:0:0:0:
397,4,152619,2,0,P|348:37|268:31,1,135,8|0,0:0|0:0,0:0:0:0:
188,155,153088,2,0,L|285:169,1,67.5,2|0,0:0|0:0,0:0:0:0:
124,56,153401,1,8,0:0:0:0:
181,177,153557,1,2,0:0:0:0:
249,30,153713,1,0,0:0:0:0:
126,78,153869,1,0,0:0:0:0:
272,149,154026,6,0,L|419:133,1,135,6|0,0:0|0:0,0:0:0:0:
236,289,154651,1,8,0:0:0:0:
131,242,154807,2,0,P|124:275|128:321,1,67.5,0|0,0:0|0:0,0:0:0:0:
255,165,155119,2,0,L|244:22,1,135,8|0,0:0|0:0,0:0:0:0:
383,139,155588,2,0,L|376:219,1,67.5,2|0,0:0|0:0,0:0:0:0:
346,379,155901,1,8,0:0:0:0:
236,289,156057,1,0,0:0:0:0:
376,235,156213,1,0,0:0:0:0:
353,354,156369,1,0,0:0:0:0:
264,193,156526,6,0,P|185:202|144:328,1,202.5,6|0,0:0|0:0,0:0:0:0:
365,304,157151,2,0,B|319:281|319:281|200:292,1,135,8|0,0:0|0:0,0:0:0:0:
298,384,157619,1,8,0:0:0:0:
450,352,157776,2,0,L|457:265,1,67.5,0|0,0:0|0:0,0:0:0:0:
383,147,158088,2,0,P|316:170|211:133,1,135,6|8,0:0|0:0,0:0:0:0:
89,80,158557,2,0,P|156:57|261:94,1,135,6|0,0:0|0:0,0:0:0:0:
227,256,159026,6,0,B|130:277|130:202|27:226,1,202.5,6|0,0:0|0:0,0:0:0:0:
119,346,159658,2,0,P|181:362|257:347,1,135,6|0,0:0|0:0,0:0:0:0:
374,270,160126,1,0,0:0:0:0:
374,270,160204,1,0,0:0:0:0:
374,270,160283,1,8,0:0:0:0:
308,184,160439,1,0,0:0:0:0:
227,256,160595,1,8,3:0:0:0:
161,170,160751,1,0,0:0:0:0:
302,76,160908,2,0,L|299:1,1,67.5,8|0,0:0|0:0,0:0:0:0:
381,120,161220,1,8,0:0:0:0:
221,108,161386,1,8,0:0:0:0:
301,255,161526,6,0,B|346:274|346:274|460:258,1,135,6|0,0:0|0:0,0:0:0:0:
302,76,162151,2,0,L|225:80,1,67.5,8|0,0:0|0:0,0:0:0:0:
161,170,162463,2,0,L|228:173,1,67.5,2|8,0:0|0:0,0:0:0:0:
90,100,162776,2,0,P|63:168|88:241,1,135,2|0,0:0|0:0,0:0:0:0:
260,365,163401,2,0,L|178:376,1,67.5,8|0,0:0|0:0,0:0:0:0:
303,274,163713,2,0,L|385:285,1,67.5,0|0,0:0|0:0,0:0:0:0:
455,206,164026,6,0,P|406:151|294:169,1,135,6|0,0:0|0:0,0:0:0:0:
119,161,164651,2,0,L|106:78,1,67.5,8|0,0:0|0:0,0:0:0:0:
22,18,164963,2,0,L|9:101,1,67.5,2|8,0:0|0:0,0:0:0:0:
51,192,165276,2,0,P|124:183|194:230,1,135,2|0,0:0|0:0,0:0:0:0:
381,315,165901,2,0,L|390:239,1,67.5,8|0,0:0|0:0,0:0:0:0:
484,184,166213,2,0,L|475:108,1,67.5,0|0,0:0|0:0,0:0:0:0:
390,40,166526,6,0,B|345:60|345:60|226:43,1,135,6|0,0:0|0:0,0:0:0:0:
42,122,167151,2,0,P|15:197|30:249,1,135,8|2,0:0|0:0,0:0:0:0:
113,325,167619,1,8,0:0:0:0:
197,246,167776,2,0,L|352:262,1,135,2|0,0:0|0:0,0:0:0:0:
472,78,168401,1,8,0:0:0:0:
472,78,168557,2,0,L|317:94,1,135,0|0,0:0|0:0,0:0:0:0:
235,144,169026,6,0,B|203:109|203:109|218:3,1,135,6|0,0:0|0:0,0:0:0:0:
49,181,169651,2,0,B|81:216|81:216|66:322,1,135,8|2,0:0|0:0,0:0:0:0:
163,367,170119,1,8,0:0:0:0:
265,314,170276,2,0,P|329:301|410:341,1,135,2|0,0:0|0:0,0:0:0:0:
487,115,170901,1,8,0:0:0:0:
380,156,171057,1,8,3:0:0:0:
398,42,171213,1,8,3:0:0:0:
291,83,171369,1,0,0:0:0:0:
487,115,171526,6,0,B|503:254|503:254|458:316,1,202.5,6|0,0:0|0:0,0:0:0:0:
355,335,172151,2,0,L|268:328,1,67.5,8|0,0:0|0:0,0:0:0:0:
173,318,172463,1,2,0:0:0:0:
173,318,172619,1,8,0:0:0:0:
246,229,172776,2,0,L|236:151,1,67.5,2|0,0:0|0:0,0:0:0:0:
129,80,173088,2,0,P|63:69|0:92,1,135,0|8,0:0|0:0,0:0:0:0:
6,227,173557,2,0,P|71:237|134:214,1,135,0|0,0:0|0:0,0:0:0:0:
235,124,174026,6,0,B|348:93|325:177|449:135,1,202.5,6|0,0:0|0:0,0:0:0:0:
468,31,174651,2,0,L|383:26,1,67.5,8|0,0:0|0:0,0:0:0:0:
286,19,174963,1,2,0:0:0:0:
286,19,175119,1,8,0:0:0:0:
323,127,175276,2,0,P|332:162|320:203,1,67.5,2|0,0:0|0:0,0:0:0:0:
236,293,175588,2,0,B|275:282|275:282|393:301,1,135,0|8,0:0|0:0,0:0:0:0:
458,196,176057,2,0,B|419:207|419:207|301:188,1,135,0|0,0:0|0:0,0:0:0:0:
213,115,176526,6,0,B|145:83|61:120|61:120|99:162,1,202.5,6|0,0:0|0:0,0:0:0:0:
154,250,177151,2,0,L|157:331,1,67.5,8|0,0:0|0:0,0:0:0:0:
266,351,177463,2,0,L|269:270,1,67.5,0|0,0:0|0:0,0:0:0:0:
364,218,177776,1,2,0:0:0:0:
249,19,178088,2,0,L|100:33,1,135,6|0,0:0|0:0,0:0:0:0:
28,136,178557,2,0,L|177:150,1,135,6|0,0:0|0:0,0:0:0:0:
353,171,179026,5,6,0:0:0:0:
69,334,179338,1,0,0:0:0:0:
202,34,179651,1,8,0:0:0:0:
269,355,179963,1,8,0:0:0:0:
28,136,180276,2,0,B|99:98|183:137|183:137|219:50|312:47,1,323.999990112305,12|2,0:0|0:0,0:0:0:0:
293,192,191526,6,0,B|194:162|197:233|97:205,1,202.500007724762,2|0,0:0|0:0,0:0:0:0:
4,125,192463,2,0,P|54:186|6:315,1,202.500007724762,0|2,0:0|0:0,0:0:0:0:
123,372,193401,2,0,L|244:359,1,101.250003862381,0|0,0:0|0:0,0:0:0:0:
323,292,194026,6,0,L|444:305,1,101.250003862381,2|0,0:0|0:0,0:0:0:0:
497,206,194651,1,0,0:0:0:0:
436,100,194963,2,0,P|368:62|250:137,1,202.500007724762,0|2,0:0|0:0,0:0:0:0:
151,160,195901,2,0,L|137:53,1,101.250003862381,0|0,0:0|0:0,0:0:0:0:
69,206,196526,6,0,P|129:253|238:197,2,202.500007724762,2|0|0,0:0|0:0|0:0,0:0:0:0:
45,87,198088,2,0,B|158:52|138:135|259:90,1,202.500007724762,2|0,0:0|0:0,0:0:0:0:
355,52,199026,6,0,P|364:108|338:179,1,101.250003862381,2|0,0:0|0:0,0:0:0:0:
253,219,199651,2,0,P|244:275|270:346,1,101.250003862381,0|0,0:0|0:0,0:0:0:0:
369,355,200276,1,0,0:0:0:0:
475,297,200588,2,0,B|512:197|427:197|476:91,1,202.500007724762,2|0,0:0|0:0,0:0:0:0:
378,22,201526,6,0,P|341:73|181:40,1,202.500007724762,2|0,0:0|0:0,0:0:0:0:
108,10,202463,2,0,P|159:47|126:207,1,202.500007724762,0|2,0:0|0:0,0:0:0:0:
53,235,203401,2,0,L|65:350,1,101.250003862381,0|0,0:0|0:0,0:0:0:0:
193,336,204026,6,0,P|244:316|306:325,1,108,2|0,0:0|0:0,0:0:0:0:
420,359,204651,1,0,0:0:0:0:
469,239,204963,2,0,L|453:81,1,108,0|0,0:0|0:0,0:0:0:0:
345,67,205588,2,0,P|296:81|223:64,2,108,2|0|0,0:0|0:0|0:0,0:0:0:0:
136,1,206526,6,0,L|128:133,1,114.750002188683,2|0,0:0|0:0,0:0:0:0:
11,207,207151,2,0,L|19:339,1,114.750002188683,0|0,0:0|0:0,0:0:0:0:
160,367,207776,1,0,0:0:0:0:
308,352,208088,1,0,0:0:0:0:
369,215,208401,1,0,0:0:0:0:
324,72,208713,1,0,0:0:0:0:
256,192,209026,12,0,210901,0:0:0:0:
176,165,211526,6,0,L|32:181,1,135,6|0,0:0|0:0,0:0:0:0:
236,301,212151,1,8,0:0:0:0:
315,218,212307,2,0,L|423:230,1,67.5,0|0,0:0|0:0,0:0:0:0:
486,178,212619,2,0,P|506:110|475:29,1,135,8|0,0:0|0:0,0:0:0:0:
377,23,213088,2,0,L|268:35,1,67.5,2|0,0:0|0:0,0:0:0:0:
258,155,213401,1,8,0:0:0:0:
173,78,213557,2,0,B|133:67|133:67|28:83,1,135,2|0,0:0|0:0,0:0:0:0:
3,225,214026,6,0,B|43:236|43:236|148:220,1,135,6|0,0:0|0:0,0:0:0:0:
344,126,214651,1,8,0:0:0:0:
426,206,214807,2,0,L|419:308,1,67.5,0|0,0:0|0:0,0:0:0:0:
337,350,215119,2,0,P|273:370|184:343,1,135,8|0,0:0|0:0,0:0:0:0:
104,306,215588,2,0,L|3:317,1,67.5,2|0,0:0|0:0,0:0:0:0:
135,221,215901,1,8,0:0:0:0:
135,221,216057,2,0,L|236:232,1,67.5,2|0,0:0|0:0,0:0:0:0:
316,240,216369,1,0,0:0:0:0:
427,162,216526,6,0,P|430:84|300:24,1,202.5,6|0,0:0|0:0,0:0:0:0:
212,74,217151,1,8,0:0:0:0:
339,118,217307,2,0,L|332:203,1,67.5,0|0,0:0|0:0,0:0:0:0:
203,270,217619,2,0,L|197:202,1,67.5,8|0,0:0|0:0,0:0:0:0:
135,59,217932,2,0,P|57:52|0:91,1,135,0|0,0:0|0:0,0:0:0:0:
101,206,218401,1,8,0:0:0:0:
216,103,218557,1,0,0:0:0:0:
327,210,218713,2,0,L|323:290,1,67.5,0|0,0:0|0:0,0:0:0:0:
303,122,219026,6,0,P|379:135|415:200,1,135,6|0,0:0|0:0,0:0:0:0:
234,326,219651,2,0,L|220:174,1,135,8|0,0:0|0:0,0:0:0:0:
113,110,220119,1,8,0:0:0:0:
195,29,220276,2,0,L|286:24,1,67.5,2|0,0:0|0:0,0:0:0:0:
371,126,220588,2,0,L|280:121,1,67.5,0|0,0:0|0:0,0:0:0:0:
140,116,220901,1,8,0:0:0:0:
221,192,221057,1,2,0:0:0:0:
59,200,221213,1,0,0:0:0:0:
140,276,221369,1,0,0:0:0:0:
140,116,221526,6,0,P|80:84|0:98,1,135,6|0,0:0|0:0,0:0:0:0:
140,276,222151,1,8,0:0:0:0:
221,192,222307,2,0,L|317:201,1,67.5,0|0,0:0|0:0,0:0:0:0:
376,271,222619,2,0,P|401:213|384:138,1,135,8|0,0:0|0:0,0:0:0:0:
288,85,223088,2,0,L|293:13,1,67.5,2|0,0:0|0:0,0:0:0:0:
161,55,223401,1,8,0:0:0:0:
156,189,223557,2,0,B|199:205|199:205|308:196,1,135,2|0,0:0|0:0,0:0:0:0:
406,319,224026,6,0,B|363:303|363:303|254:312,1,135,6|0,0:0|0:0,0:0:0:0:
65,213,224651,1,8,0:0:0:0:
117,111,224807,2,0,L|110:43,1,67.5,0|0,0:0|0:0,0:0:0:0:
223,59,225119,2,0,P|282:80|375:40,1,135,8|0,0:0|0:0,0:0:0:0:
464,44,225588,2,0,L|457:111,1,67.5,2|0,0:0|0:0,0:0:0:0:
435,279,225901,1,8,0:0:0:0:
355,169,226057,1,0,0:0:0:0:
296,275,226213,1,0,0:0:0:0:
409,290,226369,1,0,0:0:0:0:
248,189,226526,6,0,P|203:246|250:362,1,202.5,6|0,0:0|0:0,0:0:0:0:
420,258,227151,2,0,P|350:246|283:290,1,135,8|0,0:0|0:0,0:0:0:0:
370,363,227619,1,8,0:0:0:0:
484,378,227776,2,0,L|493:298,1,67.5,0|0,0:0|0:0,0:0:0:0:
453,132,228088,2,0,B|403:125|403:125|364:135|364:135|282:126,1,135,6|8,0:0|0:0,0:0:0:0:
167,29,228557,2,0,B|217:22|217:22|256:32|256:32|338:23,1,135,6|0,0:0|0:0,0:0:0:0:
365,219,229026,6,0,P|294:246|146:183,1,202.5,6|0,0:0|0:0,0:0:0:0:
30,101,229651,2,0,L|12:251,1,135,6|0,0:0|0:0,0:0:0:0:
105,360,230119,1,0,0:0:0:0:
105,360,230197,1,0,0:0:0:0:
105,360,230276,1,8,0:0:0:0:
176,213,230432,1,0,0:0:0:0:
21,261,230588,1,8,3:0:0:0:
177,303,230744,1,0,0:0:0:0:
175,122,230881,1,8,0:0:0:0:
13,235,231037,2,0,L|30:101,1,135,8|0,3:0|0:0,0:0:0:0:
194,19,231526,6,0,P|271:31|335:146,1,202.5,6|0,0:0|0:0,0:0:0:0:
398,265,232151,2,0,L|486:258,1,67.5,8|0,0:0|0:0,0:0:0:0:
352,356,232463,2,0,L|264:349,1,67.5,0|0,0:0|0:0,0:0:0:0:
162,343,232776,1,0,0:0:0:0:
261,121,233088,2,0,B|307:106|307:106|413:118,1,135,2|8,0:0|0:0,0:0:0:0:
282,225,233557,2,0,B|236:240|236:240|130:228,1,135,2|0,0:0|0:0,0:0:0:0:
39,119,234026,6,0,P|109:100|185:142,1,135,6|0,0:0|0:0,0:0:0:0:
395,331,234651,2,0,L|398:239,1,67.5,8|0,0:0|0:0,0:0:0:0:
404,142,234963,1,0,0:0:0:0:
283,216,235119,1,0,0:0:0:0:
294,101,235276,2,0,L|287:23,1,67.5,2|0,0:0|0:0,0:0:0:0:
144,70,235588,2,0,P|73:81|0:31,1,135,0|8,0:0|0:0,0:0:0:0:
3,201,236057,2,0,P|74:190|147:240,1,135,2|0,0:0|0:0,0:0:0:0:
258,290,236526,6,0,L|268:121,1,135,6|0,0:0|0:0,0:0:0:0:
458,29,237151,2,0,L|461:133,1,67.5,8|0,0:0|0:0,0:0:0:0:
491,206,237463,1,0,0:0:0:0:
491,206,237619,1,0,0:0:0:0:
416,294,237776,2,0,P|368:298|344:292,1,67.5,0|0,0:0|0:0,0:0:0:0:
226,211,238088,2,0,B|139:227|139:227|81:202,1,135,2|8,0:0|0:0,0:0:0:0:
49,67,238557,2,0,B|136:51|136:51|194:76,1,135,2|0,0:0|0:0,0:0:0:0:
315,128,239026,5,6,0:0:0:0:
164,300,239338,1,0,0:0:0:0:
96,209,239494,1,0,0:0:0:0:
210,195,239651,1,8,0:0:0:0:
348,377,239963,1,0,0:0:0:0:
280,286,240119,1,0,0:0:0:0:
394,273,240276,2,0,L|401:194,1,67.5,0|0,0:0|0:0,0:0:0:0:
491,137,240588,2,0,L|484:58,1,67.5,2|0,0:0|0:0,0:0:0:0:
387,8,240901,1,8,0:0:0:0:
285,62,241057,1,2,0:0:0:0:
383,120,241213,1,0,0:0:0:0:
485,70,241369,1,0,0:0:0:0:
303,50,241526,6,0,B|212:67|212:67|162:56,1,135,6|0,0:0|0:0,0:0:0:0:
20,232,242151,2,0,B|111:215|111:215|161:226,1,135,8|0,0:0|0:0,0:0:0:0:
258,267,242619,1,0,0:0:0:0:
356,206,242776,2,0,L|349:133,1,67.5,0|0,0:0|0:0,0:0:0:0:
258,267,243088,2,0,P|307:308|382:316,1,135,2|8,0:0|0:0,0:0:0:0:
467,189,243557,2,0,P|418:148|343:140,1,135,2|0,0:0|0:0,0:0:0:0:
201,188,244026,6,0,L|56:176,1,135,6|0,0:0|0:0,0:0:0:0:
265,61,244651,1,8,0:0:0:0:
350,138,244807,1,0,0:0:0:0:
375,26,244963,1,0,0:0:0:0:
460,102,245119,2,0,L|468:252,1,135,0|0,0:0|0:0,0:0:0:0:
323,297,245588,2,0,B|276:273|276:273|158:290,1,135,2|8,0:0|0:0,0:0:0:0:
113,151,246057,2,0,B|160:175|160:175|278:158,1,135,2|0,0:0|0:0,0:0:0:0:
390,117,246526,6,0,P|460:102|390:159,1,202.5,6|0,0:0|0:0,0:0:0:0:
299,89,247151,2,0,L|302:21,1,67.5,8|0,0:0|0:0,0:0:0:0:
188,21,247463,2,0,L|191:88,1,67.5,0|0,0:0|0:0,0:0:0:0:
105,164,247776,1,0,0:0:0:0:
276,315,248088,2,0,P|396:300|429:301,1,135,6|8,0:0|0:0,0:0:0:0:
499,172,248557,2,0,P|379:157|346:158,1,135,6|0,0:0|0:0,0:0:0:0:
218,209,249026,6,0,P|207:164|196:65,1,135,6|0,0:0|0:0,0:0:0:0:
482,31,249651,2,0,P|475:98|460:163,1,135,6|0,0:0|0:0,0:0:0:0:
329,350,250276,5,8,0:0:0:0:
244,247,250432,1,8,3:0:0:0:
377,224,250588,1,8,3:0:0:0:
329,350,250744,1,0,0:0:0:0:
213,357,250901,5,4,3:0:0:0:
132,275,251057,1,8,3:0:0:0:
244,247,251213,2,0,P|251:216|244:165,1,67.5,8|0,3:0|0:0,0:0:0:0:
118,94,251541,6,0,P|207:87|276:0,1,202.5,6|0,0:0|0:0,0:0:0:0:
419,39,252166,2,0,L|412:131,1,67.5,8|0,0:0|0:0,0:0:0:0:
334,231,252478,2,0,L|328:163,1,67.5,0|0,0:0|0:0,0:0:0:0:
437,201,252791,1,0,0:0:0:0:
241,321,253103,2,0,P|182:307|94:301,1,135,2|8,0:0|0:0,0:0:0:0:
40,152,253572,2,0,P|99:138|187:132,1,135,2|0,0:0|0:0,0:0:0:0:
295,189,254041,6,0,P|306:110|272:38,1,135,6|0,0:0|0:0,0:0:0:0:
154,246,254666,1,8,0:0:0:0:
241,321,254822,1,0,0:0:0:0:
133,359,254978,2,0,L|59:354,1,67.5,0|0,0:0|0:0,0:0:0:0:
3,257,255291,2,0,L|77:252,1,67.5,0|0,0:0|0:0,0:0:0:0:
196,162,255603,2,0,B|212:117|212:117|197:14,1,135,2|8,0:0|0:0,0:0:0:0:
353,5,256072,2,0,B|337:50|337:50|352:153,1,135,2|0,0:0|0:0,0:0:0:0:
425,272,256541,6,0,P|350:257|278:284,1,135,6|0,0:0|0:0,0:0:0:0:
112,134,257166,2,0,L|190:125,1,67.5,8|0,0:0|0:0,0:0:0:0:
292,112,257478,1,0,0:0:0:0:
292,112,257634,1,0,0:0:0:0:
227,16,257791,2,0,P|192:7|145:14,1,67.5,0|0,0:0|0:0,0:0:0:0:
25,87,258103,2,0,B|6:158|54:151|31:218,1,135,2|8,0:0|0:0,0:0:0:0:
144,326,258572,2,0,B|121:258|169:265|149:193,1,135,2|0,0:0|0:0,0:0:0:0:
117,83,259041,5,6,0:0:0:0:
339,26,259353,1,0,0:0:0:0:
407,117,259509,1,0,0:0:0:0:
293,131,259666,1,8,0:0:0:0:
413,326,259978,1,0,0:0:0:0:
457,220,260134,1,0,0:0:0:0:
407,117,260291,2,0,L|396:30,1,67.5,0|0,0:0|0:0,0:0:0:0:
288,17,260603,2,0,L|277:104,1,67.5,2|0,0:0|0:0,0:0:0:0:
235,192,260916,1,8,0:0:0:0:
128,150,261072,1,2,0:0:0:0:
171,44,261228,1,0,0:0:0:0:
279,84,261384,1,0,0:0:0:0:
128,150,261531,6,0,B|99:210|99:210|133:359,1,202.5,6|0,0:0|0:0,0:0:0:0:
274,376,262156,2,0,L|290:298,1,67.5,8|0,0:0|0:0,0:0:0:0:
419,242,262468,2,0,L|435:319,1,67.5,0|0,0:0|0:0,0:0:0:0:
309,223,262781,1,0,0:0:0:0:
114,101,263093,2,0,P|104:174|98:252,1,135,2|8,0:0|0:0,0:0:0:0:
251,145,263562,2,0,P|244:77|236:10,1,135,2|0,0:0|0:0,0:0:0:0:
201,211,264031,6,0,P|254:228|325:185,1,135,6|0,0:0|0:0,0:0:0:0:
144,44,264656,2,0,L|60:55,1,67.5,8|0,0:0|0:0,0:0:0:0:
10,146,264968,1,0,0:0:0:0:
10,146,265124,1,0,0:0:0:0:
95,223,265281,2,0,L|102:301,1,67.5,0|0,0:0|0:0,0:0:0:0:
259,347,265593,2,0,P|334:300|420:304,1,135,2|8,0:0|0:0,0:0:0:0:
498,175,266062,2,0,P|423:128|337:132,1,135,2|0,0:0|0:0,0:0:0:0:
236,217,266531,6,0,B|208:179|208:179|229:17,1,202.5,6|0,0:0|0:0,0:0:0:0:
73,94,267156,2,0,L|82:164,1,67.5,8|0,0:0|0:0,0:0:0:0:
141,318,267468,2,0,L|150:248,1,67.5,0|0,0:0|0:0,0:0:0:0:
44,356,267781,1,0,0:0:0:0:
273,360,268093,2,0,P|393:345|426:346,1,135,6|0,0:0|0:0,0:0:0:0:
496,185,268562,2,0,P|376:170|343:171,1,135,6|0,0:0|0:0,0:0:0:0:
180,195,269031,6,0,B|149:156|149:156|158:51,1,135,6|0,0:0|0:0,0:0:0:0:
472,61,269656,2,0,B|503:100|503:100|494:205,1,135,6|0,0:0|0:0,0:0:0:0:
294,365,270281,5,8,0:0:0:0:
212,257,270437,1,0,0:0:0:0:
160,381,270593,1,4,3:0:0:0:
77,274,270749,1,0,0:0:0:0:
240,248,270906,5,0,3:0:0:0:
178,151,271062,1,4,3:0:0:0:
292,146,271218,1,4,3:0:0:0:
231,48,271374,1,0,0:0:0:0:
149,146,271531,5,2,0:0:0:0:
