osu file format v14

[General]
AudioFilename: audio.mp3
AudioLeadIn: 0
PreviewTime: 60057
Countdown: 1
SampleSet: Soft
StackLeniency: 0.7
Mode: 3
LetterboxInBreaks: 0
SpecialStyle: 0
WidescreenStoryboard: 0

[Editor]
DistanceSpacing: 0.8
BeatDivisor: 4
GridSize: 16
TimelineZoom: 1.5

[Metadata]
Title:Uchiage Hanabi
TitleUnicode:打上花火
Artist:DAOKO x Kenshi Yonezu
ArtistUnicode:DAOKO x 米津玄師
Creator:TheNewBungping
Version:Firework Party
Source:打ち上げ花火、下から見るか?横から見るか?
Tags:shita kara miru ka? yoko kara miru ka? movie hachi ハチ summer shaft fireworks should we see it from the side or the bottom
BeatmapID:1411656
BeatmapSetID:667102

[Difficulty]
HPDrainRate:8.5
CircleSize:6
OverallDifficulty:8.5
ApproachRate:5
SliderMultiplier:1.4
SliderTickRate:1

[Events]
//Background and Video events
0,0,"rsz_12rsz_1852079.jpg",0,0
//Break Periods
//Storyboard Layer 0 (Background)
//Storyboard Layer 1 (Fail)
//Storyboard Layer 2 (Pass)
//Storyboard Layer 3 (Foreground)
//Storyboard Sound Samples

[TimingPoints]
682,625,4,2,1,60,1,0
3807,604.534005037783,4,2,1,60,1,0
4109,625,4,2,1,60,1,0
9729,616.016427104723,4,2,1,60,1,0
10345,674.157303370787,4,2,1,60,1,0
10682,625,4,2,1,60,1,0
60692,625,4,2,1,60,1,0
60692,-100,4,2,1,60,0,1
80692,-100,4,2,1,60,0,0
138192,-100,4,2,1,60,0,1
158192,-100,4,2,1,60,0,0
208192,-100,4,2,1,60,0,1
227567,-100,4,2,1,60,0,0
228192,-100,4,2,1,60,0,1
235692,-100,4,2,1,60,0,0
238192,-100,4,2,1,60,0,1
247567,-100,4,2,1,60,0,0
248192,-100,4,2,1,60,0,1
255692,-100,4,2,1,60,0,0
258192,-100,4,2,1,60,0,1
268192,-100,4,2,1,60,0,0
285700,724.200362100181,4,2,1,60,1,0
286786,909.090909090909,4,2,1,60,1,0
287240,1170.73170731707,4,2,1,60,1,0
288410,1371.42857142857,4,2,1,60,1,0
289095,1290.32258064516,4,2,1,60,1,0
289740,1697.79286926995,4,2,1,60,1,0
291437,1279.31769722815,4,2,1,60,1,0
292716,2181.81818181818,4,2,1,60,1,0

[HitObjects]
42,192,682,5,0,0:0:0:0:
298,192,682,1,0,0:0:0:0:
384,192,994,1,0,0:0:0:0:
469,192,1307,1,0,0:0:0:0:
42,192,1619,1,0,0:0:0:0:
128,192,1932,1,0,0:0:0:0:
213,192,2244,1,0,0:0:0:0:
469,192,2244,1,0,0:0:0:0:
384,192,2557,1,0,0:0:0:0:
42,192,2869,1,0,0:0:0:0:
384,192,3182,1,0,0:0:0:0:
128,192,3182,1,0,0:0:0:0:
213,192,3494,1,0,0:0:0:0:
384,192,3807,1,0,0:0:0:0:
469,192,4109,1,0,0:0:0:0:
42,192,4421,1,0,0:0:0:0:
298,192,4734,1,0,0:0:0:0:
469,192,4734,1,0,0:0:0:0:
128,192,5046,1,0,0:0:0:0:
384,192,5359,1,0,0:0:0:0:
42,192,5671,1,0,0:0:0:0:
213,192,5671,1,0,0:0:0:0:
298,192,5984,1,0,0:0:0:0:
469,192,6296,1,0,0:0:0:0:
42,192,6609,1,0,0:0:0:0:
128,192,6921,1,0,0:0:0:0:
384,192,7234,1,0,0:0:0:0:
42,192,7234,1,0,0:0:0:0:
469,192,7546,1,0,0:0:0:0:
213,192,7859,1,0,0:0:0:0:
469,192,8171,1,0,0:0:0:0:
128,192,8171,1,0,0:0:0:0:
298,192,8484,1,0,0:0:0:0:
384,192,8796,1,0,0:0:0:0:
469,192,9109,1,0,0:0:0:0:
42,192,9421,1,0,0:0:0:0:
128,192,9729,1,0,0:0:0:0:
469,192,9729,128,0,10682:0:0:0:0:
298,192,10037,1,0,0:0:0:0:
384,192,10345,1,0,0:0:0:0:
42,192,10682,1,0,0:0:0:0:
128,192,10682,1,0,0:0:0:0:
213,192,10994,1,0,0:0:0:0:
384,192,11307,1,0,0:0:0:0:
42,192,11619,1,0,0:0:0:0:
128,192,11932,1,0,0:0:0:0:
213,192,12244,1,0,0:0:0:0:
469,192,12244,1,0,0:0:0:0:
384,192,12557,1,0,0:0:0:0:
42,192,12869,1,0,0:0:0:0:
469,192,13182,1,0,0:0:0:0:
128,192,13182,128,0,13338:0:0:0:0:
213,192,13182,1,0,0:0:0:0:
128,192,13494,128,0,13650:0:0:0:0:
384,192,13494,1,0,0:0:0:0:
128,192,13807,128,0,13963:0:0:0:0:
298,192,13807,1,0,0:0:0:0:
128,192,14119,128,0,14275:0:0:0:0:
469,192,14119,1,0,0:0:0:0:
298,192,14432,1,0,0:0:0:0:
128,192,14432,128,0,14588:0:0:0:0:
384,192,14744,1,0,0:0:0:0:
128,192,14744,128,0,14900:0:0:0:0:
213,192,14744,1,0,0:0:0:0:
469,192,15057,1,0,0:0:0:0:
128,192,15057,128,0,15213:0:0:0:0:
128,192,15369,128,0,15525:0:0:0:0:
298,192,15369,1,0,0:0:0:0:
42,192,15682,1,0,0:0:0:0:
469,192,15682,1,0,0:0:0:0:
128,192,15994,1,0,0:0:0:0:
384,192,16307,128,0,16463:0:0:0:0:
213,192,16307,1,0,0:0:0:0:
42,192,16619,1,0,0:0:0:0:
384,192,16619,128,0,16775:0:0:0:0:
384,192,16932,128,0,17088:0:0:0:0:
213,192,16932,1,0,0:0:0:0:
384,192,17244,128,0,17400:0:0:0:0:
42,192,17244,1,0,0:0:0:0:
128,192,17244,1,0,0:0:0:0:
384,192,17557,128,0,17713:0:0:0:0:
298,192,17557,1,0,0:0:0:0:
384,192,17869,128,0,18025:0:0:0:0:
128,192,17869,1,0,0:0:0:0:
469,192,18182,1,0,0:0:0:0:
42,192,18182,128,0,18338:0:0:0:0:
213,192,18182,1,0,0:0:0:0:
42,192,18494,128,0,18650:0:0:0:0:
298,192,18494,1,0,0:0:0:0:
42,192,18807,128,0,18963:0:0:0:0:
469,192,18807,1,0,0:0:0:0:
42,192,19119,128,0,19275:0:0:0:0:
128,192,19119,1,0,0:0:0:0:
42,192,19432,128,0,19588:0:0:0:0:
213,192,19432,1,0,0:0:0:0:
42,192,19744,128,0,19900:0:0:0:0:
469,192,19744,1,0,0:0:0:0:
298,192,19744,1,0,0:0:0:0:
42,192,20057,128,0,20213:0:0:0:0:
469,192,20057,128,0,20682:0:0:0:0:
213,192,20057,1,0,0:0:0:0:
42,192,20369,128,0,20525:0:0:0:0:
298,192,20369,1,0,0:0:0:0:
128,192,20682,1,0,0:0:0:0:
384,192,20682,1,0,0:0:0:0:
213,192,20994,1,0,0:0:0:0:
298,192,21307,1,0,0:0:0:0:
469,192,21307,1,0,0:0:0:0:
42,192,21619,1,0,0:0:0:0:
128,192,21932,1,0,0:0:0:0:
469,192,21932,1,0,0:0:0:0:
384,192,22244,1,0,0:0:0:0:
213,192,22244,1,0,0:0:0:0:
42,192,22557,1,0,0:0:0:0:
298,192,22557,1,0,0:0:0:0:
469,192,22869,1,0,0:0:0:0:
42,192,23182,1,0,0:0:0:0:
384,192,23182,1,0,0:0:0:0:
213,192,23494,1,0,0:0:0:0:
128,192,23807,1,0,0:0:0:0:
469,192,23807,1,0,0:0:0:0:
384,192,24119,1,0,0:0:0:0:
42,192,24432,1,0,0:0:0:0:
298,192,24432,1,0,0:0:0:0:
128,192,24744,1,0,0:0:0:0:
298,192,24744,1,0,0:0:0:0:
42,192,25057,1,0,0:0:0:0:
469,192,25057,1,0,0:0:0:0:
384,192,25213,1,0,0:0:0:0:
298,192,25213,1,0,0:0:0:0:
213,192,25369,1,0,0:0:0:0:
42,192,25682,1,0,0:0:0:0:
469,192,25682,1,0,0:0:0:0:
128,192,25994,1,0,0:0:0:0:
213,192,26307,1,0,0:0:0:0:
469,192,26307,1,0,0:0:0:0:
384,192,26619,1,0,0:0:0:0:
42,192,26932,1,0,0:0:0:0:
298,192,26932,1,0,0:0:0:0:
128,192,27244,1,0,0:0:0:0:
469,192,27244,1,0,0:0:0:0:
42,192,27557,1,0,0:0:0:0:
469,192,27557,1,0,0:0:0:0:
128,192,27869,1,0,0:0:0:0:
213,192,28182,1,0,0:0:0:0:
469,192,28182,1,0,0:0:0:0:
298,192,28494,1,0,0:0:0:0:
469,192,28807,1,0,0:0:0:0:
128,192,28807,1,0,0:0:0:0:
384,192,29119,1,0,0:0:0:0:
42,192,29432,1,0,0:0:0:0:
469,192,29432,1,0,0:0:0:0:
298,192,29744,1,0,0:0:0:0:
213,192,29744,1,0,0:0:0:0:
42,192,30057,1,0,0:0:0:0:
384,192,30057,1,0,0:0:0:0:
128,192,30213,1,0,0:0:0:0:
213,192,30213,1,0,0:0:0:0:
298,192,30369,1,0,0:0:0:0:
469,192,30682,1,0,0:0:0:0:
128,192,30682,1,0,0:0:0:0:
384,192,30994,1,0,0:0:0:0:
42,192,31307,1,0,0:0:0:0:
298,192,31307,1,0,0:0:0:0:
128,192,31619,1,0,0:0:0:0:
213,192,31932,1,0,0:0:0:0:
384,192,31932,1,0,0:0:0:0:
469,192,32244,1,0,0:0:0:0:
42,192,32244,1,0,0:0:0:0:
384,192,32557,1,0,0:0:0:0:
128,192,32557,1,0,0:0:0:0:
298,192,32869,1,0,0:0:0:0:
42,192,33182,128,0,33338:0:0:0:0:
128,192,33182,1,0,0:0:0:0:
213,192,33182,1,0,0:0:0:0:
469,192,33494,1,0,0:0:0:0:
42,192,33494,128,0,33650:0:0:0:0:
42,192,33807,128,0,33963:0:0:0:0:
384,192,33807,1,0,0:0:0:0:
128,192,33807,1,0,0:0:0:0:
42,192,34119,128,0,34275:0:0:0:0:
213,192,34119,1,0,0:0:0:0:
42,192,34432,128,0,34588:0:0:0:0:
298,192,34432,1,0,0:0:0:0:
469,192,34432,1,0,0:0:0:0:
42,192,34744,128,0,34900:0:0:0:0:
384,192,34744,1,0,0:0:0:0:
213,192,34744,1,0,0:0:0:0:
42,192,35057,128,0,35213:0:0:0:0:
469,192,35057,1,0,0:0:0:0:
128,192,35057,1,0,0:0:0:0:
298,192,35213,1,0,0:0:0:0:
384,192,35213,1,0,0:0:0:0:
42,192,35369,128,0,35525:0:0:0:0:
213,192,35369,1,0,0:0:0:0:
469,192,35682,128,0,35838:0:0:0:0:
128,192,35682,1,0,0:0:0:0:
384,192,35682,1,0,0:0:0:0:
469,192,35994,128,0,36150:0:0:0:0:
213,192,35994,1,0,0:0:0:0:
469,192,36307,128,0,36463:0:0:0:0:
42,192,36307,1,0,0:0:0:0:
384,192,36307,1,0,0:0:0:0:
469,192,36619,128,0,36775:0:0:0:0:
128,192,36619,1,0,0:0:0:0:
469,192,36932,128,0,37088:0:0:0:0:
213,192,36932,1,0,0:0:0:0:
384,192,36932,1,0,0:0:0:0:
469,192,37244,128,0,37400:0:0:0:0:
42,192,37244,1,0,0:0:0:0:
298,192,37244,1,0,0:0:0:0:
469,192,37557,128,0,37713:0:0:0:0:
128,192,37557,1,0,0:0:0:0:
384,192,37557,1,0,0:0:0:0:
469,192,37869,128,0,38025:0:0:0:0:
213,192,37869,1,0,0:0:0:0:
42,192,38182,1,0,0:0:0:0:
298,192,38182,1,0,0:0:0:0:
384,192,38494,1,0,0:0:0:0:
469,192,38807,1,0,0:0:0:0:
128,192,38807,1,0,0:0:0:0:
298,192,39119,1,0,0:0:0:0:
384,192,39432,1,0,0:0:0:0:
42,192,39432,1,0,0:0:0:0:
469,192,39744,1,0,0:0:0:0:
213,192,39744,1,0,0:0:0:0:
42,192,40057,1,0,0:0:0:0:
384,192,40057,1,0,0:0:0:0:
128,192,40213,1,0,0:0:0:0:
213,192,40213,1,0,0:0:0:0:
298,192,40369,1,0,0:0:0:0:
42,192,40682,1,0,0:0:0:0:
384,192,40682,1,0,0:0:0:0:
469,192,40682,1,0,0:0:0:0:
298,192,40994,1,0,0:0:0:0:
128,192,40994,1,0,0:0:0:0:
384,192,41150,1,0,0:0:0:0:
42,192,41307,1,0,0:0:0:0:
469,192,41307,1,0,0:0:0:0:
213,192,41307,1,0,0:0:0:0:
384,192,41619,1,0,0:0:0:0:
298,192,41671,1,0,0:0:0:0:
213,192,41723,1,0,0:0:0:0:
128,192,41775,1,0,0:0:0:0:
42,192,41827,1,0,0:0:0:0:
469,192,41932,1,0,0:0:0:0:
213,192,41932,1,0,0:0:0:0:
384,192,41932,1,0,0:0:0:0:
128,192,42244,1,0,0:0:0:0:
384,192,42244,1,0,0:0:0:0:
298,192,42244,1,0,0:0:0:0:
469,192,42400,1,0,0:0:0:0:
42,192,42557,1,0,0:0:0:0:
128,192,42557,1,0,0:0:0:0:
213,192,42557,1,0,0:0:0:0:
298,192,42713,1,0,0:0:0:0:
384,192,42713,1,0,0:0:0:0:
213,192,42869,1,0,0:0:0:0:
469,192,42869,1,0,0:0:0:0:
128,192,43025,1,0,0:0:0:0:
42,192,43182,1,0,0:0:0:0:
469,192,43182,1,0,0:0:0:0:
298,192,43182,1,0,0:0:0:0:
128,192,43494,1,0,0:0:0:0:
384,192,43494,1,0,0:0:0:0:
298,192,43650,1,0,0:0:0:0:
469,192,43807,1,0,0:0:0:0:
42,192,43807,1,0,0:0:0:0:
213,192,43807,1,0,0:0:0:0:
128,192,44119,1,0,0:0:0:0:
213,192,44171,1,0,0:0:0:0:
298,192,44223,1,0,0:0:0:0:
384,192,44275,1,0,0:0:0:0:
469,192,44327,1,0,0:0:0:0:
42,192,44432,1,0,0:0:0:0:
128,192,44432,1,0,0:0:0:0:
213,192,44432,1,0,0:0:0:0:
469,192,44744,1,0,0:0:0:0:
128,192,44744,1,0,0:0:0:0:
298,192,44744,1,0,0:0:0:0:
469,192,45057,1,0,0:0:0:0:
384,192,45057,1,0,0:0:0:0:
298,192,45057,1,0,0:0:0:0:
42,192,45213,1,0,0:0:0:0:
213,192,45213,1,0,0:0:0:0:
128,192,45213,1,0,0:0:0:0:
384,192,45369,1,0,0:0:0:0:
298,192,45421,1,0,0:0:0:0:
213,192,45473,1,0,0:0:0:0:
128,192,45525,1,0,0:0:0:0:
42,192,45577,1,0,0:0:0:0:
469,192,45682,1,0,0:0:0:0:
213,192,45682,1,0,0:0:0:0:
298,192,45682,1,0,0:0:0:0:
128,192,45994,1,0,0:0:0:0:
384,192,45994,1,0,0:0:0:0:
213,192,46150,1,0,0:0:0:0:
42,192,46307,1,0,0:0:0:0:
469,192,46307,1,0,0:0:0:0:
298,192,46307,1,0,0:0:0:0:
128,192,46619,1,0,0:0:0:0:
213,192,46671,1,0,0:0:0:0:
298,192,46723,1,0,0:0:0:0:
384,192,46775,1,0,0:0:0:0:
469,192,46827,1,0,0:0:0:0:
42,192,46932,1,0,0:0:0:0:
213,192,46932,1,0,0:0:0:0:
128,192,46932,1,0,0:0:0:0:
298,192,47088,1,0,0:0:0:0:
469,192,47244,1,0,0:0:0:0:
384,192,47244,1,0,0:0:0:0:
128,192,47244,1,0,0:0:0:0:
213,192,47400,1,0,0:0:0:0:
42,192,47557,1,0,0:0:0:0:
298,192,47557,1,0,0:0:0:0:
469,192,47557,1,0,0:0:0:0:
128,192,47713,1,0,0:0:0:0:
213,192,47869,1,0,0:0:0:0:
469,192,47869,1,0,0:0:0:0:
298,192,48025,1,0,0:0:0:0:
384,192,48182,1,0,0:0:0:0:
213,192,48182,1,0,0:0:0:0:
128,192,48182,1,0,0:0:0:0:
42,192,48182,128,0,48338:0:0:0:0:
42,192,48494,128,0,48650:0:0:0:0:
298,192,48494,1,0,0:0:0:0:
469,192,48494,1,0,0:0:0:0:
213,192,48650,1,0,0:0:0:0:
384,192,48650,1,0,0:0:0:0:
42,192,48807,128,0,48963:0:0:0:0:
128,192,48807,1,0,0:0:0:0:
469,192,48807,1,0,0:0:0:0:
298,192,48807,1,0,0:0:0:0:
42,192,49119,128,0,49275:0:0:0:0:
469,192,49119,1,0,0:0:0:0:
384,192,49171,1,0,0:0:0:0:
298,192,49223,1,0,0:0:0:0:
213,192,49275,1,0,0:0:0:0:
128,192,49327,1,0,0:0:0:0:
42,192,49432,128,0,49588:0:0:0:0:
298,192,49432,1,0,0:0:0:0:
469,192,49432,1,0,0:0:0:0:
384,192,49432,1,0,0:0:0:0:
42,192,49744,128,0,49900:0:0:0:0:
213,192,49744,1,0,0:0:0:0:
128,192,49744,1,0,0:0:0:0:
384,192,49744,1,0,0:0:0:0:
42,192,50057,128,0,50213:0:0:0:0:
469,192,50057,1,0,0:0:0:0:
213,192,50057,1,0,0:0:0:0:
384,192,50213,1,0,0:0:0:0:
128,192,50213,1,0,0:0:0:0:
298,192,50213,1,0,0:0:0:0:
42,192,50369,128,0,50525:0:0:0:0:
469,192,50369,1,0,0:0:0:0:
213,192,50369,1,0,0:0:0:0:
298,192,50682,1,0,0:0:0:0:
384,192,50682,1,0,0:0:0:0:
213,192,50682,1,0,0:0:0:0:
42,192,50994,1,0,0:0:0:0:
128,192,50994,1,0,0:0:0:0:
213,192,51150,1,0,0:0:0:0:
298,192,51150,1,0,0:0:0:0:
384,192,51150,1,0,0:0:0:0:
469,192,51307,1,0,0:0:0:0:
298,192,51307,1,0,0:0:0:0:
128,192,51307,1,0,0:0:0:0:
42,192,51619,1,0,0:0:0:0:
128,192,51671,1,0,0:0:0:0:
213,192,51723,1,0,0:0:0:0:
298,192,51775,1,0,0:0:0:0:
384,192,51827,1,0,0:0:0:0:
42,192,51932,1,0,0:0:0:0:
128,192,51932,1,0,0:0:0:0:
469,192,52088,1,0,0:0:0:0:
128,192,52244,1,0,0:0:0:0:
213,192,52244,1,0,0:0:0:0:
298,192,52244,1,0,0:0:0:0:
42,192,52400,1,0,0:0:0:0:
469,192,52557,1,0,0:0:0:0:
384,192,52557,1,0,0:0:0:0:
128,192,52713,1,0,0:0:0:0:
213,192,52713,1,0,0:0:0:0:
298,192,52713,1,0,0:0:0:0:
42,192,52869,1,0,0:0:0:0:
469,192,53025,1,0,0:0:0:0:
213,192,53182,1,0,0:0:0:0:
42,192,53182,1,0,0:0:0:0:
128,192,53182,1,0,0:0:0:0:
384,192,53338,1,0,0:0:0:0:
298,192,53494,1,0,0:0:0:0:
42,192,53650,1,0,0:0:0:0:
128,192,53650,1,0,0:0:0:0:
213,192,53650,1,0,0:0:0:0:
128,192,53807,1,0,0:0:0:0:
469,192,53807,1,0,0:0:0:0:
384,192,53807,1,0,0:0:0:0:
469,192,54119,1,0,0:0:0:0:
384,192,54171,1,0,0:0:0:0:
298,192,54223,1,0,0:0:0:0:
213,192,54275,1,0,0:0:0:0:
128,192,54327,1,0,0:0:0:0:
469,192,54432,1,0,0:0:0:0:
384,192,54432,1,0,0:0:0:0:
213,192,54588,1,0,0:0:0:0:
298,192,54744,1,0,0:0:0:0:
384,192,54744,1,0,0:0:0:0:
469,192,54744,1,0,0:0:0:0:
42,192,54900,1,0,0:0:0:0:
128,192,55057,1,0,0:0:0:0:
213,192,55057,1,0,0:0:0:0:
298,192,55213,1,0,0:0:0:0:
384,192,55213,1,0,0:0:0:0:
469,192,55213,1,0,0:0:0:0:
42,192,55369,1,0,0:0:0:0:
128,192,55421,1,0,0:0:0:0:
213,192,55473,1,0,0:0:0:0:
298,192,55525,1,0,0:0:0:0:
384,192,55577,1,0,0:0:0:0:
42,192,55682,128,0,56307:0:0:0:0:
298,192,56307,128,0,56932:0:0:0:0:
384,192,56932,128,0,57557:0:0:0:0:
128,192,57557,128,0,60057:0:0:0:0:
469,192,58182,128,0,60057:0:0:0:0:
42,192,60682,1,0,0:0:0:0:
213,192,60682,1,0,0:0:0:0:
298,192,60682,1,0,0:0:0:0:
469,192,60682,1,0,0:0:0:0:
42,192,61004,1,0,0:0:0:0:
469,192,61317,1,0,0:0:0:0:
298,192,61317,1,0,0:0:0:0:
128,192,61473,1,0,0:0:0:0:
298,192,61629,1,0,0:0:0:0:
42,192,61785,1,0,0:0:0:0:
213,192,61785,1,0,0:0:0:0:
384,192,61942,1,0,0:0:0:0:
128,192,62098,1,0,0:0:0:0:
298,192,62254,1,0,0:0:0:0:
469,192,62254,1,0,0:0:0:0:
213,192,62567,1,0,0:0:0:0:
128,192,62567,1,0,0:0:0:0:
298,192,62723,1,0,0:0:0:0:
469,192,62723,1,0,0:0:0:0:
213,192,63035,1,0,0:0:0:0:
128,192,63035,1,0,0:0:0:0:
384,192,63192,1,0,0:0:0:0:
469,192,63192,1,0,0:0:0:0:
42,192,63192,1,0,0:0:0:0:
298,192,63504,1,0,0:0:0:0:
42,192,63817,1,0,0:0:0:0:
469,192,63817,1,0,0:0:0:0:
213,192,63973,1,0,0:0:0:0:
298,192,64129,1,0,0:0:0:0:
42,192,64285,1,0,0:0:0:0:
469,192,64285,1,0,0:0:0:0:
213,192,64442,1,0,0:0:0:0:
128,192,64598,1,0,0:0:0:0:
384,192,64754,1,0,0:0:0:0:
469,192,64754,1,0,0:0:0:0:
384,192,65067,1,0,0:0:0:0:
42,192,65067,1,0,0:0:0:0:
469,192,65067,1,0,0:0:0:0:
128,192,65223,1,0,0:0:0:0:
298,192,65379,1,0,0:0:0:0:
213,192,65535,1,0,0:0:0:0:
42,192,65692,1,0,0:0:0:0:
128,192,65692,1,0,0:0:0:0:
469,192,65692,1,0,0:0:0:0:
298,192,66004,1,0,0:0:0:0:
469,192,66317,1,0,0:0:0:0:
213,192,66317,1,0,0:0:0:0:
128,192,66473,1,0,0:0:0:0:
42,192,66629,1,0,0:0:0:0:
298,192,66785,1,0,0:0:0:0:
469,192,66785,1,0,0:0:0:0:
128,192,66942,1,0,0:0:0:0:
213,192,67098,1,0,0:0:0:0:
384,192,67254,1,0,0:0:0:0:
42,192,67254,1,0,0:0:0:0:
128,192,67567,1,0,0:0:0:0:
298,192,67567,1,0,0:0:0:0:
42,192,67723,1,0,0:0:0:0:
384,192,67723,1,0,0:0:0:0:
128,192,68035,1,0,0:0:0:0:
298,192,68035,1,0,0:0:0:0:
42,192,68192,1,0,0:0:0:0:
469,192,68192,1,0,0:0:0:0:
213,192,68192,1,0,0:0:0:0:
298,192,68504,1,0,0:0:0:0:
384,192,68817,1,0,0:0:0:0:
42,192,68817,1,0,0:0:0:0:
213,192,69129,1,0,0:0:0:0:
128,192,69285,1,0,0:0:0:0:
469,192,69285,1,0,0:0:0:0:
298,192,69442,1,0,0:0:0:0:
384,192,69598,1,0,0:0:0:0:
42,192,69754,1,0,0:0:0:0:
469,192,69754,1,0,0:0:0:0:
469,192,70067,1,0,0:0:0:0:
42,192,70067,1,0,0:0:0:0:
298,192,70067,1,0,0:0:0:0:
128,192,70223,1,0,0:0:0:0:
213,192,70379,1,0,0:0:0:0:
298,192,70535,1,0,0:0:0:0:
469,192,70692,1,0,0:0:0:0:
42,192,70692,1,0,0:0:0:0:
128,192,70692,1,0,0:0:0:0:
384,192,70692,1,0,0:0:0:0:
213,192,71004,1,0,0:0:0:0:
469,192,71317,1,0,0:0:0:0:
128,192,71317,1,0,0:0:0:0:
298,192,71629,1,0,0:0:0:0:
42,192,71785,1,0,0:0:0:0:
384,192,71785,1,0,0:0:0:0:
213,192,71942,1,0,0:0:0:0:
298,192,72098,1,0,0:0:0:0:
469,192,72254,1,0,0:0:0:0:
128,192,72254,1,0,0:0:0:0:
213,192,72567,1,0,0:0:0:0:
384,192,72567,1,0,0:0:0:0:
128,192,72723,1,0,0:0:0:0:
469,192,72723,1,0,0:0:0:0:
213,192,73035,1,0,0:0:0:0:
384,192,73035,1,0,0:0:0:0:
42,192,73192,1,0,0:0:0:0:
298,192,73192,1,0,0:0:0:0:
469,192,73192,1,0,0:0:0:0:
128,192,73504,1,0,0:0:0:0:
384,192,73817,1,0,0:0:0:0:
213,192,73817,1,0,0:0:0:0:
42,192,74129,1,0,0:0:0:0:
213,192,74285,1,0,0:0:0:0:
384,192,74285,1,0,0:0:0:0:
469,192,74442,1,0,0:0:0:0:
128,192,74598,1,0,0:0:0:0:
298,192,74754,1,0,0:0:0:0:
384,192,74754,1,0,0:0:0:0:
42,192,75067,1,0,0:0:0:0:
298,192,75067,1,0,0:0:0:0:
384,192,75067,1,0,0:0:0:0:
213,192,75223,1,0,0:0:0:0:
128,192,75379,1,0,0:0:0:0:
298,192,75535,1,0,0:0:0:0:
469,192,75692,1,0,0:0:0:0:
384,192,75692,1,0,0:0:0:0:
42,192,75692,1,0,0:0:0:0:
128,192,76317,1,0,0:0:0:0:
384,192,76317,1,0,0:0:0:0:
213,192,76629,1,0,0:0:0:0:
469,192,76785,1,0,0:0:0:0:
128,192,76785,1,0,0:0:0:0:
384,192,76942,1,0,0:0:0:0:
42,192,77098,1,0,0:0:0:0:
128,192,77254,1,0,0:0:0:0:
469,192,77254,1,0,0:0:0:0:
213,192,77254,1,0,0:0:0:0:
384,192,77567,1,0,0:0:0:0:
298,192,77567,1,0,0:0:0:0:
42,192,77723,1,0,0:0:0:0:
469,192,77723,1,0,0:0:0:0:
213,192,77723,1,0,0:0:0:0:
128,192,78035,1,0,0:0:0:0:
213,192,78035,1,0,0:0:0:0:
42,192,78192,1,0,0:0:0:0:
469,192,78192,1,0,0:0:0:0:
298,192,78192,1,0,0:0:0:0:
469,192,78817,128,0,79442:0:0:0:0:
42,192,78817,1,0,0:0:0:0:
384,192,78817,1,0,0:0:0:0:
213,192,78817,1,0,0:0:0:0:
298,192,79129,1,0,0:0:0:0:
128,192,79285,1,0,0:0:0:0:
213,192,79363,1,0,0:0:0:0:
298,192,79442,1,0,0:0:0:0:
42,192,79442,1,0,0:0:0:0:
384,192,79442,1,0,0:0:0:0:
128,192,79598,1,0,0:0:0:0:
298,192,79754,1,0,0:0:0:0:
213,192,79910,1,0,0:0:0:0:
469,192,80067,1,0,0:0:0:0:
42,192,80067,1,0,0:0:0:0:
384,192,80223,1,0,0:0:0:0:
42,192,80692,1,0,0:0:0:0:
213,192,80692,1,0,0:0:0:0:
298,192,81004,1,0,0:0:0:0:
469,192,81317,1,0,0:0:0:0:
213,192,81317,1,0,0:0:0:0:
42,192,81629,1,0,0:0:0:0:
128,192,81942,1,0,0:0:0:0:
213,192,82254,1,0,0:0:0:0:
384,192,82254,1,0,0:0:0:0:
42,192,82567,1,0,0:0:0:0:
469,192,82567,1,0,0:0:0:0:
213,192,82879,1,0,0:0:0:0:
42,192,83192,128,0,83348:0:0:0:0:
128,192,83192,1,0,0:0:0:0:
384,192,83192,1,0,0:0:0:0:
42,192,83504,128,0,83660:0:0:0:0:
298,192,83504,1,0,0:0:0:0:
42,192,83817,128,0,83973:0:0:0:0:
469,192,83817,1,0,0:0:0:0:
128,192,83817,1,0,0:0:0:0:
42,192,84129,128,0,84285:0:0:0:0:
213,192,84129,1,0,0:0:0:0:
42,192,84442,128,0,84598:0:0:0:0:
298,192,84442,1,0,0:0:0:0:
42,192,84754,128,0,84910:0:0:0:0:
384,192,84754,1,0,0:0:0:0:
128,192,84754,1,0,0:0:0:0:
42,192,85067,128,0,85223:0:0:0:0:
213,192,85067,1,0,0:0:0:0:
469,192,85067,1,0,0:0:0:0:
42,192,85379,128,0,85535:0:0:0:0:
298,192,85379,1,0,0:0:0:0:
128,192,85692,1,0,0:0:0:0:
469,192,85692,128,0,85848:0:0:0:0:
213,192,85692,1,0,0:0:0:0:
469,192,86004,128,0,86160:0:0:0:0:
298,192,86004,1,0,0:0:0:0:
469,192,86317,128,0,86473:0:0:0:0:
384,192,86317,1,0,0:0:0:0:
42,192,86317,1,0,0:0:0:0:
469,192,86629,128,0,86785:0:0:0:0:
128,192,86629,1,0,0:0:0:0:
469,192,86942,128,0,87098:0:0:0:0:
213,192,86942,1,0,0:0:0:0:
469,192,87254,128,0,87410:0:0:0:0:
42,192,87254,1,0,0:0:0:0:
298,192,87254,1,0,0:0:0:0:
469,192,87567,128,0,87723:0:0:0:0:
384,192,87567,1,0,0:0:0:0:
128,192,87567,1,0,0:0:0:0:
469,192,87879,128,0,88035:0:0:0:0:
213,192,87879,1,0,0:0:0:0:
128,192,88192,128,0,88348:0:0:0:0:
298,192,88192,1,0,0:0:0:0:
384,192,88504,1,0,0:0:0:0:
128,192,88504,128,0,88660:0:0:0:0:
469,192,88817,1,0,0:0:0:0:
128,192,88817,128,0,88973:0:0:0:0:
213,192,89129,1,0,0:0:0:0:
128,192,89129,128,0,89285:0:0:0:0:
298,192,89442,1,0,0:0:0:0:
128,192,89442,128,0,89598:0:0:0:0:
384,192,89754,1,0,0:0:0:0:
128,192,89754,128,0,89910:0:0:0:0:
42,192,90692,1,0,0:0:0:0:
298,192,90692,1,0,0:0:0:0:
469,192,90692,1,0,0:0:0:0:
128,192,90848,1,0,0:0:0:0:
384,192,91004,1,0,0:0:0:0:
298,192,91160,1,0,0:0:0:0:
469,192,91317,1,0,0:0:0:0:
128,192,91317,1,0,0:0:0:0:
213,192,91317,1,0,0:0:0:0:
42,192,91473,1,0,0:0:0:0:
384,192,91629,1,0,0:0:0:0:
213,192,91785,1,0,0:0:0:0:
298,192,91863,1,0,0:0:0:0:
42,192,91942,1,0,0:0:0:0:
384,192,91942,1,0,0:0:0:0:
128,192,92098,1,0,0:0:0:0:
213,192,92254,1,0,0:0:0:0:
298,192,92254,1,0,0:0:0:0:
469,192,92410,1,0,0:0:0:0:
42,192,92567,1,0,0:0:0:0:
128,192,92567,1,0,0:0:0:0:
384,192,92567,1,0,0:0:0:0:
298,192,92723,1,0,0:0:0:0:
213,192,92879,1,0,0:0:0:0:
42,192,93035,1,0,0:0:0:0:
128,192,93113,1,0,0:0:0:0:
298,192,93192,1,0,0:0:0:0:
213,192,93192,1,0,0:0:0:0:
469,192,93192,128,0,93348:0:0:0:0:
42,192,93348,1,0,0:0:0:0:
469,192,93504,128,0,93660:0:0:0:0:
298,192,93504,1,0,0:0:0:0:
128,192,93660,1,0,0:0:0:0:
384,192,93817,1,0,0:0:0:0:
469,192,93817,128,0,93973:0:0:0:0:
298,192,93817,1,0,0:0:0:0:
42,192,93817,1,0,0:0:0:0:
213,192,93973,1,0,0:0:0:0:
42,192,94129,1,0,0:0:0:0:
469,192,94129,128,0,94285:0:0:0:0:
384,192,94285,1,0,0:0:0:0:
298,192,94363,1,0,0:0:0:0:
128,192,94442,1,0,0:0:0:0:
213,192,94442,1,0,0:0:0:0:
469,192,94442,128,0,94598:0:0:0:0:
42,192,94442,1,0,0:0:0:0:
298,192,94598,1,0,0:0:0:0:
469,192,94754,128,0,94910:0:0:0:0:
384,192,94754,1,0,0:0:0:0:
128,192,94754,1,0,0:0:0:0:
213,192,94910,1,0,0:0:0:0:
469,192,95067,128,0,95223:0:0:0:0:
42,192,95067,1,0,0:0:0:0:
298,192,95067,1,0,0:0:0:0:
384,192,95067,1,0,0:0:0:0:
128,192,95223,1,0,0:0:0:0:
469,192,95379,128,0,95535:0:0:0:0:
298,192,95379,1,0,0:0:0:0:
213,192,95379,1,0,0:0:0:0:
384,192,95535,1,0,0:0:0:0:
298,192,95613,1,0,0:0:0:0:
42,192,95692,128,0,95848:0:0:0:0:
128,192,95692,1,0,0:0:0:0:
213,192,95692,1,0,0:0:0:0:
384,192,95848,1,0,0:0:0:0:
42,192,96004,128,0,96160:0:0:0:0:
213,192,96004,1,0,0:0:0:0:
298,192,96160,1,0,0:0:0:0:
42,192,96317,128,0,96473:0:0:0:0:
128,192,96317,1,0,0:0:0:0:
384,192,96317,1,0,0:0:0:0:
469,192,96317,1,0,0:0:0:0:
213,192,96473,1,0,0:0:0:0:
42,192,96629,128,0,96785:0:0:0:0:
298,192,96629,1,0,0:0:0:0:
469,192,96785,1,0,0:0:0:0:
384,192,96863,1,0,0:0:0:0:
42,192,96942,128,0,97098:0:0:0:0:
128,192,96942,1,0,0:0:0:0:
298,192,96942,1,0,0:0:0:0:
213,192,97098,1,0,0:0:0:0:
42,192,97254,128,0,97410:0:0:0:0:
298,192,97254,1,0,0:0:0:0:
469,192,97254,1,0,0:0:0:0:
384,192,97410,1,0,0:0:0:0:
42,192,97567,128,0,97723:0:0:0:0:
128,192,97567,1,0,0:0:0:0:
213,192,97567,1,0,0:0:0:0:
469,192,97567,1,0,0:0:0:0:
298,192,97723,1,0,0:0:0:0:
42,192,97879,128,0,98035:0:0:0:0:
384,192,97879,1,0,0:0:0:0:
128,192,98035,1,0,0:0:0:0:
213,192,98113,1,0,0:0:0:0:
384,192,98192,128,0,98348:0:0:0:0:
298,192,98192,1,0,0:0:0:0:
42,192,98192,1,0,0:0:0:0:
128,192,98348,1,0,0:0:0:0:
384,192,98504,128,0,98660:0:0:0:0:
213,192,98504,1,0,0:0:0:0:
42,192,98660,1,0,0:0:0:0:
384,192,98817,128,0,98973:0:0:0:0:
213,192,98817,1,0,0:0:0:0:
298,192,98817,1,0,0:0:0:0:
469,192,98817,1,0,0:0:0:0:
128,192,98973,1,0,0:0:0:0:
384,192,99129,128,0,99285:0:0:0:0:
42,192,99129,1,0,0:0:0:0:
298,192,99285,1,0,0:0:0:0:
213,192,99363,1,0,0:0:0:0:
384,192,99442,128,0,99598:0:0:0:0:
128,192,99442,1,0,0:0:0:0:
42,192,99442,1,0,0:0:0:0:
298,192,99598,1,0,0:0:0:0:
384,192,99754,128,0,99910:0:0:0:0:
213,192,99754,1,0,0:0:0:0:
128,192,99754,1,0,0:0:0:0:
42,192,99910,1,0,0:0:0:0:
384,192,100067,128,0,100223:0:0:0:0:
128,192,100067,1,0,0:0:0:0:
213,192,100067,1,0,0:0:0:0:
298,192,100067,1,0,0:0:0:0:
42,192,100223,1,0,0:0:0:0:
384,192,100379,128,0,100535:0:0:0:0:
298,192,100379,1,0,0:0:0:0:
128,192,100535,1,0,0:0:0:0:
213,192,100613,1,0,0:0:0:0:
298,192,100692,1,0,0:0:0:0:
469,192,100692,1,0,0:0:0:0:
42,192,100692,1,0,0:0:0:0:
384,192,100848,1,0,0:0:0:0:
128,192,101004,1,0,0:0:0:0:
469,192,101160,1,0,0:0:0:0:
42,192,101317,1,0,0:0:0:0:
213,192,101317,1,0,0:0:0:0:
384,192,101317,1,0,0:0:0:0:
298,192,101473,1,0,0:0:0:0:
128,192,101629,1,0,0:0:0:0:
469,192,101785,1,0,0:0:0:0:
384,192,101863,1,0,0:0:0:0:
298,192,101942,1,0,0:0:0:0:
42,192,101942,1,0,0:0:0:0:
128,192,102098,1,0,0:0:0:0:
213,192,102254,1,0,0:0:0:0:
469,192,102254,1,0,0:0:0:0:
298,192,102410,1,0,0:0:0:0:
384,192,102567,1,0,0:0:0:0:
469,192,102567,1,0,0:0:0:0:
42,192,102567,1,0,0:0:0:0:
213,192,102723,1,0,0:0:0:0:
384,192,102879,1,0,0:0:0:0:
42,192,103035,1,0,0:0:0:0:
128,192,103113,1,0,0:0:0:0:
298,192,103192,1,0,0:0:0:0:
213,192,103192,1,0,0:0:0:0:
469,192,103192,128,0,103348:0:0:0:0:
42,192,103348,1,0,0:0:0:0:
469,192,103504,128,0,103660:0:0:0:0:
213,192,103504,1,0,0:0:0:0:
128,192,103660,1,0,0:0:0:0:
469,192,103817,128,0,103973:0:0:0:0:
384,192,103817,1,0,0:0:0:0:
42,192,103817,1,0,0:0:0:0:
213,192,103817,1,0,0:0:0:0:
298,192,103973,1,0,0:0:0:0:
469,192,104129,128,0,104285:0:0:0:0:
384,192,104129,1,0,0:0:0:0:
42,192,104285,1,0,0:0:0:0:
128,192,104363,1,0,0:0:0:0:
469,192,104442,128,0,104598:0:0:0:0:
213,192,104442,1,0,0:0:0:0:
384,192,104598,1,0,0:0:0:0:
469,192,104754,128,0,104910:0:0:0:0:
42,192,104754,1,0,0:0:0:0:
298,192,104754,1,0,0:0:0:0:
213,192,104910,1,0,0:0:0:0:
469,192,105067,128,0,105223:0:0:0:0:
384,192,105067,1,0,0:0:0:0:
298,192,105067,1,0,0:0:0:0:
128,192,105067,1,0,0:0:0:0:
42,192,105223,1,0,0:0:0:0:
469,192,105379,128,0,105535:0:0:0:0:
298,192,105379,1,0,0:0:0:0:
128,192,105535,1,0,0:0:0:0:
213,192,105613,1,0,0:0:0:0:
42,192,105692,128,0,105848:0:0:0:0:
298,192,105692,1,0,0:0:0:0:
384,192,105692,1,0,0:0:0:0:
469,192,105848,1,0,0:0:0:0:
42,192,106004,128,0,106160:0:0:0:0:
128,192,106004,1,0,0:0:0:0:
298,192,106160,1,0,0:0:0:0:
42,192,106317,128,0,106473:0:0:0:0:
213,192,106317,1,0,0:0:0:0:
384,192,106317,1,0,0:0:0:0:
469,192,106317,1,0,0:0:0:0:
128,192,106473,1,0,0:0:0:0:
42,192,106629,128,0,106785:0:0:0:0:
469,192,106629,1,0,0:0:0:0:
298,192,106785,1,0,0:0:0:0:
384,192,106863,1,0,0:0:0:0:
42,192,106942,128,0,107098:0:0:0:0:
469,192,106942,1,0,0:0:0:0:
213,192,106942,1,0,0:0:0:0:
298,192,107098,1,0,0:0:0:0:
42,192,107254,128,0,107410:0:0:0:0:
469,192,107254,1,0,0:0:0:0:
128,192,107254,1,0,0:0:0:0:
384,192,107410,1,0,0:0:0:0:
42,192,107567,128,0,107723:0:0:0:0:
469,192,107567,1,0,0:0:0:0:
298,192,107567,1,0,0:0:0:0:
213,192,107567,1,0,0:0:0:0:
128,192,107723,1,0,0:0:0:0:
42,192,107879,128,0,108035:0:0:0:0:
384,192,107879,1,0,0:0:0:0:
128,192,108035,1,0,0:0:0:0:
213,192,108113,1,0,0:0:0:0:
384,192,108192,128,0,108348:0:0:0:0:
298,192,108192,1,0,0:0:0:0:
42,192,108192,1,0,0:0:0:0:
128,192,108348,1,0,0:0:0:0:
384,192,108504,128,0,108660:0:0:0:0:
298,192,108504,1,0,0:0:0:0:
213,192,108660,1,0,0:0:0:0:
384,192,108817,128,0,108973:0:0:0:0:
42,192,108817,1,0,0:0:0:0:
469,192,108817,1,0,0:0:0:0:
128,192,108817,1,0,0:0:0:0:
298,192,108973,1,0,0:0:0:0:
384,192,109129,128,0,109285:0:0:0:0:
42,192,109129,1,0,0:0:0:0:
213,192,109285,1,0,0:0:0:0:
128,192,109363,1,0,0:0:0:0:
384,192,109442,128,0,109598:0:0:0:0:
469,192,109442,1,0,0:0:0:0:
42,192,109442,128,0,109520:0:0:0:0:
213,192,109598,128,0,109676:0:0:0:0:
384,192,109754,128,0,109910:0:0:0:0:
128,192,109754,128,0,109832:0:0:0:0:
298,192,109754,1,0,0:0:0:0:
42,192,109910,1,0,0:0:0:0:
384,192,110067,128,0,110223:0:0:0:0:
469,192,110067,1,0,0:0:0:0:
213,192,110067,1,0,0:0:0:0:
298,192,110067,128,0,110145:0:0:0:0:
128,192,110223,1,0,0:0:0:0:
384,192,110379,128,0,110535:0:0:0:0:
42,192,110379,128,0,110457:0:0:0:0:
213,192,110535,1,0,0:0:0:0:
128,192,110613,1,0,0:0:0:0:
298,192,110692,1,0,0:0:0:0:
384,192,110692,1,0,0:0:0:0:
469,192,110692,1,0,0:0:0:0:
42,192,110692,1,0,0:0:0:0:
213,192,111004,1,0,0:0:0:0:
42,192,111160,1,0,0:0:0:0:
469,192,111317,1,0,0:0:0:0:
298,192,111317,1,0,0:0:0:0:
128,192,111317,1,0,0:0:0:0:
384,192,111629,1,0,0:0:0:0:
298,192,111681,1,0,0:0:0:0:
213,192,111733,1,0,0:0:0:0:
128,192,111785,1,0,0:0:0:0:
42,192,111837,1,0,0:0:0:0:
384,192,111942,1,0,0:0:0:0:
469,192,111942,1,0,0:0:0:0:
213,192,112254,1,0,0:0:0:0:
128,192,112254,1,0,0:0:0:0:
42,192,112567,1,0,0:0:0:0:
298,192,112567,1,0,0:0:0:0:
469,192,112567,1,0,0:0:0:0:
128,192,112723,1,0,0:0:0:0:
384,192,112879,1,0,0:0:0:0:
213,192,113035,1,0,0:0:0:0:
298,192,113113,1,0,0:0:0:0:
128,192,113192,1,0,0:0:0:0:
469,192,113192,1,0,0:0:0:0:
42,192,113192,128,0,113348:0:0:0:0:
42,192,113504,128,0,113660:0:0:0:0:
384,192,113504,1,0,0:0:0:0:
213,192,113660,1,0,0:0:0:0:
42,192,113817,128,0,113973:0:0:0:0:
128,192,113817,1,0,0:0:0:0:
469,192,113817,1,0,0:0:0:0:
298,192,113817,1,0,0:0:0:0:
42,192,114129,128,0,114285:0:0:0:0:
469,192,114129,1,0,0:0:0:0:
384,192,114181,1,0,0:0:0:0:
298,192,114233,1,0,0:0:0:0:
213,192,114285,1,0,0:0:0:0:
128,192,114337,1,0,0:0:0:0:
42,192,114442,128,0,114598:0:0:0:0:
384,192,114442,1,0,0:0:0:0:
469,192,114442,128,0,114520:0:0:0:0:
42,192,114754,128,0,114910:0:0:0:0:
128,192,114754,1,0,0:0:0:0:
213,192,114754,128,0,114832:0:0:0:0:
298,192,114910,1,0,0:0:0:0:
42,192,115067,128,0,115223:0:0:0:0:
469,192,115067,1,0,0:0:0:0:
384,192,115067,128,0,115145:0:0:0:0:
128,192,115067,1,0,0:0:0:0:
298,192,115223,1,0,0:0:0:0:
42,192,115379,128,0,115535:0:0:0:0:
128,192,115379,128,0,115457:0:0:0:0:
469,192,115379,1,0,0:0:0:0:
384,192,115431,1,0,0:0:0:0:
298,192,115483,1,0,0:0:0:0:
213,192,115535,1,0,0:0:0:0:
128,192,115587,1,0,0:0:0:0:
298,192,115692,1,0,0:0:0:0:
384,192,115692,1,0,0:0:0:0:
469,192,115692,128,0,115848:0:0:0:0:
469,192,116004,128,0,116160:0:0:0:0:
42,192,116004,1,0,0:0:0:0:
128,192,116160,1,0,0:0:0:0:
469,192,116317,128,0,116473:0:0:0:0:
213,192,116317,1,0,0:0:0:0:
384,192,116317,1,0,0:0:0:0:
42,192,116317,1,0,0:0:0:0:
469,192,116629,128,0,116785:0:0:0:0:
42,192,116629,1,0,0:0:0:0:
128,192,116681,1,0,0:0:0:0:
213,192,116733,1,0,0:0:0:0:
298,192,116785,1,0,0:0:0:0:
384,192,116837,1,0,0:0:0:0:
469,192,116942,128,0,117098:0:0:0:0:
42,192,116942,1,0,0:0:0:0:
128,192,116942,1,0,0:0:0:0:
469,192,117254,128,0,117410:0:0:0:0:
298,192,117254,1,0,0:0:0:0:
384,192,117254,1,0,0:0:0:0:
213,192,117410,1,0,0:0:0:0:
469,192,117567,128,0,117723:0:0:0:0:
42,192,117567,1,0,0:0:0:0:
128,192,117567,1,0,0:0:0:0:
384,192,117567,1,0,0:0:0:0:
298,192,117723,1,0,0:0:0:0:
469,192,117879,128,0,118035:0:0:0:0:
42,192,117879,1,0,0:0:0:0:
213,192,117879,1,0,0:0:0:0:
128,192,118035,1,0,0:0:0:0:
213,192,118113,1,0,0:0:0:0:
298,192,118192,1,0,0:0:0:0:
469,192,118192,1,0,0:0:0:0:
42,192,118192,128,0,118348:0:0:0:0:
42,192,118504,128,0,118660:0:0:0:0:
128,192,118504,1,0,0:0:0:0:
213,192,118660,1,0,0:0:0:0:
298,192,118660,1,0,0:0:0:0:
42,192,118817,128,0,118973:0:0:0:0:
469,192,118817,1,0,0:0:0:0:
128,192,118817,1,0,0:0:0:0:
384,192,118817,1,0,0:0:0:0:
42,192,119129,128,0,119285:0:0:0:0:
469,192,119129,1,0,0:0:0:0:
384,192,119181,1,0,0:0:0:0:
298,192,119233,1,0,0:0:0:0:
213,192,119285,1,0,0:0:0:0:
128,192,119337,1,0,0:0:0:0:
42,192,119442,128,0,119598:0:0:0:0:
469,192,119442,1,0,0:0:0:0:
298,192,119442,128,0,119520:0:0:0:0:
384,192,119598,128,0,119676:0:0:0:0:
42,192,119754,128,0,119910:0:0:0:0:
469,192,119754,128,0,119832:0:0:0:0:
213,192,119754,1,0,0:0:0:0:
42,192,120067,128,0,120223:0:0:0:0:
384,192,120067,1,0,0:0:0:0:
469,192,120067,1,0,0:0:0:0:
128,192,120067,128,0,120145:0:0:0:0:
213,192,120223,1,0,0:0:0:0:
298,192,120223,1,0,0:0:0:0:
42,192,120379,128,0,120535:0:0:0:0:
469,192,120379,128,0,120457:0:0:0:0:
384,192,120535,1,0,0:0:0:0:
298,192,120613,1,0,0:0:0:0:
128,192,120692,1,0,0:0:0:0:
213,192,120692,1,0,0:0:0:0:
128,192,121004,1,0,0:0:0:0:
213,192,121004,1,0,0:0:0:0:
128,192,121317,1,0,0:0:0:0:
213,192,121317,1,0,0:0:0:0:
128,192,121629,1,0,0:0:0:0:
213,192,121629,1,0,0:0:0:0:
128,192,121942,1,0,0:0:0:0:
213,192,121942,1,0,0:0:0:0:
298,192,122254,1,0,0:0:0:0:
42,192,122254,1,0,0:0:0:0:
42,192,122567,1,0,0:0:0:0:
298,192,122567,1,0,0:0:0:0:
42,192,122879,1,0,0:0:0:0:
298,192,122879,1,0,0:0:0:0:
128,192,123192,1,0,0:0:0:0:
384,192,123192,1,0,0:0:0:0:
128,192,123504,1,0,0:0:0:0:
384,192,123504,1,0,0:0:0:0:
128,192,123817,1,0,0:0:0:0:
384,192,123817,1,0,0:0:0:0:
128,192,124129,1,0,0:0:0:0:
384,192,124129,1,0,0:0:0:0:
128,192,124442,1,0,0:0:0:0:
384,192,124442,1,0,0:0:0:0:
469,192,124754,128,0,124793:0:0:0:0:
42,192,124754,128,0,124793:0:0:0:0:
469,192,125067,128,0,125145:0:0:0:0:
42,192,125067,128,0,125145:0:0:0:0:
42,192,125379,128,0,125496:0:0:0:0:
469,192,125379,128,0,125496:0:0:0:0:
128,192,125692,128,0,125848:0:0:0:0:
384,192,125692,128,0,125848:0:0:0:0:
128,192,126004,128,0,126160:0:0:0:0:
384,192,126004,128,0,126160:0:0:0:0:
128,192,126317,128,0,126473:0:0:0:0:
384,192,126317,128,0,126473:0:0:0:0:
128,192,126629,128,0,126785:0:0:0:0:
384,192,126629,128,0,126785:0:0:0:0:
128,192,126942,128,0,127098:0:0:0:0:
384,192,126942,128,0,127098:0:0:0:0:
298,192,127254,128,0,127410:0:0:0:0:
469,192,127254,128,0,127410:0:0:0:0:
298,192,127567,128,0,127723:0:0:0:0:
469,192,127567,128,0,127723:0:0:0:0:
298,192,127879,128,0,128035:0:0:0:0:
469,192,127879,128,0,128035:0:0:0:0:
42,192,128192,1,0,0:0:0:0:
298,192,128192,1,0,0:0:0:0:
213,192,128192,1,0,0:0:0:0:
469,192,128192,1,0,0:0:0:0:
128,192,128504,1,0,0:0:0:0:
42,192,128817,1,0,0:0:0:0:
384,192,128817,1,0,0:0:0:0:
298,192,128817,1,0,0:0:0:0:
128,192,129129,1,0,0:0:0:0:
213,192,129181,1,0,0:0:0:0:
298,192,129233,1,0,0:0:0:0:
384,192,129285,1,0,0:0:0:0:
469,192,129337,1,0,0:0:0:0:
42,192,129442,1,0,0:0:0:0:
128,192,129754,1,0,0:0:0:0:
298,192,129754,1,0,0:0:0:0:
213,192,129910,1,0,0:0:0:0:
298,192,130067,1,0,0:0:0:0:
469,192,130067,1,0,0:0:0:0:
42,192,130067,1,0,0:0:0:0:
128,192,130379,1,0,0:0:0:0:
384,192,130535,1,0,0:0:0:0:
298,192,130613,1,0,0:0:0:0:
213,192,130692,1,0,0:0:0:0:
469,192,130692,1,0,0:0:0:0:
42,192,131004,1,0,0:0:0:0:
298,192,131160,1,0,0:0:0:0:
42,192,131317,1,0,0:0:0:0:
213,192,131317,1,0,0:0:0:0:
469,192,131317,1,0,0:0:0:0:
384,192,131629,1,0,0:0:0:0:
298,192,131681,1,0,0:0:0:0:
213,192,131733,1,0,0:0:0:0:
128,192,131785,1,0,0:0:0:0:
42,192,131837,1,0,0:0:0:0:
469,192,131942,1,0,0:0:0:0:
128,192,132254,1,0,0:0:0:0:
298,192,132254,1,0,0:0:0:0:
384,192,132410,1,0,0:0:0:0:
42,192,132567,1,0,0:0:0:0:
213,192,132567,1,0,0:0:0:0:
469,192,132567,1,0,0:0:0:0:
298,192,132723,1,0,0:0:0:0:
128,192,132879,1,0,0:0:0:0:
213,192,132931,1,0,0:0:0:0:
298,192,132983,1,0,0:0:0:0:
384,192,133035,1,0,0:0:0:0:
469,192,133087,1,0,0:0:0:0:
42,192,133192,1,0,0:0:0:0:
213,192,133192,1,0,0:0:0:0:
384,192,133504,1,0,0:0:0:0:
128,192,133660,1,0,0:0:0:0:
298,192,133817,1,0,0:0:0:0:
469,192,133817,1,0,0:0:0:0:
128,192,134129,1,0,0:0:0:0:
213,192,134181,1,0,0:0:0:0:
298,192,134233,1,0,0:0:0:0:
384,192,134285,1,0,0:0:0:0:
469,192,134337,1,0,0:0:0:0:
42,192,134442,1,0,0:0:0:0:
128,192,134598,1,0,0:0:0:0:
213,192,134754,1,0,0:0:0:0:
469,192,134754,1,0,0:0:0:0:
298,192,134910,1,0,0:0:0:0:
469,192,135067,1,0,0:0:0:0:
384,192,135067,1,0,0:0:0:0:
42,192,135067,1,0,0:0:0:0:
298,192,135379,1,0,0:0:0:0:
128,192,135535,1,0,0:0:0:0:
213,192,135613,1,0,0:0:0:0:
298,192,135692,1,0,0:0:0:0:
42,192,135692,1,0,0:0:0:0:
469,192,136004,1,0,0:0:0:0:
298,192,136160,1,0,0:0:0:0:
42,192,136317,1,0,0:0:0:0:
213,192,136317,1,0,0:0:0:0:
469,192,136317,1,0,0:0:0:0:
384,192,136629,1,0,0:0:0:0:
298,192,136681,1,0,0:0:0:0:
213,192,136733,1,0,0:0:0:0:
128,192,136785,1,0,0:0:0:0:
42,192,136837,1,0,0:0:0:0:
384,192,136942,1,0,0:0:0:0:
469,192,136942,1,0,0:0:0:0:
213,192,137254,1,0,0:0:0:0:
128,192,137254,1,0,0:0:0:0:
298,192,137410,1,0,0:0:0:0:
384,192,137410,1,0,0:0:0:0:
42,192,137567,1,0,0:0:0:0:
469,192,137567,1,0,0:0:0:0:
298,192,138192,1,0,0:0:0:0:
469,192,138192,1,0,0:0:0:0:
42,192,138192,1,0,0:0:0:0:
128,192,138192,1,0,0:0:0:0:
384,192,138504,1,0,0:0:0:0:
128,192,138817,1,0,0:0:0:0:
469,192,138817,1,0,0:0:0:0:
213,192,139129,1,0,0:0:0:0:
42,192,139285,1,0,0:0:0:0:
298,192,139285,1,0,0:0:0:0:
384,192,139598,1,0,0:0:0:0:
128,192,139754,1,0,0:0:0:0:
469,192,139754,1,0,0:0:0:0:
42,192,140067,1,0,0:0:0:0:
384,192,140067,1,0,0:0:0:0:
469,192,140223,1,0,0:0:0:0:
128,192,140223,1,0,0:0:0:0:
298,192,140535,1,0,0:0:0:0:
384,192,140535,1,0,0:0:0:0:
42,192,140692,1,0,0:0:0:0:
213,192,140692,1,0,0:0:0:0:
469,192,140692,1,0,0:0:0:0:
128,192,141004,1,0,0:0:0:0:
42,192,141317,1,0,0:0:0:0:
384,192,141317,1,0,0:0:0:0:
213,192,141629,1,0,0:0:0:0:
298,192,141785,1,0,0:0:0:0:
469,192,141785,1,0,0:0:0:0:
128,192,142098,1,0,0:0:0:0:
42,192,142254,1,0,0:0:0:0:
213,192,142254,1,0,0:0:0:0:
384,192,142254,1,0,0:0:0:0:
128,192,142567,1,0,0:0:0:0:
213,192,142567,1,0,0:0:0:0:
469,192,142567,1,0,0:0:0:0:
298,192,142723,1,0,0:0:0:0:
384,192,142879,1,0,0:0:0:0:
469,192,143035,1,0,0:0:0:0:
42,192,143192,1,0,0:0:0:0:
298,192,143192,1,0,0:0:0:0:
128,192,143192,1,0,0:0:0:0:
469,192,143504,1,0,0:0:0:0:
128,192,143817,1,0,0:0:0:0:
384,192,143817,1,0,0:0:0:0:
298,192,144129,1,0,0:0:0:0:
42,192,144285,1,0,0:0:0:0:
213,192,144285,1,0,0:0:0:0:
469,192,144598,1,0,0:0:0:0:
128,192,144754,1,0,0:0:0:0:
384,192,144754,1,0,0:0:0:0:
213,192,144754,1,0,0:0:0:0:
298,192,145067,1,0,0:0:0:0:
213,192,145223,1,0,0:0:0:0:
42,192,145223,1,0,0:0:0:0:
469,192,145223,1,0,0:0:0:0:
128,192,145535,1,0,0:0:0:0:
213,192,145692,1,0,0:0:0:0:
384,192,145692,1,0,0:0:0:0:
469,192,145692,1,0,0:0:0:0:
298,192,146004,1,0,0:0:0:0:
42,192,146317,1,0,0:0:0:0:
384,192,146317,1,0,0:0:0:0:
213,192,146629,1,0,0:0:0:0:
128,192,146785,1,0,0:0:0:0:
469,192,146785,1,0,0:0:0:0:
298,192,147098,1,0,0:0:0:0:
384,192,147254,1,0,0:0:0:0:
42,192,147254,1,0,0:0:0:0:
42,192,147567,1,0,0:0:0:0:
213,192,147567,1,0,0:0:0:0:
384,192,147567,1,0,0:0:0:0:
128,192,147723,1,0,0:0:0:0:
384,192,147879,1,0,0:0:0:0:
298,192,148035,1,0,0:0:0:0:
42,192,148192,1,0,0:0:0:0:
128,192,148192,1,0,0:0:0:0:
384,192,148192,1,0,0:0:0:0:
469,192,148192,1,0,0:0:0:0:
213,192,148504,1,0,0:0:0:0:
298,192,148817,1,0,0:0:0:0:
469,192,148817,1,0,0:0:0:0:
128,192,149129,1,0,0:0:0:0:
384,192,149285,1,0,0:0:0:0:
42,192,149285,1,0,0:0:0:0:
213,192,149442,1,0,0:0:0:0:
298,192,149598,1,0,0:0:0:0:
128,192,149754,1,0,0:0:0:0:
469,192,149754,1,0,0:0:0:0:
42,192,150067,1,0,0:0:0:0:
384,192,150067,1,0,0:0:0:0:
128,192,150223,1,0,0:0:0:0:
213,192,150223,1,0,0:0:0:0:
469,192,150223,1,0,0:0:0:0:
298,192,150535,1,0,0:0:0:0:
42,192,150535,1,0,0:0:0:0:
128,192,150692,1,0,0:0:0:0:
384,192,150692,1,0,0:0:0:0:
469,192,150692,1,0,0:0:0:0:
213,192,151004,1,0,0:0:0:0:
469,192,151317,1,0,0:0:0:0:
298,192,151317,1,0,0:0:0:0:
42,192,151629,1,0,0:0:0:0:
128,192,151785,1,0,0:0:0:0:
384,192,151785,1,0,0:0:0:0:
213,192,151942,1,0,0:0:0:0:
469,192,152098,1,0,0:0:0:0:
298,192,152254,1,0,0:0:0:0:
42,192,152254,1,0,0:0:0:0:
42,192,152567,1,0,0:0:0:0:
298,192,152567,1,0,0:0:0:0:
469,192,152567,1,0,0:0:0:0:
128,192,152723,1,0,0:0:0:0:
213,192,152879,1,0,0:0:0:0:
298,192,153035,1,0,0:0:0:0:
384,192,153192,1,0,0:0:0:0:
469,192,153192,1,0,0:0:0:0:
128,192,153192,1,0,0:0:0:0:
42,192,153817,1,0,0:0:0:0:
298,192,153817,1,0,0:0:0:0:
469,192,154129,1,0,0:0:0:0:
128,192,154285,1,0,0:0:0:0:
384,192,154285,1,0,0:0:0:0:
298,192,154442,1,0,0:0:0:0:
42,192,154598,1,0,0:0:0:0:
213,192,154754,1,0,0:0:0:0:
469,192,154754,1,0,0:0:0:0:
128,192,154754,1,0,0:0:0:0:
298,192,155067,1,0,0:0:0:0:
128,192,155223,1,0,0:0:0:0:
213,192,155223,1,0,0:0:0:0:
469,192,155223,1,0,0:0:0:0:
42,192,155535,1,0,0:0:0:0:
213,192,155692,1,0,0:0:0:0:
384,192,155692,1,0,0:0:0:0:
469,192,155692,1,0,0:0:0:0:
469,192,156317,1,0,0:0:0:0:
42,192,156317,128,0,156942:0:0:0:0:
298,192,156317,1,0,0:0:0:0:
128,192,156317,1,0,0:0:0:0:
128,192,156785,1,0,0:0:0:0:
213,192,156863,1,0,0:0:0:0:
298,192,156942,1,0,0:0:0:0:
469,192,156942,1,0,0:0:0:0:
128,192,157098,1,0,0:0:0:0:
384,192,157254,1,0,0:0:0:0:
213,192,157410,1,0,0:0:0:0:
469,192,157567,1,0,0:0:0:0:
42,192,157567,1,0,0:0:0:0:
298,192,157879,1,0,0:0:0:0:
469,192,157879,1,0,0:0:0:0:
42,192,158035,1,0,0:0:0:0:
213,192,158035,1,0,0:0:0:0:
128,192,158192,1,0,0:0:0:0:
469,192,158192,128,0,158504:0:0:0:0:
384,192,158192,1,0,0:0:0:0:
42,192,158504,128,0,158660:0:0:0:0:
128,192,158660,128,0,158817:0:0:0:0:
213,192,158817,1,0,0:0:0:0:
469,192,158817,128,0,158973:0:0:0:0:
384,192,158973,128,0,159129:0:0:0:0:
298,192,159129,128,0,159285:0:0:0:0:
42,192,159129,1,0,0:0:0:0:
213,192,159285,128,0,159442:0:0:0:0:
469,192,159285,1,0,0:0:0:0:
384,192,159442,128,0,159598:0:0:0:0:
128,192,159442,1,0,0:0:0:0:
298,192,159598,128,0,159754:0:0:0:0:
42,192,159598,1,0,0:0:0:0:
213,192,159754,128,0,160067:0:0:0:0:
128,192,160067,1,0,0:0:0:0:
469,192,160067,128,0,160223:0:0:0:0:
384,192,160223,128,0,160379:0:0:0:0:
298,192,160223,1,0,0:0:0:0:
42,192,160379,128,0,160535:0:0:0:0:
128,192,160535,128,0,160692:0:0:0:0:
213,192,160535,1,0,0:0:0:0:
298,192,160692,128,0,160848:0:0:0:0:
469,192,160692,1,0,0:0:0:0:
213,192,160848,128,0,161004:0:0:0:0:
128,192,161004,128,0,161160:0:0:0:0:
42,192,161160,128,0,161317:0:0:0:0:
469,192,161317,128,0,161473:0:0:0:0:
213,192,161317,1,0,0:0:0:0:
384,192,161473,128,0,161629:0:0:0:0:
298,192,161629,128,0,161785:0:0:0:0:
42,192,161629,1,0,0:0:0:0:
213,192,161785,128,0,161942:0:0:0:0:
469,192,161785,1,0,0:0:0:0:
128,192,161942,1,0,0:0:0:0:
384,192,161942,128,0,162098:0:0:0:0:
42,192,162098,128,0,162254:0:0:0:0:
298,192,162098,1,0,0:0:0:0:
469,192,162254,1,0,0:0:0:0:
128,192,162254,128,0,162567:0:0:0:0:
384,192,162567,128,0,162723:0:0:0:0:
213,192,162567,1,0,0:0:0:0:
469,192,162723,1,0,0:0:0:0:
42,192,162723,128,0,162879:0:0:0:0:
298,192,162879,128,0,163035:0:0:0:0:
128,192,163035,128,0,163192:0:0:0:0:
213,192,163035,1,0,0:0:0:0:
42,192,163192,1,0,0:0:0:0:
469,192,163192,128,0,163348:0:0:0:0:
384,192,163348,128,0,163504:0:0:0:0:
298,192,163504,128,0,163660:0:0:0:0:
213,192,163660,128,0,163817:0:0:0:0:
42,192,163817,128,0,163973:0:0:0:0:
469,192,163817,1,0,0:0:0:0:
128,192,163973,128,0,164129:0:0:0:0:
213,192,164129,128,0,164285:0:0:0:0:
384,192,164129,1,0,0:0:0:0:
298,192,164285,128,0,164442:0:0:0:0:
42,192,164285,1,0,0:0:0:0:
128,192,164442,1,0,0:0:0:0:
469,192,164442,128,0,164598:0:0:0:0:
42,192,164598,128,0,164754:0:0:0:0:
213,192,164598,1,0,0:0:0:0:
384,192,164754,128,0,165067:0:0:0:0:
128,192,165067,128,0,165223:0:0:0:0:
298,192,165067,1,0,0:0:0:0:
213,192,165223,128,0,165379:0:0:0:0:
469,192,165223,1,0,0:0:0:0:
298,192,165379,128,0,165535:0:0:0:0:
42,192,165379,1,0,0:0:0:0:
384,192,165535,128,0,165692:0:0:0:0:
128,192,165535,1,0,0:0:0:0:
42,192,165692,1,0,0:0:0:0:
469,192,165692,128,0,165848:0:0:0:0:
213,192,165848,128,0,166004:0:0:0:0:
298,192,166004,128,0,166160:0:0:0:0:
42,192,166160,128,0,166317:0:0:0:0:
213,192,166317,1,0,0:0:0:0:
469,192,166317,128,0,166473:0:0:0:0:
384,192,166473,128,0,166629:0:0:0:0:
298,192,166629,128,0,166785:0:0:0:0:
42,192,166629,1,0,0:0:0:0:
128,192,166785,128,0,166942:0:0:0:0:
469,192,166785,1,0,0:0:0:0:
384,192,166942,128,0,167098:0:0:0:0:
213,192,166942,1,0,0:0:0:0:
42,192,167098,128,0,167254:0:0:0:0:
298,192,167098,1,0,0:0:0:0:
469,192,167254,1,0,0:0:0:0:
128,192,167254,128,0,167567:0:0:0:0:
384,192,167567,1,0,0:0:0:0:
213,192,167567,128,0,167723:0:0:0:0:
469,192,167723,128,0,167879:0:0:0:0:
42,192,167723,1,0,0:0:0:0:
298,192,167879,1,0,0:0:0:0:
128,192,167879,128,0,168035:0:0:0:0:
213,192,168035,128,0,168192:0:0:0:0:
42,192,168192,1,0,0:0:0:0:
469,192,168192,1,0,0:0:0:0:
384,192,168192,128,0,168504:0:0:0:0:
213,192,168504,128,0,168660:0:0:0:0:
42,192,168660,128,0,168817:0:0:0:0:
298,192,168817,1,0,0:0:0:0:
469,192,168817,128,0,168973:0:0:0:0:
384,192,168973,128,0,169129:0:0:0:0:
213,192,169129,128,0,169285:0:0:0:0:
128,192,169129,1,0,0:0:0:0:
42,192,169285,128,0,169442:0:0:0:0:
469,192,169285,1,0,0:0:0:0:
298,192,169442,128,0,169598:0:0:0:0:
384,192,169442,1,0,0:0:0:0:
128,192,169598,128,0,169754:0:0:0:0:
213,192,169754,1,0,0:0:0:0:
469,192,169754,128,0,170067:0:0:0:0:
42,192,170067,128,0,170223:0:0:0:0:
298,192,170067,1,0,0:0:0:0:
128,192,170223,128,0,170379:0:0:0:0:
384,192,170223,1,0,0:0:0:0:
213,192,170379,128,0,170535:0:0:0:0:
298,192,170535,128,0,170692:0:0:0:0:
42,192,170535,1,0,0:0:0:0:
469,192,170692,128,0,171004:0:0:0:0:
128,192,170692,1,0,0:0:0:0:
384,192,171004,128,0,171160:0:0:0:0:
213,192,171160,128,0,171317:0:0:0:0:
42,192,171317,1,0,0:0:0:0:
298,192,171317,128,0,171473:0:0:0:0:
128,192,171473,128,0,171629:0:0:0:0:
213,192,171629,128,0,171785:0:0:0:0:
384,192,171629,1,0,0:0:0:0:
298,192,171785,128,0,171942:0:0:0:0:
42,192,171785,1,0,0:0:0:0:
128,192,171942,1,0,0:0:0:0:
469,192,171942,128,0,172098:0:0:0:0:
213,192,172098,1,0,0:0:0:0:
384,192,172098,128,0,172254:0:0:0:0:
42,192,172254,128,0,172567:0:0:0:0:
298,192,172254,1,0,0:0:0:0:
213,192,172567,128,0,172723:0:0:0:0:
469,192,172567,1,0,0:0:0:0:
128,192,172723,1,0,0:0:0:0:
298,192,172723,128,0,172879:0:0:0:0:
384,192,172879,128,0,173035:0:0:0:0:
42,192,173035,128,0,173192:0:0:0:0:
213,192,173035,1,0,0:0:0:0:
298,192,173192,128,0,173504:0:0:0:0:
469,192,173192,1,0,0:0:0:0:
128,192,173504,128,0,173660:0:0:0:0:
42,192,173660,128,0,173817:0:0:0:0:
469,192,173817,128,0,173973:0:0:0:0:
213,192,173817,1,0,0:0:0:0:
384,192,173973,128,0,174129:0:0:0:0:
298,192,174129,128,0,174285:0:0:0:0:
42,192,174129,1,0,0:0:0:0:
213,192,174285,128,0,174442:0:0:0:0:
128,192,174285,1,0,0:0:0:0:
469,192,174442,128,0,174598:0:0:0:0:
298,192,174442,1,0,0:0:0:0:
384,192,174598,128,0,174754:0:0:0:0:
128,192,174598,1,0,0:0:0:0:
42,192,174754,1,0,0:0:0:0:
298,192,174754,128,0,175067:0:0:0:0:
213,192,174754,1,0,0:0:0:0:
128,192,175067,128,0,175223:0:0:0:0:
384,192,175067,1,0,0:0:0:0:
213,192,175223,128,0,175379:0:0:0:0:
469,192,175223,1,0,0:0:0:0:
298,192,175379,128,0,175535:0:0:0:0:
384,192,175535,128,0,175692:0:0:0:0:
42,192,175535,1,0,0:0:0:0:
128,192,175692,128,0,175848:0:0:0:0:
469,192,175692,128,0,175848:0:0:0:0:
213,192,175692,128,0,175848:0:0:0:0:
42,192,176004,128,0,176160:0:0:0:0:
213,192,176004,128,0,176160:0:0:0:0:
469,192,176004,128,0,176160:0:0:0:0:
128,192,176317,128,0,176473:0:0:0:0:
213,192,176317,128,0,176473:0:0:0:0:
298,192,176317,1,0,0:0:0:0:
469,192,176317,128,0,176473:0:0:0:0:
42,192,176629,128,0,176785:0:0:0:0:
213,192,176629,128,0,176785:0:0:0:0:
469,192,176629,128,0,176785:0:0:0:0:
128,192,176629,1,0,0:0:0:0:
128,192,176942,128,0,177567:0:0:0:0:
384,192,176942,128,0,177567:0:0:0:0:
42,192,176942,128,0,178192:0:0:0:0:
469,192,176942,128,0,178192:0:0:0:0:
213,192,178035,1,0,0:0:0:0:
298,192,178113,1,0,0:0:0:0:
384,192,178192,1,0,0:0:0:0:
128,192,178192,1,0,0:0:0:0:
213,192,178504,1,0,0:0:0:0:
469,192,178817,1,0,0:0:0:0:
42,192,179129,1,0,0:0:0:0:
128,192,179442,1,0,0:0:0:0:
213,192,179754,1,0,0:0:0:0:
469,192,179754,1,0,0:0:0:0:
384,192,180067,1,0,0:0:0:0:
42,192,180379,1,0,0:0:0:0:
128,192,180692,1,0,0:0:0:0:
469,192,180692,1,0,0:0:0:0:
213,192,181004,1,0,0:0:0:0:
298,192,181317,1,0,0:0:0:0:
42,192,181629,1,0,0:0:0:0:
128,192,181942,1,0,0:0:0:0:
213,192,182254,1,0,0:0:0:0:
469,192,182254,1,0,0:0:0:0:
298,192,182567,1,0,0:0:0:0:
42,192,182879,1,0,0:0:0:0:
128,192,183192,1,0,0:0:0:0:
384,192,183192,1,0,0:0:0:0:
213,192,183504,1,0,0:0:0:0:
298,192,183817,1,0,0:0:0:0:
42,192,184129,1,0,0:0:0:0:
128,192,184442,1,0,0:0:0:0:
469,192,184754,1,0,0:0:0:0:
213,192,184754,1,0,0:0:0:0:
384,192,185067,1,0,0:0:0:0:
42,192,185379,1,0,0:0:0:0:
128,192,185692,1,0,0:0:0:0:
469,192,185692,1,0,0:0:0:0:
213,192,186004,1,0,0:0:0:0:
298,192,186317,1,0,0:0:0:0:
42,192,186629,1,0,0:0:0:0:
469,192,186629,128,0,188192:0:0:0:0:
128,192,186942,1,0,0:0:0:0:
213,192,187254,1,0,0:0:0:0:
384,192,187254,1,0,0:0:0:0:
298,192,187567,1,0,0:0:0:0:
42,192,187879,1,0,0:0:0:0:
128,192,188192,1,0,0:0:0:0:
384,192,188192,1,0,0:0:0:0:
298,192,188504,1,0,0:0:0:0:
42,192,188817,1,0,0:0:0:0:
469,192,189129,1,0,0:0:0:0:
213,192,189442,1,0,0:0:0:0:
42,192,189754,1,0,0:0:0:0:
128,192,189754,1,0,0:0:0:0:
469,192,190067,1,0,0:0:0:0:
128,192,190379,1,0,0:0:0:0:
384,192,190692,1,0,0:0:0:0:
42,192,190692,1,0,0:0:0:0:
213,192,191004,1,0,0:0:0:0:
469,192,191317,1,0,0:0:0:0:
42,192,191629,1,0,0:0:0:0:
128,192,191942,1,0,0:0:0:0:
213,192,192254,1,0,0:0:0:0:
469,192,192254,1,0,0:0:0:0:
298,192,192567,1,0,0:0:0:0:
42,192,192879,1,0,0:0:0:0:
213,192,193192,1,0,0:0:0:0:
469,192,193192,1,0,0:0:0:0:
42,192,193504,1,0,0:0:0:0:
384,192,193817,1,0,0:0:0:0:
128,192,194129,1,0,0:0:0:0:
298,192,194442,1,0,0:0:0:0:
42,192,194754,1,0,0:0:0:0:
213,192,194754,1,0,0:0:0:0:
469,192,195067,1,0,0:0:0:0:
128,192,195379,1,0,0:0:0:0:
384,192,195692,1,0,0:0:0:0:
42,192,195692,1,0,0:0:0:0:
213,192,196004,1,0,0:0:0:0:
469,192,196317,1,0,0:0:0:0:
42,192,196629,1,0,0:0:0:0:
128,192,196942,1,0,0:0:0:0:
213,192,197254,1,0,0:0:0:0:
469,192,197254,1,0,0:0:0:0:
298,192,197567,1,0,0:0:0:0:
128,192,197879,1,0,0:0:0:0:
213,192,198192,1,0,0:0:0:0:
469,192,198192,1,0,0:0:0:0:
42,192,198504,1,0,0:0:0:0:
384,192,198817,1,0,0:0:0:0:
128,192,199129,1,0,0:0:0:0:
298,192,199442,1,0,0:0:0:0:
42,192,199754,1,0,0:0:0:0:
384,192,199754,1,0,0:0:0:0:
469,192,200067,1,0,0:0:0:0:
128,192,200379,1,0,0:0:0:0:
213,192,200692,1,0,0:0:0:0:
384,192,200692,128,0,200848:0:0:0:0:
384,192,201004,128,0,201160:0:0:0:0:
42,192,201004,1,0,0:0:0:0:
384,192,201317,128,0,201473:0:0:0:0:
298,192,201317,1,0,0:0:0:0:
384,192,201629,128,0,201785:0:0:0:0:
128,192,201629,1,0,0:0:0:0:
384,192,201942,128,0,202098:0:0:0:0:
213,192,201942,1,0,0:0:0:0:
384,192,202254,128,0,202410:0:0:0:0:
469,192,202254,1,0,0:0:0:0:
42,192,202254,1,0,0:0:0:0:
384,192,202567,128,0,202723:0:0:0:0:
298,192,202567,1,0,0:0:0:0:
384,192,202879,128,0,203035:0:0:0:0:
42,192,202879,1,0,0:0:0:0:
128,192,203192,128,0,203348:0:0:0:0:
469,192,203192,128,0,203817:0:0:0:0:
128,192,203504,128,0,203660:0:0:0:0:
298,192,203817,128,0,204442:0:0:0:0:
128,192,203817,128,0,203973:0:0:0:0:
128,192,204129,128,0,204285:0:0:0:0:
384,192,204442,128,0,204754:0:0:0:0:
128,192,204442,128,0,204598:0:0:0:0:
469,192,204754,128,0,205067:0:0:0:0:
128,192,204754,128,0,204910:0:0:0:0:
384,192,205067,128,0,205379:0:0:0:0:
128,192,205067,128,0,205223:0:0:0:0:
469,192,205379,128,0,205692:0:0:0:0:
128,192,205379,128,0,205535:0:0:0:0:
42,192,205692,128,0,206004:0:0:0:0:
213,192,205692,128,0,205848:0:0:0:0:
384,192,206004,128,0,206317:0:0:0:0:
298,192,206004,128,0,206160:0:0:0:0:
128,192,206317,128,0,206629:0:0:0:0:
213,192,206317,128,0,206473:0:0:0:0:
469,192,206629,128,0,206942:0:0:0:0:
298,192,206629,128,0,206785:0:0:0:0:
213,192,206942,128,0,208192:0:0:0:0:
42,192,206942,128,0,207098:0:0:0:0:
384,192,207254,128,0,207410:0:0:0:0:
42,192,208192,1,0,0:0:0:0:
128,192,208192,1,0,0:0:0:0:
298,192,208192,1,0,0:0:0:0:
469,192,208192,1,0,0:0:0:0:
