osu file format v14

[General]
AudioFilename: audio.mp3
AudioLeadIn: 0
PreviewTime: 207478
Countdown: 0
SampleSet: Soft
StackLeniency: 0.7
Mode: 0
LetterboxInBreaks: 0
WidescreenStoryboard: 0

[Editor]
DistanceSpacing: 1
BeatDivisor: 4
GridSize: 8
TimelineZoom: 1

[Metadata]
Title:Uchiage Hanabi
TitleUnicode:打上花火
Artist:DAOKO x Kenshi Yonezu
ArtistUnicode:DAOKO × 米津玄師
Creator:Loli_Schwi
Version:Easy
Source:打ち上げ花火、下から見るか?横から見るか?
Tags:Movie Uchiage hanabi、shita kara miru ka? Yoko kara miru ka? realy0 MiyohashiKoori
BeatmapID:1434206
BeatmapSetID:678275

[Difficulty]
HPDrainRate:3
CircleSize:3
OverallDifficulty:2
ApproachRate:3
SliderMultiplier:0.8
SliderTickRate:1

[Events]
//Background and Video events
Video,600,"opto.flv"
0,0,"BG10.jpg",0,0
//Break Periods
2,80842,89203
2,125218,126703
2,177092,186703
//Storyboard Layer 0 (Background)
//Storyboard Layer 1 (Fail)
//Storyboard Layer 2 (Pass)
//Storyboard Layer 3 (Foreground)
//Storyboard Sound Samples

[TimingPoints]
643,625,4,2,1,25,1,0
4060,612.244897959184,4,2,1,25,1,0
5611,625,4,2,1,25,1,0
8130,606.060606060606,4,2,1,25,1,0
10643,625,4,2,1,25,1,0
20018,-100,4,2,1,80,0,0
40643,-100,4,2,1,80,0,0
60643,-71.4285714285714,4,1,1,100,0,1
80643,-100,4,1,1,60,0,0
90018,-100,4,1,1,60,0,0
120643,-100,4,1,1,15,0,0
128143,-100,4,1,1,60,0,0
138143,-71.4285714285714,4,1,1,100,0,1
153143,-71.4285714285714,4,1,1,80,0,0
158768,-71.4285714285714,4,2,1,100,0,0
176893,-100,4,1,0,35,0,0
188143,-100,4,1,0,15,0,0
208143,-71.4285714285714,4,1,1,100,0,1
228143,-83.3333333333333,4,1,1,100,0,0
268143,-100,4,2,0,35,0,0

[HitObjects]
56,126,20643,6,0,P|192:95|224:133,1,200
301,187,23143,2,0,P|239:260|273:349,1,200
349,367,25174,1,0,0:0:0:0:
347,365,25643,5,0,0:0:0:0:
275,353,26268,1,0,0:0:0:0:
167,357,27205,2,0,P|106:319|97:261,1,120
107,204,28768,1,0,0:0:0:0:
107,204,29705,5,0,0:0:0:0:
133,143,30174,1,0,0:0:0:0:
157,81,30643,1,0,0:0:0:0:
208,180,31268,2,0,P|233:223|245:291,1,120
420,348,33143,5,0,0:0:0:0:
411,260,33768,2,0,P|425:215|381:154,1,120
336,125,35174,1,0,0:0:0:0:
261,85,35643,6,0,P|215:78|179:98,1,80
197,190,37205,2,0,B|186:229|201:275|248:302,1,120
294,228,38768,1,0,0:0:0:0:
342,123,39705,6,0,L|397:78,2,60
267,169,41268,1,0,0:0:0:0:
191,123,41893,2,0,P|148:198|147:277,1,160
179,351,43768,1,0,0:0:0:0:
266,356,44393,1,0,0:0:0:0:
341,310,45018,1,0,0:0:0:0:
394,240,45643,6,0,P|406:193|399:144,2,80
314,334,47518,1,0,0:0:0:0:
220,261,48143,2,0,P|191:211|189:171,1,80
183,109,49393,2,0,P|222:78|286:70,1,80
341,73,50643,5,0,0:0:0:0:
382,159,51268,1,0,0:0:0:0:
363,253,51893,2,0,P|353:308|334:328,2,80
325,164,53768,1,0,0:0:0:0:
237,124,54393,2,0,P|189:108|158:113,2,80
314,192,56268,5,0,0:0:0:0:
314,192,56893,1,0,0:0:0:0:
256,192,57518,12,0,60018,0:0:0:0:
395,303,60643,6,0,P|289:317|323:253,1,223.999993164063
304,168,62518,1,0,0:0:0:0:
238,97,63143,6,0,P|137:61|163:133,1,223.999993164063
112,208,65018,2,0,P|118:266|173:287,1,111.999996582031
229,341,66268,5,0,0:0:0:0:
329,341,66893,1,0,0:0:0:0:
415,288,67518,2,0,P|458:237|455:181,1,111.999996582031
417,101,68768,2,0,P|369:68|317:56,2,111.999996582031
399,234,70643,5,0,0:0:0:0:
311,283,71268,2,0,P|250:296|201:282,1,111.999996582031
121,223,72518,1,0,0:0:0:0:
90,126,73143,2,0,P|157:98|210:100,1,111.999996582031
292,124,74393,1,0,0:0:0:0:
342,211,75018,1,0,0:0:0:0:
294,300,75643,6,0,P|206:350|226:267,2,223.999993164063
291,199,78768,1,0,0:0:0:0:
232,116,79393,1,0,0:0:0:0:
137,82,80018,2,0,P|89:124|80:173,1,111.999996582031
122,73,90643,6,0,B|109:133|104:183|126:245,1,160
186,312,92518,1,0,0:0:0:0:
287,336,93143,1,0,0:0:0:0:
387,309,93768,2,0,P|417:258|420:220,2,80
240,339,95643,6,0,P|160:300|173:237,1,160
238,163,97518,1,0,0:0:0:0:
197,67,98143,1,0,0:0:0:0:
93,66,98768,2,0,P|52:135|113:166,1,160
206,176,100643,6,0,P|266:198|220:287,1,160
159,313,102518,1,0,0:0:0:0:
70,277,103143,1,0,0:0:0:0:
29,187,103768,2,0,P|50:118|141:108,1,160
228,146,105643,6,0,B|327:206|230:264,2,160
172,61,108768,1,0,0:0:0:0:
121,133,109393,2,0,P|101:188|111:218,1,80
209,185,110643,5,0,0:0:0:0:
223,98,111268,1,0,0:0:0:0:
302,72,111893,2,0,P|359:86|385:113,1,80
461,231,113143,6,0,P|415:273|385:289,1,80
296,319,114393,1,0,0:0:0:0:
208,319,115018,1,0,0:0:0:0:
126,285,115643,2,0,P|92:251|86:203,1,80
173,178,116893,6,0,P|243:184|309:248,1,160
348,326,118768,1,0,0:0:0:0:
428,273,119393,2,0,P|455:226|457:186,1,80
256,192,120643,12,0,125018,0:0:0:0:
185,102,128143,6,0,P|161:156|161:191,2,80
264,34,130018,1,0,0:0:0:0:
342,101,130643,2,0,P|357:168|343:211,2,80
272,24,132518,1,0,0:0:0:0:
196,107,133143,6,0,P|185:159|199:213,2,80
294,161,135018,1,0,0:0:0:0:
390,218,135643,2,0,P|400:270|386:324,2,80
294,161,137518,1,0,0:0:0:0:
196,107,138143,6,0,P|102:68|128:140,1,223.999993164063
174,203,140018,1,0,0:0:0:0:
174,292,140643,2,0,P|273:313|234:246,1,223.999993164063
174,203,142518,2,0,P|172:154|205:100,1,111.999996582031
280,54,143768,5,0,0:0:0:0:
374,89,144393,1,0,0:0:0:0:
436,168,145018,2,0,P|469:218|435:268,1,111.999996582031
370,324,146268,2,0,P|322:357|270:369,2,111.999996582031
360,175,148143,5,8,0:0:0:0:
272,126,148768,2,0,P|211:113|162:127,1,111.999996582031
82,186,150018,1,0,0:0:0:0:
51,283,150643,2,8,P|118:311|171:309,1,111.999996582031
253,285,151893,1,0,0:0:0:0:
303,198,152518,1,0,0:0:0:0:
255,109,153143,6,0,P|167:59|187:142,2,223.999993164063
252,210,156268,1,0,0:0:0:0:
193,293,156893,1,0,0:0:0:0:
193,293,157518,2,0,P|153:243|152:193,1,111.999996582031
301,97,158768,6,2,P|365:190|313:282,1,223.999993164063
256,232,160643,1,0,0:0:0:0:
192,280,161268,2,2,P|128:187|180:95,1,223.999993164063
248,128,163143,1,0,0:0:0:0:
320,96,163768,2,2,P|384:189|332:281,1,223.999993164063
256,312,165643,1,0,0:0:0:0:
168,280,166268,2,2,P|104:187|156:95,1,223.999993164063
232,128,168143,5,0,0:0:0:0:
320,224,168768,2,2,P|358:281|359:342,2,111.999996582031
224,264,170643,1,0,0:0:0:0:
136,208,171268,2,2,P|88:164|85:116,2,111.999996582031
232,248,173143,5,0,0:0:0:0:
192,152,173768,2,2,P|178:95|200:46,2,111.999996582031
248,232,175643,2,0,P|347:210|284:165,1,223.999993164063
299,57,188143,6,0,B|353:65|375:127|339:169|292:167,1,160
217,179,190018,1,0,0:0:0:0:
130,196,190643,2,0,B|94:199|65:247|83:296|139:308|170:282,1,160
236,273,192518,1,0,0:0:0:0:
334,278,193143,6,0,B|461:255|434:127,2,200
160,280,197518,5,0,0:0:0:0:
104,222,198143,2,0,P|80:157|176:163,1,200
250,197,200643,2,0,P|321:206|268:286,1,200
178,285,203143,6,0,P|112:280|72:202,2,160
272,49,208143,6,0,P|183:77|172:202,1,223.999993164063
221,305,210018,1,0,0:0:0:0:
333,354,210643,2,0,P|440:335|439:198,1,223.999993164063
397,129,212518,1,0,0:0:0:0:
290,67,213143,6,0,P|235:59|288:157,1,223.999993164063
388,179,215018,2,0,P|445:233|332:233,1,223.999993164063
247,262,216893,1,0,0:0:0:0:
146,262,217518,1,0,0:0:0:0:
47,282,218143,6,0,P|35:169|145:137,1,223.999993164063
214,170,220018,1,0,0:0:0:0:
282,244,220643,2,0,P|385:183|319:95,1,223.999993164063
256,73,222518,1,0,0:0:0:0:
177,136,223143,1,0,0:0:0:0:
166,236,223768,1,0,0:0:0:0:
240,303,224393,1,0,0:0:0:0:
335,335,225018,2,0,P|451:298|425:178,2,223.999993164063
259,207,228143,6,0,P|197:212|162:92,1,191.999994140625
219,53,230018,1,0,0:0:0:0:
303,70,230643,1,0,0:0:0:0:
370,123,231268,2,0,B|448:224|340:322,1,191.999994140625
282,324,233143,5,0,0:0:0:0:
195,323,233768,1,0,0:0:0:0:
112,296,234393,1,0,0:0:0:0:
63,224,235018,1,0,0:0:0:0:
71,128,235643,2,0,P|81:93|128:57,1,95.9999970703126
168,139,236893,2,0,P|205:164|250:133,1,95.9999970703126
340,83,238143,6,0,P|406:163|412:261,1,191.999994140625
397,332,240018,1,0,0:0:0:0:
310,332,240643,2,0,P|251:282|251:164,1,191.999994140625
231,88,242518,1,0,0:0:0:0:
145,97,243143,2,0,P|81:138|81:261,3,191.999994140625
130,309,247518,1,0,0:0:0:0:
258,349,248143,6,0,P|320:339|387:238,1,191.999994140625
380,150,250018,1,0,0:0:0:0:
435,84,250643,2,0,P|320:47|246:56,1,191.999994140625
209,130,252518,1,0,0:0:0:0:
150,56,253143,2,0,P|109:123|134:228,1,191.999994140625
178,302,255018,1,0,0:0:0:0:
268,333,255643,2,0,P|331:316|358:288,3,95.9999970703126
436,206,258143,6,0,P|421:123|319:157,1,191.999994140625
275,198,260018,1,0,0:0:0:0:
225,268,260643,2,0,P|116:255|153:175,1,191.999994140625
160,122,262518,1,0,0:0:0:0:
239,88,263143,2,0,P|312:131|285:239,3,191.999994140625
235,284,267518,1,0,0:0:0:0:
153,256,268143,1,4,0:0:0:0:
