osu file format v14

[General]
AudioFilename: audio.mp3
AudioLeadIn: 0
PreviewTime: 63218
Countdown: 0
SampleSet: Normal
StackLeniency: 0.9
Mode: 0
LetterboxInBreaks: 0
WidescreenStoryboard: 1

[Editor]
DistanceSpacing: 1
BeatDivisor: 8
GridSize: 16
TimelineZoom: 2.699999

[Metadata]
Title:Uchiage Hanabi
TitleUnicode:Uchiage Hanabi
Artist:DAOKO x Kenshi Yonezu
ArtistUnicode:DAOKO × Kenshi Yonezu
Creator:HatsuKeiae
Version:Insane
Source:Uchiage Hanabi, Shita kara Miru ka? Yoko kara Miru ka?
Tags:Marathon
BeatmapID:1393176
BeatmapSetID:656066

[Difficulty]
HPDrainRate:5.5
CircleSize:4
OverallDifficulty:7.5
ApproachRate:9
SliderMultiplier:1.4
SliderTickRate:1

[Events]
//Background and Video events
0,0,"bg2.jpg",0,0
Video,0,"video.mp4"
//Break Periods
2,83731,93250
//Storyboard Layer 0 (Background)
//Storyboard Layer 1 (Fail)
//Storyboard Layer 2 (Pass)
//Storyboard Layer 3 (Foreground)
//Storyboard Sound Samples

[TimingPoints]
4000,312.5,4,1,0,60,1,0
4000,-100,4,1,0,40,0,0
13062,-100,4,1,0,25,0,0
14000,-100,4,1,0,40,0,0
16500,-50,4,1,0,40,0,0
17593,-100,4,1,0,40,0,0
21500,-45.4545454545455,4,1,0,40,0,0
22750,-100,4,1,0,40,0,0
24000,-133.333333333333,4,1,0,40,0,0
44000,-100,4,1,0,40,0,0
51500,-50,4,1,0,40,0,0
52747,-100,4,1,0,40,0,0
64000,-100,4,1,0,100,0,1
83531,-100,4,1,0,100,0,0
94000,-100,4,1,0,60,0,0
101500,-50,4,1,0,60,0,0
102593,-100,4,1,0,60,0,0
140718,-133.333333333333,4,1,0,60,0,0
141500,-100,4,1,0,100,0,1
161500,-100,4,1,0,90,0,0
180250,-100,4,1,0,60,0,0
181500,-100,4,1,0,40,0,0
191500,-133.333333333333,4,1,0,40,0,0
211500,-100,4,1,0,100,0,1
231500,-100,4,1,0,100,0,0
271500,-100,4,1,0,60,0,0
280640,-133.333333333333,4,1,0,40,0,0
281421,-200,4,1,0,20,0,0
282320,-400,4,1,0,10,0,0

[HitObjects]
360,308,4000,6,0,P|400:260|408:176,1,140
355,55,4625,1,0,0:0:0:0:
258,155,4937,2,0,P|238:187|227:228,1,70
215,286,5250,1,0,0:0:0:0:
341,226,5562,6,0,P|384:151|387:83,1,140
269,172,6187,1,0,0:0:0:0:
210,44,6500,2,0,P|276:28|338:63,1,140
425,169,7125,1,0,0:0:0:0:
302,102,7437,2,0,P|268:87|233:88,1,70
169,110,7750,1,0,0:0:0:0:
264,211,8062,6,0,B|314:279|286:342,1,140
177,254,8687,1,0,0:0:0:0:
293,176,9000,2,0,P|365:191|417:236,1,140
291,299,9625,1,0,0:0:0:0:
254,164,9937,2,0,P|271:123|294:97,1,70
339,55,10250,1,0,0:0:0:0:
200,71,10562,6,0,P|136:96|99:155,1,140
239,146,11187,1,0,0:0:0:0:
329,39,11500,2,0,P|384:83|406:166,1,140
351,276,12125,1,0,0:0:0:0:
268,163,12437,2,0,P|324:151|348:155,1,70
405,159,12750,1,0,0:0:0:0:
304,255,13062,6,0,B|227:334|155:327|103:286|85:246|90:206|108:176|140:155|174:153|201:168|215:192|214:215|196:227,1,420
320,162,14312,1,0,0:0:0:0:
331,301,14625,1,0,0:0:0:0:
223,211,14937,2,0,P|188:230|172:274,2,70
304,324,15562,2,0,P|359:364|428:365,1,140
372,236,16187,1,0,0:0:0:0:
170,67,16500,6,0,P|180:150|253:191,1,140
396,125,16812,2,0,P|310:129|254:190,1,140
116,259,17125,2,0,P|201:254|258:195,1,140
342,317,17437,6,0,P|331:233|258:193,1,140
422,111,17750,1,0,0:0:0:0:
422,111,17906,2,0,P|443:147|441:192,1,70
437,314,18218,2,0,P|395:316|357:290,1,70
276,199,18531,1,0,0:0:0:0:
207,320,18687,2,0,P|140:324|123:248,1,140
159,51,19312,5,0,0:0:0:0:
258,236,19625,1,0,0:0:0:0:
384,68,19937,1,0,0:0:0:0:
449,150,20093,1,0,0:0:0:0:
344,160,20250,6,0,P|352:192|373:221,1,70
477,240,20562,2,0,P|497:268|506:301,1,70
411,320,20875,2,0,P|345:300|301:247,1,140
386,114,21500,6,0,P|303:119|255:187,1,154.000004699707
313,336,21812,2,0,P|315:250|258:191,1,154.000004699707
198,47,22125,2,0,P|197:132|255:191,1,154.000004699707
125,269,22437,2,0,P|209:263|255:197,1,154.000004699707
266,53,22750,6,0,P|314:55|349:82,1,70
400,187,23062,2,0,P|365:188|333:174,1,70
276,133,23375,1,0,0:0:0:0:
389,44,23531,1,0,0:0:0:0:
254,32,23687,1,0,0:0:0:0:
390,130,23843,1,0,0:0:0:0:
340,284,24000,6,0,B|296:332|247:303|247:303|264:240|214:205,1,210.000008010865
86,123,24937,2,0,P|42:185|63:281,1,157.500006008148
50,262,25562,1,0,0:0:0:0:
185,181,25875,2,0,P|242:167|300:187,1,105.000004005432
220,322,26500,5,0,0:0:0:0:
319,289,26656,1,0,0:0:0:0:
241,218,26812,1,0,0:0:0:0:
358,43,27125,2,0,B|423:81|423:81|462:149|390:213,1,210.000008010865
222,92,28062,6,0,P|145:98|99:159,2,157.500006008148
200,301,29312,1,0,0:0:0:0:
293,254,29468,1,0,0:0:0:0:
201,199,29625,2,0,B|217:116|217:116|273:68,1,157.500006008148
274,69,30250,5,0,0:0:0:0:
319,219,30562,1,0,0:0:0:0:
383,75,30875,2,0,P|435:105|445:166,1,105.000004005432,0|0,3:0|0:0,0:0:0:0:
429,302,31500,1,0,0:0:0:0:
316,191,31812,6,0,P|270:159|202:163,1,105.000004005432
62,294,32437,2,0,P|107:325|175:321,1,105.000004005432
348,242,33062,2,0,P|296:175|206:158,2,157.500006008148
190,243,34312,5,0,0:0:0:0:
313,145,34625,1,0,0:0:0:0:
298,301,34937,2,0,P|362:303|425:227,1,157.500006008148
422,238,35562,1,0,0:0:0:0:
297,141,35875,2,0,P|243:114|183:113,1,105.000004005432
258,256,36500,6,0,P|283:282|320:276,1,52.5000020027161
351,214,36812,2,0,P|322:238|319:276,1,52.5000020027161
290,336,37125,2,0,P|318:311|321:273,1,52.5000020027161
384,296,37437,2,0,P|357:269|320:275,1,52.5000020027161
238,275,37750,5,0,0:0:0:0:
320,186,37906,1,0,0:0:0:0:
178,183,38062,1,0,0:0:0:0:
141,335,38218,1,0,0:0:0:0:
63,228,38375,2,0,P|77:190|103:167,1,52.5000020027161
218,98,38687,2,0,P|211:123|196:144,1,52.5000020027161
314,99,39000,6,0,P|373:138|378:190,1,105.000004005432
380,167,39468,1,0,0:0:0:0:
275,179,39625,2,0,P|232:224|218:271,1,105.000004005432
426,231,40250,5,0,0:0:0:0:
361,148,40406,1,0,0:0:0:0:
317,243,40562,2,0,P|259:229|211:189,1,105.000004005432
127,77,41187,1,0,0:0:0:0:
147,232,41500,2,0,B|165:270|195:289|235:294|280:264|280:264|312:309,1,210.000008010865
340,152,42437,5,0,0:0:0:0:
429,282,42750,2,0,P|452:245|459:217,1,52.5000020027161
467,159,43062,1,0,0:0:0:0:
374,208,43218,1,0,0:0:0:0:
372,65,43375,2,0,P|325:53|264:72,1,105.000004005432
121,231,44000,6,0,P|159:339|222:237,1,280
128,62,44937,1,0,0:0:0:0:
9,235,45250,1,0,0:0:0:0:
197,144,45562,1,0,0:0:0:0:
288,195,45718,1,0,0:0:0:0:
196,247,45875,2,0,B|236:333|395:330|398:182,1,280
240,61,46812,5,0,0:0:0:0:
319,255,47125,1,0,0:0:0:0:
162,115,47437,2,0,P|138:195|94:239,1,140
302,178,48062,6,0,P|301:227|277:262,1,70
193,144,48375,1,0,0:0:0:0:
207,282,48531,2,0,P|208:233|232:198,1,70
321,122,48843,1,0,0:0:0:0:
329,262,49000,5,0,0:0:0:0:
189,105,49312,2,0,P|116:139|93:206,1,140
301,157,49937,1,0,0:0:0:0:
163,316,50250,1,0,0:0:0:0:
267,328,50406,1,0,0:0:0:0:
214,237,50562,2,0,P|271:196|348:183,1,140
215,352,51187,1,0,0:0:0:0:
386,114,51500,6,0,P|303:119|256:189,1,140
313,336,51812,2,0,P|315:250|256:188,1,140
198,47,52125,2,0,P|197:132|256:195,1,140
125,269,52437,2,0,P|209:263|256:194,1,140
360,48,52750,5,0,0:0:0:0:
414,137,52906,1,0,0:0:0:0:
309,123,53062,2,0,P|268:142|250:178,1,70
350,206,53375,2,0,P|299:276|292:343,1,140
290,327,53843,1,0,0:0:0:0:
222,246,54000,6,0,B|197:180|134:148|134:148|165:80|257:75,1,280
462,67,54937,1,0,0:0:0:0:
371,256,55250,1,0,0:0:0:0:
292,61,55562,1,0,0:0:0:0:
391,92,55718,1,0,0:0:0:0:
305,153,55875,2,0,B|278:224|306:299,1,140
432,124,56500,5,0,0:0:0:0:
357,320,56812,1,0,0:0:0:0:
311,114,57125,2,0,P|241:131|181:192,1,140
387,251,57750,6,0,P|419:264|453:263,1,70
414,129,58062,2,0,P|406:95|385:67,1,70
249,177,58375,2,0,P|220:196|201:225,1,70
404,277,58687,2,0,P|430:284|461:276,2,35
491,280,59000,1,0,0:0:0:0:
446,66,59625,5,0,0:0:0:0:
257,272,60250,1,0,0:0:0:0:
68,64,60875,1,0,0:0:0:0:
256,192,61187,12,0,63375,0:0:0:0:
440,308,64000,5,0,0:0:0:0:
272,256,64156,1,0,0:0:0:0:
434,191,64312,1,0,0:0:0:0:
338,337,64468,1,0,0:0:0:0:
328,161,64625,1,0,0:0:0:0:
328,161,64703,1,0,0:0:0:0:
328,161,64781,1,0,0:0:0:0:
377,258,64937,1,0,0:0:0:0:
170,221,65093,6,0,P|140:144|182:101,1,140
347,88,65562,2,0,L|283:119,1,70
123,190,65875,1,0,0:0:0:0:
242,62,66031,2,0,P|202:54|187:80,1,70
167,248,66343,1,0,0:0:0:0:
300,133,66500,5,0,0:0:0:0:
345,133,66578,1,0,0:0:0:0:
387,157,66656,1,0,0:0:0:0:
487,300,66812,1,0,0:0:0:0:
322,240,66968,1,0,0:0:0:0:
490,188,67125,1,0,0:0:0:0:
382,325,67281,2,0,P|365:358|331:387,1,70
271,183,67593,6,0,P|301:119|383:87,1,140
355,264,68062,2,0,L|355:162,1,70
268,299,68375,2,0,P|296:337|348:347,1,70
282,167,68687,1,0,0:0:0:0:
403,39,68843,1,0,0:0:0:0:
411,252,69000,2,0,P|379:313|299:316,1,140
119,207,69625,5,0,0:0:0:0:
143,172,69703,1,0,0:0:0:0:
175,145,69781,1,0,0:0:0:0:
217,309,69937,1,0,0:0:0:0:
279,145,70093,1,0,0:0:0:0:
317,316,70250,1,0,0:0:0:0:
193,192,70406,1,0,0:0:0:0:
366,214,70562,1,0,0:0:0:0:
366,214,70718,1,0,0:0:0:0:
246,84,70875,5,0,0:0:0:0:
258,69,70953,1,0,0:0:0:0:
270,54,71031,1,0,0:0:0:0:
281,39,71109,1,0,0:0:0:0:
293,26,71187,2,0,B|386:20|420:42|439:86|447:125|436:157|386:212|349:214|288:112|291:311,1,420
320,110,72281,1,0,0:0:0:0:
145,77,72437,2,0,P|102:91|78:110,1,70
190,203,72750,2,0,P|238:202|261:179,1,70
347,92,73062,6,0,L|347:162,1,70
417,64,73375,2,0,P|389:26|337:16,1,70
194,28,73687,1,0,0:0:0:0:
289,174,73843,1,0,0:0:0:0:
126,107,74000,5,0,0:0:0:0:
140,151,74078,1,0,0:0:0:0:
164,190,74156,1,0,0:0:0:0:
276,323,74312,1,0,0:0:0:0:
247,150,74468,1,0,0:0:0:0:
394,245,74625,6,0,P|361:259|317:246,1,70
399,132,74937,1,0,0:0:0:0:
387,24,75093,2,0,P|349:31|298:141,1,140
286,249,75562,2,0,P|251:223|221:172,1,70
173,75,75875,1,0,0:0:0:0:
137,220,76031,2,0,B|150:264|181:294,1,70
292,348,76343,1,0,0:0:0:0:
366,188,76500,5,0,0:0:0:0:
372,170,76578,1,0,0:0:0:0:
376,153,76656,1,0,0:0:0:0:
380,137,76734,1,0,0:0:0:0:
384,121,76812,2,0,P|336:69|258:73,1,140
80,189,77437,5,0,0:0:0:0:
208,68,77593,1,0,0:0:0:0:
208,244,77750,1,0,0:0:0:0:
208,68,77906,1,0,0:0:0:0:
324,201,78062,1,0,0:0:0:0:
208,68,78218,1,0,0:0:0:0:
398,97,78375,2,0,P|457:160|457:222,1,140
398,335,78843,5,0,0:0:0:0:
274,267,79000,1,0,0:0:0:0:
255,254,79078,1,0,0:0:0:0:
236,242,79156,1,0,0:0:0:0:
220,232,79234,1,0,0:0:0:0:
204,220,79312,2,0,P|156:160|172:104,1,140
280,37,79781,5,0,0:0:0:0:
401,105,79937,1,0,0:0:0:0:
264,134,80093,1,0,0:0:0:0:
367,38,80250,1,0,0:0:0:0:
345,176,80406,1,0,0:0:0:0:
202,276,80562,6,0,P|245:271|274:261,1,70
369,117,80875,2,0,B|332:117|288:128|289:128,1,70
129,164,81187,1,0,0:0:0:0:
129,164,81343,2,0,P|116:206|147:223,1,70
307,225,81656,1,0,0:0:0:0:
241,348,81812,6,0,L|277:332,3,35
305,320,82125,2,0,L|349:300,3,35
369,288,82437,2,0,L|413:264,3,35
460,234,82750,1,0,0:0:0:0:
407,85,82906,2,0,P|377:110|341:119,1,70
246,144,83218,2,0,P|203:154|175:176,1,70
117,251,83531,1,0,0:0:0:0:
148,304,94000,6,0,P|109:262|99:172,1,140
195,217,94468,1,0,0:0:0:0:
187,111,94625,5,0,0:0:0:0:
312,279,94937,1,0,0:0:0:0:
412,94,95250,2,0,P|348:42|286:56,1,140
326,150,95718,1,0,0:0:0:0:
228,109,95875,1,0,0:0:0:0:
234,318,96187,6,0,P|182:357|146:307,1,140
332,207,96812,1,0,0:0:0:0:
372,191,96890,1,0,0:0:0:0:
398,160,96968,1,0,0:0:0:0:
429,260,97125,2,0,P|423:294|370:328,1,70
300,353,97437,1,0,0:0:0:0:
329,252,97593,1,0,0:0:0:0:
329,252,97750,6,0,P|273:212|254:145,1,140
441,50,98375,1,0,0:0:0:0:
417,152,98531,1,0,0:0:0:0:
344,75,98687,2,0,P|313:91|293:120,1,70
250,216,99000,5,0,0:0:0:0:
231,7,99312,1,0,0:0:0:0:
179,98,99468,1,0,0:0:0:0:
284,95,99625,2,0,P|336:150|350:221,1,140
249,182,100093,1,0,0:0:0:0:
292,277,100250,6,0,P|329:335|391:366,1,140
389,261,100718,1,0,0:0:0:0:
315,185,100875,2,0,B|243:153|166:183,1,140
242,343,101500,6,0,P|287:272|258:193,1,140
105,153,101812,2,0,P|174:205|259:194,1,140
407,230,102125,2,0,P|339:179|253:190,1,140
270,40,102437,2,0,P|226:112|254:190,1,140
283,257,102750,1,0,0:0:0:0:
321,159,102906,1,0,0:0:0:0:
367,252,103062,2,0,P|422:211|409:128,1,140
212,175,103687,6,0,P|179:162|157:135,1,70
131,33,104000,1,0,0:0:0:0:
101,57,104078,1,0,0:0:0:0:
81,95,104156,1,0,0:0:0:0:
76,199,104312,2,0,P|75:232|76:269,2,70
218,354,104937,6,0,L|218:284,2,70
313,309,105406,1,0,0:0:0:0:
357,214,105562,1,0,0:0:0:0:
311,119,105718,1,0,0:0:0:0:
260,211,105875,2,0,P|204:170|185:104,1,140
108,175,106343,1,0,0:0:0:0:
156,270,106500,6,0,P|68:277|30:216,1,140
5,139,106968,1,0,0:0:0:0:
68,54,107125,1,0,0:0:0:0:
97,154,107281,1,0,0:0:0:0:
97,154,107437,2,0,P|148:115|232:109,1,140
195,208,107906,6,0,P|254:218|283:206,1,70
352,161,108218,1,0,0:0:0:0:
342,266,108375,2,0,P|303:330|215:356,1,140
229,252,108843,2,0,P|182:268|149:299,1,70
100,362,109156,1,0,0:0:0:0:
60,265,109312,5,0,0:0:0:0:
72,232,109390,1,0,0:0:0:0:
85,206,109468,1,0,0:0:0:0:
99,186,109546,1,0,0:0:0:0:
124,166,109625,2,0,P|163:224|232:248,1,140
330,238,110093,1,0,0:0:0:0:
266,153,110250,6,0,P|243:76|261:1,1,140
333,87,110718,2,0,P|356:164|337:238,1,140
290,311,111187,1,0,0:0:0:0:
223,111,111500,2,0,P|144:121|114:180,1,140
296,277,112125,2,0,P|374:266|404:207,1,140
400,8,112750,6,0,P|366:13|337:38,2,70
330,206,113375,1,0,0:0:0:0:
206,36,113687,1,0,0:0:0:0:
153,240,114000,6,0,P|243:121|376:97,1,280
319,300,114937,1,0,0:0:0:0:
348,199,115093,1,0,0:0:0:0:
411,283,115250,2,0,P|445:219|431:145,1,140
248,58,115875,5,0,0:0:0:0:
311,141,116031,1,0,0:0:0:0:
206,150,116187,2,0,P|181:225|206:298,1,140
283,223,116656,1,0,0:0:0:0:
292,327,116812,2,0,B|342:322|367:266,1,70
225,282,117125,2,0,B|175:287|150:343,1,70
144,213,117437,1,0,0:0:0:0:
214,135,117593,6,0,P|274:194|342:201,1,140
301,100,118062,5,0,0:0:0:0:
392,150,118218,1,0,0:0:0:0:
383,44,118375,2,0,P|419:53|445:89,1,70
482,172,118687,1,0,0:0:0:0:
439,268,118843,6,0,P|363:249|310:190,1,140
271,113,119312,1,0,0:0:0:0:
220,204,119468,2,0,P|168:250|100:264,1,140
130,163,119937,2,0,P|161:102|235:90,1,140
431,139,120562,5,0,0:0:0:0:
335,95,120718,2,0,P|282:142|286:213,1,140
355,172,121187,2,0,P|368:244|317:297,1,140
291,221,121656,2,0,P|223:205|159:245,1,140
237,283,122125,5,0,0:0:0:0:
158,88,122437,1,0,0:0:0:0:
326,213,122750,2,0,P|355:229|393:229,2,70
186,55,123375,1,0,0:0:0:0:
164,263,123687,1,0,0:0:0:0:
326,129,124000,6,0,P|397:246|373:381,1,280
197,268,124937,1,0,0:0:0:0:
265,69,125250,2,0,P|338:74|389:132,1,140
179,182,125875,1,0,0:0:0:0:
258,250,126031,1,0,0:0:0:0:
260,151,126187,6,0,P|150:96|110:230,1,280
101,214,127125,1,0,0:0:0:0:
179,182,127281,1,0,0:0:0:0:
164,267,127437,2,0,P|267:196|191:97,1,280
395,46,128375,1,0,0:0:0:0:
329,245,128687,1,0,0:0:0:0:
223,62,129000,5,0,0:0:0:0:
424,119,129312,2,0,P|348:151|280:147,1,140
89,90,129937,1,0,0:0:0:0:
292,36,130250,1,0,0:0:0:0:
182,214,130562,2,0,P|202:290|254:338,1,140
276,124,131187,2,0,P|292:163|283:215,1,70
266,292,131500,1,0,0:0:0:0:
199,67,132125,5,0,0:0:0:0:
169,85,132203,1,0,0:0:0:0:
145,117,132281,1,0,0:0:0:0:
133,221,132437,2,0,L|223:186,1,70
296,156,132750,1,0,0:0:0:0:
216,349,133062,2,0,L|215:268,1,70
210,68,133531,1,0,0:0:0:0:
300,120,133687,1,0,0:0:0:0:
117,224,134000,6,0,B|75:271|69:355|70:353,1,140
269,286,134625,2,0,P|341:266|381:206,1,140
276,190,135093,2,0,L|127:185,1,140
31,196,135562,2,0,P|51:291|148:299,2,210
238,74,136968,6,0,L|183:129,1,70
130,325,137437,2,0,L|179:275,1,70
365,138,138062,2,0,P|311:78|230:68,1,140
290,272,138687,1,0,0:0:0:0:
195,84,139000,6,0,B|114:90|104:178,1,140
314,156,139625,2,0,P|386:149|451:122,1,140
329,267,140250,6,0,P|269:300|199:299,1,140
181,143,140718,2,0,P|249:107|323:127,1,157.500006008148
72,336,141500,5,0,0:0:0:0:
155,182,141656,1,0,0:0:0:0:
178,355,141812,1,0,0:0:0:0:
60,225,141968,1,0,0:0:0:0:
228,274,142125,2,0,P|270:262|286:238,1,70
350,118,142437,1,0,0:0:0:0:
468,264,142593,6,0,P|452:323|380:281,1,140
312,150,143062,2,0,L|274:226,1,70
139,317,143375,1,0,0:0:0:0:
212,158,143531,2,0,L|250:82,1,70
81,160,143843,1,0,0:0:0:0:
210,279,144000,5,0,0:0:0:0:
246,295,144078,1,0,0:0:0:0:
284,298,144156,1,0,0:0:0:0:
321,292,144234,1,0,0:0:0:0:
356,281,144312,2,0,B|387:241|387:241|416:274|415:332,1,140
493,166,144781,1,0,0:0:0:0:
321,201,144937,1,0,0:0:0:0:
426,61,145093,6,0,P|354:36|269:52,1,140
374,198,145562,2,0,L|353:122,1,70
462,231,145875,2,0,P|434:269|382:279,1,70
241,307,146187,1,0,0:0:0:0:
302,143,146343,1,0,0:0:0:0:
94,267,146500,6,0,P|80:194|112:113,1,140
274,268,147125,5,0,0:0:0:0:
303,293,147203,1,0,0:0:0:0:
339,301,147281,1,0,0:0:0:0:
464,178,147437,1,0,0:0:0:0:
289,184,147593,1,0,0:0:0:0:
423,297,147750,1,0,0:0:0:0:
377,213,147906,1,0,0:0:0:0:
256,339,148062,6,0,P|223:349|189:343,1,70
78,206,148375,2,0,P|110:195|144:201,1,70
305,270,148687,2,0,B|380:284|417:334|417:334|386:238|437:118|314:88,1,420
145,44,149781,5,0,0:0:0:0:
261,174,149937,2,0,L|172:155,1,70
19,128,150250,1,0,0:0:0:0:
177,55,150406,1,0,0:0:0:0:
120,220,150562,2,0,L|91:306,1,70
239,182,150875,2,0,P|328:181|380:216,1,140
217,291,151343,1,0,0:0:0:0:
170,121,151500,5,0,0:0:0:0:
145,158,151578,1,0,0:0:0:0:
132,195,151656,1,0,0:0:0:0:
67,32,151812,1,0,0:0:0:0:
239,57,151968,1,0,0:0:0:0:
73,116,152125,1,0,0:0:0:0:
224,203,152281,1,0,0:0:0:0:
296,138,152437,1,0,0:0:0:0:
298,336,152593,6,0,P|374:318|415:240,1,140
243,212,153062,2,0,L|174:151,1,70
363,199,153375,1,0,0:0:0:0:
219,87,153531,2,0,P|185:79|152:88,1,70
9,190,153843,1,0,0:0:0:0:
141,306,154000,5,0,0:0:0:0:
167,273,154078,1,0,0:0:0:0:
183,235,154156,1,0,0:0:0:0:
157,62,154312,1,0,0:0:0:0:
88,222,154468,1,0,0:0:0:0:
239,132,154625,2,0,P|277:108|328:107,1,70
475,87,154937,1,0,0:0:0:0:
404,285,155093,6,0,P|338:295|328:216,1,140
346,62,155562,2,0,L|263:109,1,70
418,121,155875,2,0,P|445:75|429:33,1,70
470,228,156187,1,0,0:0:0:0:
450,266,156265,1,0,0:0:0:0:
417,297,156343,1,0,0:0:0:0:
333,142,156500,6,0,B|293:194|288:276|288:276|240:207|162:228,1,280
200,319,157281,1,0,0:0:0:0:
67,205,157437,1,0,0:0:0:0:
85,165,157515,1,0,0:0:0:0:
112,133,157593,1,0,0:0:0:0:
149,254,157750,5,0,0:0:0:0:
206,88,157906,1,0,0:0:0:0:
270,250,158062,2,0,P|291:277|324:287,1,70
280,116,158375,1,0,0:0:0:0:
154,237,158531,2,0,P|121:226|100:198,1,70
60,28,158843,1,0,0:0:0:0:
202,131,159000,2,0,B|241:155|258:211,1,70
333,334,159312,6,0,L|362:304,3,35
394,271,159625,2,0,L|417:242,3,35
451,207,159937,2,0,L|476:175,4,35
277,234,160406,1,0,0:0:0:0:
348,74,160562,5,0,0:0:0:0:
200,160,160718,1,0,0:0:0:0:
324,160,160875,2,0,P|358:188|371:220,1,70
424,376,161187,1,0,0:0:0:0:
385,366,161265,1,0,0:0:0:0:
348,346,161343,1,0,0:0:0:0:
222,223,161500,6,0,P|156:176|96:174,1,140
135,262,161968,1,0,0:0:0:0:
293,337,162125,1,0,0:0:0:0:
327,317,162203,1,0,0:0:0:0:
352,285,162281,1,0,0:0:0:0:
322,112,162437,1,0,0:0:0:0:
225,257,162593,1,0,0:0:0:0:
195,25,162750,6,0,P|119:65|100:126,1,140
190,110,163218,1,0,0:0:0:0:
108,264,163375,2,0,P|157:227|192:223,1,70
338,217,163687,1,0,0:0:0:0:
375,225,163765,1,0,0:0:0:0:
409,245,163843,1,0,0:0:0:0:
234,222,164000,6,0,P|256:297|317:331,1,140
306,144,164468,1,0,0:0:0:0:
149,223,164625,1,0,0:0:0:0:
204,57,164781,2,0,P|237:36|270:39,1,70
435,83,165093,1,0,0:0:0:0:
289,181,165250,6,0,P|215:199|162:152,1,140
238,117,165718,1,0,0:0:0:0:
77,44,165875,2,0,P|68:99|75:137,1,70
98,285,166187,1,0,0:0:0:0:
121,319,166265,1,0,0:0:0:0:
153,339,166343,1,0,0:0:0:0:
225,179,166500,6,0,P|289:205|318:272,1,140
232,260,166968,1,0,0:0:0:0:
386,176,167125,1,0,0:0:0:0:
260,54,167281,2,0,P|222:35|178:60,1,70
56,147,167593,1,0,0:0:0:0:
231,147,167750,6,0,B|291:212|226:288,1,140
180,215,168218,1,0,0:0:0:0:
55,90,168375,2,0,P|87:54|118:49,1,70
281,42,168687,1,0,0:0:0:0:
319,55,168765,1,0,0:0:0:0:
349,79,168843,1,0,0:0:0:0:
418,240,169000,6,0,P|351:222|314:165,1,140
397,156,169468,1,0,0:0:0:0:
266,37,169625,1,0,0:0:0:0:
170,183,169781,2,0,P|157:215|155:250,1,70
277,126,170093,1,0,0:0:0:0:
90,29,170250,5,0,0:0:0:0:
70,67,170328,1,0,0:0:0:0:
58,107,170406,1,0,0:0:0:0:
58,149,170484,1,0,0:0:0:0:
63,192,170562,2,0,P|78:229|121:259,1,70
270,287,170875,2,0,P|254:249|211:219,1,70
175,355,171187,1,0,0:0:0:0:
139,183,171343,1,0,0:0:0:0:
314,173,171500,6,0,P|367:202|399:281,1,140
449,104,171968,1,0,0:0:0:0:
281,49,172125,2,0,P|246:48|212:56,1,70
104,194,172437,2,0,P|138:194|172:186,1,70
333,114,172750,6,0,P|361:167|296:201,1,140
154,113,173218,1,0,0:0:0:0:
136,287,173375,1,0,0:0:0:0:
220,221,173531,2,0,P|261:191|294:179,1,70
446,136,173843,1,0,0:0:0:0:
296,44,174000,6,0,P|223:57|174:113,1,140
270,125,174468,1,0,0:0:0:0:
166,267,174625,1,0,0:0:0:0:
331,324,174781,2,0,P|365:317|390:294,1,70
255,246,175093,1,0,0:0:0:0:
304,77,175250,6,0,P|336:139|335:210,1,140
411,50,175718,5,0,0:0:0:0:
473,136,175875,1,0,0:0:0:0:
370,277,176031,2,0,P|343:298|308:303,1,70
361,136,176343,1,0,0:0:0:0:
213,262,176500,6,0,P|142:291|79:251,1,140
150,211,176968,1,0,0:0:0:0:
36,57,177125,1,0,0:0:0:0:
200,116,177281,2,0,P|240:144|248:172,1,70
285,332,177593,1,0,0:0:0:0:
438,222,177750,6,0,P|410:181|307:162,1,140
155,192,178218,1,0,0:0:0:0:
316,260,178375,1,0,0:0:0:0:
248,98,178531,2,0,P|236:139|243:193,1,70
274,339,178843,1,0,0:0:0:0:
204,266,179000,6,0,L|181:232,3,35
158,193,179312,2,0,L|135:159,3,35
113,121,179625,2,0,L|90:87,3,35
69,46,179937,2,0,L|46:12,3,35
195,74,180250,2,0,B|265:117|217:185|234:239|276:270|331:277|381:262|407:232|421:186|394:148|364:129|328:151,1,420
112,265,181500,6,0,P|165:312|251:314,1,140
370,298,182125,1,0,0:0:0:0:
245,234,182437,2,0,P|210:207|198:179,1,70
188,114,182750,1,0,0:0:0:0:
83,206,183062,6,0,P|101:281|151:335,1,140
183,194,183687,1,0,0:0:0:0:
61,124,184000,2,0,P|121:75|198:77,1,140
316,109,184625,1,0,0:0:0:0:
193,175,184937,2,0,P|214:203|257:219,1,70
314,226,185250,1,0,0:0:0:0:
367,96,185562,6,0,P|409:152|411:250,1,140
375,353,186187,1,0,0:0:0:0:
264,266,186500,6,0,P|296:202|352:154,1,140
479,113,187125,1,0,0:0:0:0:
352,54,187437,2,0,L|280:54,1,70
211,57,187750,1,0,0:0:0:0:
298,166,188062,6,0,P|262:222|194:203,1,140
116,93,188687,1,0,0:0:0:0:
77,227,189000,2,0,P|101:304|160:329,1,140
289,344,189625,1,0,0:0:0:0:
197,238,189937,2,0,P|171:204|173:161,1,70
175,107,190250,1,0,0:0:0:0:
284,193,190562,6,0,P|345:222|409:199,1,140
302,108,191187,1,0,0:0:0:0:
208,199,191500,6,0,B|166:243|153:302|153:302|207:277|260:301,1,210.000008010865
378,350,192437,1,0,0:0:0:0:
263,174,193062,2,0,P|302:133|372:121,1,105.000004005432
341,266,193687,1,0,0:0:0:0:
436,153,194000,6,0,L|417:223,2,52.5000020027161
457,62,194625,2,0,B|391:0|315:92|241:38,1,210.000008010865
255,46,195875,1,0,0:0:0:0:
313,180,196187,1,0,0:0:0:0:
191,277,196500,6,0,P|111:244|202:159,1,210.000008010865
153,152,197750,2,0,P|211:150|280:211,1,105.000004005432
346,283,198375,1,0,0:0:0:0:
178,217,198687,2,0,B|296:184|305:116|282:67|226:55|178:72|145:106|158:183|283:232,1,420.000016021729
264,224,200875,5,0,0:0:0:0:
387,145,201187,1,0,0:0:0:0:
240,128,201500,2,0,B|154:106|174:236|45:203,1,210.000008010865
84,77,202437,1,0,0:0:0:0:
296,280,203062,6,0,P|346:227|346:154,1,105.000004005432
335,51,203687,1,0,0:0:0:0:
230,154,204000,2,0,L|216:213,2,52.5000020027161
248,68,204625,1,0,0:0:0:0:
140,123,204937,1,0,0:0:0:0:
140,249,205250,6,0,P|173:295|227:305,1,105.000004005432
355,253,205875,2,0,P|322:207|267:196,1,105.000004005432
83,232,206500,6,0,P|108:258|145:252,1,52.5000020027161
176,190,206812,2,0,P|147:214|144:252,1,52.5000020027161
115,312,207125,2,0,P|143:287|146:249,1,52.5000020027161
209,272,207437,2,0,P|182:245|145:251,1,52.5000020027161
43,272,207750,6,0,P|39:215|59:164,1,105.000004005432
159,52,208375,1,0,0:0:0:0:
226,205,208687,2,0,B|272:227|241:319|301:341|301:341|353:319|325:227|373:196,1,315.000012016297
442,126,209937,2,0,B|378:87|363:26|363:26|338:133|212:125,1,315.000012016297
128,284,211500,5,0,0:0:0:0:
216,136,211656,1,0,0:0:0:0:
234,309,211812,1,0,0:0:0:0:
115,180,211968,1,0,0:0:0:0:
59,347,212125,1,0,0:0:0:0:
59,347,212203,1,0,0:0:0:0:
59,347,212281,1,0,0:0:0:0:
193,235,212437,1,0,0:0:0:0:
83,242,212593,6,0,P|62:178|105:126,1,140
275,79,213062,2,0,L|312:171,1,70
308,319,213375,5,0,0:0:0:0:
154,235,213531,2,0,L|117:143,1,70
194,8,213843,1,0,0:0:0:0:
312,63,214000,5,0,0:0:0:0:
312,63,214078,1,0,0:0:0:0:
312,63,214156,1,0,0:0:0:0:
262,230,214312,1,0,0:0:0:0:
158,88,214468,1,0,0:0:0:0:
373,165,214625,6,0,P|385:205|381:241,1,70
244,127,214937,1,0,0:0:0:0:
128,258,215093,2,0,P|188:308|268:317,1,140
422,307,215562,2,0,P|430:260|413:216,1,70
299,115,215875,2,0,P|291:162|308:206,1,70
353,348,216187,1,0,0:0:0:0:
423,187,216343,1,0,0:0:0:0:
263,263,216500,6,0,B|203:246|235:167|150:149,1,140
60,114,217125,5,0,0:0:0:0:
60,114,217203,1,0,0:0:0:0:
60,114,217281,1,0,0:0:0:0:
203,13,217437,1,0,0:0:0:0:
147,178,217593,1,0,0:0:0:0:
289,74,217750,6,0,P|325:70|365:78,1,70
485,194,218062,2,0,P|437:190|401:182,1,70
274,143,218375,1,0,0:0:0:0:
338,290,218531,1,0,0:0:0:0:
382,83,218687,2,0,B|352:58|294:11|183:24|158:128|158:128|140:25|52:31,1,420
65,121,219781,5,0,0:0:0:0:
219,202,219937,2,0,P|191:239|147:244,1,70
40,261,220250,1,0,0:0:0:0:
201,337,220406,2,0,P|231:349|265:338,1,70
405,246,220718,1,0,0:0:0:0:
232,211,220875,2,0,P|184:146|197:81,1,140
267,132,221343,1,0,0:0:0:0:
411,32,221500,5,0,0:0:0:0:
389,205,221656,1,0,0:0:0:0:
334,39,221812,2,0,P|316:86|313:132,1,70
325,280,222125,1,0,0:0:0:0:
230,133,222281,2,0,P|209:171|203:225,1,70
187,363,222593,2,0,P|125:334|113:254,1,140
143,96,223062,6,0,L|221:46,1,70
172,196,223375,1,0,0:0:0:0:
320,103,223531,2,0,L|398:53,1,70
347,237,223843,1,0,0:0:0:0:
486,129,224000,5,0,0:0:0:0:
500,166,224078,1,0,0:0:0:0:
505,205,224156,1,0,0:0:0:0:
439,367,224312,2,0,P|399:363|375:347,1,70
239,234,224625,1,0,0:0:0:0:
351,100,224781,2,0,P|388:72|416:66,1,70
389,191,225093,2,0,B|370:239|320:269|320:269|309:319|247:340,1,210
211,135,225875,5,0,0:0:0:0:
129,28,226031,1,0,0:0:0:0:
115,202,226187,2,0,P|114:239|135:279,1,70
201,366,226500,2,0,B|273:339|264:255|264:255|328:290|392:325,1,280
347,152,227281,5,0,0:0:0:0:
183,213,227437,1,0,0:0:0:0:
187,170,227515,1,0,0:0:0:0:
203,132,227593,1,0,0:0:0:0:
325,5,227750,2,0,P|394:42|432:108,1,140
463,263,228218,5,0,0:0:0:0:
320,160,228375,1,0,0:0:0:0:
288,331,228531,2,0,P|335:299|351:268,1,70
414,130,228843,1,0,0:0:0:0:
307,59,229000,6,0,L|259:59,3,35
244,93,229312,2,0,L|196:93,3,35
180,58,229625,2,0,L|136:58,3,35
115,96,229937,2,0,L|67:96,3,35
38,61,230250,6,0,P|17:121|56:195,1,140
211,247,230718,2,0,P|237:269|245:302,1,70
242,378,231031,1,0,0:0:0:0:
81,212,231500,6,0,P|97:108|136:203,1,280
49,311,232281,1,0,0:0:0:0:
185,340,232437,2,0,P|224:310|237:275,1,70
271,156,232750,1,0,0:0:0:0:
359,264,232906,5,0,0:0:0:0:
389,62,233062,2,0,P|413:106|424:203,1,140
301,126,233531,2,0,P|231:122|170:154,1,140
69,252,234000,2,0,P|65:312|141:327,1,140
309,259,234625,5,0,0:0:0:0:
367,132,234781,1,0,0:0:0:0:
228,147,234937,2,0,P|181:203|173:289,1,140
89,96,235562,6,0,L|55:162,2,70
125,309,236187,1,0,0:0:0:0:
242,107,236500,2,0,P|322:107|362:163,1,140
362,341,237125,6,0,L|318:273,2,70
289,221,237593,1,0,0:0:0:0:
216,341,237750,2,0,P|152:318|136:253,1,140
169,117,238218,1,0,0:0:0:0:
241,237,238375,2,0,P|309:225|353:169,1,140
355,37,239000,6,0,B|273:29|226:102|148:55|148:55|117:136,1,280
80,249,239781,1,0,0:0:0:0:
216,281,239937,2,0,L|285:240,2,70
91,347,240406,1,0,0:0:0:0:
165,201,240562,2,0,P|208:170|246:169,1,70
453,264,240875,2,0,P|382:298|305:256,1,140
167,123,241500,6,0,P|192:21|215:124,1,280
100,188,242281,1,0,0:0:0:0:
238,203,242437,2,0,P|289:187|311:166,1,70
365,52,242750,1,0,0:0:0:0:
432,222,242906,5,0,0:0:0:0:
267,102,243062,2,0,P|187:114|147:154,1,140
264,231,243531,2,0,P|279:282|229:354,1,140
162,230,244000,2,0,P|108:205|103:281,1,140
158,371,244625,5,0,0:0:0:0:
259,275,244781,1,0,0:0:0:0:
122,244,244937,2,0,P|134:176|196:122,1,140
211,288,245562,2,0,L|220:384,2,70
278,56,246187,1,0,0:0:0:0:
70,166,246500,2,0,B|97:269|205:231|205:231|260:322,1,280
329,118,247437,6,0,L|341:47,2,70
221,208,247906,1,0,0:0:0:0:
308,316,248062,2,0,P|394:303|441:242,1,140
330,227,248531,2,0,B|268:190|331:146|269:78,1,140
281,9,249000,6,0,P|211:47|199:128,1,140
211,251,249468,1,0,0:0:0:0:
117,152,249625,2,0,B|92:195|96:250,1,70
81,339,249937,2,0,P|55:362|22:370,2,70
175,234,250406,5,0,0:0:0:0:
277,329,250562,2,0,P|302:352|335:360,2,70
398,258,251031,1,0,0:0:0:0:
283,177,251187,2,0,P|243:152|196:143,1,70
88,101,251500,6,0,P|25:42|126:71,1,280
98,204,252281,1,0,0:0:0:0:
229,155,252437,2,0,P|216:207|191:226,1,70
93,301,252750,1,0,0:0:0:0:
215,369,252906,5,0,0:0:0:0:
310,267,253062,2,0,P|332:202|306:138,1,140
228,202,253531,2,0,P|158:203|96:172,1,140
0,91,254000,2,0,P|-12:25|60:28,1,140
261,82,254625,5,0,0:0:0:0:
171,189,254781,1,0,0:0:0:0:
310,178,254937,2,0,P|330:230|282:301,1,140
145,88,255562,2,0,L|106:21,2,70
150,267,256187,1,0,0:0:0:0:
316,70,256500,6,0,B|382:99|399:176,1,140
122,126,257125,2,0,L|55:107,2,70
256,162,257593,1,0,0:0:0:0:
293,297,257750,2,0,P|353:253|365:185,1,140
331,56,258218,1,0,0:0:0:0:
253,173,258375,2,0,B|221:247|140:257,1,140
195,39,259000,6,0,B|136:37|108:39|159:145|148:164|62:143|43:159|33:273,1,280
129,233,259781,1,0,0:0:0:0:
106,349,259937,2,0,P|136:347|178:321,2,70
11,350,260406,1,0,0:0:0:0:
39,213,260562,2,0,P|65:163|95:145,1,70
186,68,260875,2,0,P|266:76|314:124,1,140
98,288,261500,6,0,P|6:289|100:232,1,280
177,340,262281,1,0,0:0:0:0:
230,210,262437,2,0,P|273:182|319:193,1,70
430,178,262750,1,0,0:0:0:0:
363,55,262906,5,0,0:0:0:0:
353,263,263062,2,0,P|328:302|243:340,1,140
261,233,263531,2,0,P|238:151|200:105,1,140
96,87,264000,2,0,P|91:18|156:19,1,140
344,90,264625,5,0,0:0:0:0:
298,222,264781,1,0,0:0:0:0:
223,104,264937,2,0,P|171:148|165:216,1,140
405,71,265562,2,0,B|468:20|468:20|468:21,2,70
353,233,266187,1,0,0:0:0:0:
230,38,266500,6,0,B|205:107|141:141|141:141|194:184|225:261,1,280
55,179,267437,6,0,L|-10:129,2,70
104,310,267906,1,0,0:0:0:0:
243,307,268062,2,0,P|317:276|356:224,1,140
246,199,268531,2,0,B|180:162|234:113|170:58,1,140
115,2,269000,6,0,P|64:12|55:96,1,140
115,212,269468,1,0,0:0:0:0:
218,114,269625,2,0,P|260:97|294:102,1,70
219,222,269937,2,0,P|200:256|199:294,2,70
293,341,270406,5,0,0:0:0:0:
324,204,270562,2,0,P|342:174|371:155,2,70
464,208,271031,1,0,0:0:0:0:
412,77,271187,2,0,P|356:49|320:54,1,70
243,140,271500,6,0,P|174:125|119:84,1,140
254,46,272125,1,0,0:0:0:0:
157,147,272437,2,0,P|142:178|134:212,1,70
129,283,272750,1,0,0:0:0:0:
261,239,273062,2,0,P|320:205|345:141,1,140
349,1,273687,1,0,0:0:0:0:
248,99,274000,6,0,P|190:152|123:170,1,140
186,40,274625,1,0,0:0:0:0:
60,101,274937,2,0,P|44:137|36:173,1,70
30,236,275250,1,0,0:0:0:0:
157,177,275562,1,0,0:0:0:0:
131,314,275875,2,0,P|182:359|250:361,1,140
200,230,276500,6,0,P|218:158|270:100,1,140
382,40,277125,1,0,0:0:0:0:
350,176,277437,2,0,P|322:212|294:232,1,70
247,269,277750,1,0,0:0:0:0:
232,129,278062,2,0,P|200:52|129:30,1,140
144,170,278687,1,0,0:0:0:0:
70,50,279000,6,0,P|33:115|37:182,1,140
76,313,279625,1,0,0:0:0:0:
170,209,279937,2,0,P|212:189|245:190,1,70
303,205,280250,1,0,0:0:0:0:
225,318,280640,6,0,P|300:341|356:303,1,131.25000500679
258,221,281421,2,0,P|211:175|166:169,1,105
54,210,282320,2,0,P|49:178|60:144,1,65.625
256,192,283687,12,0,286500,0:0:0:0:
