osu file format v14

[General]
AudioFilename: audio.mp3
AudioLeadIn: 0
PreviewTime: 63218
Countdown: 0
SampleSet: Soft
StackLeniency: 0.9
Mode: 0
LetterboxInBreaks: 0
WidescreenStoryboard: 0

[Editor]
Bookmarks: 44000,77593,114000,116187,143375,216968,218375
DistanceSpacing: 2
BeatDivisor: 2
GridSize: 4
TimelineZoom: 1.700006

[Metadata]
Title:Uchiage Hanabi
TitleUnicode:Uchiage Hanabi
Artist:DAOKO x Kenshi Yonezu
ArtistUnicode:DAOKO × Kenshi Yonezu
Creator:HatsuKeiae
Version:Hanabi
Source:Uchiage Hanabi, Shita kara Miru ka? Yoko kara Miru ka?
Tags:Marathon
BeatmapID:1390156
BeatmapSetID:656066

[Difficulty]
HPDrainRate:5.5
CircleSize:4.5
OverallDifficulty:9
ApproachRate:9.3
SliderMultiplier:1.4
SliderTickRate:1

[Events]
//Background and Video events
0,0,"bg3.jpg",0,0
Video,0,"video.mp4"
//Break Periods
2,83731,93400
//Storyboard Layer 0 (Background)
//Storyboard Layer 1 (Fail)
//Storyboard Layer 2 (Pass)
//Storyboard Layer 3 (Foreground)
//Storyboard Sound Samples

[TimingPoints]
4000,312.5,4,1,0,100,1,0
4000,-200,4,2,2,40,0,0
14000,-100,4,2,1,40,0,0
24000,-133.333333333333,4,2,1,50,0,0
44000,-100,4,2,1,50,0,0
59000,-100,4,2,2,50,0,0
64000,-100,4,2,1,100,0,1
71187,-66.6666666666667,4,2,1,100,0,1
72125,-100,4,2,1,100,0,1
79000,-66.6666666666667,4,2,1,100,0,1
79625,-100,4,2,1,100,0,1
83531,-100,4,2,1,100,0,0
94000,-100,4,2,1,60,0,0
124000,-100,4,2,2,60,0,0
126187,-133.333333333333,4,2,2,60,0,0
128687,-100,4,2,2,60,0,0
131500,-100,4,2,1,60,0,0
141500,-100,4,2,1,100,0,1
148687,-66.6666666666667,4,2,1,100,0,1
149625,-100,4,2,1,100,0,1
156500,-66.6666666666667,4,2,1,100,0,1
157125,-100,4,2,1,100,0,1
161500,-100,4,2,1,100,0,0
181500,-200,4,2,2,40,0,0
191500,-133.333333333333,4,2,1,40,0,0
211500,-100,4,2,1,100,0,1
218687,-66.6666666666667,4,2,1,100,0,1
219625,-100,4,2,1,100,0,1
226500,-66.6666666666667,4,2,1,100,0,1
227125,-100,4,2,1,100,0,1
230875,-100,4,2,1,100,0,0
231500,-400,4,2,1,100,0,0
232125,-100,4,2,1,100,0,0
241500,-400,4,2,1,100,0,0
242125,-100,4,2,1,100,0,0
250250,-100,4,2,1,70,0,0
251500,-400,4,2,1,100,0,0
252125,-100,4,2,1,100,0,0
261500,-400,4,2,1,100,0,0
262125,-100,4,2,1,100,0,0
270250,-100,4,2,1,70,0,0
271500,-200,4,2,2,40,0,0
280640,-200,4,2,2,35,0,0
281812,-200,4,2,2,30,0,0
282359,-200,4,2,2,25,0,0
282906,-200,4,2,2,15,0,0
283687,-200,4,2,2,10,0,0

[HitObjects]
136,64,4000,6,0,L|200:96,1,70,2|0,2:0|2:0,2:0:0:0:
28,128,4625,1,8,2:0:0:0:
188,200,4937,6,0,L|160:240,1,35,0|0,2:0|2:0,2:0:0:0:
112,308,5250,1,0,2:0:0:0:
128,120,5562,2,0,P|144:88|180:84,1,70,2|8,2:0|2:0,2:0:0:0:
100,240,6187,5,0,2:0:0:0:
236,136,6500,2,0,P|272:112|312:120,1,70,2|0,2:0|2:0,2:0:0:0:
200,260,7125,1,8,2:0:0:0:
360,192,7437,6,0,L|396:164,2,35,0|0|0,2:0|2:0|2:0,2:0:0:0:
224,300,8062,2,0,P|244:324|292:328,1,70,8|0,2:0|2:0,2:0:0:0:
224,164,8687,1,8,2:0:0:0:
396,228,9000,2,0,P|432:200|436:168,1,70,2|0,2:0|2:0,2:0:0:0:
268,244,9625,1,8,2:0:0:0:
388,108,9937,6,0,B|372:92|352:84,1,35,0|0,2:0|2:0,2:0:0:0:
280,52,10250,1,0,2:0:0:0:
392,204,10562,2,0,B|384:252|348:264,1,70,2|8,2:0|2:0,2:0:0:0:
304,84,11187,5,0,2:0:0:0:
224,248,11500,2,0,B|264:244|288:216,1,70,2|0,2:0|2:0,2:0:0:0:
400,76,12125,1,8,2:0:0:0:
216,172,12437,2,0,L|181:150,2,35,0|0|0,2:0|2:0|2:0,2:0:0:0:
396,336,13062,6,0,L|354:311,1,35,2|0,2:0|2:0,2:0:0:0:
124,336,13375,2,0,L|166:307,1,35,0|0,2:0|2:0,2:0:0:0:
257,103,13687,2,0,L|256:148,1,35,2|0,2:0|2:0,2:0:0:0:
220,220,14000,2,0,P|152:182|120:119,1,140,2|0,2:0|2:0,2:0:0:0:
257,103,14625,5,8,2:0:0:0:
441,202,14937,5,0,2:0:0:0:
337,226,15093,1,0,2:0:0:0:
413,298,15250,1,0,2:0:0:0:
237,345,15562,5,2,2:0:0:0:
258,197,15875,2,0,P|194:245|170:305,1,140,8|0,2:0|2:0,2:0:0:0:
132,116,16500,6,0,L|68:64,1,70,2|0,2:0|2:0,2:0:0:0:
344,116,16812,2,0,L|398:160,1,70,0|0,2:0|2:0,2:0:0:0:
164,240,17125,2,0,L|108:296,1,70,8|0,2:0|2:0,2:0:0:0:
220,68,17437,2,0,L|269:18,1,70,0|8,2:0|2:0,2:0:0:0:
268,264,17750,5,0,2:0:0:0:
268,264,17906,1,0,2:0:0:0:
160,60,18062,2,0,P|112:104|104:136,1,70,2|0,2:0|2:0,2:0:0:0:
168,348,18375,2,0,P|197:329|217:301,1,70,8|0,2:0|2:0,2:0:0:0:
232,36,18687,2,0,P|280:32|352:88,1,140,0|2,2:0|2:0,2:0:0:0:
222,142,19312,6,0,P|178:206|186:298,1,140,0|8,2:0|2:0,2:0:0:0:
306,215,19937,1,0,2:0:0:0:
366,128,20093,1,0,2:0:0:0:
401,226,20250,1,0,2:0:0:0:
225,272,20562,5,2,2:0:0:0:
293,103,20875,2,0,P|259:43|201:89,1,140,8|0,2:0|2:0,2:0:0:0:
160,288,21500,6,0,L|104:236,1,70,2|0,2:0|2:0,2:0:0:0:
384,288,21812,2,0,L|440:236,1,70,0|0,2:0|2:0,2:0:0:0:
256,128,22125,1,8,2:0:0:0:
256,96,22281,1,0,2:0:0:0:
256,320,22437,2,0,L|256:220,1,70,0|0,2:0|2:0,2:0:0:0:
192,128,22750,5,0,2:0:0:0:
320,128,22906,1,2,2:0:0:0:
100,272,23062,2,0,L|40:324,1,70,0|0,2:0|2:0,2:0:0:0:
256,96,23375,5,8,2:0:0:0:
256,64,23531,1,0,2:0:0:0:
412,272,23687,2,0,L|464:317,1,70,0|0,2:0|2:0,2:0:0:0:
184,116,24000,6,0,P|256:49|328:120,1,210.000008010865,2|8,2:0|2:0,2:0:0:0:
88,208,24937,2,0,B|144:268|108:356|108:356|172:324,1,210.000008010865,0|2,2:0|2:0,2:0:0:0:
312,192,25718,1,0,2:0:0:0:
260,44,25875,2,0,P|230:27|192:36,1,52.5000020027161,0|0,2:0|2:0,2:0:0:0:
97,170,26187,2,0,P|127:187|165:178,1,52.5000020027161,2|0,2:0|2:0,2:0:0:0:
316,119,26500,2,0,P|388:143|412:179,1,105.000004005432,2|0,2:0|2:0,2:0:0:0:
148,336,27125,6,0,B|116:280|76:312|76:312|18:248|104:200,1,210.000008010865,8|0,2:0|2:0,2:0:0:0:
420,58,28062,2,0,P|469:61|473:125,1,105.000004005432,2|0,2:0|2:0,2:0:0:0:
330,210,28531,2,0,P|280:206|276:142,1,105.000004005432,2|0,2:0|2:0,2:0:0:0:
369,6,29000,6,0,B|293:-14|279:32|279:32|209:2|185:74,1,210.000008010865,2|8,2:0|2:0,2:0:0:0:
84,288,29937,2,0,L|48:344,2,52.5000020027161,0|0|0,2:0|2:0|2:0,2:0:0:0:
230,60,30562,2,0,P|180:68|164:116,1,105.000004005432,2|0,2:0|2:0,2:0:0:0:
358,200,31187,2,0,B|404:234|461:203|456:135|412:107|353:101|303:117|271:154|266:199|286:240|335:289|335:289|321:313|303:338|265:348|223:346|189:321|193:286|193:286|219:246|227:201|223:162|184:128,1,735.000028038026,8|0,2:0|2:0,2:0:0:0:
95,43,33687,5,0,2:0:0:0:
39,132,33843,1,0,2:0:0:0:
142,151,34000,2,0,B|198:175|234:132|210:95|210:95|246:56|287:101,1,210.000008010865,2|8,2:0|2:0,2:0:0:0:
390,210,34937,2,0,B|412:236|438:240|467:219|469:189|469:189|507:237|497:295,1,210.000008010865,0|2,0:0|0:0,0:0:0:0:
348,353,35875,1,0,2:0:0:0:
216,210,36187,1,0,2:0:0:0:
352,40,36500,6,0,P|280:52|240:68,1,105.000004005432,2|0,2:0|2:0,2:0:0:0:
154,111,36968,1,0,2:0:0:0:
259,146,37125,2,0,P|319:186|331:234,1,105.000004005432,8|0,2:0|2:0,2:0:0:0:
80,320,37750,6,0,L|20:356,1,52.5000020027161,0|0,2:0|2:0,2:0:0:0:
112,176,38062,2,0,L|76:112,1,52.5000020027161,2|0,2:0|2:0,2:0:0:0:
80,320,38375,5,0,2:0:0:0:
80,320,38531,1,2,2:0:0:0:
236,224,38687,2,0,L|280:192,1,52.5000020027161,0|0,2:0|2:0,2:0:0:0:
44,232,39000,6,0,P|48:168|88:124,1,105.000004005432,2|0,2:0|2:0,2:0:0:0:
152,248,39468,1,0,2:0:0:0:
239,64,39625,2,0,P|241:115|268:160,1,105.000004005432,8|0,2:0|2:0,2:0:0:0:
444,44,40250,1,0,2:0:0:0:
488,140,40406,1,0,2:0:0:0:
381,120,40562,1,2,2:0:0:0:
76,308,40875,6,0,L|152:200,1,105.000004005432,0|0,2:0|2:0,2:0:0:0:
261,68,41500,2,0,P|322:24|276:83,1,210.000008010865,2|8,2:0|2:0,2:0:0:0:
56,96,42437,6,0,L|124:76,2,52.5000020027161,0|0|0,2:0|2:0|2:0,2:0:0:0:
132,176,43062,2,0,L|24:64,1,105.000004005432,2|0,2:0|2:0,2:0:0:0:
132,176,43531,2,0,L|132:56,1,105.000004005432,2|0,2:0|2:0,2:0:0:0:
192,236,44000,5,2,2:0:0:0:
388,164,44312,1,0,2:0:0:0:
392,168,44468,2,0,P|436:136|444:104,1,70,0|8,2:0|2:0,2:0:0:0:
236,160,44937,1,0,2:0:0:0:
236,160,45015,1,0,2:0:0:0:
236,160,45093,1,0,2:0:0:0:
396,32,45250,5,0,2:0:0:0:
352,236,45562,1,0,2:0:0:0:
436,300,45718,1,0,2:0:0:0:
344,244,45875,2,0,P|280:288|208:292,1,140,8|0,2:0|2:0,2:0:0:0:
328,112,46500,5,2,2:0:0:0:
128,224,46812,2,0,L|196:276,1,70,0|0,2:0|2:0,2:0:0:0:
272,336,47125,1,8,2:0:0:0:
200,132,47437,1,0,2:0:0:0:
200,132,47515,1,0,2:0:0:0:
200,132,47593,1,0,2:0:0:0:
364,276,47750,5,0,2:0:0:0:
284,208,47906,1,0,2:0:0:0:
456,168,48062,2,0,P|379:103|335:91,1,140,2|0,2:0|2:0,2:0:0:0:
240,80,48531,1,2,2:0:0:0:
168,156,48687,1,0,2:0:0:0:
168,156,48765,1,0,2:0:0:0:
168,156,48843,1,0,2:0:0:0:
276,260,49000,5,2,2:0:0:0:
168,80,49312,2,0,P|220:32|284:56,1,140,0|8,2:0|2:0,2:0:0:0:
208,248,49937,1,0,2:0:0:0:
208,248,50015,1,0,2:0:0:0:
208,248,50093,1,0,2:0:0:0:
120,188,50250,5,0,2:0:0:0:
120,188,50406,2,0,L|120:116,1,70,0|2,2:0|2:0,2:0:0:0:
320,60,50875,2,0,L|400:60,1,70,0|0,2:0|2:0,2:0:0:0:
264,132,51187,2,0,L|184:132,1,70,0|0,2:0|2:0,2:0:0:0:
432,148,51500,5,2,2:0:0:0:
292,304,51812,1,0,2:0:0:0:
200,252,51968,2,0,P|176:224|184:188,1,70,0|8,2:0|2:0,2:0:0:0:
280,220,52281,1,0,2:0:0:0:
280,96,52437,5,0,2:0:0:0:
280,96,52515,1,0,2:0:0:0:
280,96,52593,1,0,2:0:0:0:
176,116,52750,2,0,L|120:74,2,70,0|0|2,2:0|2:0|2:0,2:0:0:0:
204,216,53218,1,0,2:0:0:0:
372,224,53375,2,0,L|434:255,1,70,0|2,2:0|2:0,2:0:0:0:
336,292,53687,1,0,2:0:0:0:
336,292,53843,1,0,2:0:0:0:
128,268,54000,6,0,B|104:192|184:192|184:192|204:136|128:112|128:112|168:68,1,280,2|8,2:0|2:0,2:0:0:0:
400,220,54937,1,0,2:0:0:0:
400,220,55015,1,0,2:0:0:0:
400,220,55093,1,0,2:0:0:0:
200,264,55250,5,0,2:0:0:0:
324,96,55562,2,0,L|388:136,2,70,0|0|8,2:0|2:0|2:0,2:0:0:0:
156,224,56187,1,0,2:0:0:0:
360,176,56500,6,0,P|348:92|300:64,1,140,2|0,2:0|2:0,2:0:0:0:
276,272,57125,1,8,2:0:0:0:
228,68,57437,1,0,2:0:0:0:
228,68,57515,1,0,2:0:0:0:
228,68,57593,1,0,2:0:0:0:
100,124,57750,5,0,2:0:0:0:
248,216,57906,1,0,2:0:0:0:
356,36,58062,1,2,2:0:0:0:
360,280,58218,1,0,2:0:0:0:
440,48,58375,1,0,2:0:0:0:
180,152,58531,1,2,2:0:0:0:
244,276,58687,1,0,2:0:0:0:
244,276,58765,1,0,2:0:0:0:
244,276,58843,1,0,2:0:0:0:
244,48,59000,6,0,B|292:76|340:52|340:52|312:128|312:128|360:158|416:108,1,280,2|0,2:0|2:0,2:0:0:0:
206,327,60250,2,0,B|171:341|139:331|125:303|137:259|172:249|172:249|103:236|64:141,1,280,2|0,2:0|2:0,2:0:0:0:
256,192,61187,12,0,63375,2:0:0:0:
428,64,64000,5,6,2:0:0:0:
228,204,64156,1,0,2:0:0:0:
400,172,64312,1,0,2:0:0:0:
204,92,64468,1,0,2:0:0:0:
368,276,64625,1,8,2:0:0:0:
348,304,64703,1,0,2:0:0:0:
320,324,64781,2,0,P|292:344|252:344,1,70,0|0,2:0|2:0,2:0:0:0:
116,152,65093,6,0,P|108:215|176:216,1,140,8|0,2:0|2:0,2:0:0:0:
264,64,65562,2,0,L|320:136,1,70,8|0,2:0|2:0,2:0:0:0:
404,160,65875,1,0,2:0:0:0:
328,276,66031,2,0,P|300:244|264:236,1,70,8|0,2:0|2:0,2:0:0:0:
128,236,66343,1,0,2:0:0:0:
352,88,66500,5,8,2:0:0:0:
384,100,66578,1,0,2:0:0:0:
408,128,66656,1,0,2:0:0:0:
200,116,66812,1,0,2:0:0:0:
352,260,66968,2,0,P|383:255|428:224,2,70,0|8|0,2:0|2:0|2:0,2:0:0:0:
215,224,67437,5,0,2:0:0:0:
36,337,67593,2,0,P|119:349|158:296,1,140,8|0,2:0|2:0,2:0:0:0:
228,132,68062,2,0,L|252:60,1,70,8|0,2:0|2:0,2:0:0:0:
292,273,68375,2,0,L|270:339,1,70,8|0,2:0|2:0,2:0:0:0:
334,124,68687,1,0,2:0:0:0:
197,178,68843,5,0,2:0:0:0:
132,2,69000,2,0,P|60:38|92:151,1,210,8|0,2:0|2:0,2:0:0:0:
380,252,69625,5,8,2:0:0:0:
292,100,69781,1,0,2:0:0:0:
492,200,69937,1,0,2:0:0:0:
252,244,70093,1,8,2:0:0:0:
424,84,70250,5,0,2:0:0:0:
316,224,70406,1,0,2:0:0:0:
352,52,70562,1,8,2:0:0:0:
428,200,70718,1,0,2:0:0:0:
216,204,70875,1,8,2:0:0:0:
304,52,71031,1,0,2:0:0:0:
188,285,71187,2,0,B|326:267|346:214|338:159|321:133|321:133|306:107|255:91|207:110|191:135|191:135|171:171|173:216|190:259|314:291,1,630.000024032594,12|8,2:0|2:0,2:0:0:0:
396,200,72281,1,0,2:0:0:0:
160,124,72437,6,0,L|232:164,1,70,0|8,2:0|2:0,2:0:0:0:
340,336,72750,2,0,L|268:296,1,70,0|0,2:0|2:0,2:0:0:0:
372,200,73062,1,0,2:0:0:0:
200,232,73218,1,0,2:0:0:0:
84,100,73375,2,0,L|164:128,1,70,8|0,2:0|2:0,2:0:0:0:
320,76,73687,2,0,L|240:48,1,70,0|0,2:0|2:0,2:0:0:0:
140,188,74000,5,8,2:0:0:0:
128,220,74078,1,0,2:0:0:0:
144,252,74156,1,0,2:0:0:0:
336,168,74312,2,0,L|408:108,1,70,0|0,2:0|2:0,2:0:0:0:
188,64,74625,2,0,L|116:124,1,70,8|0,2:0|2:0,2:0:0:0:
344,96,74937,1,0,2:0:0:0:
256,244,75093,2,0,P|180:240|108:188,1,140,8|0,2:0|2:0,2:0:0:0:
290,154,75562,6,0,L|250:90,1,70,8|0,2:0|2:0,2:0:0:0:
172,272,75875,1,0,2:0:0:0:
71,105,76031,2,0,L|108:45,1,70,8|0,2:0|2:0,2:0:0:0:
172,272,76343,1,0,2:0:0:0:
235,33,76500,6,0,P|327:13|391:37,1,140,8|0,2:0|2:0,2:0:0:0:
228,184,76968,1,0,2:0:0:0:
396,132,77125,1,8,2:0:0:0:
408,164,77203,1,0,2:0:0:0:
392,196,77281,1,0,2:0:0:0:
220,80,77437,1,0,2:0:0:0:
288,232,77593,6,0,P|216:268|168:216,1,140,8|0,2:0|2:0,2:0:0:0:
231,12,78062,2,0,L|231:86,1,70,8|0,2:0|2:0,2:0:0:0:
232,256,78375,2,0,L|232:330,1,70,8|0,2:0|2:0,2:0:0:0:
121,240,78687,1,0,2:0:0:0:
185,363,78843,1,0,2:0:0:0:
180,188,79000,2,0,B|104:108|292:44|292:44|228:152|316:220,1,420.000016021729,12|8,2:0|2:0,2:0:0:0:
383,278,79781,1,0,2:0:0:0:
203,337,79937,6,0,L|111:337,1,70,0|8,2:0|2:0,2:0:0:0:
231,174,80250,2,0,L|327:174,1,70,0|0,2:0|2:0,2:0:0:0:
420,316,80562,1,8,2:0:0:0:
232,248,80718,1,0,2:0:0:0:
480,108,80875,2,0,L|480:12,2,70,0|8|8,2:0|2:0|2:0,2:0:0:0:
260,216,81343,2,0,P|316:252|332:252,2,70,0|8|0,2:0|2:0|2:0,2:0:0:0:
84,36,81812,5,0,2:0:0:0:
76,68,81890,1,0,2:0:0:0:
72,100,81968,1,0,2:0:0:0:
80,132,82046,1,0,2:0:0:0:
104,152,82125,5,0,2:0:0:0:
136,148,82203,1,0,2:0:0:0:
164,136,82281,1,0,2:0:0:0:
196,144,82359,1,0,2:0:0:0:
204,172,82437,5,0,2:0:0:0:
208,204,82515,1,0,2:0:0:0:
200,236,82593,1,0,2:0:0:0:
152,340,82750,6,0,L|248:344,1,70,8|0,2:0|2:0,2:0:0:0:
256,344,82984,1,0,2:0:0:0:
256,344,83062,1,0,2:0:0:0:
324,120,83218,2,0,L|348:200,1,70,0|8,2:0|2:0,2:0:0:0:
392,356,83531,1,0,2:0:0:0:
356,56,94000,5,2,2:0:0:0:
184,176,94312,1,0,2:0:0:0:
164,204,94390,1,0,2:0:0:0:
152,236,94468,1,0,2:0:0:0:
252,268,94625,2,0,L|319:249,2,70,8|0|0,2:0|2:0|2:0,2:0:0:0:
284,168,95093,1,0,2:0:0:0:
400,120,95250,6,0,P|332:84|256:80,1,140,2|0,2:0|2:0,2:0:0:0:
164,88,95718,1,0,2:0:0:0:
248,152,95875,2,0,P|316:188|392:192,1,140,8|0,2:0|2:0,2:0:0:0:
232,40,96500,5,2,2:0:0:0:
404,160,96812,1,0,2:0:0:0:
416,192,96890,1,0,2:0:0:0:
408,228,96968,1,0,2:0:0:0:
340,308,97125,1,8,2:0:0:0:
316,172,97281,1,0,2:0:0:0:
256,256,97437,1,0,2:0:0:0:
236,124,97593,1,0,2:0:0:0:
256,256,97750,6,0,L|112:216,1,140,2|0,2:0|2:0,2:0:0:0:
280,356,98375,1,8,2:0:0:0:
180,320,98531,1,0,2:0:0:0:
276,276,98687,1,0,2:0:0:0:
276,276,98843,2,0,L|348:268,1,70,0|2,2:0|2:0,2:0:0:0:
160,96,99312,6,0,P|128:80|116:116,1,70,0|0,2:0|2:0,2:0:0:0:
236,172,99625,1,8,2:0:0:0:
124,256,99781,2,0,P|156:272|168:236,1,70,0|0,2:0|2:0,2:0:0:0:
216,116,100093,1,8,2:0:0:0:
320,212,100250,6,0,L|392:272,1,70,0|0,2:0|2:0,2:0:0:0:
236,256,100562,1,2,2:0:0:0:
308,136,100718,2,0,L|236:76,1,70,0|8,2:0|2:0,2:0:0:0:
392,108,101031,1,0,2:0:0:0:
277,17,101187,2,0,P|229:17|189:37,1,70,0|0,2:0|2:0,2:0:0:0:
94,199,101500,6,0,L|154:327,1,140,2|0,2:0|2:0,2:0:0:0:
210,58,102125,2,0,P|267:26|312:76,1,140,8|0,2:0|2:0,2:0:0:0:
159,309,102750,2,0,P|99:339|56:290,1,140,0|2,2:0|2:0,2:0:0:0:
25,25,103375,1,8,2:0:0:0:
196,104,103687,6,0,P|156:156|156:172,1,70,0|0,2:0|2:0,2:0:0:0:
156,264,104000,1,2,2:0:0:0:
172,296,104078,1,0,2:0:0:0:
200,316,104156,1,0,2:0:0:0:
232,216,104312,2,0,L|200:132,1,70,0|0,2:0|2:0,2:0:0:0:
352,252,104625,1,8,2:0:0:0:
456,68,104937,2,0,L|500:-8,2,70,0|0|0,2:0|2:0|2:0,2:0:0:0:
292,200,105562,5,2,2:0:0:0:
259,100,105718,1,0,0:0:0:0:
186,176,105875,1,8,2:0:0:0:
300,351,106187,2,0,L|231:299,1,70,0|0,2:0|2:0,2:0:0:0:
104,192,106500,1,2,2:0:0:0:
309,152,106812,2,0,P|265:212|187:227,1,140,0|8,0:0|0:0,0:0:0:0:
224,147,107437,1,0,2:0:0:0:
224,147,107593,2,0,L|162:112,1,70,2|0,2:0|2:0,2:0:0:0:
19,19,108062,5,0,2:0:0:0:
83,143,108218,1,0,2:0:0:0:
47,15,108375,2,0,P|111:39|143:95,1,140,8|0,2:0|2:0,2:0:0:0:
47,15,108843,2,0,P|131:23|183:87,1,140,8|0,2:0|2:0,2:0:0:0:
245,197,109312,5,0,2:0:0:0:
257,229,109390,1,0,2:0:0:0:
277,257,109468,1,0,2:0:0:0:
305,277,109546,1,0,2:0:0:0:
341,281,109625,2,0,P|377:249|389:213,1,70,8|0,2:0|2:0,2:0:0:0:
428,124,109937,1,0,2:0:0:0:
335,173,110093,1,0,2:0:0:0:
336,67,110250,6,0,L|276:103,1,70,2|0,2:0|2:0,2:0:0:0:
176,262,110562,2,0,L|236:226,1,70,0|0,2:0|2:0,2:0:0:0:
408,144,110875,2,0,L|404:52,1,70,8|0,2:0|2:0,2:0:0:0:
276,192,111187,2,0,L|280:284,1,70,0|0,2:0|2:0,2:0:0:0:
112,212,111500,5,2,2:0:0:0:
196,276,111656,1,0,2:0:0:0:
200,172,111812,1,0,2:0:0:0:
248,80,111968,1,0,2:0:0:0:
44,32,112125,6,0,L|136:148,1,140,8|0,2:0|2:0,2:0:0:0:
340,160,112750,2,0,L|380:96,2,70,0|0|0,2:0|2:0|2:0,2:0:0:0:
212,328,113375,1,8,2:0:0:0:
396,224,113687,1,0,2:0:0:0:
191,137,114000,6,0,B|255:78|319:131|319:131|284:59|363:19,1,280,2|8,2:0|2:0,2:0:0:0:
440,196,114937,1,0,2:0:0:0:
440,196,115015,1,0,2:0:0:0:
440,196,115093,1,0,2:0:0:0:
356,132,115250,5,0,2:0:0:0:
144,124,115562,1,2,2:0:0:0:
300,264,115875,2,0,P|292:212|264:184,1,70,8|0,2:0|2:0,2:0:0:0:
196,256,116187,2,0,P|142:213|138:145,1,140,0|0,2:0|2:0,2:0:0:0:
240,172,116656,1,0,2:0:0:0:
196,76,116812,1,0,2:0:0:0:
252,168,116968,2,0,P|292:156|312:120,1,70,0|8,2:0|2:0,2:0:0:0:
324,32,117281,1,0,2:0:0:0:
416,84,117437,1,0,2:0:0:0:
416,84,117515,1,0,2:0:0:0:
416,84,117593,1,0,2:0:0:0:
308,224,117750,6,0,L|380:208,1,70,2|0,2:0|2:0,2:0:0:0:
320,336,118062,1,0,2:0:0:0:
416,292,118218,1,0,2:0:0:0:
488,212,118375,2,0,P|476:156|420:96,1,140,8|0,2:0|2:0,2:0:0:0:
392,196,118843,1,0,2:0:0:0:
260,80,119000,5,2,2:0:0:0:
364,264,119312,1,0,2:0:0:0:
264,292,119468,2,0,P|304:348|332:352,1,70,0|8,2:0|2:0,2:0:0:0:
276,136,119937,1,0,2:0:0:0:
276,136,120015,1,0,2:0:0:0:
276,136,120093,1,0,2:0:0:0:
360,200,120250,6,0,P|424:160|436:88,1,140,2|0,2:0|2:0,2:0:0:0:
336,116,120718,1,0,2:0:0:0:
268,48,120875,2,0,P|196:72|176:148,1,140,8|0,2:0|2:0,2:0:0:0:
256,288,121343,6,0,L|256:216,1,70,8|0,2:0|2:0,2:0:0:0:
256,32,121656,1,0,2:0:0:0:
384,160,121812,1,8,2:0:0:0:
192,160,121968,2,0,L|116:160,1,70,0|8,2:0|2:0,2:0:0:0:
256,32,122281,5,0,2:0:0:0:
128,160,122437,1,0,2:0:0:0:
128,160,122515,1,0,2:0:0:0:
128,160,122593,1,0,2:0:0:0:
320,160,122750,2,0,L|404:160,1,70,2|0,2:0|2:0,2:0:0:0:
260,276,123062,1,0,2:0:0:0:
256,64,123218,1,0,2:0:0:0:
256,288,123375,2,0,L|404:288,1,140,8|0,2:0|2:0,2:0:0:0:
256,124,124000,5,2,2:0:0:0:
52,316,124312,1,0,2:0:0:0:
312,208,124625,1,0,2:0:0:0:
220,324,124937,1,0,2:0:0:0:
92,72,125250,5,2,2:0:0:0:
280,280,125562,1,0,2:0:0:0:
500,104,125875,1,0,2:0:0:0:
362,226,126031,1,0,2:0:0:0:
312,52,126187,2,0,B|256:76|256:76|216:32|184:56|184:56|184:92|132:120|132:120|88:80|111:37,1,315.000012016297,2|0,2:0|2:0,2:0:0:0:
226,165,127281,5,0,2:0:0:0:
110,269,127437,2,0,B|165:297|202:253|202:253|262:305|294:269|294:269|277:195|354:205|354:205|358:262|390:305,1,420.000016021729,2|0,2:0|2:0,2:0:0:0:
372,76,129000,5,2,2:0:0:0:
484,312,129312,1,0,2:0:0:0:
248,196,129625,1,0,2:0:0:0:
352,120,129937,1,0,2:0:0:0:
196,332,130250,5,2,2:0:0:0:
428,208,130562,1,0,2:0:0:0:
232,32,130875,1,0,2:0:0:0:
288,196,131187,1,0,2:0:0:0:
180,112,131343,1,0,2:0:0:0:
418,24,131500,6,0,P|478:44|511:128,1,140,2|0,2:0|2:0,2:0:0:0:
318,69,131968,1,0,2:0:0:0:
489,137,132125,1,8,2:0:0:0:
416,64,132281,1,0,2:0:0:0:
416,64,132359,1,0,2:0:0:0:
416,64,132437,1,0,2:0:0:0:
312,184,132593,1,0,2:0:0:0:
396,131,132750,6,0,L|396:201,1,70,0|0,2:0|2:0,2:0:0:0:
399,352,133062,1,2,2:0:0:0:
299,104,133375,1,8,2:0:0:0:
476,260,133687,2,0,P|488:304|456:340,1,70,0|0,2:0|2:0,2:0:0:0:
372,232,134000,1,2,2:0:0:0:
488,16,134312,5,0,2:0:0:0:
264,184,134625,2,0,L|136:276,1,140,8|0,2:0|2:0,2:0:0:0:
224,120,135093,2,0,P|296:104|332:164,1,140,8|0,2:0|2:0,2:0:0:0:
348,292,135562,1,2,2:0:0:0:
472,40,135875,1,8,2:0:0:0:
472,40,136031,2,2,L|392:64,1,70,2|2,2:0|2:0,2:0:0:0:
134,133,136500,5,0,0:0:0:0:
336,77,136812,1,0,0:0:0:0:
176,220,137125,2,0,L|312:184,1,140,8|0,2:0|2:0,2:0:0:0:
188,288,137593,2,0,P|108:252|120:184,1,140,8|0,2:0|2:0,2:0:0:0:
136,72,138062,1,0,2:0:0:0:
341,262,138375,1,8,2:0:0:0:
341,262,138531,2,2,L|283:206,1,70
234,49,139000,6,0,P|296:24|351:62,1,140,2|0,2:0|2:0,2:0:0:0:
236,281,139625,2,0,P|171:262|151:198,1,140,8|0,2:0|2:0,2:0:0:0:
248,56,140250,1,2,2:0:0:0:
280,72,140328,1,0,2:0:0:0:
304,96,140406,1,0,2:0:0:0:
396,204,140562,2,2,P|364:236|312:256,1,70,2|2,2:0|2:0,2:0:0:0:
342,247,141187,1,0,2:0:0:0:
112,40,141500,5,6,2:0:0:0:
159,280,141656,1,0,2:0:0:0:
194,107,141812,1,0,2:0:0:0:
253,344,141968,1,0,2:0:0:0:
387,231,142125,5,8,2:0:0:0:
405,201,142203,1,0,2:0:0:0:
409,166,142281,1,0,2:0:0:0:
401,131,142359,1,0,2:0:0:0:
372,110,142437,1,0,2:0:0:0:
277,213,142593,6,0,L|200:92,1,140,8|0,2:0|2:0,2:0:0:0:
403,154,143062,2,0,L|359:222,1,70,8|0,2:0|2:0,2:0:0:0:
181,325,143375,1,0,2:0:0:0:
261,57,143531,2,0,L|324:128,1,70,8|0,2:0|2:0,2:0:0:0:
96,154,143843,1,0,2:0:0:0:
334,101,144000,5,8,2:0:0:0:
363,120,144078,1,0,2:0:0:0:
382,149,144156,1,0,2:0:0:0:
393,182,144234,1,0,2:0:0:0:
401,215,144312,1,0,2:0:0:0:
263,190,144468,1,0,2:0:0:0:
286,328,144625,2,0,P|238:312|210:292,1,70,8|0,2:0|2:0,2:0:0:0:
336,220,144937,1,0,2:0:0:0:
152,212,145093,6,0,P|183:267|241:239,1,140,8|0,2:0|2:0,2:0:0:0:
251,66,145562,2,0,P|219:50|185:47,1,70,8|0,2:0|2:0,2:0:0:0:
337,240,145875,2,0,P|368:255|402:258,1,70,8|0,2:0|2:0,2:0:0:0:
308,111,146187,1,0,2:0:0:0:
183,233,146343,1,0,2:0:0:0:
98,39,146500,6,0,P|205:20|301:60,1,210,8|0,2:0|2:0,2:0:0:0:
241,274,147125,1,8,2:0:0:0:
242,107,147281,1,0,2:0:0:0:
395,254,147437,1,0,2:0:0:0:
165,169,147593,1,8,2:0:0:0:
407,138,147750,5,0,2:0:0:0:
264,208,147906,1,0,2:0:0:0:
301,37,148062,1,8,2:0:0:0:
392,263,148218,1,0,2:0:0:0:
206,69,148375,1,8,2:0:0:0:
389,67,148531,1,0,2:0:0:0:
240,256,148687,6,0,B|220:288|192:280|192:280|128:188|248:152|248:152|200:96|136:128|136:128|96:168|152:16|240:172|344:16,1,630.000024032594,8|8,2:0|2:0,2:0:0:0:
384,180,149781,1,0,2:0:0:0:
206,267,149937,1,0,2:0:0:0:
206,267,150093,2,0,L|265:217,1,70,8|0,2:0|2:0,2:0:0:0:
72,92,150406,5,0,2:0:0:0:
292,197,150562,1,8,2:0:0:0:
208,80,150718,1,0,2:0:0:0:
91,296,150875,2,0,P|128:318|183:314,1,70,8|0,2:0|2:0,2:0:0:0:
319,265,151187,2,0,P|353:270|382:289,1,70,0|0,2:0|2:0,2:0:0:0:
313,83,151500,5,8,2:0:0:0:
281,68,151578,1,0,2:0:0:0:
246,63,151656,1,0,2:0:0:0:
335,252,151812,1,0,2:0:0:0:
137,182,151968,1,0,2:0:0:0:
346,156,152125,1,8,2:0:0:0:
193,297,152281,2,0,L|233:289,2,35,0|0|0,2:0|2:0|2:0,2:0:0:0:
296,132,152593,6,0,P|308:112|236:52,1,140,8|0,2:0|2:0,2:0:0:0:
100,112,153062,1,8,2:0:0:0:
284,208,153218,1,0,2:0:0:0:
128,236,153375,1,8,2:0:0:0:
110,266,153453,1,0,2:0:0:0:
106,300,153531,1,0,2:0:0:0:
116,333,153609,1,0,2:0:0:0:
139,358,153687,1,0,2:0:0:0:
335,209,153843,2,0,P|381:196|419:221,1,70,0|8,2:0|2:0,2:0:0:0:
484,327,154156,5,0,2:0:0:0:
244,275,154312,1,0,2:0:0:0:
416,244,154468,1,0,2:0:0:0:
241,185,154625,1,8,2:0:0:0:
156,329,154781,2,0,L|165:362,2,35,0|0|0,2:0|2:0|2:0,2:0:0:0:
98,87,155093,2,0,P|78:123|101:221,1,140,8|0,2:0|2:0,2:0:0:0:
360,176,155562,6,0,P|320:196|288:176,1,70,8|0,2:0|2:0,2:0:0:0:
186,47,155875,1,8,2:0:0:0:
219,36,155953,1,0,2:0:0:0:
253,38,156031,1,0,2:0:0:0:
281,245,156187,2,0,P|333:245|361:229,1,70,0|0,2:0|2:0,2:0:0:0:
167,130,156500,2,0,B|78:195|78:195|186:167|247:218|247:218|246:276|174:324,1,420.000016021729,12|8,2:0|2:0,2:0:0:0:
158,332,157203,1,0,2:0:0:0:
133,341,157281,1,0,2:0:0:0:
392,303,157437,5,0,2:0:0:0:
247,204,157593,2,0,P|225:151|241:115,1,70,8|0,2:0|2:0,2:0:0:0:
338,226,157906,1,0,2:0:0:0:
390,35,158062,2,0,P|446:49|468:80,1,70,8|0,2:0|2:0,2:0:0:0:
322,108,158375,1,0,2:0:0:0:
399,339,158531,2,0,P|343:325|321:294,1,70,8|0,2:0|2:0,2:0:0:0:
468,274,158843,1,0,2:0:0:0:
234,196,159000,6,0,P|195:155|223:71,1,140,10|0,2:0|2:0,2:0:0:0:
402,233,159468,2,0,P|371:283|333:283,1,70,0|8,2:0|2:0,2:0:0:0:
230,327,159781,1,0,2:0:0:0:
124,254,159937,1,0,2:0:0:0:
101,227,160015,1,0,2:0:0:0:
102,192,160093,1,0,2:0:0:0:
123,164,160171,1,0,2:0:0:0:
156,152,160250,5,8,2:0:0:0:
184,172,160328,1,0,2:0:0:0:
204,200,160406,1,0,2:0:0:0:
234,196,160484,1,0,2:0:0:0:
259,171,160562,1,0,2:0:0:0:
281,144,160640,1,0,2:0:0:0:
315,142,160718,1,0,2:0:0:0:
467,335,160875,6,0,P|405:333|378:305,1,70,8|0,2:0|2:0,2:0:0:0:
489,245,161187,1,8,2:0:0:0:
340,50,161343,1,8,2:0:0:0:
338,296,161500,6,0,P|266:293|208:250,1,140,10|0,2:0|2:0,2:0:0:0:
158,88,161968,1,0,2:0:0:0:
321,151,162125,2,0,P|368:167|392:196,1,70,8|0,2:0|2:0,2:0:0:0:
394,201,162359,1,0,2:0:0:0:
404,223,162437,1,0,2:0:0:0:
195,244,162593,1,0,2:0:0:0:
330,82,162750,6,0,P|415:89|450:152,1,140,0|8,2:0|2:0,2:0:0:0:
271,151,163218,1,0,2:0:0:0:
126,51,163375,2,0,P|86:79|78:99,1,70,0|8,2:0|2:0,2:0:0:0:
252,81,163687,1,0,2:0:0:0:
153,266,163843,1,0,2:0:0:0:
277,71,164000,6,0,P|313:43|398:80,1,140,8|0,2:0|2:0,2:0:0:0:
312,188,164468,1,8,2:0:0:0:
455,273,164625,2,0,P|446:239|418:219,1,70,0|0,2:0|2:0,2:0:0:0:
180,164,164937,2,0,P|188:197|216:217,1,70,8|0,2:0|2:0,2:0:0:0:
448,136,165250,6,0,P|385:82|311:81,1,140,8|0,2:0|2:0,2:0:0:0:
313,80,165640,1,0,2:0:0:0:
297,87,165718,1,0,2:0:0:0:
158,195,165875,1,8,2:0:0:0:
175,21,166031,1,0,2:0:0:0:
289,196,166187,2,0,P|328:223|369:197,1,70,0|0,2:0|2:0,2:0:0:0:
489,18,166500,6,0,P|487:91|450:174,1,140,10|0,2:0|2:0,2:0:0:0:
324,128,166968,1,8,2:0:0:0:
226,298,167125,2,0,P|194:294|175:260,1,70,0|0,2:0|2:0,2:0:0:0:
242,20,167437,2,0,P|274:24|293:58,1,70,8|0,2:0|2:0,2:0:0:0:
103,115,167750,6,0,P|149:171|241:178,1,140,8|0,2:0|2:0,2:0:0:0:
229,181,168140,1,0,2:0:0:0:
246,178,168218,1,0,2:0:0:0:
410,45,168375,2,0,P|458:45|478:65,1,70,8|0,2:0|2:0,2:0:0:0:
354,230,168687,1,0,2:0:0:0:
495,128,168843,1,0,2:0:0:0:
417,339,169000,6,0,P|346:362|271:329,1,140,10|0,2:0|2:0,2:0:0:0:
338,138,169468,1,8,2:0:0:0:
217,266,169625,1,0,2:0:0:0:
218,56,169781,1,0,2:0:0:0:
359,199,169937,2,0,P|341:228|310:244,1,70,8|0,2:0|2:0,2:0:0:0:
69,194,170250,6,0,P|86:164|117:148,1,70,0|0,2:0|2:0,2:0:0:0:
323,110,170562,1,8,2:0:0:0:
199,279,170718,1,0,2:0:0:0:
182,68,170875,1,0,2:0:0:0:
313,274,171031,1,8,2:0:0:0:
102,149,171187,1,0,2:0:0:0:
316,31,171343,1,0,2:0:0:0:
461,271,171500,6,0,P|408:286|326:249,1,140,12|0,2:0|2:0,2:0:0:0:
201,128,171968,1,0,2:0:0:0:
243,334,172125,1,8,2:0:0:0:
298,168,172281,1,0,2:0:0:0:
441,320,172437,1,0,2:0:0:0:
336,98,172593,1,0,2:0:0:0:
463,219,172750,6,0,P|412:252|327:231,1,140,10|0,2:0|2:0,2:0:0:0:
182,49,173218,2,0,L|114:69,1,70,0|0,2:0|2:0,2:0:0:0:
338,172,173531,2,0,L|406:152,1,70,8|0,2:0|2:0,2:0:0:0:
236,106,173843,1,0,2:0:0:0:
475,47,174000,6,0,P|491:79|468:181,1,140,10|0,2:0|2:0,2:0:0:0:
462,192,174390,1,0,2:0:0:0:
451,206,174468,1,0,2:0:0:0:
346,64,174625,1,8,2:0:0:0:
323,276,174781,2,0,P|275:276|255:256,1,70,0|0,2:0|2:0,2:0:0:0:
135,140,175093,1,0,2:0:0:0:
377,184,175250,6,0,P|432:147|448:78,1,140,8|0,2:0|2:0,2:0:0:0:
348,20,175718,1,8,2:0:0:0:
281,115,175875,2,0,P|241:77|199:68,1,70,0|8,2:0|2:0,2:0:0:0:
302,268,176187,1,0,2:0:0:0:
136,139,176343,1,0,2:0:0:0:
377,186,176500,6,0,P|433:230|418:293,1,140,10|0,2:0|2:0,2:0:0:0:
215,156,176968,1,0,2:0:0:0:
384,30,177125,1,8,2:0:0:0:
392,204,177281,1,0,2:0:0:0:
227,23,177437,1,0,2:0:0:0:
287,260,177593,6,0,P|311:212|307:196,1,70,8|0,2:0|2:0,2:0:0:0:
99,68,177906,1,0,2:0:0:0:
297,135,178062,1,12,2:0:0:0:
113,235,178218,2,0,P|130:204|173:182,1,70,0|0,2:0|2:0,2:0:0:0:
173,360,178531,1,12,2:0:0:0:
325,215,178687,2,0,L|365:275,1,70,0|0,2:0|2:0,2:0:0:0:
144,96,179000,6,0,L|107:52,2,35,8|0|0,2:0|2:0|2:0,2:0:0:0:
402,202,179312,2,0,L|439:246,2,35,8|0|0,2:0|2:0|2:0,2:0:0:0:
127,264,179625,2,0,L|74:291,2,35,8|0|0,2:0|2:0|2:0,2:0:0:0:
339,82,179937,2,0,L|392:55,2,35,8|0|0,2:0|2:0|2:0,2:0:0:0:
205,336,180250,2,0,P|276:237|335:344,1,280,12|0,2:0|2:0,2:0:0:0:
464,152,181500,6,0,L|400:208,1,70,2|0,2:0|2:0,2:0:0:0:
440,24,182125,1,8,2:0:0:0:
284,204,182437,2,0,P|260:196|248:176,1,35,0|0,2:0|2:0,2:0:0:0:
208,112,182750,5,0,2:0:0:0:
384,124,183062,2,0,P|416:152|416:188,1,70,2|8,2:0|2:0,2:0:0:0:
276,76,183687,1,0,2:0:0:0:
264,252,184000,6,0,P|228:272|192:264,1,70,2|0,2:0|2:0,2:0:0:0:
344,168,184625,1,8,2:0:0:0:
180,108,184937,2,0,L|140:92,2,35,0|0|0,2:0|2:0|2:0,2:0:0:0:
200,284,185562,2,0,P|228:256|252:216,1,70,2|8,2:0|2:0,2:0:0:0:
80,292,186187,1,0,2:0:0:0:
184,88,186500,6,0,P|208:64|256:64,1,70,2|0,2:0|2:0,2:0:0:0:
128,192,187125,1,8,2:0:0:0:
284,272,187437,2,0,P|300:264|296:244,1,35,0|0,2:0|2:0,2:0:0:0:
280,164,187750,5,0,2:0:0:0:
136,64,188062,2,0,P|108:84|108:132,1,70,2|8,2:0|2:0,2:0:0:0:
252,24,188687,1,0,2:0:0:0:
204,192,189000,6,0,P|224:224|260:244,1,70,2|0,2:0|2:0,2:0:0:0:
212,72,189625,1,8,2:0:0:0:
360,168,189937,2,0,L|400:196,2,35,0|0|0,2:0|2:0|2:0,2:0:0:0:
240,56,190562,2,0,P|276:24|312:24,1,70,2|8,2:0|2:0,2:0:0:0:
236,184,191187,1,0,2:0:0:0:
156,316,191500,6,0,B|128:284|128:284|136:192|216:240|216:240|228:288,1,210.000008010865,2|8,2:0|2:0,2:0:0:0:
392,136,192437,2,0,B|348:96|366:38|366:38|317:35|291:84|310:117,1,210.000008010865,2|0,2:0|2:0,2:0:0:0:
372,228,193218,1,0,2:0:0:0:
224,296,193375,2,0,P|256:324|284:324,1,52.5000020027161,8|0,2:0|2:0,2:0:0:0:
268,196,193687,2,0,P|236:168|208:168,1,52.5000020027161,0|0,2:0|2:0,2:0:0:0:
48,148,194000,2,0,P|92:188|152:208,1,105.000004005432,2|0,2:0|2:0,2:0:0:0:
396,240,194625,6,0,B|376:308|332:320|332:320|304:288|317:219,1,210.000008010865,8|0,2:0|2:0,2:0:0:0:
177,334,195875,1,2,2:0:0:0:
50,284,196187,1,2,2:0:0:0:
176,117,196500,6,0,B|252:35|275:158|332:76,1,157.500006008148,2|0,2:0|2:0,2:0:0:0:
357,63,197125,2,0,P|386:140|368:230,1,157.500006008148,8|0,0:0|0:0,0:0:0:0:
324,317,197750,1,0,0:0:0:0:
286,110,198062,1,0,0:0:0:0:
132,253,198375,1,8,2:0:0:0:
265,284,198687,6,0,B|435:114|200:114|363:276|363:276|445:184|404:112|384:93|363:77|323:68|292:69|261:78|233:98|225:129|223:162|226:195|241:226,1,735.000028038026,4|0,2:0|2:0,2:0:0:0:
150,142,201187,1,0,2:0:0:0:
344,184,201500,6,0,P|392:276|304:292,1,210.000008010865,2|8,2:0|2:0,2:0:0:0:
116,232,202437,2,0,B|28:204|48:128|48:128|66:168|116:172,1,210.000008010865,2|0,2:0|2:0,2:0:0:0:
212,44,203375,2,0,P|300:28|328:40,1,105.000004005432,8|0,2:0|2:0,2:0:0:0:
348,192,204000,2,0,P|312:148|260:132,1,105.000004005432,2|0,2:0|2:0,2:0:0:0:
164,124,204468,1,0,2:0:0:0:
196,224,204625,2,0,P|227:265|276:283,1,105.000004005432,8|0,2:0|2:0,2:0:0:0:
300,128,205250,5,2,2:0:0:0:
300,128,205406,1,0,2:0:0:0:
132,196,205562,2,0,L|172:144,1,52.5000020027161,0|8,2:0|2:0,2:0:0:0:
188,336,205875,1,0,2:0:0:0:
188,336,206031,1,0,2:0:0:0:
356,260,206187,2,0,P|316:228|296:224,1,52.5000020027161,8|0,2:0|2:0,2:0:0:0:
140,168,206500,6,0,P|163:117|220:88,1,105.000004005432,2|0,2:0|2:0,2:0:0:0:
220,224,206968,1,0,2:0:0:0:
356,128,207125,2,0,L|444:52,1,105.000004005432,8|0,2:0|2:0,2:0:0:0:
400,224,207750,2,0,P|360:276|312:296,1,105.000004005432,2|0,2:0|2:0,2:0:0:0:
237,159,208375,1,0,2:0:0:0:
232,316,208687,2,0,P|92:260|64:104,1,315.000012016297,8|0,2:0|2:0,2:0:0:0:
256,192,209937,12,0,210875,2:0:0:0:
102,49,211500,5,6,2:0:0:0:
342,93,211656,1,0,2:0:0:0:
144,163,211812,1,0,2:0:0:0:
343,21,211968,1,0,2:0:0:0:
226,196,212125,1,8,2:0:0:0:
205,224,212203,1,0,2:0:0:0:
176,243,212281,1,0,2:0:0:0:
235,78,212437,1,0,2:0:0:0:
80,267,212593,6,0,P|116:299|209:314,1,140,8|0,2:0|2:0,2:0:0:0:
126,157,213062,2,0,P|166:137|207:151,1,70,8|0,2:0|2:0,2:0:0:0:
329,247,213375,2,0,P|289:267|248:253,1,70,8|0,2:0|2:0,2:0:0:0:
385,136,213687,1,0,2:0:0:0:
375,310,213843,1,0,2:0:0:0:
297,152,214000,5,8,2:0:0:0:
275,124,214078,1,0,2:0:0:0:
245,104,214156,1,0,2:0:0:0:
223,76,214234,1,0,2:0:0:0:
224,41,214312,1,0,2:0:0:0:
384,109,214468,1,0,2:0:0:0:
347,281,214625,2,0,P|336:314|314:343,1,70,8|0,2:0|2:0,2:0:0:0:
262,175,214937,1,0,2:0:0:0:
89,294,215093,6,0,P|55:228|75:159,1,140,8|0,2:0|2:0,2:0:0:0:
200,273,215562,2,0,P|217:227|199:184,1,70,8|0,2:0|2:0,2:0:0:0:
120,58,215875,2,0,P|103:104|121:147,1,70,8|0,2:0|2:0,2:0:0:0:
240,10,216187,1,0,2:0:0:0:
219,175,216343,1,0,2:0:0:0:
406,271,216500,6,0,L|334:145,1,140,8|0,2:0|2:0,2:0:0:0:
252,295,216968,1,0,2:0:0:0:
298,96,217125,1,8,2:0:0:0:
190,185,217281,1,0,2:0:0:0:
429,134,217437,1,0,2:0:0:0:
387,281,217593,1,8,2:0:0:0:
298,96,217750,5,0,2:0:0:0:
197,318,217906,1,0,2:0:0:0:
441,309,218062,1,8,2:0:0:0:
313,189,218218,1,0,2:0:0:0:
159,250,218375,1,8,2:0:0:0:
125,241,218453,1,0,2:0:0:0:
100,216,218531,1,0,2:0:0:0:
232,52,218687,6,0,B|200:112|256:156|256:156|296:88|296:88|325:177|240:272|240:272|363:285|329:169|464:188,1,630.000024032594,8|8,2:0|2:0,2:0:0:0:
384,28,219781,1,0,2:0:0:0:
176,98,219937,1,0,2:0:0:0:
348,125,220093,6,0,P|354:156|334:187,1,70,8|0,2:0|2:0,2:0:0:0:
168,245,220406,1,0,2:0:0:0:
280,128,220562,1,2,2:0:0:0:
440,196,220718,1,0,2:0:0:0:
261,117,220875,2,0,L|313:65,1,70,8|0,2:0|2:0,2:0:0:0:
139,104,221187,1,0,2:0:0:0:
269,220,221343,1,0,2:0:0:0:
367,74,221500,5,10,2:0:0:0:
396,54,221578,1,0,2:0:0:0:
430,59,221656,1,0,2:0:0:0:
386,228,221812,2,0,P|350:232|310:220,1,70,0|0,2:0|2:0,2:0:0:0:
178,116,222125,1,8,2:0:0:0:
109,276,222281,1,0,2:0:0:0:
246,168,222437,1,0,2:0:0:0:
76,72,222593,6,0,P|128:24|196:24,1,140,8|0,2:0|2:0,2:0:0:0:
156,105,223062,2,0,B|169:148|169:148|208:176,1,70,8|0,2:0|2:0,2:0:0:0:
285,15,223375,1,0,2:0:0:0:
302,223,223531,2,0,B|322:208|322:208|335:165,1,70,8|0,2:0|2:0,2:0:0:0:
161,186,223843,1,0,2:0:0:0:
311,35,224000,5,8,2:0:0:0:
345,28,224078,1,0,2:0:0:0:
379,34,224156,1,0,2:0:0:0:
241,142,224312,1,0,2:0:0:0:
106,30,224468,2,0,P|56:35|38:70,1,70,0|8,2:0|2:0,2:0:0:0:
213,99,224781,1,0,2:0:0:0:
147,261,224937,1,0,2:0:0:0:
346,196,225093,6,0,P|324:272|272:316,1,140,8|0,2:0|2:0,2:0:0:0:
256,104,225562,2,0,P|276:140|276:174,1,70,8|0,2:0|2:0,2:0:0:0:
295,361,225875,1,8,2:0:0:0:
236,196,226031,1,0,2:0:0:0:
171,358,226187,2,0,P|107:346|103:342,1,70,0|0,2:0|2:0,2:0:0:0:
207,151,226500,2,0,B|231:111|311:156|384:157|379:97|381:71|367:45|342:31|299:31|283:58|211:116|334:134|276:249,1,420.000016021729,8|8,2:0|2:0,2:0:0:0:
226,332,227281,1,0,2:0:0:0:
376,275,227437,2,0,P|372:303|336:327,1,70,0|8,2:0|2:0,2:0:0:0:
316,152,227750,5,0,2:0:0:0:
237,308,227906,1,0,2:0:0:0:
169,146,228062,2,0,P|134:168|116:196,1,70,8|0,2:0|2:0,2:0:0:0:
56,355,228375,1,0,2:0:0:0:
194,248,228531,2,0,P|229:226|247:198,1,70,8|0,2:0|2:0,2:0:0:0:
71,182,228843,1,0,2:0:0:0:
203,70,229000,5,8,2:0:0:0:
234,55,229078,1,0,2:0:0:0:
268,52,229156,1,0,2:0:0:0:
299,66,229234,1,0,2:0:0:0:
323,91,229312,1,0,2:0:0:0:
317,125,229390,1,0,2:0:0:0:
306,158,229468,1,0,2:0:0:0:
327,185,229546,1,0,2:0:0:0:
360,197,229625,5,8,2:0:0:0:
389,178,229703,1,0,2:0:0:0:
397,144,229781,1,0,2:0:0:0:
396,109,229859,1,0,2:0:0:0:
391,74,229937,1,0,2:0:0:0:
378,41,230015,1,0,2:0:0:0:
394,10,230093,1,0,2:0:0:0:
472,127,230250,6,0,P|470:186|458:228,1,70,8|0,2:0|2:0,2:0:0:0:
465,231,230484,1,0,2:0:0:0:
465,231,230562,1,0,2:0:0:0:
277,185,230718,6,0,P|279:126|288:83,1,70,0|8,2:0|2:0,2:0:0:0:
373,304,231031,1,0,2:0:0:0:
100,224,231500,6,0,P|80:192|96:160,1,70,6|8,2:0|2:0,2:0:0:0:
260,112,232281,1,0,2:0:0:0:
322,237,232437,1,0,2:0:0:0:
160,139,232593,1,0,2:0:0:0:
312,51,232750,5,0,2:0:0:0:
213,236,232906,1,0,2:0:0:0:
90,111,233062,2,0,P|65:152|59:202,1,70,8|0,2:0|2:0,2:0:0:0:
216,93,233375,1,0,2:0:0:0:
143,252,233531,2,0,P|132:285|112:313,1,70,8|0,2:0|2:0,2:0:0:0:
51,150,233843,1,0,2:0:0:0:
236,49,234000,6,0,P|303:42|353:88,1,140,2|8,2:0|2:0,2:0:0:0:
123,154,234625,2,0,L|165:166,1,35,2|0,2:0|2:0,2:0:0:0:
244,220,234781,2,0,L|286:232,1,35,0|0,2:0|2:0,2:0:0:0:
195,294,234937,2,0,P|153:287|124:257,1,70,0|8,2:0|2:0,2:0:0:0:
222,44,235250,6,0,L|214:199,1,140,2|0,2:0|2:0,2:0:0:0:
370,262,235718,1,0,2:0:0:0:
321,93,235875,2,0,P|284:165|294:236,1,140,8|0,2:0|2:0,2:0:0:0:
165,113,236500,6,0,P|181:46|256:41,1,140,2|0,2:0|2:0,2:0:0:0:
422,145,237125,2,0,P|404:109|370:89,1,70,8|0,2:0|2:0,2:0:0:0:
276,108,237437,2,0,P|294:144|328:164,1,70,0|8,2:0|2:0,2:0:0:0:
455,51,237750,6,0,P|400:10|334:24,1,140,2|0,2:0|2:0,2:0:0:0:
242,173,238218,1,0,2:0:0:0:
415,144,238375,2,0,P|474:180|487:251,1,140,8|0,2:0|2:0,2:0:0:0:
226,143,239000,6,0,B|381:143|293:321|420:309,1,280,0|8,2:0|2:0,2:0:0:0:
397,136,239781,1,0,2:0:0:0:
254,34,239937,2,0,P|207:43|171:67,1,70,0|8,2:0|2:0,2:0:0:0:
360,85,240250,5,0,2:0:0:0:
281,240,240406,1,0,2:0:0:0:
124,100,240562,2,0,P|117:137|137:176,1,70,2|0,2:0|2:0,2:0:0:0:
298,41,240875,2,0,P|366:57|406:118,1,140,8|0,2:0|2:0,2:0:0:0:
150,169,241500,6,0,P|119:190|121:226,1,70,6|8,2:0|2:0,2:0:0:0:
316,148,242281,1,0,2:0:0:0:
181,308,242437,1,0,2:0:0:0:
382,249,242593,1,0,2:0:0:0:
166,130,242750,5,0,2:0:0:0:
313,325,242906,1,0,2:0:0:0:
299,80,243062,2,0,P|268:122|271:168,1,70,8|0,2:0|2:0,2:0:0:0:
449,35,243375,1,0,2:0:0:0:
382,234,243531,2,0,P|372:267|348:292,1,70,8|0,2:0|2:0,2:0:0:0:
318,84,243843,1,0,2:0:0:0:
79,23,244000,6,0,P|53:86|56:172,1,140,2|8,2:0|2:0,2:0:0:0:
288,39,244625,2,0,L|332:67,1,35,2|0,2:0|2:0,2:0:0:0:
379,142,244781,2,0,L|423:170,1,35,0|0,2:0|2:0,2:0:0:0:
317,212,244937,2,0,P|275:205|246:175,1,70,0|8,2:0|2:0,2:0:0:0:
392,28,245250,2,0,P|449:57|475:134,1,140,2|0,2:0|2:0,2:0:0:0:
272,71,245718,1,0,2:0:0:0:
409,231,245875,2,0,P|357:283|285:277,1,140,8|0,2:0|2:0,2:0:0:0:
109,118,246500,6,0,P|129:15|151:120,1,280,6|8,2:0|2:0,2:0:0:0:
311,27,247437,2,0,P|364:53|391:77,1,70,2|0,2:0|2:0,2:0:0:0:
504,176,247750,1,0,2:0:0:0:
174,75,248062,2,0,B|164:120|164:120|171:158,1,70,8|0,2:0|2:0,2:0:0:0:
240,303,248375,1,0,2:0:0:0:
394,221,248531,2,0,B|404:176|404:176|397:138,1,70,8|0,2:0|2:0,2:0:0:0:
315,0,248843,1,0,2:0:0:0:
311,192,249000,6,0,B|155:192|244:14|117:26,1,280,6|8,2:0|2:0,2:0:0:0:
73,278,249937,2,0,P|89:318|142:320,1,70,0|0,2:0|2:0,2:0:0:0:
251,308,250250,1,2,2:0:0:0:
168,154,250406,1,2,2:0:0:0:
373,195,250562,5,2,2:0:0:0:
143,279,250718,1,2,2:0:0:0:
245,216,250875,1,2,2:0:0:0:
364,281,251031,1,2,2:0:0:0:
330,326,251187,1,2,2:0:0:0:
273,343,251343,1,2,2:0:0:0:
88,308,251500,6,0,P|68:276|84:244,1,70,6|8,2:0|2:0,2:0:0:0:
272,164,252281,1,0,2:0:0:0:
175,350,252437,1,0,2:0:0:0:
151,141,252593,1,0,2:0:0:0:
284,304,252750,5,0,2:0:0:0:
84,240,252906,1,0,2:0:0:0:
220,36,253062,2,0,P|259:62|284:108,1,70,8|0,2:0|2:0,2:0:0:0:
29,39,253375,1,0,2:0:0:0:
166,282,253531,2,0,P|188:308|218:326,1,70,8|0,2:0|2:0,2:0:0:0:
165,87,253843,1,0,2:0:0:0:
351,297,254000,6,0,P|400:239|411:162,1,140,2|8,2:0|2:0,2:0:0:0:
214,247,254625,2,0,L|170:269,1,35,2|0,2:0|2:0,2:0:0:0:
80,235,254782,2,0,L|36:257,1,35,0|0,2:0|2:0,2:0:0:0:
74,150,254937,2,0,P|121:140|170:155,1,70,0|8,2:0|2:0,2:0:0:0:
320,255,255250,6,0,P|372:201|380:108,1,140,2|0,2:0|2:0,2:0:0:0:
189,214,255718,1,0,2:0:0:0:
366,43,255875,2,0,P|291:28|199:47,1,140,8|0,2:0|2:0,2:0:0:0:
337,195,256500,6,0,B|338:272|293:328,1,140,2|0,2:0|2:0,2:0:0:0:
108,146,257125,2,0,P|139:90|162:82,1,70,8|0,2:0|2:0,2:0:0:0:
186,183,257437,2,0,P|155:239|132:247,1,70,0|8,2:0|2:0,2:0:0:0:
45,93,257750,2,0,P|76:37|160:25,1,140,2|0,2:0|2:0,2:0:0:0:
281,54,258218,1,0,2:0:0:0:
163,131,258375,2,0,B|118:190|133:280,1,140,8|0,2:0|2:0,2:0:0:0:
325,39,259000,6,0,B|461:111|300:227|418:276,1,280,6|8,2:0|2:0,2:0:0:0:
280,235,259781,1,0,2:0:0:0:
460,128,259937,2,0,B|424:99|361:113,1,70,0|8,2:0|2:0,2:0:0:0:
195,179,260250,1,0,2:0:0:0:
344,32,260406,1,0,2:0:0:0:
320,281,260562,2,0,B|342:243|342:243|319:191,1,70,2|0,2:0|2:0,2:0:0:0:
154,54,260875,2,0,P|118:118|118:214,1,140,8|0,2:0|2:0,2:0:0:0:
426,29,261500,6,0,P|450:52|445:85,1,70,6|8,2:0|2:0,2:0:0:0:
292,228,262281,1,0,2:0:0:0:
325,21,262437,1,0,2:0:0:0:
422,206,262593,1,0,2:0:0:0:
236,105,262750,5,0,2:0:0:0:
442,70,262906,1,0,2:0:0:0:
269,242,263062,2,0,P|217:235|194:209,1,70,8|0,2:0|2:0,2:0:0:0:
444,169,263375,1,0,2:0:0:0:
202,27,263531,2,0,P|172:9|137:9,1,70,8|0,2:0|2:0,2:0:0:0:
336,152,263843,1,0,2:0:0:0:
127,341,264000,6,0,P|86:285|84:205,1,140,2|0,2:0|2:0,2:0:0:0:
266,280,264625,2,0,L|314:298,1,35,2|0,2:0|2:0,2:0:0:0:
402,276,264781,2,0,L|450:294,1,35,0|0,2:0|2:0,2:0:0:0:
394,191,264937,2,0,P|329:181|298:190,1,70,0|8,2:0|2:0,2:0:0:0:
126,251,265250,6,0,P|93:179|104:92,1,140,2|0,2:0|2:0,2:0:0:0:
261,246,265718,1,0,2:0:0:0:
180,13,265875,2,0,P|256:-4|338:36,1,140,8|0,2:0|2:0,2:0:0:0:
482,166,266500,6,0,P|441:253|444:147,1,280,6|8,2:0|2:0,2:0:0:0:
157,197,267437,2,0,P|115:229|96:260,1,70,0|8,2:0|2:0,2:0:0:0:
25,363,267750,1,2,2:0:0:0:
383,227,268062,2,0,B|423:205|423:205|447:174,1,70,8|0,2:0|2:0,2:0:0:0:
467,12,268375,1,0,2:0:0:0:
309,87,268531,2,0,B|268:108|268:108|253:127,1,70,8|0,2:0|2:0,2:0:0:0:
214,297,268843,1,0,2:0:0:0:
385,129,269000,6,0,B|280:244|207:59|131:162,1,280,6|8,2:0|2:0,2:0:0:0:
362,322,269937,2,0,P|411:311|435:272,1,70,0|0,2:0|2:0,2:0:0:0:
493,175,270250,1,2,2:0:0:0:
325,223,270406,1,2,2:0:0:0:
364,17,270562,5,2,2:0:0:0:
219,214,270718,1,2,2:0:0:0:
164,105,270875,1,2,2:0:0:0:
90,176,271031,1,2,2:0:0:0:
100,234,271187,1,2,2:0:0:0:
141,273,271343,1,2,2:0:0:0:
376,188,271500,6,0,P|399:157|408:120,1,70,2|0,2:0|2:0,2:0:0:0:
244,196,272125,1,8,2:0:0:0:
180,32,272437,6,0,P|160:52|152:72,1,35,0|0,2:0|2:0,2:0:0:0:
112,132,272750,1,0,2:0:0:0:
228,324,273062,2,0,P|264:344|300:328,1,70,2|8,2:0|2:0,2:0:0:0:
196,188,273687,1,0,2:0:0:0:
372,172,274000,6,0,P|403:146|384:112,1,70,2|0,2:0|2:0,2:0:0:0:
256,16,274625,1,8,2:0:0:0:
140,148,274937,2,0,L|108:184,2,35,0|0|0,2:0|2:0|2:0,2:0:0:0:
180,320,275562,6,0,P|222:322|260:304,1,70,2|8,2:0|2:0,2:0:0:0:
88,236,276187,1,0,2:0:0:0:
240,152,276500,2,0,P|201:129|165:128,1,70,2|0,2:0|2:0,2:0:0:0:
272,276,277125,1,8,2:0:0:0:
408,168,277437,2,0,P|397:145|380:132,1,35,0|0,2:0|2:0,2:0:0:0:
321,81,277750,1,0,2:0:0:0:
296,248,278062,2,0,P|264:272|232:264,1,70,2|8,2:0|2:0,2:0:0:0:
356,140,278687,1,0,2:0:0:0:
296,304,279000,6,0,P|339:304|368:284,1,70,2|0,2:0|2:0,2:0:0:0:
196,236,279625,1,8,2:0:0:0:
301,89,279937,2,0,L|328:56,2,35,0|0|0,2:0|2:0|2:0,2:0:0:0:
106,270,280640,2,0,P|116:304|176:320,1,87.5,2|0,2:0|2:0,2:0:0:0:
384,288,281421,1,0,2:0:0:0:
196,320,281812,2,0,P|136:276|136:224,1,122.5,2|0,2:0|2:0,2:0:0:0:
432,60,282906,2,0,P|336:120|272:104,1,175,2|0,2:0|2:0,2:0:0:0:
256,192,284000,12,0,286500,2:0:0:0:
