osu file format v14

[General]
AudioFilename: audio.mp3
AudioLeadIn: 0
PreviewTime: 59286
Countdown: 0
SampleSet: Soft
StackLeniency: 0.7
Mode: 2
LetterboxInBreaks: 0
WidescreenStoryboard: 0

[Editor]
DistanceSpacing: 1.3
BeatDivisor: 4
GridSize: 32
TimelineZoom: 1

[Metadata]
Title:Uchiage Hanabi
TitleUnicode:打上花火
Artist:DAOKO x Kenshi Yonezu
ArtistUnicode:DAOKO × 米津玄師
Creator:Ascendance
Version:Platter
Source:打ち上げ花火、下から見るか?横から見るか?
Tags:Shita kara Miru ka? Yoko kara Miru ka? Movie hachi ハチ summer shaft
BeatmapID:1389487
BeatmapSetID:655269

[Difficulty]
HPDrainRate:5
CircleSize:3.5
OverallDifficulty:8
ApproachRate:8
SliderMultiplier:2.3
SliderTickRate:4

[Events]
//Background and Video events
0,0,"cropped-1920-1080-852077.png",0,0
//Break Periods
//Storyboard Layer 0 (Background)
//Storyboard Layer 1 (Fail)
//Storyboard Layer 2 (Pass)
//Storyboard Layer 3 (Foreground)
//Storyboard Sound Samples

[TimingPoints]
70,625,4,2,1,40,1,0
19445,-125,4,2,1,40,0,0
40070,-100,4,2,1,40,0,0
57570,-100,4,2,1,10,0,0
59445,-100,4,2,1,20,0,0
60070,-83.3333333333333,4,2,2,70,0,1
69445,-100,4,2,2,70,0,0
70070,-83.3333333333333,4,2,2,70,0,1
78820,-83.3333333333333,4,2,2,50,0,1
80070,-100,4,2,2,30,0,0

[Colours]
Combo1 : 255,155,255
Combo2 : 128,255,128
Combo3 : 255,172,89
Combo4 : 122,145,250

[HitObjects]
80,275,19445,6,0,L|67:151,1,92,0|0,0:0|0:0,0:0:0:0:
301,310,20070,2,0,L|492:295,1,184,2|8,0:0|0:0,0:0:0:0:
359,217,21007,2,0,L|168:235,1,184,0|2,0:0|0:0,0:0:0:0:
68,247,21945,1,0,0:0:0:0:
268,148,22570,6,0,L|389:162,2,92,2|0|8,0:0|0:0|0:0,0:0:0:0:
135,71,23507,2,0,L|335:52,1,184,0|2,0:0|0:0,0:0:0:0:
441,178,24445,2,0,L|458:57,1,92,0|0,0:0|0:0,0:0:0:0:
220,299,25070,6,0,P|178:219|246:148,1,184,2|8,0:0|0:0,0:0:0:0:
451,101,26320,1,0,0:0:0:0:
328,42,26632,2,0,L|124:52,1,184,2|0,0:0|0:0,0:0:0:0:
321,236,27570,6,0,L|342:113,1,92,2|0,0:0|0:0,0:0:0:0:
196,175,28195,2,0,L|81:161,1,92,8|0,0:0|0:0,0:0:0:0:
275,255,28820,2,0,L|386:245,1,92,0|2,0:0|0:0,0:0:0:0:
215,185,29445,1,0,0:0:0:0:
365,190,29757,1,0,0:0:0:0:
90,268,30070,6,0,P|47:181|121:121,1,184,2|8,0:0|0:0,0:0:0:0:
237,66,31007,2,0,L|454:89,1,184,0|2,0:0|0:0,0:0:0:0:
304,126,31945,1,0,0:0:0:0:
37,207,32570,5,2,0:0:0:0:
166,222,32882,1,0,0:0:0:0:
37,207,33195,1,8,0:0:0:0:
231,290,33507,2,0,L|423:281,1,184,0|2,0:0|0:0,0:0:0:0:
301,204,34445,2,0,L|419:198,1,92,0|0,0:0|0:0,0:0:0:0:
147,239,35070,6,0,L|132:48,1,184,2|8,0:0|0:0,0:0:0:0:
299,141,36320,2,0,L|410:153,2,92,0|2|0,0:0|0:0|0:0,0:0:0:0:
186,126,37257,1,0,0:0:0:0:
407,280,37570,6,0,P|436:211|365:137,1,184,2|8,0:0|0:0,0:0:0:0:
142,132,38820,2,0,L|34:138,1,92,0|2,0:0|0:0,0:0:0:0:
156,219,39445,2,0,L|49:227,1,92,0|0,0:0|0:0,0:0:0:0:
472,328,40070,5,2,0:0:0:0:
321,253,40382,2,0,L|331:123,1,115,0|8,0:0|0:0,0:0:0:0:
471,57,41007,1,0,0:0:0:0:
413,59,41163,1,0,0:0:0:0:
356,62,41319,1,0,0:0:0:0:
211,71,41632,1,2,0:0:0:0:
350,204,41945,2,0,L|368:82,1,115,0|0,0:0|0:0,0:0:0:0:
116,171,42570,5,2,0:0:0:0:
247,239,42882,2,0,L|371:230,2,115,0|8|0,0:0|0:0|0:0,0:0:0:0:
45,250,43820,1,0,0:0:0:0:
221,338,44132,2,0,L|228:205,1,115,2|0,0:0|0:0,0:0:0:0:
45,250,44757,1,0,0:0:0:0:
304,154,45070,6,0,L|432:171,1,115,2|0,0:0|0:0,0:0:0:0:
240,91,45695,2,0,L|99:103,1,115,8|0,0:0|0:0,0:0:0:0:
395,240,46320,1,0,0:0:0:0:
217,324,46632,2,0,L|216:186,1,115,2|0,0:0|0:0,0:0:0:0:
395,240,47257,1,0,0:0:0:0:
114,270,47570,6,0,L|82:146,1,115,2|0,0:0|0:0,0:0:0:0:
258,161,48195,2,0,L|372:130,1,115,8|0,0:0|0:0,0:0:0:0:
215,265,48820,2,0,L|85:238,1,115,0|2,0:0|0:0,0:0:0:0:
341,333,49445,2,0,L|468:317,1,115,0|0,0:0|0:0,0:0:0:0:
65,347,50070,5,2,0:0:0:0:
220,251,50382,2,0,L|80:242,1,115,0|8,0:0|0:0,0:0:0:0:
291,177,51007,2,0,L|373:186,2,57.5,0|0|0,0:0|0:0|0:0,0:0:0:0:
57,154,51632,1,2,0:0:0:0:
203,77,51945,2,0,L|338:90,1,115,0|0,0:0|0:0,0:0:0:0:
47,216,52570,5,2,0:0:0:0:
185,289,52882,2,0,L|312:282,2,115,0|8|0,0:0|0:0|0:0,0:0:0:0:
369,333,53820,1,0,0:0:0:0:
498,239,54132,2,0,L|487:112,1,115,2|0,0:0|0:0,0:0:0:0:
37,114,54757,5,0,0:0:0:0:
214,64,55382,2,0,L|337:76,2,115
332,275,56320,2,0,L|344:148,1,115
95,216,56945,1,0,0:0:0:0:
256,192,57570,12,0,58820,0:0:0:0:
65,313,59445,6,0,L|54:153,1,115,0|0,0:0|0:0,0:0:0:0:
459,106,60070,5,4,0:0:0:0:
313,46,60382,2,0,L|153:49,1,137.999995788574,0|8,0:0|0:0,0:0:0:0:
253,96,60851,1,0,0:0:0:0:
463,168,61163,2,0,L|451:356,1,137.999995788574,8|0,0:0|0:0,0:0:0:0:
350,346,61632,1,2,0:0:0:0:
180,199,61945,2,0,L|321:211,1,137.999995788574,8|0,0:0|0:0,0:0:0:0:
404,231,62413,1,8,0:0:0:0:
113,285,62570,6,0,L|85:118,1,137.999995788574,2|0,0:0|0:0,0:0:0:0:
280,188,63195,2,0,L|371:174,1,68.9999978942872,8|0,0:0|0:0,0:0:0:0:
193,58,63663,2,0,L|362:74,1,137.999995788574,8|0,0:0|0:0,0:0:0:0:
420,79,64132,1,2,0:0:0:0:
148,167,64445,1,10,0:0:0:0:
319,279,64757,2,0,L|243:287,1,68.9999978942872,0|8,0:0|0:0,0:0:0:0:
476,219,65070,6,0,L|497:62,1,137.999995788574,2|0,0:0|0:0,0:0:0:0:
299,125,65695,2,0,L|201:133,2,68.9999978942872,8|0|0,0:0|0:0|0:0,0:0:0:0:
454,62,66163,2,0,L|265:39,1,137.999995788574,8|0,0:0|0:0,0:0:0:0:
67,24,66632,1,2,0:0:0:0:
220,117,66945,1,8,0:0:0:0:
151,126,67101,1,2,0:0:0:0:
83,135,67257,1,0,0:0:0:0:
469,304,67570,6,0,L|485:143,1,137.999995788574,2|0,0:0|0:0,0:0:0:0:
277,203,68195,2,0,L|183:212,2,68.9999978942872,8|0|0,0:0|0:0|0:0,0:0:0:0:
416,294,68663,2,0,L|430:139,1,137.999995788574,8|0,0:0|0:0,0:0:0:0:
131,79,69132,1,10,0:0:0:0:
251,29,69445,2,0,L|396:38,1,115,10|0,0:0|0:0,0:0:0:0:
440,42,69913,1,8,0:0:0:0:
165,185,70070,5,4,0:0:0:0:
363,270,70382,2,0,L|217:278,1,137.999995788574,0|8,0:0|0:0,0:0:0:0:
135,288,70851,1,0,0:0:0:0:
407,344,71163,2,0,L|420:197,1,137.999995788574,8|0,0:0|0:0,0:0:0:0:
333,178,71632,1,2,0:0:0:0:
167,115,71945,2,0,L|16:125,1,137.999995788574,8|0,0:0|0:0,0:0:0:0:
106,169,72413,1,8,0:0:0:0:
332,253,72570,6,0,L|488:241,1,137.999995788574,2|0,0:0|0:0,0:0:0:0:
262,168,73195,2,0,L|190:178,1,68.9999978942872,8|0,0:0|0:0,0:0:0:0:
426,205,73663,2,0,L|435:63,1,137.999995788574,8|0,0:0|0:0,0:0:0:0:
349,37,74132,1,2,0:0:0:0:
136,103,74445,1,10,0:0:0:0:
69,147,74601,1,0,0:0:0:0:
67,213,74757,1,0,0:0:0:0:
133,255,74913,1,8,0:0:0:0:
422,348,75070,6,0,P|472:264|383:183,1,206.999993682861,4|0,0:0|0:0,0:0:0:0:
294,156,75695,2,0,L|126:162,1,137.999995788574,8|0,0:0|0:0,0:0:0:0:
245,160,76163,1,8,0:0:0:0:
335,157,76320,1,0,0:0:0:0:
141,74,76632,2,0,L|317:62,2,137.999995788574,4|8|0,0:0|0:0|0:0,0:0:0:0:
51,80,77413,1,8,0:0:0:0:
321,305,77570,6,0,P|374:209|266:110,1,275.999991577149,4|12,0:0|0:0,0:0:0:0:
110,124,78507,1,0,0:0:0:0:
344,254,78820,5,8,0:3:0:0:
388,203,78976,1,0,0:0:0:0:
381,136,79132,1,4,0:3:0:0:
327,97,79288,1,0,0:0:0:0:
94,81,79445,2,0,L|8:81,1,68.9999978942872,8|0,0:0|0:3,0:0:0:0:
169,82,79757,1,0,0:0:0:0:
346,77,80070,5,2,0:0:0:0:
