osu file format v14

[General]
AudioFilename: audio.mp3
AudioLeadIn: 0
PreviewTime: 59286
Countdown: 0
SampleSet: Soft
StackLeniency: 0.7
Mode: 2
LetterboxInBreaks: 0
WidescreenStoryboard: 0

[Editor]
DistanceSpacing: 1.3
BeatDivisor: 4
GridSize: 32
TimelineZoom: 1

[Metadata]
Title:Uchiage Hanabi
TitleUnicode:打上花火
Artist:DAOKO x Kenshi Yonezu
ArtistUnicode:DAOKO × 米津玄師
Creator:Ascendance
Version:Fireworks
Source:打ち上げ花火、下から見るか?横から見るか?
Tags:Shita kara Miru ka? Yoko kara Miru ka? Movie hachi ハチ summer shaft
BeatmapID:1388652
BeatmapSetID:655269

[Difficulty]
HPDrainRate:6
CircleSize:4
OverallDifficulty:8.4
ApproachRate:8.4
SliderMultiplier:2.6
SliderTickRate:4

[Events]
//Background and Video events
0,0,"cropped-1920-1080-852077.png",0,0
//Break Periods
//Storyboard Layer 0 (Background)
//Storyboard Layer 1 (Fail)
//Storyboard Layer 2 (Pass)
//Storyboard Layer 3 (Foreground)
//Storyboard Sound Samples

[TimingPoints]
70,625,4,2,1,40,1,0
19445,-125,4,2,1,40,0,0
40070,-100,4,2,1,40,0,0
57257,-100,4,2,1,10,0,0
59445,-100,4,2,1,20,0,0
60070,-76.9230769230769,4,2,2,70,0,1
69445,-100,4,2,2,70,0,0
70070,-76.9230769230769,4,2,2,70,0,1
78820,-76.9230769230769,4,2,2,50,0,1
80070,-100,4,2,2,30,0,0

[Colours]
Combo1 : 255,155,255
Combo2 : 128,255,128
Combo3 : 255,172,89
Combo4 : 122,145,250

[HitObjects]
215,107,19445,6,0,L|103:110,1,104,0|0,0:0|0:0,0:0:0:0:
353,228,20070,2,0,P|413:159|311:85,1,208,2|8,0:0|0:0,0:0:0:0:
205,76,21007,2,0,L|420:62,1,208,0|2,0:0|0:0,0:0:0:0:
226,176,21945,2,0,L|113:165,1,104,0|0,0:0|0:0,0:0:0:0:
404,268,22570,6,0,L|289:283,2,104,2|0|8,0:0|0:0|0:0,0:0:0:0:
206,162,23507,2,0,L|422:182,1,208,0|2,0:0|0:0,0:0:0:0:
204,281,24445,1,0,0:0:0:0:
199,229,24601,1,2,0:0:0:0:
194,177,24757,1,0,0:0:0:0:
385,83,25070,6,0,L|176:87,1,208,2|8,0:0|0:0,0:0:0:0:
396,190,26320,1,0,0:0:0:0:
224,283,26632,2,0,L|436:305,1,208,2|0,0:0|0:0,0:0:0:0:
159,77,27570,6,0,L|50:71,1,104,2|0,0:0|0:0,0:0:0:0:
241,154,28195,2,0,L|353:142,1,104,8|0,0:0|0:0,0:0:0:0:
194,308,28820,2,0,L|174:191,1,104,0|2,0:0|0:0,0:0:0:0:
336,340,29445,1,0,0:0:0:0:
387,334,29601,1,2,0:0:0:0:
439,328,29757,1,0,0:0:0:0:
160,268,30070,6,0,L|126:48,1,208,2|8,0:0|0:0,0:0:0:0:
284,158,31007,2,0,P|204:144|93:205,1,208,0|2,0:0|0:0,0:0:0:0:
301,263,31945,2,0,L|318:145,1,104,0|0,0:0|0:0,0:0:0:0:
89,94,32570,6,0,L|201:103,2,104,2|0|8,0:0|0:0|0:0,0:0:0:0:
294,152,33507,2,0,L|71:176,1,208,0|2,0:0|0:0,0:0:0:0:
261,247,34445,1,0,0:0:0:0:
312,252,34601,1,2,0:0:0:0:
364,257,34757,1,0,0:0:0:0:
174,339,35070,6,0,L|418:318,1,208,2|8,0:0|0:0,0:0:0:0:
225,266,36007,1,0,0:0:0:0:
389,174,36320,2,0,L|278:151,1,104,0|2,0:0|0:0,0:0:0:0:
151,142,36945,2,0,L|40:151,1,104,0|0,0:0|0:0,0:0:0:0:
338,306,37570,6,0,L|344:93,1,208,2|8,0:0|0:0,0:0:0:0:
181,202,38507,1,0,0:0:0:0:
352,321,38820,2,0,L|464:314,1,104,0|2,0:0|0:0,0:0:0:0:
252,249,39445,1,0,0:0:0:0:
479,242,39757,1,0,0:0:0:0:
71,342,40070,6,0,L|58:183,1,130,2|0,0:0|0:0,0:0:0:0:
144,188,40538,1,0,0:0:0:0:
282,160,40695,1,8,0:0:0:0:
86,128,41007,2,0,L|76:91,2,32.5,0|0|0,0:0|0:0|0:0,0:0:0:0:
253,57,41320,6,0,L|396:58,1,130,0|2,0:0|0:0,0:0:0:0:
253,57,41788,1,0,0:0:0:0:
116,255,41945,2,0,L|109:181,1,65,0|0,0:0|0:0,0:0:0:0:
250,139,42257,1,0,0:0:0:0:
35,68,42570,5,2,0:0:0:0:
193,172,42882,2,0,L|322:158,1,130,0|8,0:0|0:0,0:0:0:0:
139,283,43507,1,0,0:0:0:0:
134,250,43585,1,0,0:0:0:0:
129,218,43663,1,0,0:0:0:0:
279,308,43820,6,0,L|416:300,1,130,0|2,0:0|0:0,0:0:0:0:
200,229,44445,2,0,L|266:226,1,65,0|0,0:0|0:0,0:0:0:0:
420,181,44757,1,0,0:0:0:0:
461,152,44835,1,0,0:0:0:0:
429,116,44913,1,0,0:0:0:0:
267,41,45070,6,0,L|108:56,1,130,2|0,0:0|0:0,0:0:0:0:
36,106,45538,1,0,0:0:0:0:
45,198,45695,1,8,0:0:0:0:
218,258,46007,1,0,0:0:0:0:
250,263,46085,1,0,0:0:0:0:
282,268,46163,1,0,0:0:0:0:
129,334,46320,6,0,L|119:220,1,65,0|0,0:0|0:0,0:0:0:0:
248,228,46632,2,0,L|244:152,1,65,2|0,0:0|0:0,0:0:0:0:
105,97,46945,2,0,L|254:76,1,130,0|0,0:0|0:0,0:0:0:0:
451,189,47570,5,2,0:0:0:0:
262,238,47882,2,0,L|147:252,2,65,0|0|8,0:0|0:0|0:0,0:0:0:0:
446,330,48507,1,0,0:0:0:0:
448,297,48585,1,0,0:0:0:0:
451,265,48663,1,0,0:0:0:0:
291,210,48820,6,0,L|219:200,1,65,0|0,0:0|0:0,0:0:0:0:
407,96,49132,2,0,L|386:252,1,130,2|0,0:0|0:0,0:0:0:0:
267,290,49601,2,0,L|123:296,1,130,2|0,0:0|0:0,0:0:0:0:
433,229,50070,6,0,L|445:78,1,130,2|0,0:0|0:0,0:0:0:0:
318,75,50538,1,0,0:0:0:0:
171,62,50695,1,8,0:0:0:0:
363,155,51007,1,0,0:0:0:0:
330,156,51085,1,0,0:0:0:0:
298,157,51163,1,0,0:0:0:0:
121,257,51320,6,0,L|110:185,1,65,0|0,0:0|0:0,0:0:0:0:
336,307,51632,2,0,L|408:303,1,65,2|0,0:0|0:0,0:0:0:0:
231,268,51945,1,0,0:0:0:0:
448,207,52101,2,0,L|455:69,1,130,0|0,0:0|0:0,0:0:0:0:
221,81,52570,6,0,P|151:93|76:73,1,130,2|0,0:0|0:0,0:0:0:0:
295,41,53038,2,0,L|291:128,1,65,0|8,0:0|0:0,0:0:0:0:
125,190,53507,1,0,0:0:0:0:
128,222,53585,1,0,0:0:0:0:
131,254,53663,1,0,0:0:0:0:
134,287,53741,1,0,0:0:0:0:
359,349,53820,6,0,L|451:335,1,65,0|0,0:0|0:0,0:0:0:0:
197,272,54132,2,0,L|129:288,1,65,2|0,0:0|0:0,0:0:0:0:
238,192,54445,1,0,0:0:0:0:
367,209,54601,1,2,0:0:0:0:
238,192,54757,1,0,0:0:0:0:
234,159,54835,1,0,0:0:0:0:
229,127,54913,1,0,0:0:0:0:
403,69,55382,6,0,L|270:78,2,130,0|0|0,0:0|0:0|0:0,0:0:0:0:
184,173,56320,2,0,L|341:195,1,130,0|0,0:0|0:0,0:0:0:0:
45,281,56945,1,0,0:0:0:0:
256,192,57257,12,0,59132,0:0:0:0:
88,269,59445,6,0,P|72:182|129:139,1,130,0|0,0:0|0:0,0:0:0:0:
192,131,59913,1,0,0:0:0:0:
414,97,60070,6,0,P|461:164|373:226,1,168.999992263794,4|0,0:0|0:0,0:0:0:0:
320,239,60538,1,0,0:0:0:0:
95,237,60695,2,0,L|-25:244,2,84.4999961318971,8|0|0,0:0|0:0|0:0,0:0:0:0:
384,333,61163,2,0,P|296:357|193:322,1,168.999992263794,8|0,0:0|0:0,0:0:0:0:
490,201,61632,2,0,L|476:290,1,84.4999961318971,2|0,0:0|0:0,0:0:0:0:
220,130,61945,6,0,L|101:140,1,84.4999961318971,8|2,0:0|0:0,0:0:0:0:
273,200,62257,2,0,L|376:192,1,84.4999961318971,0|8,0:0|0:0,0:0:0:0:
66,333,62570,6,0,L|47:127,1,168.999992263794,2|0,0:0|0:0,0:0:0:0:
203,217,63038,1,0,0:0:0:0:
66,333,63195,2,0,L|195:342,2,84.4999961318971,8|0|0,0:0|0:0|0:0,0:0:0:0:
352,161,63663,2,0,P|270:190|141:174,1,168.999992263794,8|0,0:0|0:0,0:0:0:0:
446,262,64132,2,0,L|461:158,1,84.4999961318971,2|0,0:0|0:0,0:0:0:0:
206,51,64445,2,0,P|157:130|227:176,1,168.999992263794,10|0,0:0|0:0,0:0:0:0:
319,192,64913,1,8,0:0:0:0:
57,294,65070,5,2,0:0:0:0:
270,316,65382,1,0,0:0:0:0:
57,294,65695,2,0,L|168:281,2,84.4999961318971,8|0|0,0:0|0:0|0:0,0:0:0:0:
278,352,66163,2,0,L|301:161,1,168.999992263794,8|0,0:0|0:0,0:0:0:0:
37,74,66632,2,0,L|152:57,1,84.4999961318971,2|0,0:0|0:0,0:0:0:0:
267,119,66945,2,0,L|370:106,1,84.4999961318971,8|2,0:0|0:0,0:0:0:0:
108,281,67257,2,0,L|94:169,1,84.4999961318971,0|8,0:0|0:0,0:0:0:0:
355,306,67570,6,0,P|449:217|421:144,1,168.999992263794,2|0,0:0|0:0,0:0:0:0:
192,84,68195,1,8,0:0:0:0:
288,98,68351,1,0,0:0:0:0:
384,112,68507,1,0,0:0:0:0:
201,252,68663,2,0,L|190:56,1,168.999992263794,8|0,0:0|0:0,0:0:0:0:
475,323,69132,2,0,L|336:338,1,84.4999961318971,10|0,0:0|0:0,0:0:0:0:
100,125,69445,2,0,L|266:144,1,130,10|0,0:0|0:0,0:0:0:0:
74,212,69913,1,8,0:0:0:0:
344,327,70070,6,0,P|388:252|313:202,1,168.999992263794,4|0,0:0|0:0,0:0:0:0:
223,197,70538,1,0,0:0:0:0:
451,130,70695,2,0,L|312:112,2,84.4999961318971,8|0|0,0:0|0:0|0:0,0:0:0:0:
165,75,71163,2,0,P|251:80|367:54,1,168.999992263794,8|0,0:0|0:0,0:0:0:0:
81,217,71632,2,0,L|51:107,1,84.4999961318971,2|0,0:0|0:0,0:0:0:0:
359,186,71945,6,0,L|346:287,1,84.4999961318971,8|2,0:0|0:0,0:0:0:0:
205,260,72257,2,0,L|194:358,1,84.4999961318971,0|8,0:0|0:0,0:0:0:0:
455,207,72570,6,0,L|265:183,1,168.999992263794,2|0,0:0|0:0,0:0:0:0:
407,94,73038,1,0,0:0:0:0:
253,312,73195,2,0,L|250:216,1,84.4999961318971,8|0,0:0|0:0,0:0:0:0:
407,94,73507,1,0,0:0:0:0:
137,105,73663,2,0,P|235:142|351:102,1,168.999992263794,8|0,0:0|0:0,0:0:0:0:
35,187,74132,2,0,L|146:201,1,84.4999961318971,2|0,0:0|0:0,0:0:0:0:
258,300,74445,1,10,0:0:0:0:
143,310,74601,1,0,0:0:0:0:
258,300,74757,1,0,0:0:0:0:
143,310,74913,1,8,0:0:0:0:
453,335,75070,6,0,L|463:125,1,168.999992263794,4|0,0:0|0:0,0:0:0:0:
213,124,75695,2,0,L|107:132,1,84.4999961318971,8|0,0:0|0:0,0:0:0:0:
272,205,76007,2,0,L|377:192,1,84.4999961318971,0|8,0:0|0:0,0:0:0:0:
63,337,76320,2,0,L|49:235,1,84.4999961318971,0|0,0:0|0:0,0:0:0:0:
278,62,76632,2,0,L|367:50,1,84.4999961318971,4|0,0:0|0:0,0:0:0:0:
278,62,76945,2,0,L|182:74,1,84.4999961318971,8|4,0:0|0:0,0:0:0:0:
442,236,77257,2,0,L|456:126,1,84.4999961318971,0|8,0:0|0:0,0:0:0:0:
89,303,77570,6,0,P|21:170|122:106,1,253.499988395691,4|0,0:0|0:0,0:0:0:0:
371,90,78195,2,0,P|220:115|106:33,1,253.499988395691,12|0,0:0|0:0,0:0:0:0:
371,27,78820,5,8,0:3:0:0:
470,70,78976,1,0,0:0:0:0:
471,172,79132,1,4,0:3:0:0:
375,237,79288,1,0,0:0:0:0:
78,240,79445,1,8,0:0:0:0:
220,242,79601,1,0,0:3:0:0:
78,240,79757,1,0,0:0:0:0:
327,241,80070,5,6,0:0:0:0:
