osu file format v14

[General]
AudioFilename: audio.mp3
AudioLeadIn: 0
PreviewTime: 59286
Countdown: 0
SampleSet: Soft
StackLeniency: 0.7
Mode: 2
LetterboxInBreaks: 0
WidescreenStoryboard: 0

[Editor]
DistanceSpacing: 1
BeatDivisor: 4
GridSize: 32
TimelineZoom: 1

[Metadata]
Title:Uchiage Hanabi
TitleUnicode:打上花火
Artist:DAOKO x Kenshi Yonezu
ArtistUnicode:DAOKO × 米津玄師
Creator:Ascendance
Version:Cup
Source:打ち上げ花火、下から見るか?横から見るか?
Tags:Shita kara Miru ka? Yoko kara Miru ka? Movie hachi ハチ summer shaft
BeatmapID:1388671
BeatmapSetID:655269

[Difficulty]
HPDrainRate:3
CircleSize:2.5
OverallDifficulty:6
ApproachRate:6
SliderMultiplier:1.9
SliderTickRate:4

[Events]
//Background and Video events
0,0,"cropped-1920-1080-852077.png",0,0
//Break Periods
//Storyboard Layer 0 (Background)
//Storyboard Layer 1 (Fail)
//Storyboard Layer 2 (Pass)
//Storyboard Layer 3 (Foreground)
//Storyboard Sound Samples

[TimingPoints]
70,625,4,2,1,40,1,0
19445,-125,4,2,1,40,0,0
40070,-100,4,2,1,40,0,0
57570,-100,4,2,1,10,0,0
59445,-100,4,2,1,20,0,0
60070,-95.2380952380952,4,2,2,70,0,1
69445,-100,4,2,2,70,0,0
70070,-95.2380952380952,4,2,2,70,0,1
78820,-95.2380952380952,4,2,2,50,0,1
80070,-100,4,2,2,30,0,0

[Colours]
Combo1 : 255,155,255
Combo2 : 128,255,128
Combo3 : 255,172,89
Combo4 : 122,145,250

[HitObjects]
85,90,19445,6,0,L|184:94,1,76
259,97,20070,2,0,L|494:114,1,228,2|0,0:0|0:0,0:0:0:0:
302,185,21632,2,0,L|211:198,1,76,2|0,0:0|0:0,0:0:0:0:
41,266,22570,6,0,L|290:293,1,228,2|0,0:0|0:0,0:0:0:0:
398,142,24132,2,0,L|505:133,2,76,2|0|0,0:0|0:0|0:0,0:0:0:0:
305,178,25070,6,0,L|121:167,2,152,2|8|0,0:0|0:0|0:0,0:0:0:0:
501,194,26945,1,0,0:0:0:0:
319,116,27570,6,0,L|153:137,1,152,2|8,0:0|0:0,0:0:0:0:
336,244,28820,2,0,L|350:136,1,76,0|2,0:0|0:0,0:0:0:0:
229,114,29445,1,0,0:0:0:0:
70,236,30070,6,0,L|299:226,1,228,2|0,0:0|0:0,0:0:0:0:
486,283,31632,2,0,L|496:197,1,76,2|0,0:0|0:0,0:0:0:0:
299,241,32570,6,0,P|236:149|324:70,1,228,2|0,0:0|0:0,0:0:0:0:
506,75,34132,2,0,L|416:65,1,76,2|0,0:0|0:0,0:0:0:0:
238,114,35070,6,0,L|77:122,1,152,2|8,0:0|0:0,0:0:0:0:
268,197,36320,2,0,L|362:212,2,76,0|2|0,0:0|0:0|0:0,0:0:0:0:
84,271,37570,5,2,0:0:0:0:
273,328,38195,2,0,L|436:318,2,152,8|0|0,0:0|0:0|0:0,0:0:0:0:
86,292,40070,6,0,P|47:207|134:115,1,190,2|8,0:0|0:0,0:0:0:0:
279,98,41320,2,0,L|396:117,2,95,0|2|0,0:0|0:0|0:0,0:0:0:0:
150,237,42570,6,0,L|354:227,1,190,2|8,0:0|0:0,0:0:0:0:
503,131,43820,2,0,L|391:126,2,95,0|2|0,0:0|0:0|0:0,0:0:0:0:
338,125,45070,6,0,L|131:133,2,190,2|8|0,0:0|0:0|0:0,0:0:0:0:
152,82,46945,2,0,L|52:71,1,95,0|0,0:0|0:0,0:0:0:0:
152,81,47570,6,0,L|348:73,1,190,2|8,0:0|0:0,0:0:0:0:
155,112,48820,2,0,P|101:173|179:262,1,190,0|0,0:0|0:0,0:0:0:0:
240,281,49757,1,0,0:0:0:0:
334,289,50070,5,2,0:0:0:0:
152,343,50695,2,0,L|138:144,1,190,8|0,0:0|0:0,0:0:0:0:
229,125,51632,1,2,0:0:0:0:
321,103,51945,1,0,0:0:0:0:
133,71,52570,5,2,0:0:0:0:
285,184,53195,2,0,L|482:176,2,190,8|0|0,0:0|0:0|0:0,0:0:0:0:
144,194,54757,1,0,0:0:0:0:
365,268,55382,6,0,L|465:281,1,95,0|0,0:0|0:0,0:0:0:0:
288,195,56320,2,0,L|83:199,1,190,0|0,0:0|0:0,0:0:0:0:
256,192,57570,12,0,58820,0:0:0:0:
84,300,59445,6,0,L|71:166,1,95,0|0,0:0|0:0,0:0:0:0:
230,162,60070,6,0,P|339:177|425:135,2,199.499993911743,4|8|0,0:0|0:0|0:0,0:0:0:0:
8,85,61945,1,8,0:0:0:0:
199,29,62570,5,2,0:0:0:0:
387,93,63195,2,0,L|375:299,1,199.499993911743,8|0,0:0|0:0,0:0:0:0:
191,213,64445,2,0,L|63:204,1,99.7499969558717,10|0,0:0|0:0,0:0:0:0:
191,212,65070,6,0,L|397:195,2,199.499993911743,2|8|0,0:0|0:0|0:0,0:0:0:0:
379,277,66945,2,0,P|406:195|328:119,1,199.499993911743,8|2,0:0|0:0,0:0:0:0:
136,94,68195,1,8,0:0:0:0:
331,54,68820,6,0,L|450:69,1,99.7499969558717,0|10,0:0|0:0,0:0:0:0:
335,56,69445,2,0,L|218:61,1,95,10|0,0:0|0:0,0:0:0:0:
93,89,70070,6,0,P|36:158|125:249,1,199.499993911743,4|8,0:0|0:0,0:0:0:0:
273,308,71320,2,0,L|476:298,1,199.499993911743,0|8,0:0|0:0,0:0:0:0:
285,228,72570,6,0,L|80:239,2,199.499993911743,2|8|0,0:0|0:0|0:0,0:0:0:0:
475,169,74445,2,0,L|448:66,1,99.7499969558717,10|0,0:0|0:0,0:0:0:0:
354,42,75070,6,0,P|214:68|151:30,1,199.499993911743,4|8,0:0|0:0,0:0:0:0:
45,202,76320,2,0,L|171:192,2,99.7499969558717,0|4|8,0:0|0:0|0:0,0:0:0:0:
236,257,77570,6,0,L|450:279,1,199.499993911743,4|12,0:0|0:0,0:0:0:0:
267,167,78820,2,0,L|59:178,1,199.499993911743,8|8,0:3|0:0,0:0:0:0:
242,251,80070,5,2,0:0:0:0:
