osu file format v14

[General]
AudioFilename: audio.mp3
AudioLeadIn: 0
PreviewTime: -1
Countdown: 1
SampleSet: Normal
StackLeniency: 0.7
Mode: 0
LetterboxInBreaks: 0
WidescreenStoryboard: 0

[Editor]
Bookmarks: 7108,8708,11908,13508,15108,18308,19508,19908,20708,21508,43908,45508,47108,50308
DistanceSpacing: 1.1
BeatDivisor: 3
GridSize: 4
TimelineZoom: 1

[Metadata]
Title:Daisuki
TitleUnicode:ダイスキ
Artist:DAOKO feat. TeddyLoid
ArtistUnicode:DAOKO feat. TeddyLoid
Creator:Taiitoo
Version:Kirai
Source:
Tags:
BeatmapID:1281870
BeatmapSetID:606837

[Difficulty]
HPDrainRate:7
CircleSize:4
OverallDifficulty:9
ApproachRate:9.3
SliderMultiplier:1.4
SliderTickRate:1

[Events]
//Background and Video events
0,0,"NVIDIA+Share_2017-04-27_18-19-48.png",0,0
//Break Periods
2,21708,43354
//Storyboard Layer 0 (Background)
//Storyboard Layer 1 (Fail)
//Storyboard Layer 2 (Pass)
//Storyboard Layer 3 (Foreground)
//Storyboard Sound Samples

[TimingPoints]
308,400,4,1,0,100,1,0

[HitObjects]
255,383,7108,5,0,0:0:0:0:
173,304,7241,2,0,L|123:252,1,46.6666666666667
64,191,7508,1,0,0:0:0:0:
144,109,7641,2,0,L|196:59,1,46.6666666666667
256,0,7908,1,0,0:0:0:0:
339,80,8041,2,0,L|389:132,1,46.6666666666667
447,192,8308,1,0,0:0:0:0:
375,192,8441,2,0,L|325:192,1,46.6666666666667
256,192,8708,2,0,P|156:88|220:32,1,233.333333333333
248,104,9508,2,0,P|348:207|284:264,1,233.333333333333
264,184,10308,2,0,P|291:325|374:305,1,233.333333333333
320,248,11108,2,0,P|292:106|209:126,1,233.333333333333
164,144,11908,1,0,0:0:0:0:
139,318,13508,1,0,0:0:0:0:
158,297,13641,2,0,L|196:255,1,46.6666666666667
130,75,13908,1,0,0:0:0:0:
151,94,14041,2,0,L|193:132,1,46.6666666666667
373,66,14308,1,0,0:0:0:0:
354,87,14441,2,0,L|316:129,1,46.6666666666667
382,309,14708,1,0,0:0:0:0:
361,290,14841,2,0,L|318:252,1,46.6666666666667
255,191,15108,1,0,0:0:0:0:
64,119,15641,1,0,0:0:0:0:
86,139,15774,1,0,0:0:0:0:
128,105,16574,1,0,0:0:0:0:
150,125,16707,1,0,0:0:0:0:
200,99,17374,1,0,0:0:0:0:
222,119,17507,1,0,0:0:0:0:
300,120,18308,2,0,P|328:120|328:148,1,46.6666666666667
256,192,18574,1,0,0:0:0:0:
211,263,18708,2,0,P|184:264|184:236,1,46.6666666666667
256,192,18974,1,0,0:0:0:0:
184,147,19108,2,0,P|183:120|211:120,1,46.6666666666667
256,192,19374,1,0,0:0:0:0:
327,236,19508,2,0,P|328:264|300:264,1,46.6666666666667
256,192,19774,1,0,0:0:0:0:
64,84,19908,2,0,P|75:58|101:70,1,46.6666666666667
256,192,20174,1,0,0:0:0:0:
447,300,20308,2,0,P|436:325|410:313,1,46.6666666666667
256,192,20574,1,0,0:0:0:0:
88,320,20708,2,0,P|62:308|74:282,1,46.6666666666667
256,192,20974,1,0,0:0:0:0:
423,64,21108,2,0,P|449:75|437:101,1,46.6666666666667
256,192,21374,1,0,0:0:0:0:
256,192,21508,1,0,0:0:0:0:
111,271,43908,5,0,0:0:0:0:
112,229,44008,1,0,0:0:0:0:
112,184,44108,1,0,0:0:0:0:
118,138,44208,1,0,0:0:0:0:
152,113,44308,1,0,0:0:0:0:
201,108,44408,1,0,0:0:0:0:
236,127,44508,1,0,0:0:0:0:
254,166,44608,1,0,0:0:0:0:
260,203,44708,1,0,0:0:0:0:
282,233,44808,1,0,0:0:0:0:
326,246,44908,1,0,0:0:0:0:
368,234,45008,1,0,0:0:0:0:
398,198,45108,1,0,0:0:0:0:
408,155,45208,1,0,0:0:0:0:
389,113,45308,1,0,0:0:0:0:
361,84,45408,1,0,0:0:0:0:
316,66,45508,1,0,0:0:0:0:
242,313,47108,2,0,P|262:261|319:253,1,105
321,271,47508,2,0,P|301:323|244:330,1,105
134,321,47908,2,0,L|171:281,1,35
77,240,48108,6,0,L|118:223,1,35
71,142,48308,2,0,L|124:149,1,35
104,49,48508,6,0,L|141:72,1,35
188,117,48708,1,0,0:0:0:0:
223,128,48808,1,0,0:0:0:0:
266,119,48908,1,0,0:0:0:0:
303,94,49008,1,0,0:0:0:0:
337,67,49108,1,0,0:0:0:0:
375,44,49208,1,0,0:0:0:0:
418,37,49308,1,0,0:0:0:0:
400,81,49408,1,0,0:0:0:0:
390,116,49508,1,0,0:0:0:0:
383,160,49608,1,0,0:0:0:0:
379,197,49708,1,0,0:0:0:0:
376,238,49808,1,0,0:0:0:0:
381,277,49908,1,0,0:0:0:0:
336,270,50008,1,0,0:0:0:0:
299,264,50108,1,0,0:0:0:0:
254,259,50208,1,0,0:0:0:0:
214,271,50308,1,0,0:0:0:0:
