osu file format v14

[General]
AudioFilename: audio.mp3
AudioLeadIn: 0
PreviewTime: 77272
Countdown: 0
SampleSet: Soft
StackLeniency: 0.7
Mode: 0
LetterboxInBreaks: 0
WidescreenStoryboard: 0

[Editor]
DistanceSpacing: 1
BeatDivisor: 4
GridSize: 16
TimelineZoom: 1

[Metadata]
Title:Suisei
TitleUnicode:水星
Artist:DAOKO
ArtistUnicode:DAOKO
Creator:Rdzeniu
Version:Floating in zero gravity
Source:
Tags:
BeatmapID:1591824
BeatmapSetID:756469

[Difficulty]
HPDrainRate:6
CircleSize:4
OverallDifficulty:8.8
ApproachRate:9.2
SliderMultiplier:2
SliderTickRate:1

[Events]
//Background and Video events
0,0,"bgdaoko.jpg",0,0
//Break Periods
2,154272,172672
//Storyboard Layer 0 (Background)
//Storyboard Layer 1 (Fail)
//Storyboard Layer 2 (Pass)
//Storyboard Layer 3 (Foreground)
//Storyboard Sound Samples

[TimingPoints]
19672,300,4,2,0,50,1,0
29272,-125,4,2,0,50,0,0
33772,-111.111111111111,4,2,0,50,0,0
34072,-125,4,2,0,50,0,0
38872,-100,4,2,0,50,0,0
67672,-111.111111111111,4,2,0,50,0,0
73672,-100,4,2,0,50,0,0
95272,-83.3333333333333,4,2,0,50,0,0
95872,-71.4285714285714,4,2,0,50,0,0
96322,-100,4,2,0,50,0,0
114472,-90.9090909090909,4,2,0,50,0,0
115672,-100,4,2,0,50,0,0
134272,-125,4,2,0,50,0,0
134872,-100,4,2,0,50,0,0
146422,-125,4,2,0,50,0,0
146572,-100,4,2,0,50,0,0
152422,-125,4,2,0,50,0,0
152722,-100,4,2,0,50,0,0
181072,-83.3333333333333,4,2,0,50,0,0
181672,-71.4285714285714,4,2,0,50,0,0
182272,-62.5,4,2,0,50,0,0
182872,-100,4,2,0,50,0,0
188872,-83.3333333333333,4,2,0,50,0,0
189472,-71.4285714285714,4,2,0,50,0,0
190072,-100,4,2,0,50,0,0
190672,-83.3333333333333,4,2,0,50,0,0
191272,-71.4285714285714,4,2,0,50,0,0
191872,-62.5,4,2,0,50,0,0
192472,-100,4,2,0,50,0,0
210472,-83.3333333333333,4,2,0,50,0,0
211072,-71.4285714285714,4,2,0,50,0,0
211972,-100,4,2,0,50,0,0
213472,-90.9090909090909,4,2,0,50,0,0
213772,-83.3333333333333,4,2,0,50,0,0
214072,-100,4,2,0,50,0,0
229672,-83.3333333333333,4,2,0,50,0,0
230272,-71.4285714285714,4,2,0,50,0,0
230872,-125,4,2,0,50,0,0
231472,-100,4,2,0,50,0,0
239872,-83.3333333333333,4,2,0,50,0,0
240472,-100,4,2,0,50,0,0
248872,-83.3333333333333,4,2,0,50,0,0
249472,-71.4285714285714,4,2,0,50,0,0

[Colours]
Combo1 : 255,181,179
Combo2 : 70,255,255
Combo3 : 149,255,255
Combo4 : 122,254,211
Combo5 : 91,255,177
Combo6 : 188,255,138
Combo7 : 224,253,123
Combo8 : 255,233,155

[HitObjects]
161,35,19672,6,0,P|191:78|234:110,1,100
325,62,19972,1,0,0:0:0:0:
435,193,20272,6,0,B|432:160|448:144|441:93,1,100
337,162,20572,2,0,B|330:214|360:229|350:292,1,100
360,362,20872,1,0,0:0:0:0:
172,313,21172,1,0,0:0:0:0:
252,230,21472,6,0,P|197:182|112:230,1,150
183,252,21772,2,0,L|211:119,1,100
299,93,22072,2,0,P|242:33|141:71,1,200
203,154,22672,6,0,B|136:231|47:143,1,150
135,107,22972,2,0,P|130:179|76:279,1,150
27,243,23272,2,0,P|125:232|141:347,1,200
470,335,23872,6,0,P|409:270|439:212,1,150
493,231,24172,2,0,P|420:221|402:132,1,150
467,163,24472,2,0,B|403:212|322:188|322:188|316:158|324:125,1,200
336,25,25072,5,0,0:0:0:0:
316,138,25372,2,0,B|309:202|284:229|284:229|244:228|187:142,1,200
270,51,25822,1,0,0:0:0:0:
316,138,25972,2,0,B|305:283|257:273,1,150
156,270,26272,2,0,B|120:280|109:135,1,150
197,90,26572,2,0,P|164:53|109:41,1,100
18,91,26872,6,0,P|9:164|33:211,1,100
75,283,27172,1,0,0:0:0:0:
349,252,27472,1,0,0:0:0:0:
294,59,27772,1,0,0:0:0:0:
194,45,27922,1,0,0:0:0:0:
117,109,28072,2,0,P|161:160|221:164,1,100
282,128,28372,2,0,P|291:189|236:259,1,150
191,245,28672,2,0,P|263:264|323:371,1,200
361,207,29272,5,0,0:0:0:0:
407,132,29422,2,0,P|441:164|453:222,1,80
418,319,29722,1,0,0:0:0:0:
273,363,29872,2,0,P|289:318|327:286,1,80
254,218,30172,2,0,P|204:273|180:364,1,160
62,194,30622,2,0,L|132:233,1,80
184,174,30922,1,0,0:0:0:0:
88,115,31072,6,0,B|107:82|108:35|108:35|141:65|191:85,1,160
254,125,31522,1,0,0:0:0:0:
246,37,31672,2,0,P|302:50|341:156,1,160
254,125,32122,1,0,0:0:0:0:
257,224,32272,6,0,B|222:254|203:308|203:308|169:304|140:258,1,160
296,315,32722,1,0,0:0:0:0:
365,262,32872,2,0,P|385:295|384:335,1,80
483,333,33172,1,0,0:0:0:0:
483,333,33472,6,0,P|445:270|461:239,1,80
365,262,33772,2,0,P|335:190|405:105,1,179.999994506836
419,195,34222,1,0,0:0:0:0:
445,271,34372,2,0,P|411:333|351:344,1,120
365,263,34672,6,0,P|299:288|288:363,1,120
366,344,34972,2,0,L|253:200,1,160
347,168,35422,1,0,0:0:0:0:
438,187,35572,1,0,0:0:0:0:
477,99,35722,1,0,0:0:0:0:
383,85,35872,2,0,L|340:182,1,80
286,81,36172,2,0,L|227:213,1,120
301,209,36472,6,0,P|220:126|185:231,1,240
226,163,37072,2,0,P|113:171|157:267,1,240
157,197,37672,2,0,P|73:258|175:314,1,240
84,295,38272,2,0,B|119:267|132:233|132:233|99:189|52:146|52:146|87:123|135:118,1,280
210,108,38872,5,0,0:0:0:0:
305,121,39022,1,0,0:0:0:0:
383,170,39172,1,0,0:0:0:0:
305,220,39322,1,0,0:0:0:0:
213,225,39472,2,0,P|239:286|285:306,1,100
359,357,39772,2,0,P|385:296|431:276,1,100
475,202,40072,5,0,0:0:0:0:
443,107,40222,1,0,0:0:0:0:
367,41,40372,1,0,0:0:0:0:
338,136,40522,1,0,0:0:0:0:
255,79,40672,2,0,L|163:9,1,100
166,118,40972,2,0,L|74:48,1,100
85,157,41272,5,0,0:0:0:0:
87,256,41422,1,0,0:0:0:0:
183,228,41572,1,0,0:0:0:0:
195,327,41722,1,0,0:0:0:0:
294,328,41872,2,0,L|283:216,1,100
270,129,42172,1,0,0:0:0:0:
356,178,42322,1,0,0:0:0:0:
409,93,42472,1,0,0:0:0:0:
322,42,42622,1,0,0:0:0:0:
270,129,42772,6,0,L|374:187,1,100
409,92,43072,2,0,L|309:35,1,100
274,130,43372,2,0,L|276:256,1,100
463,352,43672,6,0,L|461:222,1,100
181,178,43972,2,0,L|182:277,1,100
462,202,44272,2,0,L|464:103,1,100
183,177,44572,6,0,L|182:277,1,100
183,104,44872,1,0,0:0:0:0:
282,238,45172,1,0,0:0:0:0:
33,37,45472,1,0,0:0:0:0:
221,354,45772,1,0,0:0:0:0:
387,269,46072,5,0,0:0:0:0:
381,176,46222,1,0,0:0:0:0:
313,113,46372,1,0,0:0:0:0:
220,115,46522,1,0,0:0:0:0:
153,182,46672,2,0,B|231:199|231:199|215:255|117:294,1,200
68,214,47122,1,0,0:0:0:0:
55,300,47272,2,0,P|105:362|201:353,1,150
147,280,47572,2,0,P|215:239|219:142,1,150
139,184,47872,2,0,P|109:110|14:90,1,150
50,173,48172,2,0,L|165:63,1,150
203,39,48472,5,0,0:0:0:0:
297,21,48622,1,0,0:0:0:0:
362,91,48772,1,0,0:0:0:0:
338,184,48922,1,0,0:0:0:0:
242,213,49072,2,0,L|265:108,1,100
154,171,49372,2,0,P|146:242|208:305,1,150
235,302,49672,5,0,0:0:0:0:
329,288,49822,1,0,0:0:0:0:
367,200,49972,1,0,0:0:0:0:
312,122,50122,1,0,0:0:0:0:
216,128,50272,1,0,0:0:0:0:
266,212,50572,5,0,0:0:0:0:
255,116,50722,1,0,0:0:0:0:
171,69,50872,1,0,0:0:0:0:
84,109,51022,1,0,0:0:0:0:
67,204,51172,1,0,0:0:0:0:
166,210,51322,5,0,0:0:0:0:
174,305,51472,1,0,0:0:0:0:
260,345,51622,1,0,0:0:0:0:
303,257,51772,1,0,0:0:0:0:
397,258,51922,1,0,0:0:0:0:
439,339,52072,5,0,0:0:0:0:
493,259,52222,1,0,0:0:0:0:
448,155,52372,2,0,B|431:173|405:177|405:177|373:172|351:143,1,100
382,56,52672,2,0,B|344:17|309:10|275:15|233:52|233:52|246:127|203:187|109:185,1,350
145,87,53272,6,0,P|194:161|180:312,1,200
98,255,53722,1,0,0:0:0:0:
33,110,53872,2,0,P|17:178|49:230,1,100
111,343,54172,1,0,0:0:0:0:
111,343,54472,5,0,0:0:0:0:
209,325,54622,1,0,0:0:0:0:
141,252,54772,2,0,P|188:230|260:235,1,100
205,147,55072,2,0,P|292:161|326:232,1,150
378,273,55372,2,0,L|410:164,1,100
403,85,55672,2,0,P|477:116|451:256,1,200
256,31,56122,1,0,0:0:0:0:
164,255,56572,6,0,P|165:321|195:361,1,100
281,361,56872,1,0,0:0:0:0:
256,264,57022,1,0,0:0:0:0:
223,169,57172,2,0,P|282:169|345:212,1,100
446,350,57472,2,0,P|476:284|468:236,1,100
443,45,57772,2,0,P|473:111|465:159,1,100
475,259,58072,5,0,0:0:0:0:
430,348,58222,1,0,0:0:0:0:
372,266,58372,1,0,0:0:0:0:
320,351,58522,1,0,0:0:0:0:
274,261,58672,2,0,P|233:310|220:364,1,100
162,262,58972,5,0,0:0:0:0:
227,186,59122,1,0,0:0:0:0:
127,185,59272,2,0,P|144:134|184:99,1,100
100,61,59572,2,0,P|69:103|46:165,1,100
26,245,59872,1,0,0:0:0:0:
340,106,60172,1,0,0:0:0:0:
277,355,60472,6,0,P|346:313|419:324,1,150
384,363,60772,2,0,L|412:195,1,150
416,165,61072,1,0,0:0:0:0:
431,66,61222,1,0,0:0:0:0:
506,131,61372,1,0,0:0:0:0:
495,230,61522,6,0,P|424:254|348:200,1,150
346,172,61822,1,0,0:0:0:0:
373,75,61972,2,0,P|290:88|250:128,1,100
228,223,62272,1,0,0:0:0:0:
230,23,62572,1,0,0:0:0:0:
230,155,62872,6,0,L|230:283,1,100
228,353,63172,1,0,0:0:0:0:
138,308,63322,1,0,0:0:0:0:
97,216,63472,1,0,0:0:0:0:
351,20,63772,1,0,0:0:0:0:
255,293,64072,6,0,P|307:351|387:318,1,150
406,301,64372,1,0,0:0:0:0:
460,216,64522,1,0,0:0:0:0:
465,116,64672,1,0,0:0:0:0:
380,170,64822,2,0,B|356:165|356:133|356:133|401:103|394:49|394:49|377:14|323:21,1,200
279,91,65272,6,0,P|295:210|341:251,1,150
356,250,65572,1,0,0:0:0:0:
278,312,65722,1,0,0:0:0:0:
192,260,65872,1,0,0:0:0:0:
138,344,66022,1,0,0:0:0:0:
60,280,66172,1,0,0:0:0:0:
115,197,66322,1,0,0:0:0:0:
16,212,66472,2,0,P|25:139|47:114,2,100
115,197,66922,2,0,L|191:237,2,50
447,334,67672,6,0,B|468:306|457:274|457:274|415:296,1,89.9999972534181
366,346,67972,2,0,P|344:277|387:211,1,134.999995880127
412,206,68272,1,0,0:0:0:0:
413,76,68497,2,0,L|340:60,1,44.999998626709
274,43,68722,1,0,0:0:0:0:
182,99,68872,2,0,P|162:50|177:-1,1,89.9999972534181
85,52,69172,2,0,P|93:93|139:162,1,89.9999972534181
24,138,69472,6,0,P|59:210|142:221,1,134.999995880127
137,233,69772,2,0,P|83:270|36:359,1,134.999995880127
71,352,70072,1,0,0:0:0:0:
248,344,70222,1,0,0:0:0:0:
150,349,70372,1,0,0:0:0:0:
205,267,70522,1,0,0:0:0:0:
263,186,70672,2,0,L|360:181,1,89.9999972534181
317,349,70972,2,0,L|406:344,1,89.9999972534181
475,251,71272,5,0,0:0:0:0:
263,53,71572,1,0,0:0:0:0:
314,259,71772,1,0,0:0:0:0:
30,32,72022,1,0,0:0:0:0:
219,169,72172,5,0,0:0:0:0:
0,252,72322,1,0,0:0:0:0:
112,79,72472,1,0,0:0:0:0:
141,300,72622,1,0,0:0:0:0:
5,121,72772,2,0,L|64:160,2,44.999998626709
23,347,73072,1,0,0:0:0:0:
366,255,73372,1,0,0:0:0:0:
252,85,73672,2,0,B|320:161|320:161|351:147|351:114,1,150
342,79,73972,1,0,0:0:0:0:
124,273,74272,1,0,0:0:0:0:
219,351,74422,5,0,0:0:0:0:
312,316,74572,1,0,0:0:0:0:
406,282,74722,1,0,0:0:0:0:
500,248,74872,1,0,0:0:0:0:
219,352,75172,1,0,0:0:0:0:
33,98,75622,1,0,0:0:0:0:
152,106,75772,2,0,P|141:153|80:203,1,100
212,35,76072,2,0,P|239:127|226:162,1,100
216,315,76372,2,0,P|243:223|230:188,1,100
106,190,76672,2,0,P|73:226|131:362,1,200
153,288,77122,5,0,0:0:0:0:
187,270,77272,2,0,P|254:284|269:367,1,150
210,334,77572,2,0,L|340:193,1,150
339,194,77872,5,0,0:0:0:0:
69,68,78172,1,0,0:0:0:0:
397,141,78472,2,0,P|413:93|408:40,1,100
243,48,78772,2,0,P|292:59|334:92,1,100
243,228,79072,2,0,P|259:180|254:127,1,100
151,273,79372,2,0,P|231:332|327:289,1,200
104,212,79972,5,0,0:0:0:0:
381,261,80272,1,0,0:0:0:0:
94,141,80572,1,0,0:0:0:0:
442,218,80872,1,0,0:0:0:0:
271,29,81172,1,0,0:0:0:0:
244,359,81472,1,0,0:0:0:0:
132,197,81772,2,0,P|118:249|123:306,1,100
230,167,82072,2,0,P|183:113|88:110,1,150
132,197,82372,2,0,P|176:258|301:246,1,200
266,78,82972,5,0,0:0:0:0:
341,312,83272,1,0,0:0:0:0:
338,43,83572,1,0,0:0:0:0:
408,350,83872,1,0,0:0:0:0:
217,193,84172,1,0,0:0:0:0:
447,274,84472,5,0,0:0:0:0:
187,267,84772,1,0,0:0:0:0:
484,199,85072,1,0,0:0:0:0:
141,335,85372,1,0,0:0:0:0:
318,80,85672,2,0,B|217:71|181:96|181:96|242:154,1,200
322,217,86272,2,0,B|382:109|382:109|334:58|166:80|181:100|181:100|236:148,1,400
226,243,87022,5,0,0:0:0:0:
151,322,87172,2,0,P|124:282|126:202,1,100
226,243,87472,2,0,P|253:283|251:363,1,100
117,231,87772,2,0,P|90:191|92:111,1,100
259,332,88072,1,0,0:0:0:0:
140,82,88372,1,0,0:0:0:0:
336,352,88672,1,0,0:0:0:0:
187,20,88972,6,0,P|218:83|69:49,1,350
140,83,89572,2,0,L|45:223,1,150
29,238,89872,1,0,0:0:0:0:
223,157,90172,1,0,0:0:0:0:
76,320,90472,2,0,P|142:341|143:253,1,150
127,252,90772,1,0,0:0:0:0:
319,357,91072,1,0,0:0:0:0:
119,168,91372,1,0,0:0:0:0:
212,165,91522,1,0,0:0:0:0:
158,87,91672,6,0,P|243:80|302:129,1,150
303,154,91972,1,0,0:0:0:0:
303,154,92272,2,0,P|195:190|359:244,1,400
270,237,93022,1,0,0:0:0:0:
444,180,93172,1,0,0:0:0:0:
130,157,93472,1,0,0:0:0:0:
56,231,93772,6,0,P|26:160|60:78,1,150
72,72,94072,1,0,0:0:0:0:
170,319,94372,1,0,0:0:0:0:
390,320,94672,2,0,B|457:317|457:317|441:236|345:184|245:246,1,300
390,320,95272,2,0,B|457:317|457:317|441:236|346:184|250:245|250:245|236:258|233:274,1,359.999989013672
390,320,95872,2,0,B|457:317|457:317|441:236|346:184|250:245|250:245|236:259|233:273|233:273|249:308|284:324,1,419.999987182618
466,194,96472,1,0,0:0:0:0:
466,194,96772,6,0,P|412:135|407:83,1,100
491,23,97072,2,0,P|497:102|469:146,1,100
365,205,97372,2,0,P|285:204|243:172,1,100
273,52,97672,2,0,P|319:117|318:169,1,100
191,166,97972,2,0,P|203:245|241:281,1,100
350,246,98272,2,0,P|315:210|268:195,1,100
72,188,98572,1,0,0:0:0:0:
129,103,98722,1,0,0:0:0:0:
173,194,98872,2,0,P|143:262|66:288,1,150
72,188,99172,6,0,L|210:306,1,150
214,308,99472,1,0,0:0:0:0:
239,82,99772,1,0,0:0:0:0:
297,331,100072,1,0,0:0:0:0:
165,32,100372,1,0,0:0:0:0:
381,360,100672,1,0,0:0:0:0:
84,194,100972,1,0,0:0:0:0:
446,306,101272,2,0,P|361:277|301:338,1,150
293,340,101572,5,0,0:0:0:0:
333,117,101872,1,0,0:0:0:0:
480,221,102172,2,0,B|435:210|450:173|450:173|481:104|436:48,1,200
307,251,102772,5,0,0:0:0:0:
213,38,103072,1,0,0:0:0:0:
32,221,103372,2,0,B|77:210|62:173|62:173|31:104|76:48,1,200
257,324,103972,2,0,P|312:281|198:306,1,350
246,254,104572,1,0,0:0:0:0:
389,127,104872,2,0,B|310:42|192:39|192:39|192:83|227:124,1,300
389,127,105472,2,0,B|310:42|192:39|192:39|192:126|321:188,1,400
457,261,106222,6,0,L|415:233,2,50
204,332,106672,1,0,0:0:0:0:
97,240,106972,2,0,P|145:212|175:162,1,100
25,185,107272,2,0,P|13:235|36:310,1,100
94,158,107572,2,0,P|82:108|105:33,1,100
297,165,107872,1,0,0:0:0:0:
134,358,108172,2,0,P|192:220|295:333,1,350
261,346,108772,5,0,0:0:0:0:
450,179,109072,1,0,0:0:0:0:
172,342,109372,1,0,0:0:0:0:
481,100,109672,1,0,0:0:0:0:
94,312,109972,1,0,0:0:0:0:
504,19,110272,1,0,0:0:0:0:
362,349,110572,1,0,0:0:0:0:
257,76,110872,2,0,P|270:196|131:112,1,350
209,144,111472,2,0,B|118:337|118:337|283:303,1,350
284,304,112072,2,0,B|396:283|396:283|229:106|229:106|209:143,1,400
184,314,112972,6,0,L|152:202,1,100
111,77,113272,2,0,B|89:33|32:27|32:27|23:133|45:201|45:201|58:222|82:221,1,300
111,77,113872,2,0,B|133:33|190:27|190:27|199:133|177:201|177:201|164:222|140:221,1,300
111,77,114472,2,0,B|89:33|32:27|32:27|23:133|45:201|45:201|63:238|104:202,1,330.000010070801
111,77,115072,2,0,B|133:33|190:27|190:27|199:133|177:201|177:201|159:238|118:202,1,330.000010070801
68,137,115672,5,0,0:0:0:0:
168,137,115822,1,0,0:0:0:0:
259,95,115972,1,0,0:0:0:0:
240,193,116122,1,0,0:0:0:0:
315,258,116272,2,0,L|368:158,1,100
448,119,116572,2,0,L|489:19,2,100
444,318,117172,1,0,0:0:0:0:
391,232,117322,1,0,0:0:0:0:
339,146,117472,1,0,0:0:0:0:
254,366,117772,1,0,0:0:0:0:
56,334,118072,6,0,B|90:241|177:187|177:187|116:111|20:137,1,350
42,183,118672,1,0,0:0:0:0:
341,365,118972,1,0,0:0:0:0:
329,178,119272,6,0,B|307:153|322:121|322:121|342:102|378:113,1,100
413,192,119572,1,0,0:0:0:0:
249,306,119872,2,0,B|271:281|256:249|256:249|236:230|200:241,1,100
162,357,120172,1,0,0:0:0:0:
133,225,120322,5,0,0:0:0:0:
59,293,120472,2,0,P|32:244|44:181,1,100
112,137,120772,2,0,P|139:88|127:25,1,100
40,74,121072,1,0,0:0:0:0:
347,166,121372,1,0,0:0:0:0:
29,153,121672,1,0,0:0:0:0:
219,215,121972,6,0,P|271:271|273:311,1,100
174,300,122272,1,0,0:0:0:0:
103,162,122422,1,0,0:0:0:0:
49,362,122572,1,0,0:0:0:0:
257,75,122872,6,0,P|180:71|148:95,1,100
103,162,123172,2,0,P|179:158|211:182,1,100
258,248,123472,2,0,P|181:244|149:268,2,100
220,341,123922,1,0,0:0:0:0:
357,280,124072,1,0,0:0:0:0:
435,342,124222,1,0,0:0:0:0:
450,243,124372,1,0,0:0:0:0:
93,101,124672,1,0,0:0:0:0:
334,94,125122,6,0,L|379:38,2,50
177,255,125572,2,0,P|138:194|138:160,1,100
235,182,125872,1,0,0:0:0:0:
199,88,126022,1,0,0:0:0:0:
103,57,126172,1,0,0:0:0:0:
53,143,126322,2,0,P|41:217|46:263,1,100
11,349,126622,2,0,P|85:342|129:326,1,100
397,273,127072,1,0,0:0:0:0:
425,137,127372,6,0,B|326:163|326:163|289:121|320:68,1,200
226,115,127822,1,0,0:0:0:0:
135,157,127972,2,0,B|163:108|126:66|126:66|27:92,1,200
32,240,128572,2,0,B|67:205|67:205|94:288|178:267,1,150
172,238,128872,2,0,P|124:308|152:382,1,150
103,361,129172,2,0,P|41:335|50:199,1,200
155,56,129772,5,0,0:0:0:0:
154,155,129922,1,0,0:0:0:0:
157,254,130072,1,0,0:0:0:0:
233,318,130222,1,0,0:0:0:0:
233,218,130372,2,0,P|286:237|333:298,1,100
317,366,130672,1,0,0:0:0:0:
407,323,130822,1,0,0:0:0:0:
407,223,130972,1,0,0:0:0:0:
251,67,131272,6,0,P|203:79|174:119,1,100
257,159,131572,1,0,0:0:0:0:
338,62,131722,1,0,0:0:0:0:
240,336,132172,6,0,P|192:323|162:284,1,100
170,184,132472,1,0,0:0:0:0:
171,84,132622,2,0,L|76:27,2,100
254,138,133072,1,0,0:0:0:0:
263,38,133222,1,0,0:0:0:0:
342,99,133372,2,0,L|368:-2,1,100
449,59,133672,5,0,0:0:0:0:
427,156,133822,1,0,0:0:0:0:
339,204,133972,2,0,P|381:243|445:252,1,100
427,156,134272,2,0,L|296:105,1,120
292,145,134572,2,0,L|161:94,1,120
132,83,134872,5,0,0:0:0:0:
149,181,135022,1,0,0:0:0:0:
171,278,135172,1,0,0:0:0:0:
246,212,135322,1,0,0:0:0:0:
149,181,135472,1,0,0:0:0:0:
72,245,135622,1,0,0:0:0:0:
54,141,135772,2,0,P|87:102|137:82,1,100
228,105,136072,5,0,0:0:0:0:
228,232,136222,1,0,0:0:0:0:
301,60,136372,1,0,0:0:0:0:
295,285,136522,1,0,0:0:0:0:
172,167,136672,1,0,0:0:0:0:
172,167,137272,5,0,0:0:0:0:
78,276,137422,1,0,0:0:0:0:
109,76,137572,1,0,0:0:0:0:
178,270,137722,1,0,0:0:0:0:
232,90,137872,2,0,P|258:144|263:198,1,100
209,363,138172,2,0,P|183:309|178:255,1,100
292,351,138472,1,0,0:0:0:0:
308,252,138622,1,0,0:0:0:0:
376,179,138772,2,0,P|401:202|406:273,1,100
305,138,139072,2,0,P|338:102|387:96,1,100
491,224,139372,2,0,P|457:259|408:265,1,100
311,235,139672,5,0,0:0:0:0:
217,199,139822,1,0,0:0:0:0:
203,298,139972,2,0,P|151:288|88:305,2,100
297,332,140422,1,0,0:0:0:0:
311,235,140572,1,0,0:0:0:0:
321,135,140722,1,0,0:0:0:0:
440,257,140872,5,0,0:0:0:0:
273,52,141022,1,0,0:0:0:0:
505,169,141172,1,0,0:0:0:0:
311,235,141322,1,0,0:0:0:0:
428,24,141472,1,0,0:0:0:0:
324,168,142072,6,0,P|288:200|230:207,1,100
159,148,142372,1,0,0:0:0:0:
160,291,142522,1,0,0:0:0:0:
83,133,142672,1,0,0:0:0:0:
234,320,142822,1,0,0:0:0:0:
65,235,142972,1,0,0:0:0:0:
295,271,143122,1,0,0:0:0:0:
178,101,143272,5,0,0:0:0:0:
126,321,143422,1,0,0:0:0:0:
284,147,143572,1,0,0:0:0:0:
83,193,143722,1,0,0:0:0:0:
219,358,143872,2,0,P|220:296|194:253,1,100
164,191,144172,2,0,P|144:145|148:96,1,100
240,137,144472,5,0,0:0:0:0:
231,37,144622,1,0,0:0:0:0:
317,86,144772,2,0,P|336:131|332:180,1,100
273,261,145072,2,0,P|318:280|367:276,1,100
468,274,145372,2,0,P|454:226|419:191,1,100
369,277,145672,5,0,0:0:0:0:
312,359,145822,1,0,0:0:0:0:
257,274,145972,1,0,0:0:0:0:
209,361,146122,2,0,P|177:327|158:250,1,100
129,202,146422,2,0,P|101:222|79:244,1,40
67,252,146572,1,0,0:0:0:0:
35,157,146722,1,0,0:0:0:0:
120,104,146872,6,0,P|171:117|223:167,1,100
255,233,147172,1,0,0:0:0:0:
305,146,147322,1,0,0:0:0:0:
240,69,147472,1,0,0:0:0:0:
375,74,147622,1,0,0:0:0:0:
167,146,147772,1,0,0:0:0:0:
444,150,147922,1,0,0:0:0:0:
303,277,148072,6,0,L|304:171,1,100
306,34,148372,2,0,L|305:140,1,100
170,340,148672,1,0,0:0:0:0:
393,205,148822,1,0,0:0:0:0:
201,200,148972,1,0,0:0:0:0:
409,347,149122,1,0,0:0:0:0:
300,339,149572,6,0,P|270:353|228:362,2,50
201,200,149872,2,0,P|264:230|295:260,1,100
162,353,150172,2,0,P|131:289|125:247,1,100
119,160,150472,1,0,0:0:0:0:
120,60,150622,1,0,0:0:0:0:
36,114,150772,2,0,P|33:193|61:233,1,100
214,154,151072,2,0,P|165:144|118:159,1,100
162,288,151372,5,0,0:0:0:0:
460,164,151672,1,0,0:0:0:0:
134,358,151972,1,0,0:0:0:0:
491,96,152272,1,0,0:0:0:0:
459,236,152422,2,0,P|416:301|319:285,1,160
363,211,152872,5,0,0:0:0:0:
268,350,153022,1,0,0:0:0:0:
330,137,153172,1,0,0:0:0:0:
191,363,153322,1,0,0:0:0:0:
285,68,153472,2,0,P|250:125|279:199,1,150
330,137,153772,2,0,P|231:121|198:229,1,200
157,182,173272,6,0,P|209:133|247:122,1,100
252,222,173572,1,0,0:0:0:0:
61,161,173872,2,0,P|93:97|125:73,1,100
204,37,174172,2,0,P|275:32|311:48,1,100
246,127,174472,2,0,P|232:174|240:223,1,100
331,183,174772,2,0,P|377:165|412:129,1,100,0|0,2:0|2:0,2:0:0:0:
321,86,175072,1,0,0:0:0:0:
324,327,175372,1,0,0:0:0:0:
511,346,175672,2,0,P|475:312|414:281,1,100
321,323,175972,5,0,0:0:0:0:
510,223,176272,1,0,0:0:0:0:
268,207,176572,1,0,0:0:0:0:
500,81,176872,1,0,0:0:0:0:
391,304,177172,1,0,0:0:0:0:
331,50,177472,1,0,0:0:0:0:
503,206,177772,1,0,0:0:0:0:
292,121,178072,2,0,P|249:71|258:17,1,100
183,124,178372,6,0,P|193:172|142:223,1,100
68,191,178672,2,0,P|116:181|167:232,1,100
138,305,178972,2,0,P|186:315|237:264,1,100
264,195,179272,1,0,0:0:0:0:
463,192,179572,6,0,P|420:142|429:88,1,100
336,165,179872,2,0,P|346:213|295:264,1,100
221,232,180172,2,0,P|269:222|320:273,1,100
252,331,180472,2,0,B|144:336|49:286|49:286|75:238|145:237,1,300
252,331,181072,2,0,B|144:336|49:286|49:286|83:226|191:236,1,359.999989013672
252,331,181672,2,0,B|144:336|49:286|49:286|93:211|259:244,1,419.999987182618
252,331,182272,2,0,B|144:336|49:286|49:286|104:195|338:263,1,480
348,339,182872,6,0,P|401:287|387:203,1,150
435,246,183172,2,0,P|382:194|417:75,1,200
145,199,183772,1,0,0:0:0:0:
439,34,184072,1,0,0:0:0:0:
298,210,184372,1,0,0:0:0:0:
64,126,184672,1,0,0:0:0:0:
374,137,184972,2,0,P|403:212|202:254,1,350
300,209,185572,5,0,0:0:0:0:
125,277,185872,1,0,0:0:0:0:
219,52,186172,1,0,0:0:0:0:
177,345,186472,1,0,0:0:0:0:
69,199,186772,2,0,P|28:252|30:298,1,100
163,196,187072,2,0,P|137:133|96:112,1,100
11,119,187372,2,0,P|49:41|134:24,1,150
153,29,187672,2,0,B|233:12|298:47|298:47|196:103|207:220,1,350
292,182,188272,2,0,P|179:126|119:189,1,200
292,182,188872,6,0,P|179:126|121:244,1,239.999992675781
292,182,189472,2,0,P|179:126|128:259,1,279.999991455078
395,281,190072,6,0,B|439:241|426:188|426:188|326:220|277:312,1,300
395,281,190672,2,0,B|439:241|426:188|426:188|337:212|278:309|278:309|266:356|304:379,1,359.999989013672
395,281,191272,2,0,B|439:241|426:188|426:188|337:212|278:309|278:309|268:355|296:368|296:368|342:383|370:354,1,419.999987182618
395,281,191872,2,0,B|439:241|426:188|426:188|337:212|278:309|278:309|268:355|296:368|296:368|324:378|352:369|352:369|479:352|504:223,1,640
498,134,192622,1,0,0:0:0:0:
398,125,192772,6,0,P|421:70|468:39,1,100
497,133,193072,2,0,P|472:175|429:200,1,100
340,195,193372,2,0,P|334:275|303:348,1,150
248,257,193672,2,0,P|216:315|149:355,1,100
150,253,193972,2,0,P|93:287|15:288,1,100,0|0,2:0|2:0,2:0:0:0:
111,187,194272,2,0,P|165:150|199:79,1,100,0|0,2:0|2:0,2:0:0:0:
77,39,194572,2,0,P|34:94|47:234,1,200
189,349,195172,5,0,0:0:0:0:
97,147,195472,1,0,0:0:0:0:
278,353,195772,1,0,0:0:0:0:
119,69,196072,1,0,0:0:0:0:
12,300,196372,1,0,0:0:0:0:
302,231,196672,1,0,0:0:0:0:
197,66,196972,2,0,P|157:136|141:224,1,150
232,162,197272,6,0,P|119:124|61:132,1,150
70,193,197572,2,0,P|95:138|5:25,1,200
34,267,198172,1,0,0:0:0:0:
99,27,198472,1,0,0:0:0:0:
75,333,198772,1,0,0:0:0:0:
286,180,199072,1,0,0:0:0:0:
12,143,199372,1,0,0:0:0:0:
240,344,199672,6,0,P|276:303|283:253,1,100
79,181,199972,1,0,0:0:0:0:
240,344,200272,2,0,P|276:303|283:253,1,100
51,165,200572,1,0,0:0:0:0:
240,344,200872,2,0,P|276:303|283:253,1,100
13,137,201172,1,0,0:0:0:0:
240,344,201472,2,0,P|278:295|144:134,1,300
6,357,202072,1,0,0:0:0:0:
289,259,202372,6,0,P|264:318|220:359,1,100
210,194,202672,2,0,P|280:162|376:200,1,150
373,204,202972,1,0,0:0:0:0:
257,37,203272,1,0,0:0:0:0:
380,282,203572,1,0,0:0:0:0:
177,22,203872,1,0,0:0:0:0:
457,141,204172,2,0,P|382:136|316:191,1,150
323,219,204472,1,0,0:0:0:0:
150,85,204772,6,0,B|189:173|189:173|151:206|109:189,1,150
99,188,205072,1,0,0:0:0:0:
227,56,205372,2,0,L|274:171,1,100
352,360,205672,1,0,0:0:0:0:
312,29,205972,1,0,0:0:0:0:
135,215,206272,2,0,P|179:268|191:331,1,100
55,178,206572,2,0,P|90:143|136:124,1,100
254,110,206872,6,0,P|337:126|380:190,1,150
374,214,207172,1,0,0:0:0:0:
374,214,207472,2,0,P|260:218|403:315,1,400
320,285,208222,1,0,0:0:0:0:
503,278,208372,1,0,0:0:0:0:
207,169,208672,1,0,0:0:0:0:
114,216,208972,6,0,P|104:139|160:70,1,150
212,58,209272,1,0,0:0:0:0:
55,278,209572,1,0,0:0:0:0:
254,210,209872,2,0,B|313:213|353:242|353:242|281:317|159:317,1,300
254,210,210472,2,0,B|195:213|155:242|155:242|227:317|341:317|341:317|378:317|406:283,1,359.999989013672
254,210,211072,2,0,B|313:213|353:242|353:242|281:317|171:336|171:336|101:302|52:250|60:155|133:123,1,559.999982910157
169,201,211822,1,0,0:0:0:0:
190,108,211972,6,0,P|153:67|80:54,1,100
168,200,212272,2,0,P|216:211|264:197,1,100,0|0,0:0|0:0,3:0:0:0:
368,95,212572,2,0,P|319:84|272:98,1,100,0|0,0:0|0:0,3:0:0:0:
330,273,212872,2,0,P|360:226|353:152,1,100
235,275,213172,2,8,P|252:327|313:369,1,100,0|0,0:0|0:0,0:0:0:0:
243,179,213472,2,0,P|197:193|136:258,1,110.000003356934
61,356,213772,2,0,P|74:293|56:234,1,119.999996337891
24,133,214072,2,0,L|126:99,1,100
241,62,214372,5,0,0:0:0:0:
103,193,214672,1,0,0:0:0:0:
322,31,214972,1,0,0:0:0:0:
65,270,215272,1,0,0:0:0:0:
357,266,215572,1,0,0:0:0:0:
93,66,215872,1,0,0:0:0:0:
415,311,216172,1,0,0:0:0:0:
371,136,216472,2,0,P|320:158|271:204,1,100
285,342,216772,6,0,P|261:286|148:260,1,150
80,342,217072,2,0,P|104:286|217:260,1,150
182,343,217372,2,0,L|183:141,1,200
345,31,217972,6,0,P|383:101|381:174,1,150
274,126,218272,2,0,P|362:149|405:228,1,150
494,79,218572,2,0,L|379:212,1,150
372,225,218872,2,0,B|429:226|481:245|481:245|421:333|283:308,1,300
251,171,219472,2,0,B|227:98|187:53|187:53|158:84|147:129,1,200
154,241,219922,1,0,0:0:0:0:
154,373,220072,2,0,B|98:377|43:354|43:354|20:252|157:240,1,300
255,363,220672,2,0,B|142:391|43:354|43:354|20:252|157:240,1,400
321,217,221422,6,0,L|243:224,2,50
394,142,221722,1,0,0:0:0:0:
299,108,221872,2,0,P|341:51|388:40,1,100
420,242,222172,1,0,0:0:0:0:
290,325,222472,2,0,P|346:343|424:328,1,100
293,220,222772,2,0,P|237:202|159:217,1,100
300,117,223072,2,0,P|300:67|283:20,1,100
129,146,223372,2,0,P|128:96|145:49,1,100
300,117,223672,1,0,0:0:0:0:
70,270,223972,5,0,0:0:0:0:
369,152,224272,1,0,0:0:0:0:
38,347,224572,1,0,0:0:0:0:
394,75,224872,1,0,0:0:0:0:
238,355,225172,1,0,0:0:0:0:
58,80,225472,2,0,P|43:154|67:214,1,100
227,352,225772,2,0,P|242:278|218:218,1,100
161,94,226072,6,0,P|224:74|276:87,1,100
149,239,226372,1,0,0:0:0:0:
256,78,226672,2,0,P|308:118|327:168,1,100
78,213,226972,1,0,0:0:0:0:
304,241,227272,6,0,P|324:196|323:147,1,100
87,285,227572,1,0,0:0:0:0:
323,147,227872,2,0,P|297:104|256:78,1,100
155,316,228172,1,0,0:0:0:0:
383,313,228472,6,0,B|458:304|467:234|467:234|368:234|319:142,1,300
465,238,229072,2,0,B|458:305|383:312|383:312|293:290|234:187,1,300
465,238,229672,2,0,B|458:305|383:312|383:312|295:286|245:206|245:206|258:165|303:146,1,359.999989013672
465,238,230272,2,0,B|458:305|383:312|383:312|295:286|245:206|245:206|258:165|292:157|292:157|333:155|376:171,1,419.999987182618
382,224,230872,2,0,B|434:196|446:114|386:57|301:73|233:97,1,280,0|0,0:3|0:3,0:3:0:0:
215,115,231472,5,0,0:0:0:0:
206,268,231772,2,0,P|165:202|130:185,1,100
67,364,232072,2,0,L|122:266,1,100
284,350,232372,1,0,0:0:0:0:
391,209,232672,6,0,P|352:178|304:169,1,100
389,309,232972,2,0,P|437:300|477:270,1,100
181,26,233272,1,0,0:0:0:0:
203,350,233572,1,0,0:0:0:0:
70,109,233872,6,0,P|150:118|189:147,1,100
142,302,234172,2,0,P|112:261|101:213,1,100
258,226,234472,1,0,0:0:0:0:
160,25,234772,1,0,0:0:0:0:
329,192,235072,6,0,P|371:166|400:126,1,100
161,210,235372,2,0,P|203:310|301:307,1,200
160,123,235972,1,0,0:0:0:0:
363,346,236272,1,0,0:0:0:0:
185,44,236572,1,0,0:0:0:0:
443,359,236872,1,0,0:0:0:0:
265,80,237172,1,0,0:0:0:0:
452,275,237472,1,0,0:0:0:0:
354,90,237772,1,0,0:0:0:0:
456,188,238072,5,0,0:0:0:0:
450,95,238372,2,0,L|333:212,1,150
290,251,238672,2,0,P|221:255|233:174,1,150
273,144,238972,2,0,P|265:76|197:81,1,150
138,145,239272,2,0,B|110:184|101:224|101:224|9:116|99:27,1,300
138,145,239872,2,0,B|110:184|101:224|101:224|10:117|96:32|96:32|134:36|148:68,1,359.999989013672
192,196,240472,6,0,P|169:257|180:340,1,150
252,298,240772,2,0,P|248:268|278:229,1,50
392,177,241072,2,0,P|382:224|390:288,1,100
492,171,241372,2,0,P|453:99|367:77,1,150
357,81,241672,1,0,0:0:0:0:
237,136,241822,1,0,0:0:0:0:
250,41,241972,1,0,0:0:0:0:
152,152,242272,6,0,P|201:216|277:215,1,150
301,187,242572,2,0,P|259:258|309:373,1,200
366,278,243022,1,0,0:0:0:0:
429,363,243172,2,0,P|465:317|468:259,1,100
412,196,243472,6,0,P|409:137|441:88,1,100
289,208,243772,1,0,0:0:0:0:
242,110,243922,1,0,0:0:0:0:
168,340,244222,1,0,0:0:0:0:
90,270,244372,1,0,0:0:0:0:
109,89,244672,6,0,P|171:138|209:215,1,150
274,143,244972,2,0,P|212:192|174:269,1,150
181,303,245272,5,0,0:0:0:0:
351,149,245572,1,0,0:0:0:0:
354,356,245872,5,0,0:0:0:0:
276,210,246172,1,0,0:0:0:0:
351,149,246322,1,0,0:0:0:0:
233,343,246622,1,0,0:0:0:0:
158,282,246772,1,0,0:0:0:0:
182,65,247072,6,0,P|128:64|68:107,1,100
109,179,247372,2,0,P|77:223|78:297,1,100
348,252,247672,2,0,B|328:250|312:229|312:229|326:172|384:119|384:119|325:55|277:117,1,300
405,209,248272,2,0,B|409:193|485:133|485:133|435:27|329:0,1,300
296,201,248872,2,0,P|334:140|214:202,1,359.999989013672
252,236,249472,2,0,P|318:208|219:231,1,559.999982910157
