osu file format v14

[General]
AudioFilename: audio.mp3
AudioLeadIn: 0
PreviewTime: 44408
Countdown: 0
SampleSet: Soft
StackLeniency: 0.7
Mode: 0
LetterboxInBreaks: 0
WidescreenStoryboard: 0

[Editor]
Bookmarks: 140033
DistanceSpacing: 1.3
BeatDivisor: 8
GridSize: 8
TimelineZoom: 2.799999

[Metadata]
Title:Samishii Kamisama
TitleUnicode:さみしいかみさま
Artist:DAOKO
ArtistUnicode:DAOKO
Creator:Uta
Version:I AM
Source:
Tags:another side of the girl nihon animator mihonichi japanese pop j-pop jpop double a side toy's factory kojima hideya oresama underforest shurelia
BeatmapID:2195244
BeatmapSetID:1050382

[Difficulty]
HPDrainRate:6
CircleSize:4
OverallDifficulty:8
ApproachRate:9
SliderMultiplier:2
SliderTickRate:1

[Events]
//Background and Video events
0,0,"IMG_20191012_225439.jpg",0,0
//Break Periods
2,119608,126308
//Storyboard Layer 0 (Background)
//Storyboard Layer 1 (Fail)
//Storyboard Layer 2 (Pass)
//Storyboard Layer 3 (Foreground)
//Storyboard Layer 4 (Overlay)
//Storyboard Sound Samples

[TimingPoints]
14408,468.75,4,2,1,50,1,0
29408,-58.8235294117647,4,2,1,85,0,1
44408,-100,4,2,1,55,0,0
58470,-100,4,2,1,60,0,0
59408,-83.3333333333333,4,2,1,65,0,0
62689,-100,4,2,1,65,0,0
65033,-83.3333333333333,4,2,1,65,0,0
70658,-100,4,2,1,65,0,0
72416,-83.3333333333333,4,2,1,65,0,0
74408,-125,4,2,1,65,0,0
85658,-500,4,2,1,65,0,0
89408,-58.8235294117647,4,2,1,85,0,1
119408,-58.8235294117647,4,2,1,65,0,0
126908,-142.857142857143,4,2,1,40,0,0
141908,-142.857142857143,4,2,1,50,0,0
153158,-250.000000000001,4,2,1,30,0,0
156908,-250.000000000001,4,2,1,45,0,0
160658,-100,4,2,1,65,0,0
162533,-58.8235294117647,4,2,1,85,0,1
201908,-100,4,2,1,65,0,0
231908,-58.8235294117647,4,2,1,85,0,1
245970,-58.8235294117647,4,2,1,40,0,1
246439,-100,4,2,1,35,0,0

[Colours]
Combo1 : 255,245,176
Combo2 : 255,128,255
Combo3 : 255,0,128
Combo4 : 157,223,255

[HitObjects]
219,205,14408,6,0,P|168:208|113:175,1,100,2|0,0:0|0:0,0:0:0:0:
280,131,14876,1,2,0:0:0:0:
280,131,15111,1,0,0:0:0:0:
285,265,15345,2,0,P|245:313|179:324,1,100,2|0,0:0|0:0,0:0:0:0:
347,196,15814,2,0,P|397:187|477:241,1,150,2|0,0:0|0:0,0:0:0:0:
512,278,16283,6,0,L|506:174,1,100,2|0,0:0|0:0,0:0:0:0:
391,279,16751,1,2,0:0:0:0:
402,161,16986,1,0,0:0:0:0:
312,297,17220,5,2,0:0:0:0:
291,146,17454,1,0,0:0:0:0:
398,287,17689,1,2,0:0:0:0:
398,287,18158,6,0,P|350:297|277:320,1,100,2|0,0:0|0:0,0:0:0:0:
102,269,18626,1,2,0:0:0:0:
199,131,18861,2,0,B|176:245|239:195|206:334,1,200,0|0,0:0|0:0,0:0:0:0:
292,176,19564,1,2,0:0:0:0:
292,176,19798,1,0,0:0:0:0:
130,271,20033,6,0,P|51:268|29:250,1,100,2|0,0:0|0:0,0:0:0:0:
185,197,20501,2,0,P|216:236|216:304,1,100,2|0,0:0|0:0,0:0:0:0:
97,197,20970,1,2,0:0:0:0:
130,271,21204,1,2,0:0:0:0:
36,257,21439,2,0,P|42:210|44:150,1,100,2|0,0:0|0:0,0:0:0:0:
130,51,21908,6,0,P|210:27|260:39,2,100,2|0|2,0:0|0:0|0:0,0:0:0:0:
51,148,22611,1,0,0:0:0:0:
133,67,22845,1,2,0:0:0:0:
133,67,23079,1,0,0:0:0:0:
191,217,23314,2,0,L|198:117,1,100,2|0,0:0|0:0,0:0:0:0:
374,151,23783,6,0,P|331:174|277:171,1,100,2|0,0:0|0:0,0:0:0:0:
236,31,24251,5,2,0:0:0:0:
312,96,24486,1,0,0:0:0:0:
133,86,24720,5,2,0:0:0:0:
110,175,24954,1,0,0:0:0:0:
273,275,25189,5,2,0:0:0:0:
250,186,25423,1,0,0:0:0:0:
87,302,25658,5,2,0:0:0:0:
256,192,25775,12,0,27533,0:0:0:0:
291,133,27767,6,0,L|267:138,26,25,0|0|0|0|0|0|0|0|0|0|0|0|0|0|0|0|0|0|0|0|0|0|0|0|0|0|0,0:0|0:0|0:0|0:0|0:0|0:0|0:0|0:0|0:0|0:0|0:0|0:0|0:0|0:0|0:0|0:0|0:0|0:0|0:0|0:0|0:0|0:0|0:0|0:0|0:0|0:0|0:0,0:0:0:0:
385,108,29408,6,0,L|362:295,1,170.000003242493,6|0,0:1|0:1,0:0:0:0:
322,353,29759,1,0,0:0:0:0:
266,251,29876,2,0,P|221:240|158:255,1,85.0000016212464,8|0,0:0|0:0,0:0:0:0:
322,353,30111,1,2,0:1:0:0:
323,353,30228,1,0,0:1:0:0:
324,353,30345,6,0,P|366:357|406:346,1,85.0000016212464,2|0,0:1|0:0,0:0:0:0:
401,203,30579,2,0,L|368:284,1,85.0000016212464,0|0,0:0|0:0,0:0:0:0:
475,312,30814,2,0,L|432:123,1,170.000003242493,8|0,0:0|0:0,0:0:0:0:
406,68,31165,1,0,0:0:0:0:
300,150,31283,6,0,P|197:159|149:91,1,170.000003242493,2|0,0:3|0:1,0:0:0:0:
228,5,31634,1,0,0:0:0:0:
228,5,31751,2,0,P|245:49|230:109,1,85.0000016212464,8|0,0:0|0:0,0:0:0:0:
81,168,31986,1,2,0:1:0:0:
81,168,32103,1,0,0:1:0:0:
81,168,32220,6,0,P|64:124|79:64,1,85.0000016212464,2|0,0:1|0:0,0:0:0:0:
150,30,32454,2,0,L|157:132,1,85.0000016212464,0|0,0:0|0:0,0:0:0:0:
287,182,32689,1,10,0:0:0:0:
249,191,32806,1,2,0:0:0:0:
245,288,32923,1,2,0:0:0:0:
286,294,33040,1,2,0:0:0:0:
153,261,33158,6,0,B|72:283|72:283|-24:222,1,170.000003242493,2|0,0:3|0:1,0:0:0:0:
170,166,33509,1,0,0:0:0:0:
170,166,33626,2,0,L|84:189,1,85.0000016212464,8|0,0:0|0:0,0:0:0:0:
73,367,33861,1,2,0:1:0:0:
73,367,33978,1,0,0:1:0:0:
73,367,34095,6,0,L|155:344,1,85.0000016212464,2|0,0:1|0:0,0:0:0:0:
222,225,34329,2,0,P|240:264|231:332,1,85.0000016212464,0|0,0:0|0:0,0:0:0:0:
305,375,34564,2,0,P|223:327|129:366,1,170.000003242493,8|0,0:0|0:0,0:0:0:0:
38,218,34915,1,0,0:0:0:0:
38,218,35033,6,0,P|69:257|189:212,1,170.000003242493,2|0,0:3|0:0,0:0:0:0:
116,155,35384,1,0,0:0:0:0:
196,233,35501,2,0,P|240:219|293:215,1,85.0000016212464,8|0,0:0|0:0,0:0:0:0:
404,142,35736,1,2,0:1:0:0:
404,142,35853,1,0,0:1:0:0:
404,142,35970,6,0,P|357:142|304:134,1,85.0000016212464,2|0,0:1|0:0,0:0:0:0:
269,307,36204,2,0,P|316:307|369:299,1,85.0000016212464,2|0,0:0|0:0,0:0:0:0:
444,228,36439,2,0,P|401:222|359:223,1,85.0000016212464,8|0,0:0|0:0,0:0:0:0:
241,154,36673,2,0,P|283:148|325:149,1,85.0000016212464,2|0,0:0|0:0,0:0:0:0:
189,248,36908,6,0,P|86:231|59:134,1,170.000003242493,6|0,0:1|0:1,0:0:0:0:
16,286,37259,1,0,0:0:0:0:
16,286,37376,2,0,P|36:322|36:375,1,85.0000016212464,8|0,0:0|0:0,0:0:0:0:
176,290,37611,1,2,0:1:0:0:
176,290,37728,1,0,0:1:0:0:
176,290,37845,6,0,P|156:326|156:379,1,85.0000016212464,2|0,0:1|0:0,0:0:0:0:
100,215,38079,2,0,L|104:112,1,85.0000016212464,0|0,0:0|0:0,0:0:0:0:
186,257,38314,1,10,0:0:0:0:
221,216,38431,1,2,0:0:0:0:
275,203,38548,1,2,0:0:0:0:
326,217,38665,1,2,0:0:0:0:
370,248,38783,6,0,B|356:171|356:171|390:128|356:67,1,170.000003242493,2|0,0:3|0:0,0:0:0:0:
259,185,39134,1,0,0:0:0:0:
259,185,39251,2,0,L|246:285,1,85.0000016212464,8|0,0:0|0:0,0:0:0:0:
299,348,39486,1,2,0:1:0:0:
350,267,39603,1,0,0:0:0:0:
268,353,39720,6,0,P|170:305|163:272,1,85.0000016212464,2|0,0:1|0:0,0:0:0:0:
206,199,39954,2,0,P|236:229|243:300,1,85.0000016212464,0|0,0:0|0:0,0:0:0:0:
142,271,40189,2,0,L|163:78,1,170.000003242493,8|0,0:0|0:0,0:0:0:0:
37,37,40540,1,0,0:0:0:0:
37,37,40658,6,0,L|52:140,1,85.0000016212464,2|2,0:3|0:1,0:0:0:0:
160,178,40892,2,0,L|145:281,1,85.0000016212464,0|0,0:0|0:0,0:0:0:0:
50,347,41126,2,0,L|37:262,1,85.0000016212464,8|0,0:0|0:0,0:0:0:0:
153,359,41361,1,2,0:1:0:0:
153,359,41478,1,0,0:0:0:0:
153,359,41595,6,0,P|197:376|264:360,1,85.0000016212464,2|0,0:1|0:0,0:0:0:0:
330,211,41829,2,0,P|306:250|302:304,1,85.0000016212464,0|0,0:0|0:0,0:0:0:0:
400,349,42064,2,0,L|372:124,1,170.000003242493,8|0,0:0|0:0,0:0:0:0:
363,176,42415,1,0,0:0:0:0:
300,288,42533,5,10,0:3:0:0:
265,309,42650,1,8,0:0:0:0:
222,304,42767,1,8,0:0:0:0:
194,280,42884,1,8,0:0:0:0:
178,248,43001,1,10,0:3:0:0:
183,215,43118,1,8,0:0:0:0:
199,154,43236,1,8,0:0:0:0:
205,189,43353,1,8,0:0:0:0:
210,223,43470,1,12,0:0:0:0:
436,236,44408,6,0,B|402:253|376:259|342:245|327:226|318:201|294:189|275:189|263:193|227:218,1,200,2|8,0:3|0:0,0:0:0:0:
490,159,45579,1,2,0:3:0:0:
442,52,45814,2,0,P|391:102|339:99,1,100,8|0,0:0|0:0,0:0:0:0:
221,0,46283,2,0,P|271:51|268:103,1,100,2|0,0:3|0:0,0:0:0:0:
132,169,46751,5,8,0:0:0:0:
230,212,46986,2,0,P|283:202|342:196,1,100,2|0,0:3|0:0,0:0:0:0:
151,162,47454,1,2,0:3:0:0:
170,286,47689,2,0,P|223:310|293:281,1,100,8|0,0:0|0:0,0:0:0:0:
328,196,48158,6,0,B|280:247|299:335|299:335|339:275,1,200,2|8,0:3|0:0,0:0:0:0:
327,291,49095,1,2,0:3:0:0:
241,326,49329,1,2,0:3:0:0:
410,348,49564,2,0,P|411:276|400:208,1,100,8|0,0:0|0:0,0:0:0:0:
312,97,50033,6,0,P|335:164|387:189,1,100,2|0,0:3|0:0,0:0:0:0:
400,102,50501,1,8,0:0:0:0:
323,258,50736,1,2,0:3:0:0:
323,258,51204,5,2,0:3:0:0:
323,218,51322,1,0,0:0:0:0:
323,178,51439,1,8,0:0:0:0:
323,298,51673,1,2,0:3:0:0:
415,161,51908,6,0,P|372:98|238:142,1,200,4|8,0:0|0:0,0:0:0:0:
259,110,53079,1,2,0:3:0:0:
384,240,53314,2,0,P|419:245|481:215,1,100,8|0,0:0|0:0,0:0:0:0:
291,222,53783,6,0,P|275:253|286:347,1,100,2|0,0:3|0:0,0:0:0:0:
354,281,54251,1,8,0:0:0:0:
187,332,54486,1,2,0:3:0:0:
173,313,54954,1,2,0:3:0:0:
340,364,55189,2,0,L|343:259,1,100,8|0,0:0|0:0,0:0:0:0:
420,196,55658,6,0,P|368:163|311:168,1,100,2|0,0:3|0:0,0:0:0:0:
186,245,56126,2,0,P|225:183|214:125,1,100,8|0,0:0|0:0,0:0:0:0:
137,69,56595,1,2,0:3:0:0:
293,86,56829,1,2,0:3:0:0:
130,176,57064,2,0,P|125:126|118:76,1,100,8|0,0:0|0:0,0:0:0:0:
286,0,57533,6,0,P|278:49|274:99,1,100,2|0,0:3|0:0,0:0:0:0:
299,181,58001,1,8,0:0:0:0:
122,69,58236,1,2,0:3:0:0:
122,69,58470,6,0,L|93:75,1,25,8|0,0:1|0:1,0:0:0:0:
117,75,58587,6,0,L|82:82,1,25,8|0,0:1|0:1,0:0:0:0:
112,81,58704,6,0,L|77:88,1,25,8|0,0:1|0:1,0:0:0:0:
109,89,58822,6,0,P|183:106|201:81,1,100,12|8,0:1|0:1,0:0:0:0:
235,26,59173,1,8,0:1:0:0:
235,26,59290,1,8,0:1:0:0:
235,26,59408,6,0,L|217:196,1,119.999996337891,4|0,0:0|0:0,0:0:0:0:
222,165,59759,1,2,0:0:0:0:
222,165,59876,2,0,L|240:246,1,59.9999981689454,2|0,0:3|0:0,0:0:0:0:
372,215,60111,2,0,L|305:193,1,59.9999981689454,0|0,0:0|0:0,0:0:0:0:
163,277,60345,6,0,P|226:316|303:282,1,119.999996337891,2|0,0:3|0:0,0:0:0:0:
343,248,60697,1,2,0:0:0:0:
364,266,60814,2,0,P|377:300|377:348,1,59.9999981689454,8|0,0:0|0:0,0:0:0:0:
480,377,61048,2,0,P|482:342|495:309,1,59.9999981689454,0|0,0:0|0:0,0:0:0:0:
358,367,61283,5,2,0:3:0:0:
321,362,61400,1,0,0:0:0:0:
284,357,61517,1,0,0:0:0:0:
247,352,61634,1,2,0:0:0:0:
210,347,61751,2,0,P|205:313|206:260,1,59.9999981689454,8|0,0:0|0:0,0:0:0:0:
115,232,61986,1,0,0:0:0:0:
115,232,62103,1,0,0:0:0:0:
115,232,62220,6,0,P|177:168|290:200,1,179.999994506836,2|2,0:3|0:0,0:0:0:0:
286,189,62689,2,0,P|258:244|277:300,1,100,8|0,0:0|0:0,0:0:0:0:
340,313,63040,5,2,0:0:0:0:
334,346,63157,2,0,P|287:372|201:346,1,100
340,251,63509,5,2,0:0:0:0:
346,284,63626,2,0,P|386:312|435:319,1,100,8|0,0:0|0:0,0:0:0:0:
362,83,64095,5,2,0:3:0:0:
345,178,64329,1,2,0:0:0:0:
458,57,64564,1,8,0:0:0:0:
458,57,64681,1,0,0:0:0:0:
458,57,64798,1,0,0:0:0:0:
485,205,65033,6,0,L|316:183,1,119.999996337891,2|0,0:3|0:0,0:0:0:0:
295,228,65384,1,2,0:0:0:0:
295,228,65501,2,0,P|321:257|363:268,1,59.9999981689454,8|0,0:0|0:0,0:0:0:0:
435,149,65736,2,0,P|409:120|367:109,1,59.9999981689454,2|0,0:0|0:0,0:0:0:0:
279,32,65970,5,2,0:3:0:0:
262,158,66204,1,0,0:0:0:0:
380,109,66439,1,8,0:0:0:0:
204,49,66790,5,2,0:0:0:0:
188,30,66908,2,0,P|141:6|39:34,1,119.999996337891,4|0,0:0|0:0,0:0:0:0:
112,112,67259,5,2,0:0:0:0:
128,93,67377,2,0,P|175:69|277:97,1,119.999996337891,8|0,0:0|0:0,0:0:0:0:
325,111,67728,5,2,0:0:0:0:
325,111,67845,2,0,P|359:106|389:89,1,59.9999981689454,2|0,0:3|0:0,0:0:0:0:
457,26,68079,2,0,P|426:8|392:4,1,59.9999981689454,2|0,0:0|0:0,0:0:0:0:
319,99,68314,2,0,L|475:44,1,119.999996337891,8|0,0:0|0:0,0:0:0:0:
420,170,68665,5,2,0:0:0:0:
404,189,68783,2,0,P|357:213|255:185,1,119.999996337891,2|0,0:3|0:0,0:0:0:0:
190,137,69134,5,2,0:0:0:0:
206,118,69252,2,0,P|253:94|355:122,1,119.999996337891,8|0,0:0|0:0,0:0:0:0:
327,247,69603,5,2,0:0:0:0:
290,238,69720,2,0,L|275:169,1,59.9999981689454,2|0,0:3|0:0,0:0:0:0:
213,58,69954,2,0,L|204:127,1,59.9999981689454,2|0,0:0|0:0,0:0:0:0:
313,161,70188,2,0,L|144:137,1,119.999996337891,8|0,0:0|0:0,0:0:0:0:
84,188,70540,5,2,0:0:0:0:
129,198,70658,2,0,P|136:151|110:87,2,100,2|0|8,0:3|0:0|0:0,0:0:0:0:
201,46,71595,5,2,0:3:0:0:
334,104,71829,1,0,0:0:0:0:
235,176,72064,1,8,0:0:0:0:
499,232,72415,5,2,0:0:0:0:
483,213,72533,2,0,P|436:189|334:217,1,119.999996337891,2|0,0:3|0:0,0:0:0:0:
286,298,72884,5,2,0:0:0:0:
302,279,73002,2,0,P|349:255|451:283,1,119.999996337891,8|0,0:0|0:0,0:0:0:0:
216,365,73470,1,2,0:3:0:0:
196,274,73704,5,2,0:0:0:0:
193,254,73822,1,2,0:0:0:0:
174,180,73939,5,8,0:0:0:0:
97,174,74057,1,8,0:0:0:0:
68,246,74174,1,8,0:0:0:0:
127,296,74291,1,8,0:0:0:0:
193,254,74408,6,0,L|289:263,1,80,6|0,0:0|0:0,0:0:0:0:
353,238,74876,2,0,P|369:298|366:326,1,80,2|0,0:0|0:0,0:0:0:0:
392,156,75345,2,0,P|432:114|465:106,1,80,2|0,0:0|0:0,0:0:0:0:
270,236,75814,2,0,P|202:215|181:182,1,80,2|0,0:0|0:0,0:0:0:0:
384,245,76283,6,0,P|452:266|473:299,1,80,2|0,0:0|0:0,0:0:0:0:
298,333,76751,2,0,P|265:354|225:358,1,80,2|0,0:0|0:0,0:0:0:0:
150,232,77220,1,2,0:0:0:0:
235,273,77454,1,2,0:3:0:0:
144,327,77689,1,2,0:0:0:0:
56,174,78158,6,0,L|61:268,1,80,2|0,0:0|0:0,0:0:0:0:
210,238,78626,2,0,P|127:220|110:226,1,80,2|0,0:0|0:0,0:0:0:0:
85,349,79095,2,0,P|146:300|151:273,1,80,2|0,0:0|0:0,0:0:0:0:
268,237,79564,2,0,P|207:188|202:161,1,80,2|0,0:0|0:0,0:0:0:0:
84,137,80033,6,0,P|145:88|150:61,1,80,2|0,0:0|0:0,0:0:0:0:
0,2,80501,2,0,P|29:44|76:47,1,80,2|0,0:0|0:0,0:0:0:0:
180,9,80970,1,2,0:0:0:0:
148,163,81204,1,2,0:3:0:0:
133,79,81439,1,2,0:0:0:0:
411,86,81908,6,0,P|344:43|249:59,1,160,2|2,0:0|0:0,0:0:0:0:
198,131,82611,1,0,0:0:0:0:
318,302,82845,2,0,B|300:224|358:215|312:128,1,160,2|2,0:0|0:0,0:0:0:0:
222,127,83548,1,0,0:0:0:0:
416,225,83783,6,0,P|419:177|410:137,1,80,2|0,0:0|0:0,0:0:0:0:
226,229,84251,2,0,P|223:277|232:317,1,80,2|0,0:0|0:0,0:0:0:0:
319,186,84720,2,0,L|314:13,1,160,2|2,0:0|0:0,0:0:0:0:
314,26,85423,1,0,0:0:0:0:
214,123,85658,6,0,L|211:164,1,40,2|0,0:0|0:0,0:0:0:0:
237,14,86361,1,2,0:0:0:0:
359,192,86595,6,0,L|362:233,1,40,2|0,0:0|0:0,0:0:0:0:
336,83,87298,1,2,0:0:0:0:
257,288,87533,6,0,L|254:329,1,40,2|0,0:0|0:0,0:0:0:0:
280,179,88236,1,2,0:0:0:0:
398,350,88470,6,0,L|399:377,2,20,2|0|2,0:0|0:0|0:0,0:0:0:0:
283,364,89408,6,0,B|241:372|206:381|196:330|179:325|145:320|70:328,1,170.000003242493,4|0,0:0|0:0,0:0:0:0:
32,360,89759,1,2,0:0:0:0:
128,302,89876,2,0,P|143:252|124:199,1,85.0000016212464,8|0,0:0|0:0,0:0:0:0:
4,194,90111,2,0,P|28:242|69:257,1,85.0000016212464,2|0,0:0|0:0,0:0:0:0:
145,144,90345,6,0,L|154:60,1,85.0000016212464,2|0,0:3|0:0,0:0:0:0:
17,26,90579,1,2,0:0:0:0:
17,26,90697,1,2,0:0:0:0:
17,26,90814,2,0,L|35:217,1,170.000003242493,8|0,0:0|0:0,0:0:0:0:
66,273,91165,1,2,0:0:0:0:
162,212,91283,6,0,P|216:216|269:244,1,85.0000016212464,2|0,0:3|0:0,0:0:0:0:
87,284,91517,2,0,P|47:297|4:299,1,85.0000016212464,2|0,0:0|0:0,0:0:0:0:
118,364,91751,2,0,L|132:181,1,170.000003242493,8|0,0:0|0:0,0:0:0:0:
31,71,92103,1,2,0:0:0:0:
31,71,92220,6,0,P|58:106|58:172,1,85.0000016212464,2|0,0:3|0:0,0:0:0:0:
239,81,92454,2,0,P|212:116|212:182,1,85.0000016212464,2|0,0:0|0:0,0:0:0:0:
394,111,92689,1,8,0:0:0:0:
374,138,92806,1,2,0:0:0:0:
362,170,92923,1,2,0:0:0:0:
358,203,93040,1,2,0:0:0:0:
363,236,93158,6,0,P|254:276|181:245,1,170.000003242493,2|0,0:3|0:0,0:0:0:0:
383,155,93509,1,2,0:0:0:0:
383,155,93626,2,0,P|436:168|473:184,1,85.0000016212464,8|0,0:0|0:0,0:0:0:0:
473,298,93861,2,0,P|433:313|391:322,1,85.0000016212464,2|2,0:0|0:0,0:0:0:0:
273,237,94095,5,2,0:3:0:0:
273,237,94212,1,2,0:0:0:0:
273,237,94329,2,0,L|384:238,1,85.0000016212464,0|0,0:0|0:0,0:0:0:0:
207,310,94564,2,0,L|312:336,1,85.0000016212464,8|2,0:0|0:0,0:0:0:0:
285,138,94798,2,0,L|203:159,1,85.0000016212464,2|2,0:0|0:0,0:0:0:0:
363,206,95033,6,0,P|390:123|333:44,1,170.000003242493,2|0,0:3|0:0,0:0:0:0:
249,67,95384,1,2,0:0:0:0:
147,80,95501,2,0,P|107:152|135:230,1,170.000003242493,8|0,0:0|0:0,0:0:0:0:
285,138,95970,6,0,L|203:159,2,85.0000016212464,2|2|2,0:3|0:0|0:0,0:0:0:0:
339,69,96322,1,2,0:0:0:0:
426,141,96439,2,0,P|489:150|535:141,1,85.0000016212464,8|0,0:0|0:0,0:0:0:0:
342,219,96673,2,0,P|316:253|301:292,1,85.0000016212464,2|0,0:0|0:0,0:0:0:0:
412,302,96908,6,0,L|386:133,1,170.000003242493,2|0,0:3|0:0,0:0:0:0:
260,222,97259,1,2,0:0:0:0:
196,157,97376,2,0,P|252:133|293:136,1,85.0000016212464,8|0,0:0|0:0,0:0:0:0:
465,109,97611,2,0,P|409:133|368:130,1,85.0000016212464,2|0,0:0|0:0,0:0:0:0:
283,51,97845,6,0,L|192:6,1,85.0000016212464,2|0,0:3|0:0,0:0:0:0:
381,56,98079,2,0,L|458:6,1,85.0000016212464,0|2,0:0|0:0,0:0:0:0:
284,145,98314,1,8,0:0:0:0:
250,170,98431,1,0,0:0:0:0:
209,180,98548,1,2,0:0:0:0:
167,174,98665,1,0,0:0:0:0:
131,152,98783,6,0,L|126:247,1,85.0000016212464,2|0,0:3|0:0,0:0:0:0:
28,286,99017,2,0,L|23:201,1,85.0000016212464,0|2,0:0|0:0,0:0:0:0:
110,72,99251,2,0,P|172:78|207:104,1,85.0000016212464,8|0,0:0|0:0,0:0:0:0:
250,243,99486,1,2,0:0:0:0:
250,243,99603,1,0,0:0:0:0:
250,243,99720,6,0,P|224:186|229:142,1,85.0000016212464,2|0,0:3|0:0,0:0:0:0:
295,18,99954,2,0,P|295:78|277:107,1,85.0000016212464,0|2,0:0|0:0,0:0:0:0:
148,193,100189,2,0,P|108:208|67:204,1,85.0000016212464,8|0,0:0|0:0,0:0:0:0:
234,139,100423,1,2,0:0:0:0:
234,139,100540,1,0,0:0:0:0:
234,139,100658,6,0,P|321:149|347:160,2,85.0000016212464,2|0|0,0:3|0:0|0:0,0:0:0:0:
179,209,101009,1,2,0:0:0:0:
161,84,101126,2,0,P|208:55|272:60,1,85.0000016212464,8|0,0:0|0:0,0:0:0:0:
286,122,101361,6,0,L|88:90,1,170.000003242493,2|2,0:0|0:3,0:0:0:0:
41,51,101712,1,2,0:0:0:0:
0,189,101829,2,0,L|110:171,1,85.0000016212464,0|2,0:0|0:0,0:0:0:0:
211,143,102064,2,0,L|171:247,1,85.0000016212464,8|2,0:0|0:0,0:0:0:0:
120,337,102298,2,0,L|49:250,1,85.0000016212464,2|2,0:0|0:0,0:0:0:0:
208,237,102533,6,0,P|306:249|354:329,1,170.000003242493,2|0,0:3|0:0,0:0:0:0:
350,316,102884,1,2,0:0:0:0:
447,152,103001,2,0,P|349:164|301:244,1,170.000003242493,8|0,0:0|0:0,0:0:0:0:
230,116,103470,1,2,0:3:0:0:
416,340,103704,1,8,0:1:0:0:
442,333,103822,1,8,0:1:0:0:
309,301,104056,5,8,0:1:0:0:
256,298,104173,1,8,0:1:0:0:
203,295,104290,1,8,0:1:0:0:
150,292,104408,6,0,P|183:193|119:117,1,170.000003242493,4|0,0:0|0:0,0:0:0:0:
98,215,104759,1,2,0:0:0:0:
98,215,104877,2,0,L|255:202,1,85.0000016212464,8|0,0:0|0:0,0:0:0:0:
247,144,105111,1,2,0:0:0:0:
277,230,105228,6,0,L|255:55,1,170.000003242493,2|0,0:0|0:0,0:0:0:0:
185,4,105580,1,2,0:0:0:0:
185,4,105697,2,0,P|170:38|180:116,1,85.0000016212464,2|8,0:0|0:0,0:0:0:0:
286,145,105931,2,0,P|350:64|265:-17,1,170.000003242493,2|0,0:0|0:0,0:0:0:0:
427,98,106283,1,2,0:3:0:0:
484,21,106400,6,0,L|472:223,1,170.000003242493,2|0,0:0|0:0,0:0:0:0:
401,231,106752,2,0,P|362:248|288:236,1,85.0000016212464,8|0,0:0|0:0,0:0:0:0:
266,313,106986,1,2,0:0:0:0:
266,313,107103,6,0,L|292:133,1,170.000003242493,2|0,0:0|0:0,0:0:0:0:
234,74,107455,1,2,0:0:0:0:
181,160,107572,2,0,P|134:178|70:172,1,85.0000016212464,2|8,0:0|0:0,0:0:0:0:
218,69,107806,1,2,0:0:0:0:
276,154,107923,2,0,P|286:188|274:263,1,85.0000016212464,0|0,0:0|0:0,0:0:0:0:
226,323,108158,1,2,0:3:0:0:
146,281,108275,6,0,P|241:237|300:275,1,170.000003242493,2|0,0:0|0:0,0:0:0:0:
163,369,108627,2,0,P|107:365|71:329,1,85.0000016212464,8|0,0:0|0:0,0:0:0:0:
146,281,108861,1,2,0:0:0:0:
146,281,108978,6,0,L|342:293,1,170.000003242493,2|0,0:0|0:0,0:0:0:0:
415,203,109330,1,2,0:0:0:0:
415,203,109447,2,0,L|319:212,1,85.0000016212464,2|8,0:0|0:0,0:0:0:0:
250,120,109681,1,2,0:0:0:0:
250,120,109798,2,0,L|346:129,1,85.0000016212464,2|0,0:0|0:0,0:0:0:0:
420,92,110033,1,2,0:3:0:0:
503,181,110150,6,0,P|481:278|408:302,1,170.000003242493,2|0,0:0|0:0,0:0:0:0:
326,238,110502,2,0,L|339:346,1,85.0000016212464,8|0,0:0|0:0,0:0:0:0:
213,323,110736,2,0,L|223:238,1,85.0000016212464,2|0,0:0|0:0,0:0:0:0:
163,160,110970,6,0,P|116:163|71:193,1,85.0000016212464,2|2,0:3|0:0,0:0:0:0:
283,140,111205,2,0,P|302:107|308:47,1,85.0000016212464,2|2,0:0|0:0,0:0:0:0:
241,235,111439,2,0,P|226:279|244:349,1,85.0000016212464,8|2,0:0|0:0,0:0:0:0:
358,375,111673,2,0,P|373:331|355:261,1,85.0000016212464,2|2,0:0|0:0,0:0:0:0:
324,226,111908,1,2,0:3:0:0:
394,286,112025,6,0,L|410:97,1,170.000003242493,2|0,0:0|0:0,0:0:0:0:
317,213,112377,2,0,P|272:217|230:197,1,85.0000016212464,8|0,0:0|0:0,0:0:0:0:
289,130,112611,1,2,0:0:0:0:
220,224,112728,6,0,L|204:35,1,170.000003242493,2|0,0:0|0:0,0:0:0:0:
302,90,113080,1,2,0:0:0:0:
302,90,113197,2,0,P|349:88|414:47,1,85.0000016212464,2|8,0:0|0:0,0:0:0:0:
231,19,113431,1,2,0:0:0:0:
231,19,113548,2,0,P|191:3|149:2,1,85.0000016212464,2|2,0:0|0:0,0:0:0:0:
43,77,113783,1,2,0:3:0:0:
126,140,113900,6,0,B|167:164|198:151|217:138|223:118|240:105|275:110|286:124|321:142,1,170.000003242493,2|0,0:0|0:0,0:0:0:0:
173,237,114252,2,0,P|123:233|64:200,1,85.0000016212464,8|0,0:0|0:0,0:0:0:0:
255,210,114486,1,2,0:0:0:0:
285,297,114603,6,0,P|330:317|442:245,1,170.000003242493,2|0,0:0|0:0,0:0:0:0:
357,140,114955,1,2,0:0:0:0:
357,140,115072,2,0,L|346:238,1,85.0000016212464,2|8,0:0|0:0,0:0:0:0:
474,271,115306,1,2,0:0:0:0:
474,271,115423,2,0,L|464:186,1,85.0000016212464,2|0,0:0|0:0,0:0:0:0:
455,88,115658,1,2,0:3:0:0:
374,161,115775,6,0,B|287:176|287:176|199:127,1,170.000003242493,2|0,0:0|0:0,0:0:0:0:
297,90,116127,2,0,L|380:75,1,85.0000016212464,8|0,0:0|0:0,0:0:0:0:
359,249,116361,1,2,0:0:0:0:
359,249,116478,6,0,L|172:281,1,170.000003242493,2|0,0:0|0:0,0:0:0:0:
132,201,116829,1,2,0:0:0:0:
68,279,116947,2,0,P|51:325|56:385,1,85.0000016212464,2|8,0:0|0:0,0:0:0:0:
147,207,117181,1,2,0:0:0:0:
147,207,117298,2,0,P|145:164|129:125,1,85.0000016212464,2|0,0:0|0:0,0:0:0:0:
63,66,117533,6,0,P|194:107|243:53,1,170.000003242493,8|0,0:0|0:0,0:0:0:0:
363,37,117884,1,2,0:3:0:0:
339,169,118002,2,0,P|297:173|253:146,1,85.0000016212464,8|0,0:0|0:0,0:0:0:0:
397,54,118236,1,8,0:3:0:0:
365,165,118353,1,8,0:3:0:0:
415,81,118470,6,0,L|390:255,1,170.000003242493,10|8,0:3|0:3,0:0:0:0:
299,236,118822,1,8,0:3:0:0:
368,335,118939,2,0,P|411:337|464:305,1,85.0000016212464,10|8,0:3|0:3,0:0:0:0:
286,223,119173,1,8,0:3:0:0:
295,343,119291,1,8,0:3:0:0:
388,229,119408,5,2,0:0:0:0:
182,37,126908,6,0,P|130:99|38:94,1,139.999995727539,2|0,0:0|0:0,0:0:0:0:
378,71,127845,6,0,P|406:147|494:174,1,139.999995727539,2|0,0:0|0:0,0:0:0:0:
144,180,128783,6,0,P|144:260|70:316,1,139.999995727539,2|0,0:0|0:0,0:0:0:0:
365,219,129720,6,0,P|337:295|387:372,1,139.999995727539,2|0,0:0|0:0,0:0:0:0:
162,254,130658,6,0,P|214:316|193:406,1,139.999995727539,2|0,0:0|0:0,0:0:0:0:
341,224,131595,6,0,P|270:264|259:355,1,139.999995727539,2|0,0:0|0:0,0:0:0:0:
254,318,132533,6,0,L|254:222,1,69.9999978637696,2|0,0:0|0:0,0:0:0:0:
254,248,133002,6,0,L|254:152,1,69.9999978637696,2|0,0:0|0:0,0:0:0:0:
254,178,133470,1,2,0:0:0:0:
204,320,134408,6,0,B|172:312|172:312|96:328,1,69.9999978637696,2|0,0:0|0:0,0:0:0:0:
308,265,134877,6,0,B|340:257|340:257|416:273,1,69.9999978637696,2|0,0:0|0:0,0:0:0:0:
204,210,135345,6,0,B|172:202|172:202|96:218,1,69.9999978637696,2|0,0:0|0:0,0:0:0:0:
308,155,135814,6,0,B|340:147|340:147|416:163,1,69.9999978637696,2|0,0:0|0:0,0:0:0:0:
204,100,136283,6,0,B|172:92|172:92|96:108,1,69.9999978637696,2|0,0:0|0:0,0:0:0:0:
308,45,136752,6,0,B|340:37|340:37|416:53,1,69.9999978637696,2|0,0:0|0:0,0:0:0:0:
135,99,137220,6,0,B|172:92|172:92|204:100,1,69.9999978637696,2|0,0:0|0:0,0:0:0:0:
376,154,137689,6,0,B|339:161|339:161|307:153,1,69.9999978637696,2|0,0:0|0:0,0:0:0:0:
135,209,138158,6,0,B|171:201|171:201|203:209,1,69.9999978637696,2|0,0:0|0:0,0:0:0:0:
376,264,138627,6,0,B|339:271|339:271|307:263,1,69.9999978637696,2|0,0:0|0:0,0:0:0:0:
135,319,139095,6,0,B|167:311|167:311|243:327,1,69.9999978637696,2|0,0:0|0:0,0:0:0:0:
376,374,139564,6,0,B|344:382|344:382|307:374,1,69.9999978637696,2|0,0:0|0:0,0:0:0:0:
254,318,140033,6,0,L|254:222,1,69.9999978637696,2|0,0:0|0:0,0:0:0:0:
254,248,140502,6,0,L|254:152,1,69.9999978637696,2|0,0:0|0:0,0:0:0:0:
254,178,140970,1,2,0:0:0:0:
191,49,141908,5,2,0:0:0:0:
122,121,142142,2,0,P|91:135|38:145,1,69.9999978637696,2|0,0:0|0:0,0:0:0:0:
210,68,142611,5,2,0:0:0:0:
245,157,142845,2,0,P|248:192|231:249,1,69.9999978637696,2|0,0:0|0:0,0:0:0:0:
406,114,143314,5,2,0:0:0:0:
371,203,143548,2,0,P|368:238|385:295,1,69.9999978637696,2|0,0:0|0:0,0:0:0:0:
454,234,144017,1,2,0:0:0:0:
305,322,144252,5,2,0:0:0:0:
387,357,144486,1,2,0:0:0:0:
374,272,144720,1,2,0:0:0:0:
240,372,144955,1,2,0:0:0:0:
387,357,145189,1,2,0:0:0:0:
492,121,145658,5,2,0:0:0:0:
433,207,145892,2,0,P|421:247|426:304,1,69.9999978637696,2|0,0:0|0:0,0:0:0:0:
270,102,146361,5,2,0:0:0:0:
307,195,146595,2,0,P|318:228|325:295,1,69.9999978637696,2|0,0:0|0:0,0:0:0:0:
129,167,147064,5,2,0:0:0:0:
193,243,147298,2,0,P|213:271|240:333,1,69.9999978637696,2|0,0:0|0:0,0:0:0:0:
215,378,147767,5,2,0:0:0:0:
215,378,148002,1,2,0:0:0:0:
155,325,148236,1,2,0:0:0:0:
296,357,148470,1,2,0:0:0:0:
100,378,148939,5,2,0:0:0:0:
191,207,149408,5,2,0:0:0:0:
245,127,149642,2,0,P|245:94|224:39,1,69.9999978637696,2|0,0:0|0:0,0:0:0:0:
171,219,150111,5,2,0:0:0:0:
135,102,150345,2,0,P|134:69|156:14,1,69.9999978637696,2|0,0:0|0:0,0:0:0:0:
152,213,150814,5,2,0:0:0:0:
69,157,151048,2,0,P|28:149|-47:152,1,69.9999978637696,2|0,0:0|0:0,0:0:0:0:
164,230,151517,6,0,P|198:227|233:221,1,69.9999978637696,2|0,0:0|0:0,0:0:0:0:
290,164,151986,1,2,0:0:0:0:
214,144,152220,1,2,0:0:0:0:
321,233,152455,1,2,0:0:0:0:
328,95,152689,1,2,0:0:0:0:
328,95,153158,5,2,0:0:0:0:
304,76,153392,2,0,P|292:72|260:69,1,40,2|0,0:0|0:0,0:0:0:0:
205,123,153861,5,2,0:0:0:0:
229,142,154095,2,0,P|240:145|273:149,1,40,2|0,0:0|0:0,0:0:0:0:
328,95,154564,5,2,0:0:0:0:
347,119,154798,2,0,P|350:130|354:163,1,40,2|0,0:0|0:0,0:0:0:0:
321,225,155267,5,2,0:0:0:0:
321,225,155501,2,0,P|317:236|314:269,2,40,2|0|2,0:0|0:0|0:0,0:0:0:0:
321,225,156908,5,2,0:0:0:0:
321,225,160658,6,0,L|333:223,1,12.5,10|0,0:3|0:0,0:0:0:0:
204,315,160892,6,0,L|200:326,1,12.5,10|0,0:3|0:0,0:0:0:0:
201,178,161127,6,0,L|196:158,1,12.5,10|0,0:3|0:0,0:0:0:0:
311,334,161361,6,0,L|306:354,1,12.5,10|0,0:3|0:0,0:0:0:0:
141,251,161595,6,0,L|120:248,1,12.5,10|0,0:3|0:0,0:0:0:0:
321,225,161830,6,0,L|333:223,1,12.5,10|0,0:3|0:0,0:0:0:0:
347,146,162064,6,0,L|304:143,1,25,10|0,0:3|0:0,0:0:0:0:
348,138,162181,6,0,L|305:135,1,25,10|0,0:3|0:0,0:0:0:0:
349,130,162298,6,0,L|306:127,1,25,10|0,0:3|0:0,0:0:0:0:
350,122,162416,6,0,L|307:119,1,25,10|0,0:3|0:0,0:0:0:0:
349,106,162533,6,0,B|255:107|280:198|167:162,1,170.000003242493,2|0,0:3|0:0,0:0:0:0:
347,201,162884,1,2,0:0:0:0:
429,145,163002,2,0,P|436:97|399:20,2,85.0000016212464,8|0|0,0:0|0:0|0:0,0:0:0:0:
356,214,163353,1,0,0:0:0:0:
356,214,163470,6,0,P|347:260|367:308,1,85.0000016212464,2|2,0:3|0:0,0:0:0:0:
509,275,163705,2,0,P|474:252|417:253,1,85.0000016212464,2|2,0:0|0:0,0:0:0:0:
354,370,163939,2,0,P|336:326|346:275,1,85.0000016212464,8|0,0:0|0:0,0:0:0:0:
194,313,164173,2,0,P|214:270|259:244,1,85.0000016212464,2|0,0:0|0:0,0:0:0:0:
358,232,164408,6,0,L|155:203,1,170.000003242493,2|0,0:3|0:0,0:0:0:0:
104,241,164759,1,2,0:0:0:0:
186,194,164877,2,0,P|197:151|183:99,1,85.0000016212464,8|0,0:0|0:0,0:0:0:0:
94,250,165111,2,0,P|83:293|97:345,1,85.0000016212464,2|0,0:0|0:0,0:0:0:0:
105,154,165345,6,0,P|64:148|17:164,1,85.0000016212464,2|0,0:3|0:0,0:0:0:0:
183,294,165580,2,0,P|224:300|271:284,1,85.0000016212464,0|2,0:0|0:0,0:0:0:0:
376,312,165814,2,0,P|294:220|316:138,1,170.000003242493,8|2,0:0|0:0,0:0:0:0:
351,104,166166,1,0,0:0:0:0:
443,146,166283,6,0,P|455:100|425:33,1,85.0000016212464,2|0,0:3|0:0,0:0:0:0:
342,189,166517,2,0,P|334:230|346:270,1,85.0000016212464,0|2,0:0|0:0,0:0:0:0:
438,227,166752,2,0,L|201:211,1,170.000003242493,8|2,0:0|0:0,0:0:0:0:
192,180,167103,1,0,0:0:0:0:
261,116,167220,6,0,P|282:82|283:20,1,85.0000016212464,2|0,0:3|0:0,0:0:0:0:
140,122,167455,2,0,P|119:88|118:26,1,85.0000016212464,0|2,0:0|0:0,0:0:0:0:
55,165,167689,2,0,P|118:212|203:188,1,170.000003242493,8|2,0:0|0:0,0:0:0:0:
257,110,168041,1,0,0:0:0:0:
257,110,168158,6,0,P|286:146|290:213,1,85.0000016212464,2|0,0:3|0:0,0:0:0:0:
397,203,168392,2,0,P|380:246|324:283,1,85.0000016212464,0|2,0:0|0:0,0:0:0:0:
387,361,168627,2,0,P|341:368|281:338,1,85.0000016212464,8|0,0:0|0:0,0:0:0:0:
223,237,168861,6,0,P|264:330|198:396,1,170.000003242493,2|2,0:0|0:3,0:0:0:0:
159,313,169212,1,2,0:0:0:0:
83,376,169330,2,0,P|61:333|69:270,1,85.0000016212464,0|2,0:0|0:0,0:0:0:0:
122,222,169564,2,0,P|137:192|142:128,2,85.0000016212464,8|2|2,0:0|0:0|0:0,0:0:0:0:
50,280,169916,1,2,0:0:0:0:
44,164,170033,6,0,L|218:212,1,170.000003242493,2|0,0:3|0:0,0:0:0:0:
261,51,170384,1,2,0:0:0:0:
261,51,170502,2,0,P|172:103|167:187,1,170.000003242493,8|0,0:0|0:0,0:0:0:0:
417,294,170970,5,4,0:3:0:0:
254,142,171322,5,4,0:3:0:0:
206,342,171673,5,4,0:3:0:0:
224,317,171908,6,0,B|266:325|301:334|311:283|328:278|362:273|437:281,1,170.000003242493,4|0,0:0|0:0,0:0:0:0:
372,363,172259,1,2,0:0:0:0:
460,318,172376,2,0,P|475:268|456:215,1,85.0000016212464,8|0,0:0|0:0,0:0:0:0:
332,216,172611,2,0,P|356:264|397:279,1,85.0000016212464,2|0,0:0|0:0,0:0:0:0:
421,124,172845,6,0,L|337:133,1,85.0000016212464,2|0,0:3|0:0,0:0:0:0:
297,50,173079,1,2,0:0:0:0:
297,50,173197,1,2,0:0:0:0:
297,50,173314,2,0,L|282:226,1,170.000003242493,8|0,0:0|0:0,0:0:0:0:
362,280,173665,1,2,0:0:0:0:
271,329,173783,6,0,P|231:342|188:344,1,85.0000016212464,2|0,0:3|0:0,0:0:0:0:
355,266,174017,2,0,P|397:267|437:281,1,85.0000016212464,2|0,0:0|0:0,0:0:0:0:
377,362,174251,2,0,L|391:179,1,170.000003242493,8|0,0:0|0:0,0:0:0:0:
323,132,174603,1,2,0:0:0:0:
323,132,174720,6,0,P|288:159|222:159,1,85.0000016212464,2|0,0:3|0:0,0:0:0:0:
285,0,174954,2,0,P|277:41|251:74,1,85.0000016212464,2|0,0:0|0:0,0:0:0:0:
168,24,175189,1,8,0:0:0:0:
157,73,175306,1,2,0:0:0:0:
123,143,175424,1,2,0:0:0:0:
134,192,175541,1,2,0:0:0:0:
97,272,175658,6,0,P|170:233|253:246,1,170.000003242493,2|0,0:3|0:0,0:0:0:0:
168,144,176009,1,2,0:0:0:0:
168,144,176126,2,0,P|115:157|78:173,1,85.0000016212464,8|0,0:0|0:0,0:0:0:0:
253,161,176361,2,0,P|268:121|277:79,1,85.0000016212464,2|2,0:0|0:0,0:0:0:0:
362,13,176595,5,2,0:3:0:0:
362,13,176712,1,2,0:0:0:0:
362,13,176829,2,0,L|252:-3,1,85.0000016212464,0|0,0:0|0:0,0:0:0:0:
424,111,177064,2,0,L|534:95,1,85.0000016212464,8|2,0:0|0:0,0:0:0:0:
363,206,177298,2,0,P|304:213|263:179,1,85.0000016212464,2|2,0:0|0:0,0:0:0:0:
381,49,177533,6,0,P|420:121|392:199,1,170.000003242493,2|0,0:3|0:0,0:0:0:0:
337,284,177884,1,2,0:0:0:0:
283,202,178001,2,0,B|194:186|194:186|94:214,1,170.000003242493,8|0,0:0|0:0,0:0:0:0:
333,108,178470,6,0,L|250:92,2,85.0000016212464,2|2|2,0:3|0:0|0:0,0:0:0:0:
415,46,178822,1,2,0:0:0:0:
462,148,178939,2,0,P|471:211|462:257,1,85.0000016212464,8|0,0:0|0:0,0:0:0:0:
305,239,179173,2,0,P|339:213|378:198,1,85.0000016212464,2|0,0:0|0:0,0:0:0:0:
388,303,179408,6,0,L|199:271,1,170.000003242493,2|0,0:3|0:0,0:0:0:0:
163,342,179759,1,2,0:0:0:0:
102,254,179876,2,0,P|89:194|99:154,1,85.0000016212464,8|0,0:0|0:0,0:0:0:0:
198,115,180111,1,2,0:0:0:0:
198,115,180228,1,0,0:0:0:0:
198,115,180345,6,0,P|210:174|200:214,1,85.0000016212464,2|0,0:3|0:0,0:0:0:0:
112,268,180580,2,0,L|1:256,1,85.0000016212464,0|2,0:0|0:0,0:0:0:0:
179,340,180814,1,8,0:0:0:0:
220,347,180931,1,0,0:0:0:0:
261,338,181048,1,2,0:0:0:0:
296,314,181165,1,0,0:0:0:0:
321,282,181283,6,0,P|365:269|421:269,1,85.0000016212464,2|0,0:3|0:0,0:0:0:0:
243,165,181517,2,0,P|227:206|231:248,1,85.0000016212464,0|2,0:0|0:0,0:0:0:0:
313,95,181752,2,0,B|225:90|278:163|138:150,1,170.000003242493,8|2,0:0|0:0,0:0:0:0:
348,175,182103,1,0,0:0:0:0:
348,175,182220,2,0,P|398:121|399:90,1,85.0000016212464,2|0,0:3|0:0,0:0:0:0:
301,14,182454,6,0,P|301:74|319:103,1,85.0000016212464,0|2,0:0|0:0,0:0:0:0:
459,26,182689,2,0,P|418:109|447:195,1,170.000003242493,8|2,0:0|0:0,0:0:0:0:
498,263,183041,1,0,0:0:0:0:
498,263,183158,6,0,P|411:273|385:284,2,85.0000016212464,2|0|0,0:3|0:0|0:0,0:0:0:0:
376,354,183509,1,2,0:0:0:0:
376,354,183626,2,0,P|334:346|300:321,1,85.0000016212464,8|0,0:0|0:0,0:0:0:0:
280,216,183861,6,0,L|252:407,1,170.000003242493,2|2,0:0|0:3,0:0:0:0:
163,324,184212,1,2,0:0:0:0:
190,158,184329,2,0,L|197:253,1,85.0000016212464,0|2,0:0|0:0,0:0:0:0:
76,324,184564,2,0,L|83:229,1,85.0000016212464,8|2,0:0|0:0,0:0:0:0:
114,149,184798,2,0,P|74:148|15:176,1,85.0000016212464,2|2,0:0|0:0,0:0:0:0:
178,243,185033,6,0,P|260:239|317:178,1,170.000003242493,2|0,0:3|0:0,0:0:0:0:
338,91,185384,1,8,0:3:0:0:
228,164,185502,1,8,0:0:0:0:
439,182,185736,5,8,0:0:0:0:
477,176,185853,1,8,0:0:0:0:
511,170,185970,1,8,0:0:0:0:
335,113,186205,5,8,0:0:0:0:
335,113,186322,2,0,P|306:153|306:198,1,85.0000016212464,8|2,0:0|0:3,0:0:0:0:
421,255,186556,2,0,P|415:213|389:180,1,85.0000016212464,8|0,0:0|0:0,0:0:0:0:
329,255,186791,1,8,0:0:0:0:
411,344,186908,6,0,B|370:288|313:285|313:285|283:303|279:344,1,170.000003242493,4|0,0:0|0:0,0:0:0:0:
188,365,187259,1,2,0:0:0:0:
188,365,187377,2,0,B|208:289|170:244|170:244|202:185,1,170.000003242493,8|0,0:0|0:0,0:0:0:0:
191,117,187728,1,2,0:0:0:0:
191,117,187845,6,0,P|166:220|89:242,1,170.000003242493,2|0,0:3|0:0,0:0:0:0:
10,206,188197,1,2,0:0:0:0:
10,206,188314,2,0,P|86:279|67:356,1,170.000003242493,8|0,0:0|0:0,0:0:0:0:
146,180,188666,1,2,0:0:0:0:
162,269,188783,6,0,L|351:240,1,170.000003242493,2|0,0:3|0:0,0:0:0:0:
416,86,189134,1,2,0:0:0:0:
459,178,189251,2,0,L|290:152,1,170.000003242493,8|0,0:0|0:0,0:0:0:0:
234,74,189603,1,2,0:0:0:0:
324,78,189720,6,0,P|315:124|262:165,1,85.0000016212464,2|0,0:3|0:0,0:0:0:0:
175,146,189955,2,0,P|148:113|141:72,1,85.0000016212464,2|0,0:0|0:0,0:0:0:0:
65,54,190189,2,0,L|234:74,1,170.000003242493,8|0,0:0|0:0,0:0:0:0:
109,195,190541,1,0,0:0:0:0:
109,195,190658,6,0,B|54:189|46:163|28:122|32:91|68:45,1,170.000003242493,2|0,0:3|0:0,0:0:0:0:
141,108,191009,1,2,0:0:0:0:
209,214,191127,2,0,L|224:28,1,170.000003242493,8|0,0:0|0:0,0:0:0:0:
305,139,191478,1,2,0:0:0:0:
380,68,191595,6,0,P|408:145|368:217,1,170.000003242493,2|0,0:3|0:0,0:0:0:0:
169,203,191947,1,2,0:0:0:0:
169,203,192064,2,0,P|221:139|304:138,1,170.000003242493,8|0,0:0|0:0,0:0:0:0:
380,182,192416,1,2,0:0:0:0:
306,118,192533,6,0,B|253:91|253:91|113:110,1,170.000003242493,2|0,0:3|0:0,0:0:0:0:
75,28,192884,1,2,0:0:0:0:
75,28,193002,2,0,B|102:81|102:81|83:221,1,170.000003242493,8|0,0:0|0:0,0:0:0:0:
3,229,193353,1,2,0:0:0:0:
98,188,193470,6,0,P|178:174|223:174,1,85.0000016212464,2|0,0:3|0:0,0:0:0:0:
211,323,193705,2,0,P|158:263|165:226,1,85.0000016212464,2|0,0:0|0:0,0:0:0:0:
306,183,193939,2,0,P|289:221|253:242,1,85.0000016212464,8|0,0:0|0:0,0:0:0:0:
211,323,194173,2,0,P|158:263|165:226,1,85.0000016212464,2|0,0:0|0:0,0:0:0:0:
98,168,194408,6,0,P|63:291|5:298,1,170.000003242493,2|0,0:3|0:0,0:0:0:0:
27,207,194759,1,2,0:0:0:0:
143,253,194877,2,0,B|228:274|215:183|319:217,1,170.000003242493,8|0,0:0|0:0,0:0:0:0:
404,52,195228,1,2,0:0:0:0:
404,52,195345,6,0,P|376:105|249:105,1,170.000003242493,2|0,0:3|0:0,0:0:0:0:
319,240,195697,1,2,0:0:0:0:
319,240,195814,2,0,P|362:170|444:162,1,170.000003242493,8|0,0:0|0:0,0:0:0:0:
506,75,196166,1,2,0:0:0:0:
506,75,196283,6,0,L|482:266,1,170.000003242493,2|0,0:3|0:0,0:0:0:0:
433,319,196634,1,2,0:0:0:0:
342,286,196752,2,0,P|404:230|506:264,1,170.000003242493,8|0,0:0|0:0,0:0:0:0:
372,135,197103,1,2,0:0:0:0:
372,135,197220,6,0,P|295:166|270:162,1,85.0000016212464,2|0,0:3|0:0,0:0:0:0:
194,195,197455,2,0,P|205:112|221:93,1,85.0000016212464,2|0,0:0|0:0,0:0:0:0:
137,46,197689,2,0,P|214:14|239:18,1,85.0000016212464,8|0,0:0|0:0,0:0:0:0:
98,133,197923,2,0,L|1:122,1,85.0000016212464,2|0,0:0|0:0,0:0:0:0:
175,219,198158,5,10,0:3:0:0:
210,242,198275,1,8,0:3:0:0:
252,243,198392,1,8,0:3:0:0:
290,225,198509,1,8,0:3:0:0:
323,198,198627,1,8,0:0:0:0:
364,191,198744,1,8,0:3:0:0:
404,204,198861,1,8,0:3:0:0:
429,237,198978,1,8,0:3:0:0:
437,278,199095,1,10,0:3:0:0:
428,319,199212,1,8,0:3:0:0:
401,352,199330,1,8,0:3:0:0:
361,368,199447,1,8,0:3:0:0:
318,365,199564,1,8,0:0:0:0:
281,343,199681,1,8,0:3:0:0:
258,306,199798,1,8,0:3:0:0:
258,263,199916,1,8,0:3:0:0:
279,226,200033,5,8,0:0:0:0:
222,244,200150,1,8,0:3:0:0:
166,222,200267,1,8,0:3:0:0:
107,210,200384,1,8,0:3:0:0:
50,230,200502,1,10,0:0:0:0:
25,284,200619,1,8,0:3:0:0:
32,342,200736,1,8,0:0:0:0:
32,342,200853,1,8,0:3:0:0:
32,342,200970,6,0,L|81:354,2,42.5000008106232,8|8|8,0:3|0:3|0:3,0:0:0:0:
112,333,201205,6,0,L|161:321,2,42.5000008106232,8|8|8,0:3|0:3|0:3,0:0:0:0:
196,327,201439,6,0,L|245:339,2,42.5000008106232,8|8|8,0:3|0:3|0:3,0:0:0:0:
282,317,201673,6,0,L|331:305,2,42.5000008106232,8|8|8,0:3|0:3|0:3,0:0:0:0:
384,161,201908,6,0,B|349:185|349:185|312:185|312:185|275:167|275:167|258:138|258:138|256:113|256:113|268:77,1,200,6|0,0:3|0:0,0:0:0:0:
424,49,202611,1,6,0:3:0:0:
280,177,202845,2,2,B|248:201|248:201|208:193|208:193|184:158|184:158|136:145|136:145|88:169|88:169|72:217|72:217|88:265|88:265|136:289|136:289|176:273,1,400,8|2,0:1|0:3,1:0:0:0:
153,282,204486,5,2,0:3:0:0:
41,328,204720,2,0,B|33:272|33:272|49:216,1,100,10|2,0:0|0:1,0:0:0:0:
181,167,205189,2,0,B|192:208|192:208|184:264,1,100,2|2,0:1|0:1,0:0:0:0:
336,344,205658,6,0,B|248:384|248:384|128:352,1,200,6|0,0:3|0:0,0:0:0:0:
96,184,206361,1,2,0:3:0:0:
240,32,206595,2,2,B|215:87|215:87|232:136|232:136|288:184|288:184|304:224|304:224|296:256|296:256|264:280|264:280|224:272|224:272|208:232|208:232|232:192,1,400,8|2,0:0|0:3,1:0:0:0:
215,219,208236,5,2,0:3:0:0:
136,112,208470,1,8,0:0:0:0:
136,112,208587,2,0,L|64:120,1,50,2|0,0:3|0:0,0:0:0:0:
184,24,208822,2,0,B|236:23|236:23|304:56,1,100,2|2,0:1|0:1,0:0:0:0:
376,16,209173,2,0,B|375:51|375:51|397:96,1,50,2|0,0:3|0:0,0:0:0:0:
478,112,209408,6,0,B|422:136|422:136|398:216|398:216|334:240,1,200,6|2,0:3|0:1,0:0:0:0:
512,200,210111,1,2,0:3:0:0:
345,235,210345,2,2,B|333:238|333:238|321:241|321:241|369:262|369:262|413:247|413:247|438:209|438:209|444:176|444:176|432:143|432:143|406:117|406:117|368:107|368:107|336:115|336:115|312:135|312:135|301:165,1,400,8|2,0:0|0:3,1:0:0:0:
304,155,211986,5,2,0:3:0:0:
250,344,212220,2,0,B|226:304|226:304|226:216,1,100,8|2,0:0|0:1,0:0:0:0:
338,96,212689,2,0,B|314:136|314:136|314:224,1,100,2|2,0:1|0:1,0:0:0:0:
186,69,213158,6,0,B|226:101|226:101|226:269,1,200,2|0,0:3|0:0,0:0:0:0:
129,176,213861,1,2,0:3:0:0:
198,31,214095,2,2,B|230:49|230:49|268:44|268:44|293:19|293:19|380:7|380:7|413:41|413:41|391:83|391:83|335:90|335:90|321:104|321:104|358:99|358:99,1,400,8|2,0:0|0:3,1:0:0:0:
351,99,215736,5,2,0:3:0:0:
453,132,215970,1,8,0:0:0:0:
453,132,216087,2,0,P|453:188|453:188,1,50,2|0,0:3|0:0,0:0:0:0:
365,68,216322,2,0,B|312:62|312:62|269:82,1,100,2|0,0:3|0:3,0:0:0:0:
170,98,216673,2,0,B|194:114|194:114|210:146,1,50,2|0,0:3|0:0,0:0:0:0:
145,270,216908,6,0,B|127:217|127:217|137:158,1,100,4|0,0:0|0:0,0:0:0:0:
164,179,217259,6,0,L|263:171,1,100,2|0,0:3|0:0,0:0:0:0:
286,271,217611,6,0,L|237:267,1,50,2|0,0:3|0:0,0:0:0:0:
104,344,217845,5,2,0:0:0:0:
104,344,218314,5,2,0:0:0:0:
100,304,218431,1,2,0:0:0:0:
96,264,218548,1,2,0:0:0:0:
284,304,218783,6,0,B|380:256|380:256|484:284,1,200,2|2,0:3|0:3,0:0:0:0:
243,195,219603,5,2,0:3:0:0:
228,200,219720,2,0,B|180:152|180:152|184:80,1,100,8|2,0:0|0:1,0:0:0:0:
276,284,220189,2,0,B|258:349|258:349|194:382,1,100,2|2,0:3|0:1,0:0:0:0:
16,304,220658,6,0,B|60:328|60:328|148:276|148:276|216:312,1,200,2|2,0:3|0:3,0:0:0:0:
87,175,221478,5,2,0:3:0:0:
92,160,221595,2,0,B|44:132|44:132|-20:136,1,100,8|2,0:0|0:1,0:0:0:0:
172,208,222064,2,0,B|216:210|216:210|264:182,1,100,2|2,0:3|0:1,0:0:0:0:
176,12,222533,1,2,0:3:0:0:
176,12,223002,1,2,0:3:0:0:
244,128,223353,5,2,0:3:0:0:
308,84,223470,5,8,0:0:0:0:
308,84,223587,2,0,B|364:91|364:91,1,50,2|0,0:0|0:0,0:0:0:0:
428,48,223822,2,0,P|308:72|308:72,1,100,2|0,0:0|0:0,0:0:0:0:
484,156,224173,2,0,L|492:92,1,50,2|0,0:0|0:0,0:0:0:0:
384,224,224408,5,4,0:0:0:0:
404,244,224642,1,2,0:3:0:0:
312,260,224877,5,2,0:3:0:0:
322,300,225111,1,2,0:3:0:0:
232,224,225345,5,10,0:3:0:0:
216,278,225579,1,2,0:3:0:0:
196,144,225814,5,2,0:3:0:0:
140,196,226048,1,2,0:3:0:0:
376,104,226283,5,2,0:3:0:0:
432,180,226517,1,2,0:3:0:0:
291,133,226752,5,2,0:3:0:0:
304,247,226986,1,2,0:3:0:0:
219,88,227220,5,10,0:3:0:0:
191,151,227337,1,0,0:0:0:0:
163,215,227454,1,2,0:3:0:0:
188,12,227689,5,2,0:3:0:0:
57,106,227923,1,2,0:3:0:0:
263,183,228158,5,10,0:3:0:0:
231,159,228275,1,2,0:3:0:0:
191,151,228392,1,2,0:3:0:0:
155,163,228509,1,2,0:3:0:0:
127,195,228627,1,10,0:3:0:0:
115,235,228744,1,2,0:3:0:0:
119,275,228861,1,2,0:3:0:0:
139,307,228978,1,2,0:3:0:0:
175,323,229095,5,8,0:3:0:0:
183,267,229212,1,2,0:3:0:0:
187,211,229330,1,2,0:3:0:0:
195,155,229447,1,2,0:3:0:0:
265,92,229564,5,8,0:3:0:0:
273,148,229681,1,2,0:3:0:0:
277,204,229799,1,2,0:3:0:0:
285,260,229916,1,2,0:3:0:0:
370,296,230033,5,10,0:3:0:0:
321,339,230150,1,10,0:3:0:0:
256,340,230267,1,10,0:3:0:0:
207,296,230384,1,10,0:3:0:0:
172,240,230502,1,10,0:3:0:0:
117,204,230619,1,10,0:3:0:0:
61,221,230736,1,10,0:3:0:0:
33,273,230853,1,10,0:3:0:0:
49,329,230970,2,0,L|45:413,2,50,10|10|10,0:3|0:3|0:3,0:0:0:0:
124,229,231322,5,8,0:0:0:0:
132,237,231439,1,8,0:0:0:0:
180,181,231556,1,8,0:0:0:0:
256,173,231673,1,8,0:0:0:0:
328,196,231791,1,8,0:0:0:0:
372,261,231908,6,0,B|372:330|329:367|329:367|294:370|266:340,1,170.000003242493,4|0,0:0|0:0,0:0:0:0:
256,264,232259,1,0,0:0:0:0:
181,314,232377,2,0,B|117:334|53:294|53:294|1:328,1,170.000003242493,8|2,0:0|0:1,0:0:0:0:
58,150,232728,1,0,0:0:0:0:
58,150,232845,6,0,P|121:235|200:225,1,170.000003242493,2|0,0:1|0:0,0:0:0:0:
246,112,233197,1,0,0:0:0:0:
146,158,233314,2,0,B|106:266|186:206|134:378,1,170.000003242493,8|0,0:0|0:0,0:0:0:0:
70,281,233666,1,0,0:0:0:0:
167,340,233783,6,0,P|255:360|327:268,1,170.000003242493,2|2,0:3|0:1,0:0:0:0:
312,236,234134,1,0,0:0:0:0:
352,336,234251,2,0,L|378:167,1,170.000003242493,8|2,0:0|0:1,0:0:0:0:
299,88,234603,1,0,0:0:0:0:
198,104,234720,6,0,P|207:150|260:191,1,85.0000016212464,2|0,0:1|0:0,0:0:0:0:
377,167,234955,2,0,P|404:134|411:93,1,85.0000016212464,0|0,0:0|0:0,0:0:0:0:
299,88,235189,2,0,L|311:271,1,170.000003242493,8|0,0:0|0:0,0:0:0:0:
456,332,235541,1,0,0:0:0:0:
456,332,235658,6,0,B|450:277|424:269|383:251|352:255|306:291,1,170.000003242493,2|2,0:3|0:1,0:0:0:0:
257,219,236009,1,0,0:0:0:0:
189,325,236127,2,0,L|174:139,1,170.000003242493,8|2,0:0|0:1,0:0:0:0:
134,65,236478,1,0,0:0:0:0:
194,165,236595,6,0,B|163:145|163:145|146:128|101:175|50:159|31:132,1,170.000003242493,2|0,0:1|0:0,0:0:0:0:
215,263,236947,1,0,0:0:0:0:
215,263,237064,2,0,P|279:211|280:128,1,170.000003242493,8|0,0:0|0:0,0:0:0:0:
194,165,237416,1,0,0:0:0:0:
298,231,237533,6,0,B|351:258|351:258|491:239,1,170.000003242493,2|2,0:3|0:1,0:0:0:0:
327,367,237884,1,0,0:0:0:0:
327,367,238002,2,0,B|274:340|274:340|134:359,1,170.000003242493,8|2,0:0|0:1,0:0:0:0:
70,381,238353,1,0,0:0:0:0:
117,285,238470,6,0,P|131:205|131:160,1,85.0000016212464,2|0,0:0|0:0,0:0:0:0:
84,123,238705,2,0,P|70:43|70:-2,1,85.0000016212464,2|0,0:0|0:0,0:0:0:0:
232,21,238939,2,0,P|200:57|148:64,1,85.0000016212464,2|0,0:0|0:0,0:0:0:0:
306,92,239173,2,0,P|311:133|296:173,1,85.0000016212464,2|0,0:0|0:0,0:0:0:0:
392,18,239408,6,0,P|440:136|398:177,1,170.000003242493,4|2,0:0|0:1,0:0:0:0:
335,93,239759,1,0,0:0:0:0:
396,176,239877,2,0,B|416:258|325:245|354:330,1,170.000003242493,8|2,0:0|0:1,0:0:0:0:
237,217,240228,1,0,0:0:0:0:
237,217,240345,6,0,P|154:220|107:287,1,170.000003242493,2|0,0:1|0:0,0:0:0:0:
202,298,240697,1,0,0:0:0:0:
300,282,240814,2,0,P|326:221|245:127,1,170.000003242493,8|0,0:0|0:0,0:0:0:0:
133,60,241166,1,0,0:0:0:0:
133,60,241283,6,0,L|109:251,1,170.000003242493,2|2,0:3|0:1,0:0:0:0:
80,325,241634,1,0,0:0:0:0:
181,304,241752,2,0,B|264:282|264:282|376:344,1,170.000003242493,8|2,0:0|0:1,0:0:0:0:
422,197,242103,1,0,0:0:0:0:
422,197,242220,6,0,P|345:228|320:224,1,85.0000016212464,2|0,0:1|0:0,0:0:0:0:
289,90,242455,2,0,P|354:141|363:164,1,85.0000016212464,2|0,0:0|0:0,0:0:0:0:
257,263,242689,2,0,P|268:180|284:161,1,85.0000016212464,8|0,0:0|0:0,0:0:0:0:
325,65,242923,2,0,P|407:76|426:92,1,85.0000016212464,2|0,0:0|0:0,0:0:0:0:
240,107,243158,6,0,P|152:113|73:64,1,170.000003242493,2|2,0:3|0:1,0:0:0:0:
11,234,243509,1,0,0:0:0:0:
11,234,243627,2,0,P|84:194|168:201,1,170.000003242493,8|2,0:0|0:1,0:0:0:0:
261,259,243978,1,0,0:0:0:0:
261,259,244095,2,0,L|251:145,1,85.0000016212464,2|0,0:1|0:0,0:0:0:0:
243,93,244330,5,2,0:0:0:0:
177,276,244564,1,2,0:0:0:0:
348,251,244798,1,2,0:0:0:0:
181,297,245033,6,0,B|142:313|83:311|46:249|46:249|88:199|159:210,1,255.000004863739,2|0,0:3|0:0,0:0:0:0:
167,208,245502,1,8,0:0:0:0:
268,294,245736,1,2,0:3:0:0:
263,116,245970,1,2,0:0:0:0:
257,165,246087,1,2,0:0:0:0:
251,214,246205,1,2,0:0:0:0:
311,47,246439,5,2,0:0:0:0:
