osu file format v14

[General]
AudioFilename: audio.mp3
AudioLeadIn: 0
PreviewTime: -1
Countdown: 1
SampleSet: Soft
StackLeniency: 0.7
Mode: 0
LetterboxInBreaks: 0
WidescreenStoryboard: 1

[Editor]
Bookmarks: 10822,10953,11085,11216,11348,14966,15098,15229,15361,15493,15624,15756,15887,27664,27927,28190,29440,34440,34572,34703,34835,36808,36940,37072,37203,39111,39243,39374,39506,39637
DistanceSpacing: 2
BeatDivisor: 4
GridSize: 8
TimelineZoom: 3.799999

[Metadata]
Title:Haikei Goodbye Sayonara (TV Size)
TitleUnicode:Haikei Goodbye Sayonara (TV Size)
Artist:DAOKO
ArtistUnicode:DAOKO
Creator:troll4uk
Version:Ensane
Source:Shingeki no Bahamut: Virgin Soul
Tags:Shingeki no Bahamut: Virgin Soul
BeatmapID:1283639
BeatmapSetID:602091

[Difficulty]
HPDrainRate:5
CircleSize:3.8
OverallDifficulty:8
ApproachRate:9
SliderMultiplier:1.2
SliderTickRate:1

[Events]
//Background and Video events
0,0,"dARLbsba9eo.jpg",0,0
Video,0,"Shingeki no Bahamut_ Virgin Soul ED _ Ending - Haikei Goodbye Sayounara by DAOKO.mp4"
//Break Periods
//Storyboard Layer 0 (Background)
//Storyboard Layer 1 (Fail)
//Storyboard Layer 2 (Pass)
//Storyboard Layer 3 (Foreground)
//Storyboard Sound Samples

[TimingPoints]
230,263.157894736842,3,2,0,70,1,0
230,263.157894736842,4,2,0,70,1,0
42335,-133.333333333333,4,2,0,70,0,0
54986,-200,4,2,0,70,0,0
60229,-100,4,2,0,70,0,0

[HitObjects]
73,215,230,5,0,0:0:0:0:
188,307,493,1,0,0:0:0:0:
252,185,756,1,0,0:0:0:0:
139,113,1019,1,0,0:0:0:0:
68,229,1282,5,0,0:0:0:0:
239,261,1545,1,0,0:0:0:0:
328,140,1808,1,0,0:0:0:0:
444,67,2072,1,0,0:0:0:0:
430,249,2335,5,0,0:0:0:0:
286,343,2598,1,0,0:0:0:0:
261,28,2861,1,0,0:0:0:0:
261,267,3124,1,0,0:0:0:0:
21,267,3387,5,0,0:0:0:0:
141,58,3651,1,0,0:0:0:0:
348,178,3914,2,0,L|372:59,2,120
142,301,4703,1,0,0:0:0:0:
78,69,4966,5,0,0:0:0:0:
408,144,5229,1,0,0:0:0:0:
320,264,5493,1,0,0:0:0:0:
192,232,5756,1,0,0:0:0:0:
136,96,6019,5,0,0:0:0:0:
264,48,6282,1,0,0:0:0:0:
400,72,6545,1,0,0:0:0:0:
304,176,6808,1,0,0:0:0:0:
168,216,7072,1,0,0:0:0:0:
288,296,7335,5,0,0:0:0:0:
320,160,7598,1,0,0:0:0:0:
320,160,7861,2,0,L|412:80,2,120
179,153,8651,5,0,0:0:0:0:
315,123,8914,1,0,0:0:0:0:
256,192,9177,1,0,0:0:0:0:
177,85,9440,6,0,L|280:16,2,120
72,96,10229,1,0,0:0:0:0:
64,240,10493,1,0,0:0:0:0:
200,240,10756,2,0,L|206:305,1,60
186,114,11019,2,0,L|174:40,1,60
289,113,11282,5,0,0:0:0:0:
289,113,11545,6,0,L|419:137,4,120
432,176,12861,5,0,0:0:0:0:
368,48,13124,1,0,0:0:0:0:
256,152,13387,1,0,0:0:0:0:
376,343,13651,6,0,L|416:224,2,120
200,320,14440,1,0,0:0:0:0:
104,216,14703,1,0,0:0:0:0:
168,88,14966,2,0,L|238:93,1,60
200,209,15229,2,0,L|158:159,1,60
128,104,15493,1,0,0:0:0:0:
364,145,15756,2,0,P|232:184|232:184,1,120
328,280,16282,5,0,0:0:0:0:
432,184,16545,1,0,0:0:0:0:
408,48,16808,1,0,0:0:0:0:
288,120,17072,5,0,0:0:0:0:
192,216,17335,5,0,0:0:0:0:
174,78,17598,2,0,L|293:106,1,120
384,128,18124,1,0,0:0:0:0:
320,248,18387,5,0,0:0:0:0:
192,200,18651,2,0,L|259:89,1,120
368,104,19177,1,0,0:0:0:0:
368,104,19440,2,0,P|384:97|452:16,2,120
304,216,20229,1,0,0:0:0:0:
184,176,20493,6,0,L|150:58,1,120
296,144,21019,1,0,0:0:0:0:
165,86,21282,2,0,L|263:4,2,120
232,192,22072,5,0,0:0:0:0:
112,112,22335,1,0,0:0:0:0:
240,48,22598,5,0,0:0:0:0:
296,176,22861,1,0,0:0:0:0:
208,280,23124,1,0,0:0:0:0:
104,192,23387,1,0,0:0:0:0:
31,28,23651,6,0,B|265:0|-51:388|182:407|499:318,1,720
353,221,25493,1,0,0:0:0:0:
353,221,25756,6,0,L|478:202,2,120
192,184,26545,2,0,L|264:181,6,60
328,168,27598,5,0,0:0:0:0:
296,304,27861,1,0,0:0:0:0:
160,264,28124,1,0,0:0:0:0:
64,160,28387,6,0,L|77:89,6,60
176,72,29440,5,0,0:0:0:0:
312,48,29703,1,0,0:0:0:0:
304,184,29966,1,0,0:0:0:0:
431,94,30229,2,0,L|496:96,6,60
237,175,31282,6,0,L|368:160,2,120
374,238,32072,2,0,L|448:240,6,60
256,304,33124,1,0,0:0:0:0:
340,237,33387,6,0,P|440:352|440:352,1,140
431,342,33914,5,0,0:0:0:0:
444,209,34177,1,0,0:0:0:0:
387,155,34440,2,0,L|329:108,1,60
264,112,34703,2,0,B|202:158|229:136,1,60
169,186,34966,1,0,0:0:0:0:
256,288,35229,1,0,0:0:0:0:
120,304,35493,5,0,0:0:0:0:
48,184,35756,1,0,0:0:0:0:
160,96,36019,1,0,0:0:0:0:
246,247,36282,2,0,L|144:176,1,120
156,32,36808,2,0,L|214:55,1,60
256,104,37072,2,0,L|325:95,1,60
428,177,37334,1,0,0:0:0:0:
428,177,37598,1,0,0:0:0:0:
304,304,37862,5,0,0:0:0:0:
184,232,38125,1,0,0:0:0:0:
280,48,38387,1,0,0:0:0:0:
280,48,38651,6,0,L|261:209,1,160
312,288,39177,1,0,0:0:0:0:
192,216,39440,1,0,0:0:0:0:
288,120,39703,1,0,0:0:0:0:
477,104,39966,6,0,L|440:240,1,140
312,288,40493,2,0,B|288:224|288:224|380:73,1,240
120,96,41282,2,0,P|232:80|298:187,1,240
81,82,42072,1,0,0:0:0:0:
210,43,42335,6,0,B|80:128|526:176|138:289|129:232|168:321,1,360.000013732911
320,288,43651,1,0,0:0:0:0:
264,192,43914,1,0,0:0:0:0:
344,88,44177,5,0,0:0:0:0:
448,184,44440,5,0,0:0:0:0:
392,312,44703,6,0,P|416:320|479:317,1,90.0000034332277
312,336,45229,5,0,0:0:0:0:
184,264,45493,1,0,0:0:0:0:
112,152,45756,1,0,0:0:0:0:
40,32,46019,1,0,0:0:0:0:
179,38,46282,1,0,0:0:0:0:
312,48,46545,6,0,L|411:20,1,90.0000034332277
288,160,47072,2,0,P|240:176|190:152,2,90.0000034332277
234,122,47861,1,0,0:0:0:0:
400,80,48124,1,0,0:0:0:0:
400,80,48387,2,0,L|345:156,1,90.0000034332277
128,72,48914,5,0,0:0:0:0:
240,304,49177,1,0,0:0:0:0:
440,96,49440,1,0,0:0:0:0:
192,168,49703,2,0,L|288:168,2,90.0000034332277
152,112,50493,5,0,0:0:0:0:
54,126,50756,6,0,B|176:192|226:-20|316:401|336:88|497:164,1,450.000017166138
248,205,52335,1,0,0:0:0:0:
248,178,52598,1,0,0:0:0:0:
271,192,52861,1,0,0:0:0:0:
192,312,53124,1,0,0:0:0:0:
304,216,53387,1,0,0:0:0:0:
412,53,53651,2,0,P|343:65|312:64,1,90.0000034332277
204,44,54177,5,0,0:0:0:0:
103,203,54440,2,0,L|207:192,1,90.0000034332277
280,280,54966,6,0,P|271:281|184:264,2,90.0000034332277
160,104,55756,1,0,0:0:0:0:
448,32,56019,1,0,0:0:0:0:
366,148,56282,2,0,L|336:208,3,60
176,80,57335,1,0,0:0:0:0:
168,216,57598,1,0,0:0:0:0:
329,133,57861,1,0,0:0:0:0:
152,280,58124,5,0,0:0:0:0:
424,328,58651,5,0,0:0:0:0:
32,56,59177,6,0,P|242:172|242:172,1,240
408,168,60492,1,0,0:0:0:0:
440,32,60755,1,0,0:0:0:0:
304,48,61018,1,0,0:0:0:0:
145,40,61282,6,0,P|176:112|144:144,1,120
120,240,61807,6,0,P|96:256|104:345,1,120
237,316,62334,6,0,L|368:343,1,120
472,294,62861,1,0,0:0:0:0:
386,128,63123,2,0,P|464:160|480:192,1,120
408,304,63650,1,0,0:0:0:0:
272,296,63913,1,0,0:0:0:0:
152,224,64176,1,0,0:0:0:0:
96,96,64439,5,0,0:0:0:0:
224,40,64702,1,0,0:0:0:0:
304,160,64965,1,0,0:0:0:0:
408,64,65229,1,0,0:0:0:0:
272,24,65492,1,0,0:0:0:0:
152,88,65755,1,0,0:0:0:0:
249,190,66018,6,0,L|376:227,1,120
303,60,66545,2,0,P|256:72|248:136,1,120
247,135,67072,1,0,0:0:0:0:
120,192,67334,1,0,0:0:0:0:
248,256,67597,1,0,0:0:0:0:
384,216,67860,5,0,0:0:0:0:
288,112,68123,1,0,0:0:0:0:
160,64,68386,1,0,0:0:0:0:
208,200,68650,6,0,L|336:198,4,120
320,280,69965,1,0,0:0:0:0:
184,272,70228,1,0,0:0:0:0:
264,160,70491,5,0,0:0:0:0:
120,160,70755,1,0,0:0:0:0:
220,46,71018,2,0,L|357:55,1,120
388,136,71544,2,0,L|508:151,1,120
378,282,72071,1,0,0:0:0:0:
200,312,72334,1,0,0:0:0:0:
144,80,72597,1,0,0:0:0:0:
256,64,72860,1,0,0:0:0:0:
333,67,73123,6,0,L|472:88,2,120
376,216,73913,1,0,0:0:0:0:
144,144,74439,1,0,0:0:0:0:
427,286,74965,6,0,B|424:280|432:248|524:343,1,120
333,272,75492,2,0,L|218:318,1,120
192,176,76018,1,0,0:0:0:0:
192,184,76807,5,0,0:0:0:0:
192,184,77334,2,0,L|316:178,1,120
218,184,78123,2,0,L|341:180,1,120
256,192,78650,12,0,81807,0:0:0:0:
256,192,82071,5,0,0:0:0:0:
256,192,82334,12,0,86018,0:0:0:0:
256,192,86281,5,0,0:0:0:0:
