osu file format v14

[General]
AudioFilename: audio.mp3
AudioLeadIn: 0
PreviewTime: 210893
Countdown: 0
SampleSet: Soft
StackLeniency: 0.5
Mode: 0
LetterboxInBreaks: 0
WidescreenStoryboard: 0

[Editor]
Bookmarks: 24018,64018,84018,94018,128393,130268,131518,141518,161518,178080,181518,190893,231518,271518
DistanceSpacing: 0.5
BeatDivisor: 4
GridSize: 4
TimelineZoom: 1.4

[Metadata]
Title:Uchiage Hanabi
TitleUnicode:打上花火
Artist:DAOKO & Kenshi Yonezu
ArtistUnicode:DAOKO × 米津玄師
Creator:6 digit
Version:Full Bloom
Source:打ち上げ花火、下から見るか?横から見るか?
Tags:Uchiage Hanabi Shita kara Miru ka? Yoko kara Miru ka? aaa shaft fireworks
BeatmapID:1386953
BeatmapSetID:654312

[Difficulty]
HPDrainRate:6
CircleSize:4
OverallDifficulty:6
ApproachRate:8
SliderMultiplier:1.5
SliderTickRate:1

[Events]
//Background and Video events
0,0,"icanswimgirl.jpg",0,0
Video,0,"aaa3.avi"
//Break Periods
2,84217,92955
2,181717,190143
//Storyboard Layer 0 (Background)
//Storyboard Layer 1 (Fail)
//Storyboard Layer 2 (Pass)
//Storyboard Layer 3 (Foreground)
//Storyboard Sound Samples

[TimingPoints]
4018,625,4,2,0,10,1,0
4018,-125,4,2,0,10,0,0
13393,-83.3333333333333,4,2,0,5,0,0
13861,-83.3333333333333,4,2,0,10,0,0
14018,-125,4,2,0,10,0,0
17768,-125,4,2,0,25,0,0
18080,-125,4,2,0,30,0,0
18393,-125,4,2,0,35,0,0
18705,-125,4,2,0,40,0,0
19018,-125,4,2,0,10,0,0
20268,-125,4,2,0,20,0,0
20580,-125,4,2,0,25,0,0
20893,-125,4,2,0,30,0,0
21205,-125,4,2,0,35,0,0
21518,-125,4,2,0,40,0,0
21830,-125,4,2,0,45,0,0
22143,-125,4,2,0,50,0,0
22455,-125,4,2,0,55,0,0
22768,-125,4,2,0,60,0,0
23080,-125,4,2,0,65,0,0
23393,-125,4,2,0,45,0,0
44018,-100,4,2,0,45,0,0
54018,-100,4,2,0,50,0,0
58080,-100,4,2,0,55,0,0
58393,-100,4,2,0,60,0,0
58705,-100,4,2,0,45,0,0
59643,-100,4,2,0,30,0,0
60893,-166.666666666667,4,2,0,20,0,0
63393,-83.3333333333333,4,2,0,10,0,0
64018,-83.3333333333333,4,2,0,70,0,1
83549,-125,4,2,0,70,0,1
84018,-83.3333333333333,4,2,0,30,0,0
93705,-125,4,2,0,30,0,0
94018,-125,4,2,0,45,0,0
109330,-166.666666666667,4,2,0,25,0,0
109799,-142.857142857143,4,2,0,30,0,0
110268,-125,4,2,0,35,0,0
110580,-125,4,2,0,45,0,0
110736,-125,4,2,0,40,0,0
111205,-125,4,2,0,45,0,0
112768,-125,4,2,0,20,0,0
114018,-100,4,2,0,45,0,0
124955,-100,4,2,0,35,0,0
125893,-100,4,2,0,40,0,0
127143,-100,4,2,0,45,0,0
128393,-100,4,2,0,45,0,0
129018,-100,4,2,0,35,0,0
129330,-100,4,2,0,37,0,0
129643,-100,4,2,0,40,0,0
129955,-100,4,2,0,42,0,0
130268,-100,4,2,0,45,0,0
130580,-100,4,2,0,47,0,0
130893,-100,4,2,0,50,0,0
131205,-100,4,2,0,52,0,0
131518,-83.3333333333333,4,2,0,45,0,0
140893,-83.3333333333333,4,2,0,10,0,0
141518,-83.3333333333333,4,2,0,70,0,1
161518,-83.3333333333333,4,2,0,70,0,0
171518,-83.3333333333333,4,2,0,70,0,0
179018,-83.3333333333333,4,2,0,60,0,1
179330,-80,4,2,0,60,0,1
179643,-76.9230769230769,4,2,0,65,0,1
179955,-74.0740740740741,4,2,0,65,0,1
180268,-125,4,2,0,70,0,1
181518,-125,4,2,0,35,0,0
206518,-125,4,2,0,45,0,0
207768,-125,4,2,0,30,0,0
208080,-125,4,2,0,35,0,0
208393,-125,4,2,0,40,0,0
208705,-125,4,2,0,45,0,0
209018,-125,4,2,0,40,0,0
209643,-100,4,2,0,47,0,0
210268,-83.3333333333333,4,2,0,55,0,0
210893,-83.3333333333333,4,2,0,10,0,0
211518,-83.3333333333333,4,2,0,70,0,1
231518,-83.3333333333333,4,2,0,70,0,0
239018,-83.3333333333333,4,2,0,50,0,0
239643,-83.3333333333333,4,2,0,55,0,0
240268,-83.3333333333333,4,2,0,60,0,0
240893,-83.3333333333333,4,2,0,65,0,0
241518,-83.3333333333333,4,2,0,70,0,0
250580,-83.3333333333333,4,2,0,55,0,0
250893,-83.3333333333333,4,2,0,60,0,0
251205,-83.3333333333333,4,2,0,65,0,0
251518,-83.3333333333333,4,2,0,70,0,0
259018,-83.3333333333333,4,2,0,50,0,0
259643,-83.3333333333333,4,2,0,55,0,0
260268,-83.3333333333333,4,2,0,60,0,0
260893,-83.3333333333333,4,2,0,65,0,0
261518,-83.3333333333333,4,2,0,70,0,0
270580,-83.3333333333333,4,2,0,55,0,0
270893,-83.3333333333333,4,2,0,60,0,0
271205,-83.3333333333333,4,2,0,30,0,0
271518,-166.666666666667,4,2,0,10,0,0
276518,621.761658031088,4,2,0,10,1,0
276518,-166.666666666667,4,2,0,10,0,0
278694,638.297872340426,4,2,0,10,1,0
279013,-166.666666666667,4,2,0,10,0,0
279651,652.173913043478,4,2,0,9,1,0
279651,-200,4,2,0,9,0,0
280303,731.707317073171,4,2,0,8,1,0
280303,-250,4,2,0,8,0,0
281034,839.160839160839,4,2,0,7,1,0
281034,-333,4,2,0,7,0,0
281873,923.076923076923,4,2,0,6,1,0
281873,-500,4,2,0,6,0,0
282334,1212.12121212121,4,2,0,6,1,0
282940,-500,4,2,0,5,0,0

[Colours]
Combo1 : 223,123,223
Combo2 : 242,177,26
Combo3 : 104,194,249
Combo4 : 61,241,155

[HitObjects]
200,20,4018,6,0,P|229:20|259:25,1,60
247,173,4643,2,0,P|217:173|187:169,1,60
344,76,5268,5,0,0:0:0:0:
344,196,5580,1,0,0:0:0:0:
444,132,5893,2,0,P|443:102|439:72,1,60
404,208,6518,6,0,L|345:211,1,60
284,300,7143,2,0,L|344:303,1,60
224,368,7768,1,0,0:0:0:0:
228,232,8080,1,0,0:0:0:0:
268,304,8393,1,0,0:0:0:0:
186,298,8705,1,0,0:0:0:0:
308,232,9018,6,0,P|313:202|313:172,1,60
152,160,9643,2,0,P|145:189|148:219,1,60
256,56,10268,1,0,0:0:0:0:
140,24,10580,1,0,0:0:0:0:
160,144,10893,2,0,L|219:141,1,60
204,284,11518,6,0,P|203:254|199:224,1,60
260,340,12143,1,0,0:0:0:0:
280,264,12455,1,0,0:0:0:0:
336,320,12768,1,0,0:0:0:0:
204,284,13080,1,0,0:0:0:0:
312,192,13393,6,0,P|322:148|236:148,1,134.999995880127,2|0,0:0|0:0,0:0:0:0:
278,276,14018,6,0,P|307:283|337:279,1,60,2|0,0:0|0:0,0:0:0:0:
344,143,14643,2,0,P|323:164|311:192,1,60,2|0,0:0|0:0,0:0:0:0:
424,265,15268,2,0,P|416:237|398:214,1,60,2|0,0:0|0:0,0:0:0:0:
260,152,15893,1,0,0:0:0:0:
312,220,16205,1,0,0:0:0:0:
348,136,16518,6,0,L|346:76,1,60,2|0,0:0|0:0,0:0:0:0:
244,48,17143,2,0,L|242:107,1,60,2|0,0:0|0:0,0:0:0:0:
92,132,17768,5,0,0:0:0:0:
174,136,18080,1,0,0:0:0:0:
132,201,18393,1,0,0:0:0:0:
136,67,18705,1,0,0:0:0:0:
204,204,19018,6,0,L|144:206,1,60,2|0,0:0|0:0,0:0:0:0:
120,292,19643,2,0,L|179:294,1,60,2|0,0:0|0:0,0:0:0:0:
300,274,20268,5,0,0:3:0:0:
292,196,20580,1,0,0:3:0:0:
228,240,20893,1,0,0:3:0:0:
364,228,21205,1,0,0:3:0:0:
280,104,21518,5,0,0:3:0:0:
363,149,21830,1,0,0:3:0:0:
360,60,22143,1,0,0:3:0:0:
288,188,22455,1,0,0:3:0:0:
208,64,22768,5,0,0:3:0:0:
61,65,23080,1,0,0:3:0:0:
132,8,23393,2,0,L|134:72,1,60,8|0,0:3|0:0,0:0:0:0:
104,232,24018,6,0,B|106:172|106:172|103:139,1,90,4|0,0:3|0:0,0:0:0:0:
100,128,24643,1,2,0:0:0:0:
204,212,24955,2,0,P|233:211|263:207,2,60,0|0|4,0:0|0:0|0:3,0:0:0:0:
316,140,25893,1,0,0:0:0:0:
315,272,26205,1,0,0:0:0:0:
429,206,26518,5,4,0:3:0:0:
353,205,26830,1,0,0:0:0:0:
392,364,27143,2,0,B|394:304|394:304|391:271,1,90,2|0,0:2|0:0,0:0:0:0:
380,264,27768,2,0,L|316:261,1,60,0|4,0:3|0:3,0:0:0:0:
252,360,28393,2,0,L|315:362,1,60,4|0,0:3|0:0,0:0:0:0:
184,280,29018,6,0,B|181:220|181:220|184:187,1,90,4|0,0:3|0:0,0:0:0:0:
188,176,29643,2,0,P|140:176|96:172,1,90,2|0,0:0|0:0,0:0:0:0:
44,116,30268,1,0,0:0:0:0:
144,40,30580,2,0,L|146:103,1,60,4|0,0:3|0:0,0:0:0:0:
220,152,31205,1,0,0:0:0:0:
108,192,31518,6,0,P|104:224|104:256,1,60,4|0,0:3|0:0,0:0:0:0:
256,260,32143,2,0,P|259:230|260:200,1,60,2|0,0:0|0:0,0:0:0:0:
180,308,32768,2,0,P|180:337|184:367,1,60,0|4,0:0|0:3,0:0:0:0:
336,368,33393,2,0,P|336:339|332:309,1,60,0|4,0:0|0:3,0:0:0:0:
316,156,34018,6,0,B|376:158|376:158|409:155,1,90,4|0,0:3|0:0,0:0:0:0:
420,152,34643,1,2,0:0:0:0:
312,88,34955,2,0,P|309:118|308:148,1,60
388,80,35580,1,4,0:3:0:0:
308,168,35893,1,0,0:0:0:0:
408,232,36205,1,0,0:0:0:0:
248,232,36518,6,0,P|216:236|184:236,2,60,4|0|2,0:3|0:0|0:0,0:0:0:0:
144,172,37455,2,0,L|141:112,1,60
56,196,38080,1,4,0:3:0:0:
4,56,38393,2,0,L|1:119,1,60,4|0,0:3|0:0,0:0:0:0:
116,80,39018,6,0,B|176:78|176:78|209:81,1,90,4|0,0:3|0:0,0:0:0:0:
220,88,39643,2,0,P|260:108|308:108,1,90,2|0,0:0|0:0,0:0:0:0:
320,104,40268,1,0,0:0:0:0:
240,8,40580,1,4,0:3:0:0:
232,96,40893,1,0,0:0:0:0:
328,16,41205,1,0,0:0:0:0:
396,168,41518,6,0,P|399:138|400:108,1,60,4|0,0:3|0:0,0:0:0:0:
224,92,42143,2,0,B|222:152|222:152|225:185,1,90,2|0,0:0|0:0,0:0:0:0:
228,196,42768,1,0,0:0:0:0:
304,152,43080,1,4,0:3:0:0:
124,156,43393,2,0,L|126:96,1,60,4|0,0:3|0:0,0:0:0:0:
132,248,44018,6,2,B|207:245|207:245|248:249,1,112.5,2|2,0:1|0:0,0:0:0:0:
260,256,44643,1,2,0:0:0:0:
212,356,44955,2,0,L|211:337,2,18.75,2|2|2,0:0|0:0|0:0,0:0:0:0:
136,344,45268,1,2,0:0:0:0:
236,264,45580,1,4,0:3:0:0:
364,344,45893,2,0,B|367:269|367:269|363:228,1,112.5,4|0,0:3|0:0,0:0:0:0:
356,212,46518,6,0,P|392:212|432:208,1,75,4|0,0:3|0:0,0:0:0:0:
404,64,47143,1,2,0:0:0:0:
308,152,47455,2,2,L|280:151,2,18.75
384,140,47768,1,2,0:0:0:0:
260,88,48080,1,4,0:3:0:0:
277,222,48393,1,4,0:3:0:0:
340,67,48705,2,2,L|341:40,2,18.75
280,112,49018,6,0,P|242:115|205:115,1,75,4|0,0:3|0:0,0:0:0:0:
68,56,49643,1,2,0:0:0:0:
52,188,49955,2,2,L|51:161,2,18.75
128,176,50268,1,2,0:0:0:0:
16,104,50580,1,4,0:3:0:0:
0,236,50893,1,4,0:3:0:0:
128,196,51205,1,0,0:0:0:0:
124,324,51518,6,0,L|40:321,1,75,4|0,0:3|0:0,0:0:0:0:
24,248,52143,1,2,0:0:0:0:
148,208,52455,2,2,L|147:231,2,18.75
108,144,52768,1,2,0:0:0:0:
224,200,53080,1,4,0:3:0:0:
324,116,53393,2,0,P|328:152|328:196,1,75,4|0,0:3|0:0,0:0:0:0:
288,28,54018,6,2,B|363:25|363:25|404:29,1,112.5,2|2,0:1|0:0,0:0:0:0:
416,32,54643,1,2,0:0:0:0:
368,108,54955,2,2,L|340:107,2,18.75
448,148,55268,2,0,L|487:146,1,37.5,2|2,0:0|0:0,0:0:0:0:
376,200,55580,2,0,L|336:198,1,37.5,4|2,0:3|0:0,0:0:0:0:
456,240,55893,2,0,L|457:279,2,37.5,2|2|2,0:0|0:0|0:0,0:0:0:0:
456,240,56518,6,0,P|420:252|376:252,1,75,6|0,0:0|0:0,0:0:0:0:
252,196,57143,1,2,0:0:0:0:
332,188,57455,2,2,L|333:169,2,18.75
300,264,57768,2,0,L|297:303,1,37.5,0|2,0:3|0:0,0:0:0:0:
216,276,58080,2,0,L|213:236,1,37.5,4|2,0:3|0:0,0:0:0:0:
136,272,58393,2,0,L|133:311,1,37.5,4|2,0:3|0:0,0:0:0:0:
60,248,58705,6,0,B|62:226|73:209|96:195|96:195|112:168|112:136|100:112,1,150,6|0,0:0|0:0,0:0:0:0:
28,92,59643,5,0,0:0:0:0:
4,164,59955,1,0,0:0:0:0:
36,232,60268,1,0,0:0:0:0:
108,256,60580,1,0,0:0:0:0:
176,232,60893,6,0,P|152:120|72:196,1,269.999991760254
304,208,63393,5,4,0:0:0:0:
296,52,63705,1,4,0:0:0:0:
312,68,63861,1,12,0:0:0:0:
244,128,64018,6,0,P|289:119|337:122,1,89.9999972534181,4|2,0:3|0:0,0:0:0:0:
360,131,64486,1,2,0:0:0:0:
300,252,64643,2,0,L|298:204,2,44.999998626709,8|0|4,0:2|0:0|0:3,0:0:0:0:
428,184,65111,2,0,L|424:287,1,89.9999972534181,4|0,0:3|0:0,0:0:0:0:
428,300,65580,1,4,0:3:0:0:
428,300,65893,5,8,0:0:0:0:
272,292,66205,1,2,0:0:0:0:
288,308,66361,1,2,0:0:0:0:
316,204,66518,6,0,L|224:207,1,89.9999972534181,4|2,0:3|0:0,0:0:0:0:
204,208,66986,1,4,0:3:0:0:
112,252,67143,2,0,L|114:204,2,44.999998626709,8|0|4,0:0|0:0|0:3,0:0:0:0:
64,136,67611,2,0,P|108:120|152:128,1,89.9999972534181,4|0,0:3|0:0,0:0:0:0:
172,144,68080,1,4,0:3:0:0:
172,144,68393,5,8,0:0:0:0:
169,300,68705,1,2,0:0:0:0:
154,283,68861,1,2,0:0:0:0:
256,260,69018,5,4,0:0:0:0:
256,260,69643,2,0,L|254:303,2,44.999998626709,8|0|4,0:0|0:0|3:0,0:0:0:0:
348,344,70111,2,0,L|346:300,1,44.999998626709,4|0,0:3|0:3,0:0:0:0:
392,220,70424,2,0,L|395:121,1,89.9999972534181,4|0,0:3|0:0,0:0:0:0:
440,52,70893,2,0,P|462:53|484:57,2,44.999998626709,8|0|4,0:0|0:0|0:3,0:0:0:0:
304,60,71518,6,0,L|307:159,1,89.9999972534181,4|2,0:3|0:0,0:0:0:0:
300,172,71986,1,4,0:3:0:0:
180,132,72143,2,0,P|208:128|236:128,2,44.999998626709,8|0|4,0:0|0:0|0:3,0:0:0:0:
96,160,72611,2,0,P|92:112|112:72,1,89.9999972534181,4|0,0:3|0:0,0:0:0:0:
132,68,73080,1,4,0:3:0:0:
132,68,73393,5,8,0:0:0:0:
135,224,73705,1,2,0:0:0:0:
150,207,73861,1,2,0:0:0:0:
48,188,74018,6,0,P|48:232|60:276,1,89.9999972534181,4|2,0:0|0:0,0:0:0:0:
72,296,74486,1,4,0:3:0:0:
200,256,74643,2,0,L|152:254,2,44.999998626709,8|0|4,0:0|0:0|0:3,0:0:0:0:
280,336,75111,2,0,L|379:332,1,89.9999972534181,4|0,0:3|0:0,0:0:0:0:
392,320,75580,1,4,0:3:0:0:
392,320,75893,5,8,0:0:0:0:
389,164,76205,1,2,0:0:0:0:
374,181,76361,1,2,0:0:0:0:
484,204,76518,6,0,L|480:96,1,89.9999972534181,4|2,0:3|0:0,0:0:0:0:
472,92,76986,1,4,0:3:0:0:
348,140,77143,2,0,L|411:137,2,44.999998626709,8|0|4,0:0|0:0|0:3,0:0:0:0:
276,68,77611,2,0,P|252:108|248:152,1,89.9999972534181,4|0,0:3|0:0,0:0:0:0:
256,176,78080,1,4,0:3:0:0:
256,176,78393,6,0,L|192:178,1,44.999998626709,8|8,0:0|0:3,0:0:0:0:
136,92,78705,2,0,L|180:93,1,44.999998626709,4|8,0:3|0:3,0:0:0:0:
120,268,79018,6,0,L|116:172,1,89.9999972534181,4|2,0:0|0:0,0:0:0:0:
244,216,79643,2,0,L|240:305,1,89.9999972534181,8|4,0:0|0:3,0:0:0:0:
232,320,80111,1,4,0:3:0:0:
336,276,80268,2,0,L|383:274,2,44.999998626709,4|8|4,0:3|0:3|0:0,0:0:0:0:
320,136,80893,2,0,L|318:180,1,44.999998626709,8|8,0:0|0:3,0:0:0:0:
420,192,81205,2,0,L|418:148,1,44.999998626709,4|8,0:0|0:3,0:0:0:0:
472,48,81518,6,0,L|372:51,1,89.9999972534181,4|2,0:0|0:0,0:0:0:0:
360,52,81986,1,4,0:3:0:0:
224,24,82143,1,12,0:0:0:0:
204,156,82768,6,0,L|202:112,1,44.999998626709,4|8,0:3|0:3,0:3:0:0:
304,148,83080,2,0,L|302:192,1,44.999998626709,4|8,0:3|0:3,0:3:0:0:
224,260,83393,5,8,0:0:0:0:
212,252,83549,2,0,P|196:208|208:168,1,90
136,212,93705,5,4,0:3:0:0:
140,228,93861,1,4,0:3:0:0:
144,244,94018,6,0,B|172:240|172:240|204:240,1,60,4|0,0:3|0:3,0:0:0:0:
220,244,94486,1,0,0:0:0:0:
304,280,94643,2,0,L|301:339,1,60,2|0,0:0|0:0,0:0:0:0:
396,324,95268,2,0,L|393:265,1,60,0|4,0:0|0:3,0:0:0:0:
392,248,95736,1,0,0:0:0:0:
464,196,95893,2,0,L|461:136,1,60,2|0,0:0|0:0,0:0:0:0:
460,120,96361,1,0,0:0:0:0:
416,40,96518,6,0,B|388:36|388:36|356:36,1,60,4|0,0:3|0:0,0:0:0:0:
340,40,96986,1,0,0:0:0:0:
276,104,97143,2,0,L|278:148,1,30,2|0,0:0|0:0,0:0:0:0:
280,152,97455,1,0,0:0:0:0:
192,36,97768,2,0,B|188:64|188:64|188:96,1,60,0|4,0:0|0:3,0:0:0:0:
100,48,98393,2,0,L|64:44,2,30,4|0|0,0:3|0:3|0:0,0:0:0:0:
112,52,98861,1,0,0:0:0:0:
188,92,99018,6,0,B|192:120|192:120|192:152,1,60,4|0,0:3|0:0,0:0:0:0:
188,168,99486,1,0,0:0:0:0:
48,168,99643,2,0,B|70:150|70:150|97:134,1,60,2|0,0:0|0:0,0:0:0:0:
113,130,100111,1,0,0:0:0:0:
183,251,100268,2,0,B|156:240|156:240|129:225,1,60,0|4,0:3|0:3,0:0:0:0:
118,213,100736,1,0,0:0:0:0:
268,204,100893,2,0,L|270:271,1,60,2|0,0:0|0:0,0:0:0:0:
268,280,101361,1,0,0:0:0:0:
220,356,101518,6,0,B|190:353|190:353|130:356,1,90,4|0,0:3|0:0,0:0:0:0:
116,356,102143,2,0,L|113:292,1,60,2|0,0:0|0:0,0:0:0:0:
28,268,102768,2,0,L|29:228,2,30,0|0|4,0:3|0:0|0:3,0:0:0:0:
112,184,103393,2,0,L|113:215,2,30,2|4|4,0:0|0:3|0:3,0:0:0:0:
108,168,103861,1,4,0:3:0:0:
92,80,104018,6,0,B|60:80|60:80|28:76,1,60,4|0,0:3|0:0,0:0:0:0:
16,72,104486,1,0,0:0:0:0:
116,4,104643,2,0,L|118:64,1,60,2|0,0:0|0:0,0:0:0:0:
118,80,105111,1,0,0:0:0:0:
216,124,105268,2,0,L|218:64,1,60,0|4,0:0|0:3,0:0:0:0:
218,48,105736,1,0,0:0:0:0:
316,88,105893,2,0,L|318:147,1,60,2|0,0:0|0:0,0:0:0:0:
320,164,106361,1,0,0:0:0:0:
420,200,106518,6,0,B|424:172|424:172|423:141,1,60,4|0,0:3|0:0,0:0:0:0:
420,124,106986,1,0,0:0:0:0:
320,164,107143,2,0,L|349:162,2,30,2|0|0,0:0|0:0|0:0,0:0:0:0:
200,144,107768,2,0,B|197:171|197:171|197:203,1,60,0|4,0:0|0:3,0:0:0:0:
240,284,108393,2,0,L|279:285,2,30,2|4|4,0:0|0:3|0:3,0:0:0:0:
224,280,108861,1,4,0:3:0:0:
160,224,109018,1,4,0:3:0:0:
160,224,109330,6,0,L|116:222,1,44.999998626709,4|2,0:0|0:0,0:0:0:0:
68,316,109799,2,0,L|119:314,1,52.4999983978272,4|2,0:0|0:0,0:0:0:0:
156,212,110268,6,0,L|96:209,1,60,4|0,0:0|0:0,0:0:0:0:
60,328,110736,2,0,L|119:325,1,60,4|0,0:0|0:0,0:0:0:0:
200,284,111205,6,0,P|208:308|208:344,2,60,4|4|0,0:0|0:3|0:0,0:0:0:0:
132,232,112143,2,0,B|129:202|129:202|131:142,1,90,2|0,0:0|0:0,0:0:0:0:
132,128,112768,2,0,P|116:120|104:112,1,30,2|0,0:0|0:0,0:0:0:0:
208,116,113080,1,2,0:0:0:0:
220,192,113393,1,2,0:0:0:0:
144,204,113705,1,2,0:0:0:0:
132,36,114018,6,0,B|169:32|169:32|244:35,1,112.5,2|2,0:1|0:0,0:0:0:0:
264,36,114643,1,2,0:0:0:0:
216,140,114955,2,0,L|214:108,2,18.75,2|2|2,0:0|0:0|0:0,0:0:0:0:
160,200,115268,1,2,0:0:0:0:
188,64,115580,1,4,0:3:0:0:
296,160,115893,2,0,L|333:161,1,37.5,2|0,0:0|0:0,0:0:0:0:
352,160,116205,1,2,0:0:0:0:
500,136,116518,6,0,B|500:174|500:174|504:210,1,75,4|0,0:3|0:0,0:0:0:0:
508,228,116986,1,2,0:0:0:0:
456,296,117143,2,0,L|454:339,1,37.5,2|0,0:0|0:0,0:0:0:0:
356,280,117455,2,0,L|375:279,2,18.75,2|2|2,0:0|0:0|0:0,0:0:0:0:
352,360,117768,1,2,0:0:0:0:
296,220,118080,1,4,0:3:0:0:
156,276,118393,2,0,L|119:274,1,37.5,2|0,0:0|0:0,0:0:0:0:
96,192,118705,2,0,L|95:173,2,18.75,2|2|2,0:0|0:0|0:0,0:0:0:0:
180,196,119018,6,0,B|184:160|184:160|184:120,1,75,2|0,0:1|0:0,0:0:0:0:
180,104,119486,1,2,0:0:0:0:
100,68,119643,2,0,B|96:116,1,37.5,2|0,0:0|0:0,0:0:0:0:
24,156,119955,2,0,L|4:155,2,18.75,2|2|2,0:0|0:0|0:0,0:0:0:0:
100,192,120268,1,2,0:0:0:0:
0,80,120580,1,4,0:3:0:0:
3,232,120893,1,2,0:0:0:0:
84,105,121205,1,2,0:0:0:0:
220,176,121518,6,0,L|218:96,2,75,4|2|2,0:3|0:0|0:0,0:0:0:0:
201,288,122455,2,0,L|220:288,2,18.75,2|2|2,0:0|0:0|0:0,0:0:0:0:
300,260,122768,2,0,P|292:244|280:228,1,37.5,2|0,0:0|0:0,0:0:0:0:
288,336,123080,1,4,0:3:0:0:
364,348,123393,1,2,0:0:0:0:
376,272,123705,1,2,0:0:0:0:
296,248,124018,6,0,B|295:196|295:196|298:147|298:147|297:95,1,150,2|0,0:1|0:0,0:0:0:0:
256,12,124955,2,0,P|236:3|212:0,1,37.5,2|0,0:0|0:0,0:0:0:0:
380,52,125268,2,0,P|419:34|455:34,1,75,2|0,0:0|0:0,0:0:0:0:
200,96,125893,2,0,P|175:99|144:116,1,37.5,2|0,0:0|0:0,0:0:0:0:
404,140,126205,2,0,P|432:164|452:196,2,75,2|2|2,0:0|0:0|0:0,0:0:0:0:
224,188,127143,2,0,P|213:205|206:229,1,37.5,2|0,0:0|0:0,0:0:0:0:
336,212,127455,2,0,P|344:252|344:288,2,75,2|2|2,0:0|0:0|0:0,0:0:0:0:
296,112,128393,1,2,0:0:0:0:
296,112,128705,1,2,0:0:0:0:
192,152,129018,5,0,0:0:0:0:
164,151,129330,1,0,0:0:0:0:
132,149,129643,1,0,0:0:0:0:
104,148,129955,1,0,0:0:0:0:
96,36,130268,5,0,0:0:0:0:
138,35,130580,1,0,0:0:0:0:
187,32,130893,1,0,0:0:0:0:
229,30,131205,1,0,0:0:0:0:
316,60,131518,6,0,P|360:64|408:52,1,89.9999972534181,4|2,0:2|0:0,0:0:0:0:
404,53,132143,2,0,L|400:148,1,89.9999972534181,2|2,0:0|0:0,0:0:0:0:
276,248,132611,2,0,P|291:205|315:164,1,89.9999972534181,2|2,0:0|0:0,0:0:0:0:
420,232,133080,2,0,L|376:231,1,44.999998626709,4|0,0:3|0:0,0:0:0:0:
480,296,133393,2,0,L|477:359,2,44.999998626709,2|0|0,0:0|0:0|0:0,0:0:0:0:
488,276,133861,1,0,0:0:0:0:
356,316,134018,6,0,P|311:311|267:299,1,89.9999972534181,4|2,0:3|0:0,0:0:0:0:
267,299,134643,2,0,L|268:255,2,44.999998626709,2|0|0,0:0|0:0|0:0,0:0:0:0:
176,316,135111,6,0,P|168:272|168:224,1,89.9999972534181,2|2,0:0|0:0,0:0:0:0:
328,212,135580,2,0,P|293:240|252:264,1,89.9999972534181,4|2,0:3|0:0,0:0:0:0:
161,132,136049,2,0,P|203:147|244:171,1,89.9999972534181,4|0,0:3|0:0,0:0:0:0:
72,168,136518,6,0,P|72:123|80:78,1,89.9999972534181,4|2,0:3|0:0,0:0:0:0:
79,78,137143,2,0,L|170:81,1,89.9999972534181,2|2,0:0|0:0,0:0:0:0:
288,196,137611,2,0,P|245:181|204:157,1,89.9999972534181,2|2,0:0|0:0,0:0:0:0:
252,40,138080,2,0,L|254:83,1,44.999998626709,4|0,0:3|0:0,0:0:0:0:
344,96,138393,2,0,L|343:52,2,44.999998626709,2|0|0,0:0|0:0|0:0,0:0:0:0:
352,116,138861,1,0,0:0:0:0:
476,196,139018,6,0,P|431:196|386:204,1,89.9999972534181,4|2,0:3|0:0,0:0:0:0:
386,204,139643,2,0,L|385:248,2,44.999998626709,2|0|0,0:0|0:0|0:0,0:0:0:0:
396,184,140111,1,2,0:0:0:0:
256,240,140268,6,0,P|208:240|160:228,1,89.9999972534181,8|4,0:3|0:3,0:0:0:0:
152,220,140736,1,4,0:3:0:0:
168,104,140893,5,4,0:0:0:0:
12,112,141205,1,4,0:0:0:0:
28,96,141361,1,4,0:0:0:0:
92,160,141518,6,0,P|84:116|84:68,1,89.9999972534181,4|2,0:0|0:0,0:0:0:0:
88,52,141986,1,4,0:3:0:0:
216,96,142143,2,0,L|213:175,2,44.999998626709,8|0|4,0:0|0:0|0:3,0:0:0:0:
348,68,142611,2,0,L|351:163,1,89.9999972534181,4|0,0:3|0:0,0:0:0:0:
356,184,143080,1,4,0:3:0:0:
356,184,143393,5,8,0:0:0:0:
364,340,143705,1,2,0:0:0:0:
348,324,143861,1,2,0:0:0:0:
412,260,144018,6,0,P|368:268|320:268,1,89.9999972534181,4|2,0:0|0:0,0:0:0:0:
300,264,144486,1,4,0:3:0:0:
240,176,144643,2,0,L|242:131,2,44.999998626709,8|0|4,0:0|0:0|0:3,0:0:0:0:
140,152,145111,2,0,P|139:107|160:68,1,89.9999972534181,4|0,0:3|0:0,0:0:0:0:
184,64,145580,1,0,0:0:0:0:
184,64,145893,5,8,0:0:0:0:
29,52,146205,1,2,0:0:0:0:
48,39,146361,1,2,0:0:0:0:
56,144,146518,5,4,0:0:0:0:
56,144,147143,2,0,L|12:146,2,44.999998626709,8|0|4,0:0|0:0|0:3,0:0:0:0:
44,32,147611,2,0,L|88:33,1,44.999998626709,4|0,0:3|0:0,0:0:0:0:
148,104,147924,2,0,L|237:100,1,89.9999972534181,4|0,0:3|0:0,0:0:0:0:
340,96,148393,2,0,P|335:118|334:140,2,44.999998626709,8|0|4,0:0|0:0|0:3,0:0:0:0:
460,164,149018,6,0,L|456:74,1,89.9999972534181,4|2,0:3|0:0,0:0:0:0:
448,52,149486,1,4,0:3:0:0:
324,108,149643,2,0,P|348:112|372:112,2,44.999998626709,8|0|4,0:0|0:0|0:3,0:0:0:0:
248,40,150111,2,4,P|224:84|224:124,1,89.9999972534181,4|0,0:3|0:0,0:3:0:0:
236,152,150580,1,4,0:3:0:0:
236,152,150893,5,8,0:0:0:0:
248,306,151205,1,2,0:0:0:0:
261,287,151361,1,2,0:0:0:0:
163,255,151518,6,0,P|148:299|152:343,1,89.9999972534181,4|2,0:0|0:0,0:0:0:0:
164,359,151986,1,4,0:3:0:0:
292,307,152143,2,0,L|240:305,2,44.999998626709,8|0|4,0:0|0:0|0:3,0:0:0:0:
320,187,152611,2,0,L|228:191,1,89.9999972534181,4|0,0:3|0:0,0:0:0:0:
208,195,153080,1,4,0:3:0:0:
208,195,153393,5,8,0:0:0:0:
199,40,153705,1,2,0:0:0:0:
214,57,153861,1,2,0:0:0:0:
148,120,154018,6,0,P|192:108|240:108,1,89.9999972534181,4|2,0:3|0:0,0:0:0:0:
260,112,154486,1,2,0:0:0:0:
212,240,154643,2,0,L|210:195,2,44.999998626709,8|0|4,0:0|0:0|0:3,0:0:0:0:
108,260,155111,2,0,P|100:216|104:172,1,89.9999972534181,4|0,0:3|0:0,0:0:0:0:
116,152,155580,1,4,0:3:0:0:
116,152,155893,6,0,L|175:155,1,44.999998626709,8|8,0:0|0:3,0:0:0:0:
176,64,156205,2,0,L|116:67,1,44.999998626709,12|8,0:3|0:3,0:0:0:0:
256,144,156518,6,0,L|259:53,1,89.9999972534181,4|0,0:0|0:0,0:0:0:0:
128,88,157143,2,0,L|131:178,1,89.9999972534181,8|4,0:0|0:3,0:0:0:0:
140,200,157611,1,4,0:3:0:0:
44,140,157768,2,0,L|-11:138,2,44.999998626709,4|8|4,0:3|0:3|0:0,0:0:0:0:
40,252,158393,2,0,L|38:296,1,44.999998626709,8|8,0:0|0:3,0:0:0:0:
132,336,158705,2,0,L|130:272,1,44.999998626709,4|0,0:0|0:0,0:0:0:0:
308,260,159018,6,0,P|260:264|212:256,1,89.9999972534181,4|2,0:0|0:0,0:0:0:0:
200,248,159486,1,4,0:3:0:0:
156,132,159643,1,12,0:0:0:0:
292,172,160268,6,0,L|248:170,1,44.999998626709,4|8,0:3|0:3,0:0:0:0:
280,60,160580,2,0,L|324:58,1,44.999998626709,4|8,0:3|0:3,0:0:0:0:
436,104,160893,5,8,0:0:0:0:
423,258,161205,1,8,0:0:0:0:
410,239,161361,1,8,0:0:0:0:
440,340,161518,6,0,L|392:344,1,44.999998626709,4|0,0:0|0:0,0:0:0:0:
312,308,161830,1,2,0:0:0:0:
312,308,162143,2,0,L|313:355,1,44.999998626709,8|4,0:0|0:3,0:0:0:0:
224,372,162455,2,0,L|223:327,1,44.999998626709,4|4,0:3|0:3,0:0:0:0:
144,280,162768,2,0,P|120:284|96:284,1,44.999998626709,2|0,0:0|0:0,0:0:0:0:
116,144,163080,21,4,0:3:0:0:
116,144,163393,2,0,B|140:144|140:144|164:148,1,44.999998626709,8|4,0:0|0:3,0:0:0:0:
44,192,163705,2,0,B|32:171|32:171|23:148,1,44.999998626709,4|4,0:3|0:3,0:0:0:0:
122,231,164018,2,0,B|110:251|110:251|94:270,1,44.999998626709,2|0,0:0|0:0,0:0:0:0:
60,68,164330,21,2,0:0:0:0:
60,68,164643,2,0,P|84:72|108:72,1,44.999998626709,8|4,0:0|0:3,0:0:0:0:
236,36,164955,2,0,P|213:36|191:40,1,44.999998626709,4|4,0:3|0:3,0:0:0:0:
228,176,165268,2,0,L|226:124,1,44.999998626709,4|0,0:3|0:0,0:0:0:0:
132,232,165580,21,2,0:0:0:0:
132,232,165893,2,0,B|128:252|128:252|128:276,1,44.999998626709,8|4,0:0|0:3,0:0:0:0:
308,284,166205,2,0,B|311:263|311:263|311:239,1,44.999998626709,4|4,0:3|0:3,0:0:0:0:
193,336,166518,2,0,B|236:337,1,44.999998626709,4|0,0:3|0:0,0:0:0:0:
408,188,166830,21,2,0:0:0:0:
408,188,167143,2,0,L|405:263,1,44.999998626709,8|4,0:0|0:3,0:0:0:0:
452,104,167455,2,0,L|450:59,1,44.999998626709,4|4,0:3|0:3,0:0:0:0:
316,100,167768,2,0,P|340:104|368:104,1,44.999998626709,2|0,0:0|0:0,0:0:0:0:
192,52,168080,21,2,0:0:0:0:
192,52,168393,2,0,B|195:73|195:73|195:97,1,44.999998626709,8|4,0:0|0:3,0:0:0:0:
140,220,168705,2,0,B|140:196|140:196|143:175,1,44.999998626709,4|4,0:3|0:3,0:0:0:0:
240,296,169018,2,0,L|188:297,1,44.999998626709,2|0,0:0|0:0,0:0:0:0:
276,160,169330,21,2,0:0:0:0:
276,160,169643,2,0,P|256:148|235:141,1,44.999998626709,8|4,0:0|0:3,0:0:0:0:
332,219,169955,2,0,P|351:207|368:193,1,44.999998626709,4|4,0:3|0:3,0:0:0:0:
251,239,170268,2,0,P|251:261|255:283,1,44.999998626709,4|0,0:3|0:0,0:0:0:0:
432,260,170580,21,2,0:0:0:0:
432,260,170893,2,0,B|408:260|408:260|387:257,1,44.999998626709,8|4,0:0|0:3,0:0:0:0:
460,144,171205,2,0,B|481:141|481:141|505:141,1,44.999998626709,4|4,0:3|0:3,0:0:0:0:
412,28,171518,2,0,B|391:31|391:31|367:31,1,44.999998626709,4|0,0:0|0:0,0:0:0:0:
188,20,171830,21,2,0:0:0:0:
188,20,172143,2,0,L|190:79,1,44.999998626709,8|4,0:0|0:3,0:0:0:0:
72,100,172455,2,0,L|69:55,1,44.999998626709,4|4,0:3|0:3,0:0:0:0:
168,184,172768,2,0,P|145:186|123:186,1,44.999998626709,2|0,0:0|0:0,0:0:0:0:
304,156,173080,21,2,0:0:0:0:
304,156,173393,2,0,B|323:162|323:162|344:174,1,44.999998626709,8|4,0:0|0:3,0:0:0:0:
272,276,173705,2,0,B|268:256|268:256|268:232,1,44.999998626709,4|4,0:3|0:3,0:0:0:0:
391,243,174018,2,0,B|375:256|375:256|354:268,1,44.999998626709,2|0,0:0|0:0,0:0:0:0:
176,248,174330,21,2,0:0:0:0:
176,248,174643,2,8,L|231:249,1,44.999998626709,8|4,0:0|0:3,0:0:0:0:
84,168,174955,2,0,L|28:169,1,44.999998626709,4|4,0:3|0:3,0:0:0:0:
140,64,175268,2,0,L|195:65,1,44.999998626709,2|0,0:0|0:0,0:0:0:0:
344,52,175580,21,2,0:0:0:0:
344,52,175893,2,0,B|340:72|340:72|340:96,1,44.999998626709,8|4,0:0|0:3,0:0:0:0:
496,184,176205,2,0,B|496:160|496:160|492:140,1,44.999998626709,4|4,0:3|0:3,0:0:0:0:
316,212,176518,2,0,B|316:236|316:236|320:256,1,44.999998626709,2|0,0:0|0:0,0:0:0:0:
456,336,176830,21,2,0:0:0:0:
456,336,177143,2,0,P|432:332|408:332,1,44.999998626709,8|4,0:0|0:3,0:0:0:0:
280,352,177455,2,0,P|255:353|231:351,1,44.999998626709,4|4,0:3|0:3,0:0:0:0:
116,312,177768,1,2,0:0:0:0:
100,132,178080,6,0,L|101:84,1,44.999998626709,4|0,0:0|0:0,0:0:0:0:
208,104,178393,2,0,B|208:134|208:134|210:162|210:162|209:193,1,89.9999972534181,12|4,0:0|0:3,0:0:0:0:
208,216,178861,1,4,0:3:0:0:
175,308,179018,22,0,P|161:325|143:339,1,44.999998626709
268,288,179330,2,0,P|288:304|308:312,1,46.875,4|0,0:0|0:0,0:0:0:0:
116,236,179643,2,0,P|92:240|68:236,1,48.7499977684022,4|0,0:0|0:0,0:0:0:0:
304,196,179955,2,0,P|320:180|336:152,1,50.6250001931191,4|0,0:0|0:0,0:0:0:0:
136,140,180268,6,0,B|108:77|140:23|140:23|199:44|218:109,1,240
388,328,190893,6,0,L|390:268,1,60,8|0,0:3|0:0,0:0:0:0:
332,180,191518,6,0,B|392:182|392:182|425:179,1,90
436,176,192143,1,2,0:0:0:0:
384,36,192455,2,0,P|380:65|380:95,2,60
448,133,193393,1,2,0:0:0:0:
317,138,193705,1,0,0:0:0:0:
376,20,194018,5,0,0:0:0:0:
380,96,194330,1,0,0:0:0:0:
200,60,194643,2,0,B|260:58|260:58|293:61,1,90,2|0,0:0|0:0,0:0:0:0:
304,68,195268,2,0,L|306:127,1,60
196,180,195893,2,0,L|194:121,1,60,2|0,0:0|0:0,0:0:0:0:
76,92,196518,6,0,B|77:151|77:151|74:184,1,90
68,196,197143,2,0,P|116:196|160:200,1,90,2|0,0:0|0:0,0:0:0:0:
228,244,197768,1,0,0:0:0:0:
112,336,198080,2,0,L|110:277,1,60,0|2,0:0|0:0,0:0:0:0:
36,232,198705,1,0,0:0:0:0:
36,352,199018,6,0,P|65:355|95:355,1,60
161,220,199643,2,0,P|131:219|101:222,1,60,2|0,0:0|0:0,0:0:0:0:
224,324,200268,2,0,P|253:325|283:322,1,60
349,192,200893,2,0,P|319:188|289:189,1,60,2|0,0:0|0:0,0:0:0:0:
172,220,201518,6,0,B|170:160|170:160|173:127,1,90
176,116,202143,1,2,0:0:0:0:
248,232,202455,2,0,P|212:232|180:228,1,60
256,148,203080,1,0,0:0:0:0:
164,224,203393,1,2,0:0:0:0:
124,96,203705,1,0,0:0:0:0:
88,256,204018,6,0,P|91:285|92:315,2,60,0|0|2,0:0|0:0|0:0,0:0:0:0:
16,156,204955,2,0,L|13:223,1,60
76,80,205580,1,0,0:0:0:0:
188,128,205893,2,0,L|186:69,1,60,2|0,0:0|0:0,0:0:0:0:
12,120,206518,6,0,B|10:60|10:60|13:27,1,90,8|0,0:3|0:0,0:0:0:0:
20,16,207143,2,0,P|60:4|108:8,1,90,2|0,0:0|0:0,0:0:0:0:
40,172,207768,1,2,0:0:0:0:
31,95,208080,1,2,0:0:0:0:
112,88,208393,1,2,0:0:0:0:
117,164,208705,1,2,0:0:0:0:
84,324,209018,6,0,L|60:267,1,60,4|0,0:0|0:0,0:0:0:0:
228,270,209643,6,0,L|213:194,1,75,4|0,0:0|0:0,0:0:0:0:
393,249,210268,6,0,L|389:157,1,89.9999972534181,4|0,0:0|0:0,0:0:0:0:
460,76,210893,5,4,0:0:0:0:
304,84,211205,1,4,0:0:0:0:
320,68,211361,1,4,0:0:0:0:
380,128,211518,6,0,P|372:84|376:32,1,89.9999972534181,4|2,0:0|0:0,0:0:0:0:
388,20,211986,1,4,0:3:0:0:
512,76,212143,2,0,L|448:78,2,44.999998626709,8|0|4,0:0|0:0|0:3,0:0:0:0:
504,212,212611,2,0,L|408:208,1,89.9999972534181,4|0,0:3|0:0,0:0:0:0:
392,208,213080,1,4,0:3:0:0:
392,208,213393,5,8,0:0:0:0:
392,361,213705,1,2,0:0:0:0:
377,346,213861,1,2,0:0:0:0:
442,283,214018,6,0,P|396:288|348:286,1,89.9999972534181,4|2,0:3|0:0,0:0:0:0:
330,279,214486,1,4,0:3:0:0:
228,228,214643,2,0,L|230:183,2,44.999998626709,8|0|4,0:0|0:0|0:3,0:0:0:0:
116,240,215111,2,0,P|115:191|134:145,1,89.9999972534181,4|0,0:3|0:0,0:0:0:0:
148,140,215580,1,4,0:3:0:0:
148,140,215893,5,8,0:0:0:0:
301,139,216205,1,2,0:0:0:0:
287,154,216361,1,2,0:0:0:0:
256,68,216518,5,4,0:0:0:0:
256,68,217143,2,0,L|258:12,2,44.999998626709,8|0|4,0:0|0:0|0:3,0:0:0:0:
184,120,217611,2,0,L|186:175,1,44.999998626709,4|0,0:3|0:0,0:0:0:0:
264,208,217924,2,0,L|261:299,1,89.9999972534181,4|0,0:3|0:0,0:0:0:0:
192,356,218393,2,0,P|169:354|147:350,2,44.999998626709,8|0|4,0:0|0:0|0:3,0:0:0:0:
76,248,219018,6,0,L|72:145,1,89.9999972534181,4|2,0:3|0:0,0:0:0:0:
84,136,219486,1,4,0:3:0:0:
208,196,219643,2,0,P|184:200|156:200,2,44.999998626709,8|0|4,0:0|0:0|0:3,0:0:0:0:
304,136,220111,2,0,P|317:178|314:223,1,89.9999972534181,4|0,0:3|0:0,0:0:0:0:
304,244,220580,1,4,0:3:0:0:
304,244,220893,5,8,0:0:0:0:
150,234,221205,1,2,0:0:0:0:
165,220,221361,1,2,0:0:0:0:
196,317,221518,6,0,P|151:326|107:321,1,89.9999972534181,4|2,0:0|0:0,0:0:0:0:
87,309,221986,1,4,0:3:0:0:
148,189,222143,2,0,L|150:239,2,44.999998626709,8|0|4,0:0|0:0|0:3,0:0:0:0:
60,140,222611,2,0,L|63:50,1,89.9999972534181,4|0,0:3|0:0,0:0:0:0:
72,32,223080,1,4,0:3:0:0:
72,32,223393,5,8,0:0:0:0:
222,44,223705,1,2,0:0:0:0:
209,28,223861,1,2,0:0:0:0:
176,124,224018,6,0,P|220:131|265:127,1,89.9999972534181,4|2,0:3|0:0,0:0:0:0:
284,112,224486,1,4,0:3:0:0:
221,0,224643,2,0,L|222:47,2,44.999998626709,8|0|4,0:0|0:0|0:3,0:0:0:0:
84,8,225111,2,0,L|81:97,1,89.9999972534181,4|0,0:3|0:0,0:0:0:0:
88,124,225580,1,4,0:3:0:0:
88,124,225893,6,0,L|147:126,1,44.999998626709,8|8,0:0|0:3,0:0:0:0:
204,24,226205,2,0,L|144:26,1,44.999998626709,4|8,0:3|0:3,0:0:0:0:
244,208,226518,6,0,L|240:116,1,89.9999972534181,4|0,0:0|0:0,0:0:0:0:
388,112,227143,2,0,L|384:201,1,89.9999972534181,8|4,0:0|0:3,0:0:0:0:
372,220,227611,1,4,0:3:0:0:
244,156,227768,2,0,L|288:155,2,44.999998626709,4|8|4,0:3|0:3|0:0,0:0:0:0:
152,88,228393,2,0,L|154:43,1,44.999998626709,8|8,0:0|0:3,0:0:0:0:
56,68,228705,2,0,L|58:113,1,44.999998626709,4|0,0:0|0:0,0:0:0:0:
152,208,229018,6,0,P|196:216|244:212,1,89.9999972534181,4|2,0:0|0:0,0:0:0:0:
260,204,229486,1,4,0:3:0:0:
328,128,229643,1,12,0:0:0:0:
328,128,230268,6,0,L|383:126,1,44.999998626709,4|8,0:3|0:3,0:0:0:0:
280,44,230580,2,0,L|224:42,1,44.999998626709,4|8,0:3|0:3,0:0:0:0:
228,180,230893,1,8,0:0:0:0:
213,165,231049,1,4,0:3:0:0:
213,165,231518,6,0,P|209:213|217:253,1,89.9999972534181,4|2,0:0|0:0,0:0:0:0:
232,272,231986,1,4,0:3:0:0:
352,212,232143,2,0,L|304:210,1,44.999998626709,8|0,0:0|0:0,0:0:0:0:
384,292,232455,2,0,L|428:290,1,44.999998626709,4|4,0:3|0:3,0:0:0:0:
496,228,232768,2,0,P|500:180|492:140,2,89.9999972534181,4|4|8,0:3|0:3|0:0,0:0:0:0:
440,300,233549,2,0,B|392:304|392:304|348:300,1,89.9999972534181,4|4,0:3|0:3,0:0:0:0:
260,284,234018,5,4,0:3:0:0:
260,284,234643,2,0,L|258:232,1,44.999998626709,8|0,0:0|0:0,0:0:0:0:
180,324,234955,2,0,L|178:368,1,44.999998626709,4|4,0:3|0:3,0:0:0:0:
104,280,235268,2,0,L|12:283,1,89.9999972534181,4|4,0:3|0:3,0:0:0:0:
120,168,235893,2,0,P|130:211|126:256,1,89.9999972534181,8|0,0:0|0:0,0:0:0:0:
144,96,236518,5,4,0:3:0:0:
144,96,237143,2,0,L|100:94,1,44.999998626709,8|0,0:0|0:0,0:0:0:0:
228,24,237455,2,0,L|271:22,1,44.999998626709,4|4,0:3|0:3,0:0:0:0:
360,56,237768,2,0,P|357:100|365:144,1,89.9999972534181,4|4,0:3|0:3,0:0:0:0:
444,100,238393,1,8,0:0:0:0:
372,160,238705,1,0,0:0:0:0:
500,200,239018,6,0,L|501:244,1,44.999998626709,4|8,0:3|0:3,0:0:0:0:
408,284,239330,2,0,L|407:328,1,44.999998626709,4|8,0:3|0:3,0:0:0:0:
311,248,239643,2,0,L|312:204,1,44.999998626709,8|8,0:0|0:3,0:0:0:0:
218,288,239955,2,0,L|219:332,1,44.999998626709,4|8,0:3|0:3,0:0:0:0:
132,228,240268,6,0,L|84:229,2,44.999998626709,4|8|4,0:0|0:3|0:3,0:0:0:0:
152,216,240736,1,8,0:3:0:0:
112,84,240893,2,0,L|111:128,1,44.999998626709,8|8,0:0|0:3,0:0:0:0:
220,152,241205,2,0,L|219:108,1,44.999998626709,4|4,0:3|0:3,0:0:0:0:
308,40,241518,6,0,P|356:28|404:28,1,89.9999972534181,4|2,0:0|0:0,0:0:0:0:
416,36,241986,1,4,0:3:0:0:
352,156,242143,2,0,P|348:136|348:112,1,44.999998626709,8|0,0:0|0:0,0:0:0:0:
484,100,242455,2,0,P|487:120|487:144,1,44.999998626709,4|0,0:3|0:0,0:0:0:0:
392,244,242768,2,0,P|435:232|479:236,2,89.9999972534181,4|4|8,0:3|0:3|0:0,0:0:0:0:
312,288,243549,2,0,P|268:299|224:295,1,89.9999972534181,4|4,0:3|0:3,0:0:0:0:
188,212,244018,5,4,0:3:0:0:
188,212,244643,2,0,L|132:213,1,44.999998626709,8|0,0:0|0:0,0:0:0:0:
64,132,244955,2,0,L|119:133,1,44.999998626709,4|4,0:3|0:3,0:0:0:0:
64,308,245268,2,0,B|64:256|64:256|60:212,1,89.9999972534181,4|4,0:3|0:3,0:0:0:0:
244,236,245893,2,0,B|239:283|239:283|240:327,1,89.9999972534181,8|0,0:0|0:0,0:0:0:0:
420,288,246518,6,0,B|417:242|417:242|418:199|418:199|416:154,1,134.999995880127,4|4,0:0|0:3,0:0:0:0:
416,132,247143,1,8,0:0:0:0:
436,44,247455,6,0,P|452:28|476:12,1,44.999998626709,4|4,0:3|0:3,0:0:0:0:
348,72,247768,2,0,P|304:56|260:60,2,89.9999972534181,4|4|8,0:3|0:3|0:0,0:0:0:0:
332,164,248705,6,0,P|317:167|292:184,1,44.999998626709,4|4,0:3|0:3,0:0:0:0:
468,204,249018,2,0,P|492:236|508:288,2,89.9999972534181,4|2|8,0:0|0:0|0:0,0:0:0:0:
292,240,249955,6,0,P|285:259|284:284,1,44.999998626709,4|4,0:3|0:3,0:0:0:0:
444,280,250268,2,0,P|442:257|435:236,1,44.999998626709,4|8,0:0|0:3,0:0:0:0:
360,336,250580,6,0,P|374:353|393:365,1,44.999998626709,4|8,0:3|0:3,0:0:0:0:
279,339,250893,2,0,P|282:361|292:380,1,44.999998626709,8|8,0:0|0:3,0:0:0:0:
207,303,251205,2,0,P|198:324|197:346,1,44.999998626709,4|8,0:3|0:3,0:0:0:0:
162,235,251518,6,0,P|116:248|72:244,1,89.9999972534181,4|2,0:0|0:0,0:0:0:0:
56,232,251986,1,4,0:3:0:0:
108,104,252143,2,0,L|107:149,1,44.999998626709,4|4,0:3|0:3,0:0:0:0:
0,112,252455,2,0,L|-1:67,1,44.999998626709,8|0,0:0|0:0,0:0:0:0:
72,8,252768,2,0,P|115:3|159:11,2,89.9999972534181,4|4|8,0:3|0:3|0:0,0:0:0:0:
64,100,253549,2,0,B|111:105|111:105|159:103,1,89.9999972534181,4|4,0:3|0:3,0:0:0:0:
244,88,254018,5,4,0:3:0:0:
244,88,254643,2,0,L|242:143,1,44.999998626709,8|0,0:0|0:0,0:0:0:0:
364,148,254955,2,0,L|362:103,1,44.999998626709,4|4,0:3|0:3,0:0:0:0:
284,240,255268,2,0,L|375:243,1,89.9999972534181,4|4,0:3|0:3,0:0:0:0:
276,124,255893,2,0,P|263:166|263:211,1,89.9999972534181,8|0,0:0|0:0,0:0:0:0:
400,244,256518,5,0,0:0:0:0:
400,244,257143,2,0,L|398:287,1,44.999998626709,8|0,0:0|0:0,0:0:0:0:
328,208,257455,2,0,L|327:164,1,44.999998626709,4|4,0:3|0:3,0:0:0:0:
244,236,257768,2,0,P|200:247|156:243,1,89.9999972534181,4|4,0:3|0:3,0:0:0:0:
192,160,258393,1,8,0:0:0:0:
140,232,258705,1,0,0:0:0:0:
80,112,259018,6,0,L|35:113,1,44.999998626709,4|8,0:3|0:3,0:0:0:0:
127,5,259330,2,0,L|171:6,1,44.999998626709,4|8,0:3|0:3,0:0:0:0:
243,125,259643,2,0,L|198:126,1,44.999998626709,8|8,0:0|0:3,0:0:0:0:
289,17,259955,2,0,L|333:18,1,44.999998626709,4|8,0:3|0:3,0:0:0:0:
404,136,260268,6,0,L|405:180,2,44.999998626709,4|8|4,0:3|0:3|0:3,0:0:0:0:
396,116,260736,1,8,0:3:0:0:
316,196,260893,2,0,L|261:198,1,44.999998626709,8|8,0:0|0:3,0:0:0:0:
380,284,261205,2,0,L|435:286,1,44.999998626709,4|8,0:3|0:3,0:0:0:0:
308,360,261518,6,0,P|264:371|220:367,1,89.9999972534181,4|2,0:0|0:0,0:0:0:0:
200,356,261986,1,4,0:3:0:0:
256,228,262143,2,0,L|257:271,1,44.999998626709,8|0,0:0|0:0,0:0:0:0:
124,284,262455,2,0,L|125:240,1,44.999998626709,4|4,0:3|0:3,0:0:0:0:
176,140,262768,2,0,P|132:144|88:132,2,89.9999972534181,4|4|8,0:3|0:3|0:0,0:0:0:0:
140,44,263549,2,0,L|136:135,1,89.9999972534181,4|4,0:3|0:3,0:0:0:0:
176,216,264018,5,4,0:3:0:0:
176,216,264643,2,0,P|158:201|139:190,1,44.999998626709,8|0,0:0|0:0,0:0:0:0:
196,300,264955,2,0,P|217:292|236:281,1,44.999998626709,4|4,0:3|0:3,0:0:0:0:
114,276,265268,2,0,B|110:313|110:313|110:365,1,89.9999972534181,4|4,0:3|0:3,0:0:0:0:
72,188,265893,2,0,B|77:141|77:141|76:98,1,89.9999972534181,8|0,0:0|0:0,0:0:0:0:
256,104,266518,6,0,B|254:150|254:150|257:193|257:193|256:238,1,134.999995880127,4|4,0:0|0:3,0:0:0:0:
257,260,267143,1,8,0:0:0:0:
212,332,267455,6,0,P|194:345|156:356,1,44.999998626709,4|4,0:3|0:3,0:0:0:0:
316,320,267768,2,0,P|360:332|408:320,2,89.9999972534181,4|4|8,0:3|0:3|0:0,0:0:0:0:
176,260,268705,6,0,P|151:247|134:232,1,44.999998626709,4|4,0:3|0:3,0:0:0:0:
328,244,269018,2,0,P|368:216|384:172,2,89.9999972534181,4|2|8,0:0|0:0|0:0,0:0:0:0:
188,192,269955,6,0,P|172:172|164:148,1,44.999998626709,4|4,0:3|0:3,0:0:0:0:
320,124,270268,2,0,P|318:147|311:168,1,44.999998626709,4|8,0:0|0:3,0:0:0:0:
236,68,270580,6,0,P|250:51|269:39,1,44.999998626709,4|8,0:3|0:3,0:0:0:0:
155,65,270893,2,0,P|158:43|168:24,1,44.999998626709,8|8,0:0|0:3,0:0:0:0:
83,101,271205,2,0,P|74:80|73:58,1,44.999998626709,4|8,0:3|0:3,0:0:0:0:
104,188,271518,6,0,L|148:188,1,44.999998626709,4|0,0:0|0:0,0:0:0:0:
200,112,272143,2,0,L|155:111,1,44.999998626709
212,236,272768,1,0,0:0:0:0:
228,124,273080,1,0,0:0:0:0:
320,192,273393,2,0,L|318:239,1,44.999998626709
428,296,274018,6,0,P|404:300|380:300,1,44.999998626709
504,264,274643,2,0,P|508:288|508:312,1,44.999998626709
420,300,275268,1,0,0:0:0:0:
480,180,275580,1,0,0:0:0:0:
486,256,275893,1,0,0:0:0:0:
416,224,276205,1,0,0:0:0:0:
352,282,276518,6,0,L|307:283,1,44.999998626709
328,152,277139,2,0,L|329:196,1,44.999998626709
240,216,277761,1,0,0:0:0:0:
288,112,278073,1,0,0:0:0:0:
176,112,278383,2,0,L|174:163,1,44.999998626709
56,72,279013,6,0,L|99:70,1,44.999998626709,2|0,0:0|0:0,0:0:0:0:
196,136,279651,6,0,L|152:134,1,37.5,2|0,0:0|0:0,0:0:0:0:
64,196,280303,6,0,L|95:194,1,30,2|0,0:0|0:0,0:0:0:0:
184,251,281034,6,0,B|160:251,1,22.5225225225225,2|0,0:0|0:0,0:0:0:0:
80,312,281873,6,0,L|95:311,1,15,2|0,0:0|0:0,0:0:0:0:
176,364,282940,5,2,0:0:0:0:
