osu file format v14

[General]
AudioFilename: audio.mp3
AudioLeadIn: 0
PreviewTime: 122192
Countdown: 0
SampleSet: Soft
StackLeniency: 0.7
Mode: 3
LetterboxInBreaks: 0
SpecialStyle: 0
WidescreenStoryboard: 0

[Editor]
Bookmarks: 62547,73908,122192,133553,144913,156274,167635,178996,190357,196393
DistanceSpacing: 1
BeatDivisor: 4
GridSize: 8
TimelineZoom: 2

[Metadata]
Title:Dear Another Nova
TitleUnicode:Dear Another Nova
Artist:DAN@Yomii
ArtistUnicode:暖@よみぃ
Creator:Reba
Version:Aisuru Tenshi
Source:太鼓の達人
Tags:dongjin again dongjin again
BeatmapID:1629524
BeatmapSetID:775447

[Difficulty]
HPDrainRate:8
CircleSize:7
OverallDifficulty:8
ApproachRate:5
SliderMultiplier:1.4
SliderTickRate:1

[Events]
//Background and Video events
0,0,"Dear Another Nova BG.jpg",0,0
//Break Periods
//Storyboard Layer 0 (Background)
//Storyboard Layer 1 (Fail)
//Storyboard Layer 2 (Pass)
//Storyboard Layer 3 (Foreground)
//Storyboard Sound Samples

[TimingPoints]
740,645.161290322581,4,2,1,0,1,0
740,-68.7899841783036,4,2,1,0,0,0
11062,322.58064516129,4,2,1,0,1,0
11062,-138.888888888889,4,2,1,0,0,0
14933,652.173913043478,4,2,1,0,1,0
14933,-68.4931506849315,4,2,1,0,0,0
15259,659.340659340659,4,2,1,0,1,0
15259,-67.5675675675676,4,2,1,0,0,0
15588,666.666666666667,4,2,1,0,1,0
15588,-66.6666666666667,4,2,1,0,0,0
15921,685.714285714286,4,2,1,0,1,0
15921,-64.9350649350649,4,2,1,0,0,0
16263,705.882352941176,4,2,1,0,1,0
16263,-62.8930817610063,4,2,1,0,0,0
18027,631.578947368421,4,2,1,0,1,0
18027,-70.4225352112676,4,2,1,0,0,0
18342,731.707317073171,4,2,1,0,1,0
18342,-60.9756097560976,4,2,1,0,0,0
18707,681.818181818182,4,2,1,0,1,0
18707,-65.359477124183,4,2,1,0,0,0
21434,821.917808219178,4,2,1,0,1,0
21434,-54.054054054054,4,2,1,0,0,0
21844,631.578947368421,4,2,1,0,1,0
21844,-70.4225352112676,4,2,1,0,0,0
22159,705.882352941176,4,2,1,0,1,0
22159,-62.8930817610063,4,2,1,0,0,0
22864,375,4,2,1,0,1,0
22864,-118.343195266272,4,2,1,0,0,0
23614,722.89156626506,4,2,1,0,1,0
23614,-61.3496932515337,4,2,1,0,0,0
23975,857.142857142857,4,2,1,0,1,0
23975,-51.8134715025907,4,2,1,0,0,0
24403,750,4,2,1,0,1,0
24403,-59.1715976331361,4,2,1,0,0,0
24778,666.666666666667,4,2,1,0,1,0
24778,-66.6666666666667,4,2,1,0,0,0
36985,355.029585798817,4,2,1,0,1,0
36985,-100,4,2,1,0,0,0
96629,-142.857142857143,4,2,1,0,0,0
107990,-125,4,2,1,0,0,0
113671,-111.111111111111,4,2,1,0,0,0
116511,-100,4,2,1,0,0,0

[HitObjects]
256,192,740,5,0,0:0:0:0:
109,192,740,1,0,0:0:0:0:
36,192,740,1,0,0:0:0:0:
329,192,901,1,0,0:0:0:0:
402,192,1062,128,0,1385:0:0:0:0:
182,192,1062,1,0,0:0:0:0:
256,192,1385,1,0,0:0:0:0:
402,192,1546,128,0,1869:0:0:0:0:
109,192,1546,1,0,0:0:0:0:
256,192,1707,1,0,0:0:0:0:
475,192,2030,1,0,0:0:0:0:
329,192,2030,1,0,0:0:0:0:
36,192,2030,1,0,0:0:0:0:
475,192,2352,1,0,0:0:0:0:
182,192,2352,1,0,0:0:0:0:
329,192,2514,128,0,2836:0:0:0:0:
36,192,2675,1,0,0:0:0:0:
182,192,2836,1,0,0:0:0:0:
36,192,2998,128,0,3320:0:0:0:0:
329,192,2998,1,0,0:0:0:0:
182,192,3320,1,0,0:0:0:0:
475,192,3320,1,0,0:0:0:0:
402,192,3320,1,0,0:0:0:0:
256,192,3481,1,0,0:0:0:0:
329,192,3643,1,0,0:0:0:0:
109,192,3643,128,0,3965:0:0:0:0:
402,192,3965,1,0,0:0:0:0:
256,192,4127,1,0,0:0:0:0:
329,192,4288,1,0,0:0:0:0:
36,192,4288,1,0,0:0:0:0:
402,192,4449,1,0,0:0:0:0:
475,192,4610,1,0,0:0:0:0:
36,192,4610,1,0,0:0:0:0:
182,192,4610,1,0,0:0:0:0:
329,192,4933,1,0,0:0:0:0:
475,192,4933,1,0,0:0:0:0:
182,192,5094,128,0,5417:0:0:0:0:
36,192,5256,1,0,0:0:0:0:
475,192,5417,1,0,0:0:0:0:
109,192,5578,1,0,0:0:0:0:
329,192,5578,128,0,5901:0:0:0:0:
36,192,5901,1,0,0:0:0:0:
475,192,5901,1,0,0:0:0:0:
256,192,5901,1,0,0:0:0:0:
109,192,6062,1,0,0:0:0:0:
182,192,6223,1,0,0:0:0:0:
329,192,6223,128,0,6546:0:0:0:0:
475,192,6546,1,0,0:0:0:0:
329,192,6707,128,0,7030:0:0:0:0:
36,192,6707,1,0,0:0:0:0:
182,192,6869,1,0,0:0:0:0:
475,192,7191,1,0,0:0:0:0:
36,192,7191,1,0,0:0:0:0:
256,192,7191,1,0,0:0:0:0:
402,192,7514,1,0,0:0:0:0:
109,192,7514,1,0,0:0:0:0:
256,192,7675,128,0,7998:0:0:0:0:
109,192,7998,1,0,0:0:0:0:
256,192,8159,128,0,8481:0:0:0:0:
402,192,8159,1,0,0:0:0:0:
36,192,8481,1,0,0:0:0:0:
475,192,8481,1,0,0:0:0:0:
182,192,8481,1,0,0:0:0:0:
256,192,8804,1,0,0:0:0:0:
402,192,8965,1,0,0:0:0:0:
182,192,9127,1,0,0:0:0:0:
329,192,9449,5,0,0:0:0:0:
182,192,9449,1,0,0:0:0:0:
475,192,9490,1,0,0:0:0:0:
36,192,9772,1,0,0:0:0:0:
256,192,9933,1,0,0:0:0:0:
402,192,9933,1,0,0:0:0:0:
109,192,10094,1,0,0:0:0:0:
36,192,10417,1,0,0:0:0:0:
256,192,10417,1,0,0:0:0:0:
329,192,10417,1,0,0:0:0:0:
109,192,10740,1,0,0:0:0:0:
329,192,10740,1,0,0:0:0:0:
402,192,10740,1,0,0:0:0:0:
182,192,11062,128,0,11868:0:0:0:0:
329,192,11062,1,0,0:0:0:0:
402,192,11082,1,0,0:0:0:0:
475,192,11102,1,0,0:0:0:0:
402,192,11707,128,0,12352:0:0:0:0:
36,192,11868,1,0,0:0:0:0:
329,192,11868,1,0,0:0:0:0:
109,192,12029,1,0,0:0:0:0:
256,192,12029,1,0,0:0:0:0:
182,192,12191,1,0,0:0:0:0:
329,192,12191,1,0,0:0:0:0:
256,192,12352,1,0,0:0:0:0:
475,192,12352,1,0,0:0:0:0:
36,192,12352,1,0,0:0:0:0:
182,192,12513,1,0,0:0:0:0:
402,192,12513,1,0,0:0:0:0:
109,192,12674,1,0,0:0:0:0:
256,192,12674,1,0,0:0:0:0:
36,192,12836,1,0,0:0:0:0:
329,192,12836,1,0,0:0:0:0:
475,192,12997,1,0,0:0:0:0:
182,192,12997,1,0,0:0:0:0:
109,192,13105,1,0,0:0:0:0:
329,192,13105,1,0,0:0:0:0:
36,192,13212,1,0,0:0:0:0:
402,192,13212,1,0,0:0:0:0:
475,192,13320,1,0,0:0:0:0:
109,192,13320,1,0,0:0:0:0:
182,192,13427,1,0,0:0:0:0:
329,192,13427,1,0,0:0:0:0:
109,192,13535,1,0,0:0:0:0:
256,192,13535,1,0,0:0:0:0:
329,192,13642,1,0,0:0:0:0:
36,192,13642,1,0,0:0:0:0:
402,192,13662,1,0,0:0:0:0:
475,192,13682,128,0,14287:0:0:0:0:
256,192,14127,1,0,0:0:0:0:
36,192,14287,128,0,14933:0:0:0:0:
329,192,14610,1,0,0:0:0:0:
182,192,14610,1,0,0:0:0:0:
256,192,14932,1,0,0:0:0:0:
475,192,14933,1,0,0:0:0:0:
402,192,14933,1,0,0:0:0:0:
402,192,15259,1,0,0:0:0:0:
182,192,15259,1,0,0:0:0:0:
329,192,15259,1,0,0:0:0:0:
109,192,15588,1,0,0:0:0:0:
329,192,15588,1,0,0:0:0:0:
256,192,15588,1,0,0:0:0:0:
36,192,15921,1,0,0:0:0:0:
256,192,15921,1,0,0:0:0:0:
182,192,15921,1,0,0:0:0:0:
109,192,16263,1,0,0:0:0:0:
475,192,16265,1,0,0:0:0:0:
329,192,16265,1,0,0:0:0:0:
256,192,16615,1,0,0:0:0:0:
402,192,16615,1,0,0:0:0:0:
36,192,16615,1,0,0:0:0:0:
182,192,16968,1,0,0:0:0:0:
329,192,16968,1,0,0:0:0:0:
475,192,16968,1,0,0:0:0:0:
256,192,17321,1,0,0:0:0:0:
109,192,17321,1,0,0:0:0:0:
36,192,17321,1,0,0:0:0:0:
475,192,17674,1,0,0:0:0:0:
182,192,17674,1,0,0:0:0:0:
402,192,17674,1,0,0:0:0:0:
109,192,18027,1,0,0:0:0:0:
36,192,18027,1,0,0:0:0:0:
329,192,18027,1,0,0:0:0:0:
182,192,18342,1,0,0:0:0:0:
109,192,18342,1,0,0:0:0:0:
402,192,18342,1,0,0:0:0:0:
256,192,18707,1,0,0:0:0:0:
182,192,18707,1,0,0:0:0:0:
475,192,18707,1,0,0:0:0:0:
329,192,19047,1,0,0:0:0:0:
475,192,19047,1,0,0:0:0:0:
36,192,19047,1,0,0:0:0:0:
256,192,19388,1,0,0:0:0:0:
109,192,19388,1,0,0:0:0:0:
475,192,19729,1,0,0:0:0:0:
402,192,19729,1,0,0:0:0:0:
182,192,19900,1,0,0:0:0:0:
36,192,19900,1,0,0:0:0:0:
475,192,20411,1,0,0:0:0:0:
256,192,20411,1,0,0:0:0:0:
402,192,20411,1,0,0:0:0:0:
402,192,21093,1,0,0:0:0:0:
329,192,21093,1,0,0:0:0:0:
256,192,21434,1,0,0:0:0:0:
109,192,21434,1,0,0:0:0:0:
36,192,21742,1,0,0:0:0:0:
109,192,21793,1,0,0:0:0:0:
182,192,21844,1,0,0:0:0:0:
329,192,21844,1,0,0:0:0:0:
475,192,21844,1,0,0:0:0:0:
256,192,22159,1,0,0:0:0:0:
109,192,22159,1,0,0:0:0:0:
36,192,22159,1,0,0:0:0:0:
329,192,22511,1,0,0:0:0:0:
475,192,22511,1,0,0:0:0:0:
182,192,22511,1,0,0:0:0:0:
256,192,22864,1,0,0:0:0:0:
402,192,22864,1,0,0:0:0:0:
109,192,22864,1,0,0:0:0:0:
182,192,23192,1,0,0:0:0:0:
256,192,23215,1,0,0:0:0:0:
329,192,23239,1,0,0:0:0:0:
36,192,23239,1,0,0:0:0:0:
475,192,23239,1,0,0:0:0:0:
329,192,23614,1,0,0:0:0:0:
402,192,23614,1,0,0:0:0:0:
109,192,23614,1,0,0:0:0:0:
256,192,23975,1,0,0:0:0:0:
36,192,23975,1,0,0:0:0:0:
329,192,23975,1,0,0:0:0:0:
182,192,24403,1,0,0:0:0:0:
402,192,24403,1,0,0:0:0:0:
329,192,24403,1,0,0:0:0:0:
36,192,24778,1,0,0:0:0:0:
182,192,24885,1,0,0:0:0:0:
475,192,24918,1,0,0:0:0:0:
329,192,25012,1,0,0:0:0:0:
182,192,25111,1,0,0:0:0:0:
256,192,25153,1,0,0:0:0:0:
329,192,25194,1,0,0:0:0:0:
402,192,25236,1,0,0:0:0:0:
36,192,25434,1,0,0:0:0:0:
109,192,25668,1,0,0:0:0:0:
182,192,25819,1,0,0:0:0:0:
329,192,26090,1,0,0:0:0:0:
402,192,26324,1,0,0:0:0:0:
475,192,27944,128,0,31028:0:0:0:0:
36,192,30778,128,0,35444:0:0:0:0:
329,192,36778,128,0,36985:0:0:0:0:
256,192,36985,5,0,0:0:0:0:
475,192,36985,128,0,37340:0:0:0:0:
109,192,36985,1,0,0:0:0:0:
36,192,36985,1,0,0:0:0:0:
402,192,36985,128,0,37340:0:0:0:0:
182,192,36985,1,0,0:0:0:0:
109,192,37162,128,0,37340:0:0:0:0:
36,192,37162,128,0,37340:0:0:0:0:
182,192,37251,128,0,37428:0:0:0:0:
329,192,37251,128,0,37428:0:0:0:0:
475,192,37428,128,0,37606:0:0:0:0:
402,192,37428,128,0,37606:0:0:0:0:
109,192,37517,128,0,37695:0:0:0:0:
256,192,37517,128,0,37695:0:0:0:0:
36,192,37695,128,0,37872:0:0:0:0:
182,192,37695,128,0,37872:0:0:0:0:
402,192,37783,128,0,37961:0:0:0:0:
475,192,37783,128,0,37961:0:0:0:0:
109,192,37961,128,0,38138:0:0:0:0:
36,192,37961,128,0,38138:0:0:0:0:
256,192,38050,128,0,38316:0:0:0:0:
475,192,38050,128,0,38316:0:0:0:0:
402,192,38227,128,0,38405:0:0:0:0:
182,192,38227,128,0,38405:0:0:0:0:
329,192,38316,128,0,38493:0:0:0:0:
109,192,38316,128,0,38493:0:0:0:0:
256,192,38405,128,0,38582:0:0:0:0:
36,192,38405,128,0,38582:0:0:0:0:
475,192,38493,128,0,38671:0:0:0:0:
402,192,38493,128,0,38671:0:0:0:0:
182,192,38671,128,0,38848:0:0:0:0:
36,192,38671,128,0,38848:0:0:0:0:
475,192,38848,128,0,39026:0:0:0:0:
402,192,38848,128,0,39026:0:0:0:0:
329,192,38937,128,0,39115:0:0:0:0:
182,192,38937,128,0,39115:0:0:0:0:
36,192,39115,128,0,39558:0:0:0:0:
256,192,39115,128,0,39292:0:0:0:0:
109,192,39203,128,0,39470:0:0:0:0:
329,192,39203,128,0,39470:0:0:0:0:
182,192,39292,128,0,39381:0:0:0:0:
402,192,39292,128,0,39381:0:0:0:0:
475,192,39381,128,0,39736:0:0:0:0:
256,192,39381,128,0,39558:0:0:0:0:
402,192,39470,128,0,39736:0:0:0:0:
182,192,39470,128,0,39647:0:0:0:0:
329,192,39558,128,0,39736:0:0:0:0:
109,192,39558,128,0,39736:0:0:0:0:
256,192,39647,128,0,39825:0:0:0:0:
36,192,39647,128,0,39825:0:0:0:0:
182,192,39825,1,0,0:0:0:0:
109,192,39825,1,0,0:0:0:0:
402,192,39825,128,0,40180:0:0:0:0:
329,192,39825,1,0,0:0:0:0:
475,192,39825,128,0,40180:0:0:0:0:
36,192,40002,128,0,40180:0:0:0:0:
109,192,40002,128,0,40180:0:0:0:0:
182,192,40091,128,0,40269:0:0:0:0:
329,192,40091,128,0,40269:0:0:0:0:
256,192,40269,128,0,40446:0:0:0:0:
109,192,40269,128,0,40446:0:0:0:0:
402,192,40357,128,0,40535:0:0:0:0:
475,192,40357,128,0,40535:0:0:0:0:
182,192,40535,128,0,40712:0:0:0:0:
36,192,40535,128,0,40712:0:0:0:0:
256,192,40624,128,0,40801:0:0:0:0:
329,192,40712,128,0,40890:0:0:0:0:
402,192,40712,128,0,40890:0:0:0:0:
109,192,40801,128,0,40979:0:0:0:0:
36,192,40801,128,0,40979:0:0:0:0:
475,192,40890,128,0,41067:0:0:0:0:
256,192,40890,128,0,41067:0:0:0:0:
402,192,40979,128,0,41156:0:0:0:0:
182,192,40979,128,0,41156:0:0:0:0:
109,192,41067,128,0,41245:0:0:0:0:
329,192,41067,128,0,41245:0:0:0:0:
36,192,41245,128,0,41422:0:0:0:0:
475,192,41245,128,0,41422:0:0:0:0:
256,192,41334,128,0,41511:0:0:0:0:
182,192,41334,128,0,41511:0:0:0:0:
329,192,41422,128,0,41600:0:0:0:0:
109,192,41422,128,0,41600:0:0:0:0:
402,192,41511,128,0,41689:0:0:0:0:
36,192,41511,128,0,41689:0:0:0:0:
475,192,41600,128,0,41777:0:0:0:0:
256,192,41600,128,0,41777:0:0:0:0:
182,192,41689,128,0,41866:0:0:0:0:
329,192,41689,128,0,41866:0:0:0:0:
109,192,41777,128,0,41955:0:0:0:0:
402,192,41777,128,0,41955:0:0:0:0:
36,192,41866,128,0,42044:0:0:0:0:
475,192,41866,128,0,42044:0:0:0:0:
329,192,41955,128,0,42132:0:0:0:0:
256,192,41955,128,0,42132:0:0:0:0:
182,192,42044,128,0,42221:0:0:0:0:
109,192,42044,128,0,42221:0:0:0:0:
475,192,42221,128,0,42399:0:0:0:0:
402,192,42221,128,0,42399:0:0:0:0:
182,192,42310,1,0,0:0:0:0:
109,192,42310,1,0,0:0:0:0:
329,192,42399,128,0,42576:0:0:0:0:
36,192,42399,128,0,42576:0:0:0:0:
256,192,42487,128,0,42576:0:0:0:0:
109,192,42487,128,0,42576:0:0:0:0:
182,192,42576,128,0,42665:0:0:0:0:
475,192,42576,128,0,42665:0:0:0:0:
256,192,42665,1,0,0:0:0:0:
36,192,42665,128,0,42842:0:0:0:0:
402,192,42665,1,0,0:0:0:0:
329,192,42665,1,0,0:0:0:0:
109,192,42665,1,0,0:0:0:0:
182,192,42754,1,0,0:0:0:0:
475,192,42842,128,0,43020:0:0:0:0:
256,192,42842,1,0,0:0:0:0:
402,192,42931,128,0,43109:0:0:0:0:
182,192,42931,1,0,0:0:0:0:
329,192,43020,1,0,0:0:0:0:
109,192,43020,1,0,0:0:0:0:
256,192,43109,1,0,0:0:0:0:
36,192,43109,128,0,43286:0:0:0:0:
182,192,43198,1,0,0:0:0:0:
109,192,43198,128,0,43375:0:0:0:0:
329,192,43286,1,0,0:0:0:0:
475,192,43375,1,0,0:0:0:0:
36,192,43375,1,0,0:0:0:0:
256,192,43375,128,0,43553:0:0:0:0:
182,192,43464,128,0,43641:0:0:0:0:
402,192,43464,1,0,0:0:0:0:
329,192,43553,1,0,0:0:0:0:
36,192,43641,128,0,43819:0:0:0:0:
256,192,43641,1,0,0:0:0:0:
475,192,43730,128,0,43908:0:0:0:0:
182,192,43730,1,0,0:0:0:0:
402,192,43730,1,0,0:0:0:0:
109,192,43819,1,0,0:0:0:0:
36,192,43908,1,0,0:0:0:0:
329,192,43908,128,0,44085:0:0:0:0:
256,192,43996,128,0,44174:0:0:0:0:
109,192,43996,1,0,0:0:0:0:
182,192,44085,128,0,44263:0:0:0:0:
475,192,44085,1,0,0:0:0:0:
402,192,44085,1,0,0:0:0:0:
36,192,44085,1,0,0:0:0:0:
109,192,44174,128,0,44351:0:0:0:0:
329,192,44174,1,0,0:0:0:0:
36,192,44263,128,0,44440:0:0:0:0:
256,192,44263,1,0,0:0:0:0:
329,192,44351,1,0,0:0:0:0:
475,192,44351,128,0,44529:0:0:0:0:
402,192,44440,1,0,0:0:0:0:
182,192,44440,1,0,0:0:0:0:
256,192,44529,128,0,44706:0:0:0:0:
109,192,44529,1,0,0:0:0:0:
329,192,44618,128,0,44795:0:0:0:0:
36,192,44618,1,0,0:0:0:0:
182,192,44706,1,0,0:0:0:0:
36,192,44795,128,0,44973:0:0:0:0:
256,192,44795,1,0,0:0:0:0:
402,192,44795,1,0,0:0:0:0:
475,192,44884,128,0,45061:0:0:0:0:
182,192,44884,1,0,0:0:0:0:
402,192,44973,128,0,45150:0:0:0:0:
109,192,44973,1,0,0:0:0:0:
329,192,45061,128,0,45239:0:0:0:0:
182,192,45061,1,0,0:0:0:0:
475,192,45150,1,0,0:0:0:0:
256,192,45150,128,0,45328:0:0:0:0:
36,192,45150,1,0,0:0:0:0:
402,192,45239,1,0,0:0:0:0:
182,192,45239,128,0,45416:0:0:0:0:
329,192,45328,1,0,0:0:0:0:
109,192,45328,128,0,45505:0:0:0:0:
475,192,45416,128,0,45594:0:0:0:0:
256,192,45416,1,0,0:0:0:0:
36,192,45505,128,0,45771:0:0:0:0:
402,192,45505,128,0,45683:0:0:0:0:
182,192,45505,1,0,0:0:0:0:
109,192,45594,128,0,45860:0:0:0:0:
329,192,45594,128,0,45771:0:0:0:0:
182,192,45683,128,0,45949:0:0:0:0:
256,192,45683,128,0,45860:0:0:0:0:
475,192,45860,128,0,46127:0:0:0:0:
402,192,45860,128,0,46127:0:0:0:0:
36,192,45949,128,0,46127:0:0:0:0:
256,192,45949,128,0,46127:0:0:0:0:
329,192,46127,128,0,46215:0:0:0:0:
182,192,46127,128,0,46215:0:0:0:0:
475,192,46215,128,0,46482:0:0:0:0:
109,192,46215,128,0,46393:0:0:0:0:
36,192,46215,128,0,46393:0:0:0:0:
402,192,46304,128,0,46570:0:0:0:0:
256,192,46304,128,0,46482:0:0:0:0:
329,192,46393,128,0,46659:0:0:0:0:
182,192,46393,128,0,46570:0:0:0:0:
109,192,46570,128,0,46837:0:0:0:0:
36,192,46570,128,0,46837:0:0:0:0:
256,192,46659,128,0,46837:0:0:0:0:
475,192,46659,128,0,46837:0:0:0:0:
329,192,46837,128,0,46925:0:0:0:0:
182,192,46837,128,0,46925:0:0:0:0:
256,192,46925,1,0,0:0:0:0:
475,192,46925,128,0,47103:0:0:0:0:
36,192,46925,128,0,47103:0:0:0:0:
402,192,47014,128,0,47192:0:0:0:0:
109,192,47014,128,0,47192:0:0:0:0:
329,192,47103,128,0,47280:0:0:0:0:
182,192,47103,128,0,47280:0:0:0:0:
256,192,47280,128,0,47458:0:0:0:0:
36,192,47280,128,0,47458:0:0:0:0:
475,192,47280,1,0,0:0:0:0:
475,192,47458,128,0,47635:0:0:0:0:
402,192,47547,128,0,47724:0:0:0:0:
329,192,47635,128,0,47813:0:0:0:0:
109,192,47635,1,0,0:0:0:0:
36,192,47635,1,0,0:0:0:0:
182,192,47635,1,0,0:0:0:0:
182,192,47813,128,0,47902:0:0:0:0:
36,192,47902,128,0,48079:0:0:0:0:
329,192,47902,1,0,0:0:0:0:
475,192,47902,1,0,0:0:0:0:
402,192,47902,1,0,0:0:0:0:
256,192,47990,1,0,0:0:0:0:
109,192,47990,1,0,0:0:0:0:
329,192,48079,1,0,0:0:0:0:
475,192,48079,1,0,0:0:0:0:
182,192,48079,128,0,48168:0:0:0:0:
36,192,48168,128,0,48345:0:0:0:0:
402,192,48168,1,0,0:0:0:0:
256,192,48168,1,0,0:0:0:0:
329,192,48257,1,0,0:0:0:0:
182,192,48257,1,0,0:0:0:0:
109,192,48345,1,0,0:0:0:0:
256,192,48345,1,0,0:0:0:0:
402,192,48345,128,0,48523:0:0:0:0:
475,192,48345,128,0,48523:0:0:0:0:
182,192,48523,1,0,0:0:0:0:
329,192,48523,1,0,0:0:0:0:
36,192,48612,128,0,48789:0:0:0:0:
109,192,48612,128,0,48789:0:0:0:0:
256,192,48700,1,0,0:0:0:0:
475,192,48700,1,0,0:0:0:0:
402,192,48700,1,0,0:0:0:0:
329,192,48789,1,0,0:0:0:0:
182,192,48789,1,0,0:0:0:0:
256,192,48878,128,0,49056:0:0:0:0:
109,192,48878,128,0,49056:0:0:0:0:
475,192,49056,128,0,49233:0:0:0:0:
402,192,49056,128,0,49233:0:0:0:0:
36,192,49056,1,0,0:0:0:0:
182,192,49233,1,0,0:0:0:0:
329,192,49233,1,0,0:0:0:0:
109,192,49322,128,0,49499:0:0:0:0:
36,192,49322,128,0,49499:0:0:0:0:
256,192,49411,1,0,0:0:0:0:
475,192,49411,1,0,0:0:0:0:
402,192,49411,1,0,0:0:0:0:
329,192,49499,1,0,0:0:0:0:
182,192,49499,1,0,0:0:0:0:
256,192,49588,128,0,49766:0:0:0:0:
109,192,49588,128,0,49766:0:0:0:0:
36,192,49766,128,0,49943:0:0:0:0:
475,192,49766,1,0,0:0:0:0:
182,192,49766,128,0,49943:0:0:0:0:
256,192,49943,1,0,0:0:0:0:
329,192,49943,1,0,0:0:0:0:
402,192,50032,128,0,50209:0:0:0:0:
475,192,50032,128,0,50209:0:0:0:0:
109,192,50121,1,0,0:0:0:0:
36,192,50121,1,0,0:0:0:0:
256,192,50121,1,0,0:0:0:0:
329,192,50209,1,0,0:0:0:0:
182,192,50209,1,0,0:0:0:0:
256,192,50298,128,0,50564:0:0:0:0:
36,192,50298,128,0,50564:0:0:0:0:
329,192,50476,128,0,50653:0:0:0:0:
109,192,50476,128,0,50653:0:0:0:0:
182,192,50564,128,0,50742:0:0:0:0:
402,192,50564,128,0,50742:0:0:0:0:
256,192,50653,128,0,50831:0:0:0:0:
475,192,50653,128,0,50831:0:0:0:0:
109,192,50742,128,0,50919:0:0:0:0:
36,192,50742,128,0,50919:0:0:0:0:
402,192,50831,128,0,51008:0:0:0:0:
182,192,50831,128,0,51008:0:0:0:0:
329,192,50919,128,0,51097:0:0:0:0:
256,192,50919,128,0,51097:0:0:0:0:
109,192,51008,128,0,51186:0:0:0:0:
36,192,51008,128,0,51186:0:0:0:0:
402,192,51097,128,0,51186:0:0:0:0:
475,192,51097,128,0,51186:0:0:0:0:
182,192,51186,128,0,51363:0:0:0:0:
329,192,51186,128,0,51363:0:0:0:0:
256,192,51186,1,0,0:0:0:0:
475,192,51363,1,0,0:0:0:0:
402,192,51363,1,0,0:0:0:0:
109,192,51452,128,0,51629:0:0:0:0:
36,192,51452,128,0,51629:0:0:0:0:
182,192,51541,1,0,0:0:0:0:
475,192,51541,1,0,0:0:0:0:
329,192,51541,1,0,0:0:0:0:
256,192,51629,1,0,0:0:0:0:
402,192,51629,1,0,0:0:0:0:
329,192,51718,128,0,51896:0:0:0:0:
475,192,51718,128,0,51896:0:0:0:0:
36,192,51896,128,0,52073:0:0:0:0:
109,192,51896,128,0,52073:0:0:0:0:
256,192,51896,1,0,0:0:0:0:
402,192,51985,128,0,52162:0:0:0:0:
475,192,51985,128,0,52162:0:0:0:0:
329,192,52073,128,0,52251:0:0:0:0:
182,192,52073,128,0,52251:0:0:0:0:
109,192,52162,128,0,52340:0:0:0:0:
36,192,52162,128,0,52340:0:0:0:0:
475,192,52251,128,0,52428:0:0:0:0:
256,192,52251,128,0,52428:0:0:0:0:
402,192,52340,128,0,52517:0:0:0:0:
182,192,52340,128,0,52517:0:0:0:0:
329,192,52428,128,0,52606:0:0:0:0:
109,192,52428,128,0,52606:0:0:0:0:
36,192,52517,128,0,52695:0:0:0:0:
256,192,52517,128,0,52695:0:0:0:0:
475,192,52606,128,0,52783:0:0:0:0:
402,192,52606,128,0,52783:0:0:0:0:
182,192,52606,1,0,0:0:0:0:
182,192,52783,128,0,52961:0:0:0:0:
36,192,52783,128,0,52961:0:0:0:0:
402,192,52872,128,0,53050:0:0:0:0:
475,192,52872,128,0,53050:0:0:0:0:
329,192,52961,1,0,0:0:0:0:
256,192,52961,1,0,0:0:0:0:
109,192,52961,1,0,0:0:0:0:
36,192,53050,128,0,53227:0:0:0:0:
182,192,53050,128,0,53227:0:0:0:0:
402,192,53138,128,0,53316:0:0:0:0:
475,192,53138,128,0,53316:0:0:0:0:
36,192,53316,1,0,0:0:0:0:
182,192,53316,1,0,0:0:0:0:
109,192,53316,1,0,0:0:0:0:
329,192,53316,128,0,53493:0:0:0:0:
402,192,53405,1,0,0:0:0:0:
475,192,53405,1,0,0:0:0:0:
256,192,53405,128,0,53671:0:0:0:0:
109,192,53493,1,0,0:0:0:0:
36,192,53493,1,0,0:0:0:0:
182,192,53493,128,0,53582:0:0:0:0:
329,192,53582,128,0,53760:0:0:0:0:
182,192,53671,128,0,53848:0:0:0:0:
402,192,53671,1,0,0:0:0:0:
475,192,53671,1,0,0:0:0:0:
256,192,53760,128,0,53937:0:0:0:0:
109,192,53760,1,0,0:0:0:0:
36,192,53760,1,0,0:0:0:0:
329,192,53848,128,0,53937:0:0:0:0:
475,192,53848,1,0,0:0:0:0:
402,192,53848,1,0,0:0:0:0:
182,192,53937,128,0,54026:0:0:0:0:
109,192,53937,1,0,0:0:0:0:
36,192,53937,1,0,0:0:0:0:
256,192,54026,1,0,0:0:0:0:
329,192,54026,1,0,0:0:0:0:
475,192,54026,128,0,54203:0:0:0:0:
402,192,54026,128,0,54203:0:0:0:0:
36,192,54203,128,0,54381:0:0:0:0:
182,192,54203,128,0,54381:0:0:0:0:
402,192,54292,128,0,54470:0:0:0:0:
475,192,54292,128,0,54470:0:0:0:0:
329,192,54381,1,0,0:0:0:0:
256,192,54381,1,0,0:0:0:0:
109,192,54381,1,0,0:0:0:0:
182,192,54470,128,0,54647:0:0:0:0:
36,192,54470,128,0,54647:0:0:0:0:
402,192,54558,128,0,54736:0:0:0:0:
475,192,54558,128,0,54736:0:0:0:0:
256,192,54736,128,0,54913:0:0:0:0:
182,192,54736,128,0,54913:0:0:0:0:
329,192,54736,1,0,0:0:0:0:
109,192,54913,128,0,55091:0:0:0:0:
36,192,54913,128,0,55091:0:0:0:0:
475,192,55002,128,0,55180:0:0:0:0:
329,192,55002,128,0,55180:0:0:0:0:
402,192,55091,1,0,0:0:0:0:
256,192,55091,1,0,0:0:0:0:
182,192,55091,1,0,0:0:0:0:
109,192,55180,128,0,55357:0:0:0:0:
36,192,55180,128,0,55357:0:0:0:0:
329,192,55269,128,0,55446:0:0:0:0:
475,192,55269,128,0,55446:0:0:0:0:
256,192,55269,1,0,0:0:0:0:
182,192,55357,1,0,0:0:0:0:
109,192,55446,1,0,0:0:0:0:
402,192,55446,128,0,55624:0:0:0:0:
36,192,55446,128,0,55624:0:0:0:0:
256,192,55535,128,0,55712:0:0:0:0:
329,192,55535,128,0,55712:0:0:0:0:
182,192,55624,128,0,55801:0:0:0:0:
475,192,55624,128,0,55801:0:0:0:0:
109,192,55712,128,0,55890:0:0:0:0:
36,192,55712,128,0,55890:0:0:0:0:
402,192,55801,1,0,0:0:0:0:
329,192,55801,1,0,0:0:0:0:
256,192,55801,1,0,0:0:0:0:
182,192,55890,128,0,56067:0:0:0:0:
475,192,55890,128,0,56067:0:0:0:0:
109,192,55979,128,0,56156:0:0:0:0:
36,192,55979,128,0,56156:0:0:0:0:
475,192,56156,1,0,0:0:0:0:
402,192,56156,1,0,0:0:0:0:
256,192,56156,1,0,0:0:0:0:
36,192,56245,128,0,56422:0:0:0:0:
329,192,56245,128,0,56422:0:0:0:0:
109,192,56334,128,0,56511:0:0:0:0:
256,192,56334,128,0,56511:0:0:0:0:
182,192,56422,128,0,56600:0:0:0:0:
402,192,56422,128,0,56600:0:0:0:0:
329,192,56511,128,0,56689:0:0:0:0:
36,192,56511,128,0,56777:0:0:0:0:
475,192,56511,128,0,56777:0:0:0:0:
256,192,56600,128,0,56777:0:0:0:0:
109,192,56600,128,0,56689:0:0:0:0:
182,192,56689,128,0,56866:0:0:0:0:
402,192,56689,128,0,56777:0:0:0:0:
109,192,56777,128,0,56955:0:0:0:0:
329,192,56777,128,0,56866:0:0:0:0:
475,192,56866,1,0,0:0:0:0:
402,192,56866,1,0,0:0:0:0:
36,192,56866,128,0,57044:0:0:0:0:
256,192,56866,128,0,56955:0:0:0:0:
182,192,56955,128,0,57132:0:0:0:0:
329,192,56955,128,0,57132:0:0:0:0:
109,192,57044,128,0,57132:0:0:0:0:
402,192,57044,128,0,57221:0:0:0:0:
256,192,57044,1,0,0:0:0:0:
36,192,57132,128,0,57310:0:0:0:0:
475,192,57132,128,0,57310:0:0:0:0:
256,192,57221,128,0,57399:0:0:0:0:
329,192,57221,128,0,57576:0:0:0:0:
109,192,57221,1,0,0:0:0:0:
182,192,57310,128,0,57487:0:0:0:0:
402,192,57310,128,0,57576:0:0:0:0:
109,192,57399,128,0,57576:0:0:0:0:
475,192,57399,128,0,57576:0:0:0:0:
36,192,57399,1,0,0:0:0:0:
256,192,57576,128,0,57754:0:0:0:0:
182,192,57576,1,0,0:0:0:0:
36,192,57576,128,0,57665:0:0:0:0:
475,192,57665,128,0,57842:0:0:0:0:
109,192,57665,128,0,57754:0:0:0:0:
402,192,57754,128,0,57931:0:0:0:0:
182,192,57754,128,0,57842:0:0:0:0:
36,192,57754,1,0,0:0:0:0:
329,192,57842,128,0,58020:0:0:0:0:
256,192,57842,128,0,57931:0:0:0:0:
475,192,57931,1,0,0:0:0:0:
109,192,57931,1,0,0:0:0:0:
36,192,58020,128,0,58198:0:0:0:0:
182,192,58020,128,0,58109:0:0:0:0:
109,192,58109,128,0,58286:0:0:0:0:
475,192,58109,1,0,0:0:0:0:
402,192,58109,1,0,0:0:0:0:
256,192,58109,128,0,58198:0:0:0:0:
329,192,58198,1,0,0:0:0:0:
182,192,58198,1,0,0:0:0:0:
475,192,58286,1,0,0:0:0:0:
402,192,58286,1,0,0:0:0:0:
256,192,58286,1,0,0:0:0:0:
182,192,58375,1,0,0:0:0:0:
36,192,58375,1,0,0:0:0:0:
109,192,58375,1,0,0:0:0:0:
475,192,58464,1,0,0:0:0:0:
402,192,58464,1,0,0:0:0:0:
329,192,58464,1,0,0:0:0:0:
256,192,58553,1,0,0:0:0:0:
109,192,58553,1,0,0:0:0:0:
36,192,58553,1,0,0:0:0:0:
182,192,58641,1,0,0:0:0:0:
402,192,58641,1,0,0:0:0:0:
475,192,58641,1,0,0:0:0:0:
329,192,58730,1,0,0:0:0:0:
109,192,58730,1,0,0:0:0:0:
36,192,58730,1,0,0:0:0:0:
256,192,58819,1,0,0:0:0:0:
402,192,58819,1,0,0:0:0:0:
475,192,58819,1,0,0:0:0:0:
182,192,58908,1,0,0:0:0:0:
329,192,58908,1,0,0:0:0:0:
475,192,58996,1,0,0:0:0:0:
256,192,58996,1,0,0:0:0:0:
109,192,58996,1,0,0:0:0:0:
36,192,58996,1,0,0:0:0:0:
182,192,59041,1,0,0:0:0:0:
329,192,59041,1,0,0:0:0:0:
402,192,59041,1,0,0:0:0:0:
36,192,59263,1,0,0:0:0:0:
256,192,59263,1,0,0:0:0:0:
475,192,59263,1,0,0:0:0:0:
402,192,59263,1,0,0:0:0:0:
109,192,59307,1,0,0:0:0:0:
182,192,59307,1,0,0:0:0:0:
329,192,59307,1,0,0:0:0:0:
475,192,59529,1,0,0:0:0:0:
182,192,59529,1,0,0:0:0:0:
256,192,59529,1,0,0:0:0:0:
402,192,59573,1,0,0:0:0:0:
109,192,59573,1,0,0:0:0:0:
329,192,59618,1,0,0:0:0:0:
36,192,59618,1,0,0:0:0:0:
256,192,59662,1,0,0:0:0:0:
182,192,59706,1,0,0:0:0:0:
402,192,59706,128,0,60416:0:0:0:0:
475,192,59706,128,0,60416:0:0:0:0:
36,192,60061,1,0,0:0:0:0:
182,192,60061,1,0,0:0:0:0:
36,192,60239,1,0,0:0:0:0:
182,192,60239,1,0,0:0:0:0:
109,192,60328,1,0,0:0:0:0:
256,192,60328,1,0,0:0:0:0:
182,192,60416,1,0,0:0:0:0:
329,192,60416,1,0,0:0:0:0:
256,192,60594,1,0,0:0:0:0:
109,192,60594,1,0,0:0:0:0:
36,192,60771,1,0,0:0:0:0:
475,192,60771,1,0,0:0:0:0:
182,192,60771,1,0,0:0:0:0:
402,192,60771,1,0,0:0:0:0:
329,192,60771,1,0,0:0:0:0:
36,192,60949,128,0,61127:0:0:0:0:
182,192,61038,128,0,61215:0:0:0:0:
475,192,61127,128,0,61304:0:0:0:0:
402,192,61215,128,0,61393:0:0:0:0:
109,192,61304,1,0,0:0:0:0:
329,192,61304,128,0,61482:0:0:0:0:
256,192,61393,128,0,61570:0:0:0:0:
402,192,61482,128,0,61659:0:0:0:0:
109,192,61482,1,0,0:0:0:0:
182,192,61482,1,0,0:0:0:0:
36,192,61482,1,0,0:0:0:0:
329,192,61570,128,0,61748:0:0:0:0:
256,192,61659,128,0,61837:0:0:0:0:
36,192,61659,1,0,0:0:0:0:
475,192,61659,1,0,0:0:0:0:
109,192,61748,1,0,0:0:0:0:
402,192,61748,1,0,0:0:0:0:
182,192,61748,128,0,61925:0:0:0:0:
36,192,61837,1,0,0:0:0:0:
475,192,61837,1,0,0:0:0:0:
329,192,61837,128,0,62014:0:0:0:0:
256,192,61925,128,0,62103:0:0:0:0:
402,192,62014,1,0,0:0:0:0:
475,192,62014,1,0,0:0:0:0:
182,192,62014,128,0,62192:0:0:0:0:
109,192,62103,128,0,62280:0:0:0:0:
475,192,62192,1,0,0:0:0:0:
256,192,62192,128,0,62369:0:0:0:0:
402,192,62192,1,0,0:0:0:0:
36,192,62192,1,0,0:0:0:0:
182,192,62280,128,0,62458:0:0:0:0:
475,192,62369,1,0,0:0:0:0:
109,192,62369,128,0,62547:0:0:0:0:
329,192,62369,1,0,0:0:0:0:
36,192,62458,128,0,62635:0:0:0:0:
256,192,62547,1,0,0:0:0:0:
402,192,62547,1,0,0:0:0:0:
475,192,62547,128,0,62902:0:0:0:0:
329,192,62635,128,0,62813:0:0:0:0:
182,192,62635,1,0,0:0:0:0:
402,192,62724,128,0,62902:0:0:0:0:
109,192,62724,1,0,0:0:0:0:
182,192,62813,128,0,62902:0:0:0:0:
256,192,62813,1,0,0:0:0:0:
36,192,62902,128,0,63257:0:0:0:0:
329,192,62902,1,0,0:0:0:0:
109,192,62902,1,0,0:0:0:0:
402,192,62990,1,0,0:0:0:0:
182,192,62990,128,0,63168:0:0:0:0:
256,192,63079,128,0,63257:0:0:0:0:
475,192,63079,1,0,0:0:0:0:
329,192,63168,128,0,63257:0:0:0:0:
109,192,63168,1,0,0:0:0:0:
182,192,63257,1,0,0:0:0:0:
402,192,63257,1,0,0:0:0:0:
475,192,63257,128,0,63612:0:0:0:0:
256,192,63345,128,0,63523:0:0:0:0:
109,192,63345,1,0,0:0:0:0:
329,192,63434,128,0,63612:0:0:0:0:
36,192,63434,1,0,0:0:0:0:
402,192,63523,128,0,63612:0:0:0:0:
182,192,63523,1,0,0:0:0:0:
256,192,63612,1,0,0:0:0:0:
109,192,63612,1,0,0:0:0:0:
36,192,63612,128,0,63967:0:0:0:0:
329,192,63700,1,0,0:0:0:0:
182,192,63700,128,0,63878:0:0:0:0:
256,192,63789,128,0,63967:0:0:0:0:
402,192,63789,1,0,0:0:0:0:
109,192,63878,1,0,0:0:0:0:
475,192,63878,128,0,63967:0:0:0:0:
182,192,63967,1,0,0:0:0:0:
329,192,63967,128,0,64322:0:0:0:0:
402,192,63967,1,0,0:0:0:0:
256,192,64056,1,0,0:0:0:0:
109,192,64056,128,0,64233:0:0:0:0:
36,192,64144,128,0,64322:0:0:0:0:
402,192,64144,1,0,0:0:0:0:
475,192,64233,128,0,64322:0:0:0:0:
182,192,64233,1,0,0:0:0:0:
109,192,64322,1,0,0:0:0:0:
402,192,64322,128,0,64677:0:0:0:0:
256,192,64322,1,0,0:0:0:0:
36,192,64411,1,0,0:0:0:0:
329,192,64411,128,0,64588:0:0:0:0:
182,192,64499,128,0,64677:0:0:0:0:
475,192,64499,1,0,0:0:0:0:
256,192,64588,1,0,0:0:0:0:
109,192,64588,128,0,64677:0:0:0:0:
329,192,64677,1,0,0:0:0:0:
36,192,64677,1,0,0:0:0:0:
475,192,64677,128,0,65032:0:0:0:0:
402,192,64766,1,0,0:0:0:0:
256,192,64766,128,0,64943:0:0:0:0:
182,192,64854,128,0,65032:0:0:0:0:
36,192,64854,1,0,0:0:0:0:
329,192,64943,1,0,0:0:0:0:
109,192,64943,128,0,65032:0:0:0:0:
256,192,65032,1,0,0:0:0:0:
402,192,65032,1,0,0:0:0:0:
36,192,65032,128,0,65387:0:0:0:0:
475,192,65121,1,0,0:0:0:0:
182,192,65121,128,0,65298:0:0:0:0:
329,192,65209,1,0,0:0:0:0:
109,192,65209,128,0,65387:0:0:0:0:
256,192,65298,1,0,0:0:0:0:
402,192,65298,128,0,65387:0:0:0:0:
182,192,65387,1,0,0:0:0:0:
475,192,65387,128,0,65742:0:0:0:0:
329,192,65387,1,0,0:0:0:0:
402,192,65476,1,0,0:0:0:0:
256,192,65476,128,0,65653:0:0:0:0:
182,192,65564,128,0,65742:0:0:0:0:
36,192,65564,1,0,0:0:0:0:
109,192,65653,128,0,65742:0:0:0:0:
329,192,65653,1,0,0:0:0:0:
402,192,65742,1,0,0:0:0:0:
256,192,65742,1,0,0:0:0:0:
36,192,65742,128,0,66097:0:0:0:0:
182,192,65831,1,0,0:0:0:0:
475,192,65831,128,0,66008:0:0:0:0:
109,192,65919,128,0,66097:0:0:0:0:
329,192,65919,1,0,0:0:0:0:
402,192,66008,1,0,0:0:0:0:
256,192,66008,128,0,66097:0:0:0:0:
475,192,66097,1,0,0:0:0:0:
182,192,66097,128,0,66452:0:0:0:0:
329,192,66097,1,0,0:0:0:0:
256,192,66186,1,0,0:0:0:0:
36,192,66186,128,0,66363:0:0:0:0:
109,192,66274,128,0,66452:0:0:0:0:
402,192,66274,1,0,0:0:0:0:
329,192,66363,128,0,66452:0:0:0:0:
475,192,66363,1,0,0:0:0:0:
36,192,66452,1,0,0:0:0:0:
256,192,66452,128,0,66807:0:0:0:0:
402,192,66452,1,0,0:0:0:0:
329,192,66541,1,0,0:0:0:0:
182,192,66541,128,0,66718:0:0:0:0:
109,192,66629,128,0,66807:0:0:0:0:
475,192,66629,1,0,0:0:0:0:
36,192,66718,128,0,66807:0:0:0:0:
402,192,66718,1,0,0:0:0:0:
182,192,66807,1,0,0:0:0:0:
329,192,66807,1,0,0:0:0:0:
475,192,66807,128,0,67162:0:0:0:0:
256,192,66896,128,0,67073:0:0:0:0:
109,192,66896,1,0,0:0:0:0:
36,192,66985,1,0,0:0:0:0:
329,192,66985,128,0,67162:0:0:0:0:
402,192,67073,128,0,67162:0:0:0:0:
182,192,67073,1,0,0:0:0:0:
256,192,67162,1,0,0:0:0:0:
109,192,67162,1,0,0:0:0:0:
36,192,67162,128,0,67517:0:0:0:0:
329,192,67251,1,0,0:0:0:0:
475,192,67251,128,0,67428:0:0:0:0:
402,192,67340,128,0,67517:0:0:0:0:
182,192,67340,1,0,0:0:0:0:
256,192,67428,1,0,0:0:0:0:
109,192,67428,128,0,67517:0:0:0:0:
329,192,67517,1,0,0:0:0:0:
475,192,67517,1,0,0:0:0:0:
182,192,67517,1,0,0:0:0:0:
256,192,67606,1,0,0:0:0:0:
402,192,67606,1,0,0:0:0:0:
109,192,67606,1,0,0:0:0:0:
36,192,67695,1,0,0:0:0:0:
182,192,67695,1,0,0:0:0:0:
329,192,67695,1,0,0:0:0:0:
475,192,67872,1,0,0:0:0:0:
256,192,67872,1,0,0:0:0:0:
109,192,67961,1,0,0:0:0:0:
36,192,67961,1,0,0:0:0:0:
182,192,68138,1,0,0:0:0:0:
329,192,68138,1,0,0:0:0:0:
402,192,68227,1,0,0:0:0:0:
475,192,68227,1,0,0:0:0:0:
256,192,68227,128,0,68405:0:0:0:0:
36,192,68227,128,0,69026:0:0:0:0:
109,192,68227,1,0,0:0:0:0:
329,192,68316,128,0,68493:0:0:0:0:
402,192,68405,128,0,68582:0:0:0:0:
475,192,68493,128,0,68760:0:0:0:0:
182,192,68493,128,0,68671:0:0:0:0:
256,192,68582,128,0,68760:0:0:0:0:
329,192,68671,128,0,68848:0:0:0:0:
402,192,68760,128,0,69026:0:0:0:0:
109,192,68760,128,0,68937:0:0:0:0:
182,192,68848,128,0,69026:0:0:0:0:
256,192,68937,128,0,69115:0:0:0:0:
329,192,69026,128,0,69292:0:0:0:0:
475,192,69026,128,0,69203:0:0:0:0:
109,192,69115,128,0,69292:0:0:0:0:
182,192,69203,128,0,69381:0:0:0:0:
36,192,69292,128,0,71067:0:0:0:0:
256,192,69292,128,0,69470:0:0:0:0:
475,192,69381,128,0,69558:0:0:0:0:
402,192,69470,128,0,69647:0:0:0:0:
329,192,69558,128,0,69736:0:0:0:0:
256,192,69647,128,0,69825:0:0:0:0:
182,192,69647,128,0,69825:0:0:0:0:
109,192,69736,128,0,69913:0:0:0:0:
475,192,69825,128,0,70002:0:0:0:0:
329,192,69913,128,0,70091:0:0:0:0:
182,192,70002,128,0,70180:0:0:0:0:
109,192,70002,128,0,70180:0:0:0:0:
256,192,70091,128,0,70269:0:0:0:0:
329,192,70180,128,0,70357:0:0:0:0:
402,192,70269,128,0,70446:0:0:0:0:
475,192,70357,128,0,70535:0:0:0:0:
109,192,70357,128,0,70535:0:0:0:0:
329,192,70446,128,0,70624:0:0:0:0:
182,192,70535,128,0,70712:0:0:0:0:
256,192,70624,128,0,70801:0:0:0:0:
402,192,70712,128,0,70890:0:0:0:0:
475,192,70712,128,0,70890:0:0:0:0:
329,192,70801,128,0,70979:0:0:0:0:
109,192,70890,128,0,71067:0:0:0:0:
182,192,70979,128,0,71067:0:0:0:0:
256,192,71067,128,0,71156:0:0:0:0:
329,192,71067,128,0,71156:0:0:0:0:
402,192,71067,128,0,71156:0:0:0:0:
475,192,71067,128,0,71156:0:0:0:0:
475,192,71334,128,0,71422:0:0:0:0:
329,192,71334,128,0,71422:0:0:0:0:
182,192,71334,128,0,71422:0:0:0:0:
109,192,71334,128,0,71422:0:0:0:0:
36,192,71334,128,0,71422:0:0:0:0:
36,192,71600,128,0,71689:0:0:0:0:
182,192,71600,128,0,71689:0:0:0:0:
109,192,71777,128,0,71866:0:0:0:0:
256,192,71777,128,0,71866:0:0:0:0:
329,192,71777,128,0,71866:0:0:0:0:
402,192,71777,128,0,71866:0:0:0:0:
475,192,71777,128,0,71866:0:0:0:0:
475,192,72044,128,0,72132:0:0:0:0:
402,192,72044,128,0,72132:0:0:0:0:
256,192,72044,128,0,72132:0:0:0:0:
182,192,72044,128,0,72132:0:0:0:0:
36,192,72044,128,0,72132:0:0:0:0:
329,192,72310,128,0,72399:0:0:0:0:
256,192,72310,128,0,72399:0:0:0:0:
182,192,72487,128,0,72665:0:0:0:0:
402,192,72487,128,0,72665:0:0:0:0:
475,192,72487,128,0,72665:0:0:0:0:
109,192,72487,128,0,72665:0:0:0:0:
36,192,72487,128,0,72665:0:0:0:0:
329,192,72576,128,0,72754:0:0:0:0:
256,192,72665,128,0,72842:0:0:0:0:
36,192,72754,128,0,72931:0:0:0:0:
475,192,72754,128,0,72931:0:0:0:0:
182,192,72754,128,0,72931:0:0:0:0:
402,192,72754,128,0,72931:0:0:0:0:
109,192,72754,128,0,72931:0:0:0:0:
329,192,72842,128,0,73020:0:0:0:0:
256,192,72931,128,0,73109:0:0:0:0:
36,192,73020,128,0,73198:0:0:0:0:
109,192,73020,128,0,73198:0:0:0:0:
402,192,73020,128,0,73109:0:0:0:0:
475,192,73020,128,0,73109:0:0:0:0:
182,192,73020,128,0,73198:0:0:0:0:
329,192,73109,1,0,0:0:0:0:
402,192,73198,128,0,73375:0:0:0:0:
475,192,73198,128,0,73375:0:0:0:0:
256,192,73198,128,0,73375:0:0:0:0:
109,192,73375,128,0,73553:0:0:0:0:
182,192,73464,128,0,73641:0:0:0:0:
256,192,73553,128,0,73730:0:0:0:0:
36,192,73553,128,0,73730:0:0:0:0:
329,192,73553,128,0,73730:0:0:0:0:
402,192,73553,128,0,73730:0:0:0:0:
475,192,73553,128,0,73730:0:0:0:0:
109,192,73730,1,0,0:0:0:0:
182,192,73789,1,0,0:0:0:0:
256,192,73848,1,0,0:0:0:0:
329,192,73908,1,0,0:0:0:0:
402,192,73908,1,0,0:0:0:0:
475,192,73908,1,0,0:0:0:0:
36,192,73908,1,0,0:0:0:0:
109,192,73908,1,0,0:0:0:0:
329,192,74085,1,0,0:0:0:0:
182,192,74085,1,0,0:0:0:0:
109,192,74174,1,0,0:0:0:0:
36,192,74174,1,0,0:0:0:0:
182,192,74351,1,0,0:0:0:0:
329,192,74351,1,0,0:0:0:0:
256,192,74440,1,0,0:0:0:0:
475,192,74440,1,0,0:0:0:0:
402,192,74440,1,0,0:0:0:0:
36,192,74440,1,0,0:0:0:0:
109,192,74795,1,0,0:0:0:0:
402,192,74795,1,0,0:0:0:0:
182,192,74884,1,0,0:0:0:0:
329,192,74884,1,0,0:0:0:0:
475,192,74973,1,0,0:0:0:0:
256,192,74973,1,0,0:0:0:0:
36,192,74973,1,0,0:0:0:0:
109,192,74973,1,0,0:0:0:0:
182,192,75150,1,0,0:0:0:0:
329,192,75150,1,0,0:0:0:0:
256,192,75239,1,0,0:0:0:0:
109,192,75239,1,0,0:0:0:0:
475,192,75328,1,0,0:0:0:0:
182,192,75328,1,0,0:0:0:0:
36,192,75328,1,0,0:0:0:0:
402,192,75328,1,0,0:0:0:0:
329,192,75505,1,0,0:0:0:0:
256,192,75505,1,0,0:0:0:0:
182,192,75594,1,0,0:0:0:0:
109,192,75594,1,0,0:0:0:0:
36,192,75683,1,0,0:0:0:0:
475,192,75683,1,0,0:0:0:0:
402,192,75683,1,0,0:0:0:0:
329,192,75683,1,0,0:0:0:0:
182,192,75771,1,0,0:0:0:0:
256,192,75771,1,0,0:0:0:0:
36,192,75860,1,0,0:0:0:0:
109,192,75860,1,0,0:0:0:0:
475,192,76038,1,0,0:0:0:0:
329,192,76038,1,0,0:0:0:0:
256,192,76215,1,0,0:0:0:0:
109,192,76215,1,0,0:0:0:0:
36,192,76215,1,0,0:0:0:0:
402,192,76215,1,0,0:0:0:0:
329,192,76304,1,0,0:0:0:0:
182,192,76304,1,0,0:0:0:0:
256,192,76393,1,0,0:0:0:0:
109,192,76393,1,0,0:0:0:0:
36,192,76393,1,0,0:0:0:0:
475,192,76393,1,0,0:0:0:0:
329,192,76482,1,0,0:0:0:0:
402,192,76482,1,0,0:0:0:0:
182,192,76570,1,0,0:0:0:0:
36,192,76570,1,0,0:0:0:0:
256,192,76748,1,0,0:0:0:0:
475,192,76748,1,0,0:0:0:0:
402,192,76748,1,0,0:0:0:0:
109,192,76748,1,0,0:0:0:0:
182,192,76925,1,0,0:0:0:0:
36,192,76925,1,0,0:0:0:0:
402,192,77014,1,0,0:0:0:0:
329,192,77014,1,0,0:0:0:0:
256,192,77103,1,0,0:0:0:0:
475,192,77103,1,0,0:0:0:0:
109,192,77103,1,0,0:0:0:0:
182,192,77192,1,0,0:0:0:0:
36,192,77192,1,0,0:0:0:0:
402,192,77280,1,0,0:0:0:0:
329,192,77280,1,0,0:0:0:0:
475,192,77458,1,0,0:0:0:0:
402,192,77458,1,0,0:0:0:0:
36,192,77458,1,0,0:0:0:0:
182,192,77458,1,0,0:0:0:0:
109,192,77635,1,0,0:0:0:0:
36,192,77635,1,0,0:0:0:0:
256,192,77635,1,0,0:0:0:0:
475,192,77635,1,0,0:0:0:0:
329,192,77724,1,0,0:0:0:0:
182,192,77724,1,0,0:0:0:0:
402,192,77813,1,0,0:0:0:0:
475,192,77813,1,0,0:0:0:0:
256,192,77813,1,0,0:0:0:0:
109,192,77813,1,0,0:0:0:0:
182,192,77902,1,0,0:0:0:0:
36,192,77902,1,0,0:0:0:0:
329,192,77990,1,0,0:0:0:0:
475,192,77990,1,0,0:0:0:0:
256,192,78168,1,0,0:0:0:0:
109,192,78168,1,0,0:0:0:0:
329,192,78434,1,0,0:0:0:0:
475,192,78434,1,0,0:0:0:0:
36,192,78523,1,0,0:0:0:0:
109,192,78523,1,0,0:0:0:0:
182,192,78523,1,0,0:0:0:0:
256,192,78523,1,0,0:0:0:0:
329,192,78700,1,0,0:0:0:0:
182,192,78700,1,0,0:0:0:0:
475,192,78700,1,0,0:0:0:0:
402,192,78700,1,0,0:0:0:0:
256,192,78789,1,0,0:0:0:0:
109,192,78789,1,0,0:0:0:0:
182,192,78878,1,0,0:0:0:0:
36,192,78878,1,0,0:0:0:0:
475,192,79056,1,0,0:0:0:0:
36,192,79056,1,0,0:0:0:0:
256,192,79056,1,0,0:0:0:0:
402,192,79115,1,0,0:0:0:0:
109,192,79115,1,0,0:0:0:0:
182,192,79174,1,0,0:0:0:0:
329,192,79174,1,0,0:0:0:0:
109,192,79233,1,0,0:0:0:0:
36,192,79233,1,0,0:0:0:0:
256,192,79233,1,0,0:0:0:0:
475,192,79233,1,0,0:0:0:0:
402,192,79322,1,0,0:0:0:0:
329,192,79322,1,0,0:0:0:0:
182,192,79322,1,0,0:0:0:0:
256,192,79411,1,0,0:0:0:0:
36,192,79411,1,0,0:0:0:0:
109,192,79411,1,0,0:0:0:0:
329,192,79499,1,0,0:0:0:0:
475,192,79499,1,0,0:0:0:0:
402,192,79588,1,0,0:0:0:0:
256,192,79588,1,0,0:0:0:0:
182,192,79588,1,0,0:0:0:0:
109,192,79588,1,0,0:0:0:0:
36,192,79588,1,0,0:0:0:0:
329,192,79766,1,0,0:0:0:0:
475,192,79766,1,0,0:0:0:0:
182,192,79854,1,0,0:0:0:0:
36,192,79854,1,0,0:0:0:0:
256,192,79943,1,0,0:0:0:0:
475,192,79943,1,0,0:0:0:0:
402,192,79943,1,0,0:0:0:0:
329,192,80121,1,0,0:0:0:0:
36,192,80121,1,0,0:0:0:0:
109,192,80121,1,0,0:0:0:0:
402,192,80209,1,0,0:0:0:0:
256,192,80209,1,0,0:0:0:0:
475,192,80298,1,0,0:0:0:0:
182,192,80298,1,0,0:0:0:0:
109,192,80387,1,0,0:0:0:0:
329,192,80387,1,0,0:0:0:0:
36,192,80476,1,0,0:0:0:0:
256,192,80476,1,0,0:0:0:0:
475,192,80653,1,0,0:0:0:0:
402,192,80653,1,0,0:0:0:0:
109,192,80653,1,0,0:0:0:0:
329,192,80831,1,0,0:0:0:0:
182,192,80831,1,0,0:0:0:0:
109,192,80919,1,0,0:0:0:0:
36,192,80919,1,0,0:0:0:0:
475,192,81008,1,0,0:0:0:0:
402,192,81008,1,0,0:0:0:0:
256,192,81008,1,0,0:0:0:0:
36,192,81274,1,0,0:0:0:0:
182,192,81274,1,0,0:0:0:0:
256,192,81363,1,0,0:0:0:0:
475,192,81363,1,0,0:0:0:0:
402,192,81363,1,0,0:0:0:0:
329,192,81541,1,0,0:0:0:0:
109,192,81541,1,0,0:0:0:0:
36,192,81541,1,0,0:0:0:0:
182,192,81629,1,0,0:0:0:0:
402,192,81629,1,0,0:0:0:0:
256,192,81718,1,0,0:0:0:0:
475,192,81718,1,0,0:0:0:0:
329,192,81807,1,0,0:0:0:0:
182,192,81807,1,0,0:0:0:0:
109,192,81896,1,0,0:0:0:0:
402,192,81896,1,0,0:0:0:0:
36,192,82073,1,0,0:0:0:0:
256,192,82073,1,0,0:0:0:0:
475,192,82073,1,0,0:0:0:0:
329,192,82251,1,0,0:0:0:0:
182,192,82251,1,0,0:0:0:0:
109,192,82340,1,0,0:0:0:0:
402,192,82340,1,0,0:0:0:0:
475,192,82428,128,0,82606:0:0:0:0:
36,192,82428,128,0,82517:0:0:0:0:
402,192,82517,128,0,82695:0:0:0:0:
182,192,82517,128,0,82606:0:0:0:0:
329,192,82606,128,0,82783:0:0:0:0:
109,192,82606,128,0,82695:0:0:0:0:
256,192,82695,128,0,82872:0:0:0:0:
36,192,82695,128,0,82783:0:0:0:0:
182,192,82783,128,0,82961:0:0:0:0:
475,192,82783,128,0,82872:0:0:0:0:
109,192,82872,128,0,83050:0:0:0:0:
402,192,82872,128,0,82961:0:0:0:0:
36,192,82961,128,0,83138:0:0:0:0:
329,192,82961,128,0,83050:0:0:0:0:
256,192,83050,128,0,83138:0:0:0:0:
402,192,83050,128,0,83138:0:0:0:0:
182,192,83138,128,0,83316:0:0:0:0:
475,192,83138,128,0,83316:0:0:0:0:
329,192,83316,1,0,0:0:0:0:
109,192,83316,1,0,0:0:0:0:
256,192,83375,1,0,0:0:0:0:
402,192,83375,1,0,0:0:0:0:
182,192,83434,1,0,0:0:0:0:
475,192,83434,1,0,0:0:0:0:
109,192,83493,128,0,83848:0:0:0:0:
36,192,83493,128,0,83848:0:0:0:0:
402,192,83671,128,0,83848:0:0:0:0:
475,192,83671,128,0,83848:0:0:0:0:
182,192,83848,128,0,84292:0:0:0:0:
329,192,83848,128,0,84292:0:0:0:0:
475,192,84115,128,0,84292:0:0:0:0:
36,192,84115,128,0,84292:0:0:0:0:
36,192,84381,128,0,84558:0:0:0:0:
109,192,84381,128,0,84647:0:0:0:0:
182,192,84470,128,0,84736:0:0:0:0:
256,192,84470,128,0,84647:0:0:0:0:
329,192,84558,128,0,84736:0:0:0:0:
475,192,84558,128,0,84825:0:0:0:0:
402,192,84647,128,0,84825:0:0:0:0:
36,192,84647,128,0,84913:0:0:0:0:
109,192,84736,128,0,85002:0:0:0:0:
256,192,84736,128,0,84913:0:0:0:0:
329,192,84825,128,0,85002:0:0:0:0:
182,192,84825,128,0,85091:0:0:0:0:
475,192,84913,128,0,85180:0:0:0:0:
402,192,84913,128,0,85091:0:0:0:0:
256,192,85002,128,0,85180:0:0:0:0:
36,192,85002,128,0,85180:0:0:0:0:
109,192,85091,128,0,85269:0:0:0:0:
329,192,85091,128,0,85269:0:0:0:0:
402,192,85180,128,0,85269:0:0:0:0:
182,192,85180,128,0,85269:0:0:0:0:
256,192,85269,1,0,0:0:0:0:
36,192,85269,128,0,85624:0:0:0:0:
475,192,85269,128,0,85624:0:0:0:0:
402,192,85446,128,0,85624:0:0:0:0:
109,192,85446,128,0,85624:0:0:0:0:
182,192,85535,128,0,85801:0:0:0:0:
329,192,85535,128,0,85801:0:0:0:0:
256,192,85624,1,0,0:0:0:0:
36,192,85801,128,0,85979:0:0:0:0:
109,192,85801,128,0,85979:0:0:0:0:
256,192,85890,128,0,86156:0:0:0:0:
402,192,85890,128,0,86156:0:0:0:0:
329,192,85979,128,0,86245:0:0:0:0:
475,192,85979,128,0,86245:0:0:0:0:
182,192,85979,1,0,0:0:0:0:
36,192,86156,128,0,86689:0:0:0:0:
182,192,86156,128,0,86245:0:0:0:0:
256,192,86245,128,0,86334:0:0:0:0:
109,192,86245,128,0,86600:0:0:0:0:
329,192,86334,128,0,86422:0:0:0:0:
182,192,86334,128,0,86511:0:0:0:0:
475,192,86334,1,0,0:0:0:0:
329,192,86511,128,0,86689:0:0:0:0:
256,192,86511,128,0,86600:0:0:0:0:
402,192,86600,128,0,86777:0:0:0:0:
182,192,86600,128,0,86689:0:0:0:0:
475,192,86689,128,0,86866:0:0:0:0:
109,192,86689,128,0,86777:0:0:0:0:
256,192,86689,1,0,0:0:0:0:
36,192,86777,128,0,86866:0:0:0:0:
329,192,86777,128,0,86955:0:0:0:0:
402,192,86866,128,0,87044:0:0:0:0:
256,192,86866,128,0,86955:0:0:0:0:
475,192,86955,128,0,87221:0:0:0:0:
182,192,86955,128,0,87044:0:0:0:0:
329,192,87044,1,0,0:0:0:0:
256,192,87044,1,0,0:0:0:0:
36,192,87044,1,0,0:0:0:0:
109,192,87221,128,0,87576:0:0:0:0:
256,192,87221,128,0,87576:0:0:0:0:
402,192,87399,128,0,87842:0:0:0:0:
329,192,87399,128,0,87842:0:0:0:0:
182,192,87399,1,0,0:0:0:0:
36,192,87399,1,0,0:0:0:0:
109,192,87665,128,0,88109:0:0:0:0:
256,192,87665,128,0,88109:0:0:0:0:
36,192,87754,1,0,0:0:0:0:
182,192,87754,1,0,0:0:0:0:
402,192,87931,128,0,88286:0:0:0:0:
329,192,87931,128,0,88198:0:0:0:0:
36,192,88109,128,0,88464:0:0:0:0:
182,192,88109,128,0,88198:0:0:0:0:
475,192,88109,128,0,88375:0:0:0:0:
109,192,88198,128,0,88641:0:0:0:0:
256,192,88198,128,0,88286:0:0:0:0:
329,192,88286,128,0,88375:0:0:0:0:
182,192,88286,128,0,88553:0:0:0:0:
402,192,88375,128,0,88641:0:0:0:0:
256,192,88375,128,0,88464:0:0:0:0:
475,192,88464,128,0,88553:0:0:0:0:
329,192,88464,128,0,88730:0:0:0:0:
256,192,88553,128,0,88819:0:0:0:0:
36,192,88553,128,0,88730:0:0:0:0:
182,192,88641,128,0,88819:0:0:0:0:
475,192,88641,128,0,89351:0:0:0:0:
109,192,88730,128,0,88908:0:0:0:0:
402,192,88730,128,0,89174:0:0:0:0:
329,192,88819,128,0,88996:0:0:0:0:
36,192,88819,128,0,88908:0:0:0:0:
256,192,88908,128,0,88996:0:0:0:0:
182,192,88908,128,0,89085:0:0:0:0:
109,192,88996,128,0,89085:0:0:0:0:
36,192,88996,128,0,89174:0:0:0:0:
329,192,89085,128,0,89174:0:0:0:0:
256,192,89085,128,0,89263:0:0:0:0:
182,192,89174,128,0,89263:0:0:0:0:
109,192,89174,128,0,89351:0:0:0:0:
402,192,89263,128,0,89351:0:0:0:0:
329,192,89263,128,0,89440:0:0:0:0:
256,192,89351,128,0,89440:0:0:0:0:
182,192,89351,128,0,89529:0:0:0:0:
475,192,89440,128,0,89529:0:0:0:0:
402,192,89440,128,0,89529:0:0:0:0:
256,192,89529,128,0,89706:0:0:0:0:
36,192,89529,128,0,89795:0:0:0:0:
329,192,89618,128,0,89795:0:0:0:0:
109,192,89618,128,0,89795:0:0:0:0:
182,192,89706,128,0,89795:0:0:0:0:
402,192,89706,128,0,89884:0:0:0:0:
36,192,89884,1,0,0:0:0:0:
475,192,89884,128,0,90239:0:0:0:0:
109,192,89884,1,0,0:0:0:0:
182,192,89884,1,0,0:0:0:0:
402,192,90061,128,0,90328:0:0:0:0:
182,192,90061,128,0,90239:0:0:0:0:
329,192,90150,128,0,90328:0:0:0:0:
109,192,90150,128,0,90328:0:0:0:0:
256,192,90239,128,0,90328:0:0:0:0:
36,192,90239,128,0,90416:0:0:0:0:
402,192,90416,1,0,0:0:0:0:
329,192,90416,1,0,0:0:0:0:
475,192,90416,128,0,90683:0:0:0:0:
256,192,90416,1,0,0:0:0:0:
109,192,90505,1,0,0:0:0:0:
182,192,90505,1,0,0:0:0:0:
36,192,90594,128,0,90771:0:0:0:0:
402,192,90594,1,0,0:0:0:0:
329,192,90594,1,0,0:0:0:0:
402,192,90771,1,0,0:0:0:0:
475,192,90771,1,0,0:0:0:0:
182,192,90771,1,0,0:0:0:0:
109,192,90860,1,0,0:0:0:0:
36,192,90860,1,0,0:0:0:0:
256,192,90860,1,0,0:0:0:0:
402,192,90949,1,0,0:0:0:0:
475,192,90949,1,0,0:0:0:0:
329,192,90949,128,0,91304:0:0:0:0:
182,192,90949,128,0,91304:0:0:0:0:
36,192,91215,128,0,91570:0:0:0:0:
256,192,91215,128,0,91570:0:0:0:0:
402,192,91304,1,0,0:0:0:0:
475,192,91304,1,0,0:0:0:0:
109,192,91482,128,0,91659:0:0:0:0:
329,192,91482,128,0,91659:0:0:0:0:
182,192,91570,128,0,91748:0:0:0:0:
402,192,91570,128,0,91748:0:0:0:0:
475,192,91659,1,0,0:0:0:0:
256,192,91659,1,0,0:0:0:0:
109,192,91748,128,0,92014:0:0:0:0:
329,192,91748,128,0,92014:0:0:0:0:
475,192,92014,128,0,92280:0:0:0:0:
256,192,92014,128,0,92280:0:0:0:0:
36,192,92014,1,0,0:0:0:0:
109,192,92192,128,0,92369:0:0:0:0:
329,192,92192,128,0,92369:0:0:0:0:
182,192,92280,128,0,92458:0:0:0:0:
402,192,92280,128,0,92458:0:0:0:0:
36,192,92369,1,0,0:0:0:0:
256,192,92369,128,0,92724:0:0:0:0:
475,192,92369,128,0,92724:0:0:0:0:
109,192,92635,128,0,92990:0:0:0:0:
36,192,92635,128,0,92990:0:0:0:0:
329,192,92724,1,0,0:0:0:0:
402,192,92724,1,0,0:0:0:0:
475,192,92902,128,0,93079:0:0:0:0:
329,192,92902,128,0,93079:0:0:0:0:
256,192,92990,128,0,93168:0:0:0:0:
182,192,92990,128,0,93168:0:0:0:0:
109,192,93079,1,0,0:0:0:0:
36,192,93079,1,0,0:0:0:0:
475,192,93168,128,0,93345:0:0:0:0:
329,192,93168,128,0,93345:0:0:0:0:
256,192,93257,128,0,93434:0:0:0:0:
182,192,93257,128,0,93434:0:0:0:0:
36,192,93434,128,0,93612:0:0:0:0:
109,192,93434,128,0,93612:0:0:0:0:
329,192,93434,1,0,0:0:0:0:
475,192,93434,1,0,0:0:0:0:
182,192,93612,1,0,0:0:0:0:
256,192,93612,1,0,0:0:0:0:
402,192,93612,128,0,93700:0:0:0:0:
109,192,93700,1,0,0:0:0:0:
36,192,93700,1,0,0:0:0:0:
329,192,93700,128,0,93789:0:0:0:0:
475,192,93789,1,0,0:0:0:0:
402,192,93789,1,0,0:0:0:0:
256,192,93789,128,0,93878:0:0:0:0:
109,192,93789,1,0,0:0:0:0:
36,192,93789,1,0,0:0:0:0:
182,192,93878,128,0,93967:0:0:0:0:
329,192,93967,128,0,94056:0:0:0:0:
109,192,93967,1,0,0:0:0:0:
36,192,93967,1,0,0:0:0:0:
475,192,94056,128,0,94233:0:0:0:0:
256,192,94144,1,0,0:0:0:0:
182,192,94144,1,0,0:0:0:0:
36,192,94322,128,0,94499:0:0:0:0:
109,192,94322,1,0,0:0:0:0:
329,192,94322,1,0,0:0:0:0:
182,192,94411,1,0,0:0:0:0:
402,192,94411,1,0,0:0:0:0:
329,192,94499,128,0,94677:0:0:0:0:
475,192,94499,128,0,95298:0:0:0:0:
256,192,94499,1,0,0:0:0:0:
256,192,94677,128,0,94854:0:0:0:0:
402,192,94677,128,0,95209:0:0:0:0:
182,192,94677,1,0,0:0:0:0:
182,192,94854,128,0,95032:0:0:0:0:
329,192,94854,128,0,95121:0:0:0:0:
109,192,94854,1,0,0:0:0:0:
109,192,95032,128,0,95209:0:0:0:0:
256,192,95032,128,0,95387:0:0:0:0:
36,192,95032,1,0,0:0:0:0:
329,192,95209,128,0,95476:0:0:0:0:
182,192,95209,128,0,95387:0:0:0:0:
402,192,95298,128,0,95564:0:0:0:0:
109,192,95298,128,0,95476:0:0:0:0:
475,192,95387,128,0,95653:0:0:0:0:
36,192,95387,128,0,95564:0:0:0:0:
256,192,95476,128,0,95653:0:0:0:0:
182,192,95476,128,0,95653:0:0:0:0:
329,192,95564,128,0,95742:0:0:0:0:
109,192,95564,128,0,95742:0:0:0:0:
402,192,95653,128,0,95831:0:0:0:0:
36,192,95653,128,0,95831:0:0:0:0:
182,192,95742,128,0,95919:0:0:0:0:
475,192,95742,128,0,95919:0:0:0:0:
256,192,95831,128,0,96008:0:0:0:0:
109,192,95831,128,0,95919:0:0:0:0:
329,192,95919,128,0,96097:0:0:0:0:
36,192,95919,128,0,96097:0:0:0:0:
109,192,96008,128,0,96186:0:0:0:0:
475,192,96008,128,0,96097:0:0:0:0:
182,192,96097,128,0,96274:0:0:0:0:
402,192,96097,128,0,96186:0:0:0:0:
256,192,96186,128,0,96363:0:0:0:0:
475,192,96186,128,0,96363:0:0:0:0:
36,192,96274,128,0,96452:0:0:0:0:
402,192,96274,128,0,96452:0:0:0:0:
109,192,96363,128,0,96541:0:0:0:0:
329,192,96363,128,0,96541:0:0:0:0:
182,192,96452,128,0,96629:0:0:0:0:
475,192,96452,128,0,96541:0:0:0:0:
256,192,96541,128,0,96629:0:0:0:0:
402,192,96541,128,0,96629:0:0:0:0:
475,192,96629,128,0,98050:0:0:0:0:
109,192,96629,1,0,0:0:0:0:
36,192,96629,1,0,0:0:0:0:
329,192,96629,1,0,0:0:0:0:
329,192,96985,1,0,0:0:0:0:
109,192,96985,1,0,0:0:0:0:
256,192,97162,1,0,0:0:0:0:
36,192,97162,1,0,0:0:0:0:
182,192,97340,1,0,0:0:0:0:
109,192,97517,1,0,0:0:0:0:
36,192,97517,1,0,0:0:0:0:
256,192,97517,1,0,0:0:0:0:
329,192,97695,1,0,0:0:0:0:
182,192,97695,1,0,0:0:0:0:
109,192,97695,1,0,0:0:0:0:
402,192,97872,1,0,0:0:0:0:
182,192,97872,1,0,0:0:0:0:
256,192,97872,1,0,0:0:0:0:
36,192,98050,1,0,0:0:0:0:
109,192,98050,1,0,0:0:0:0:
475,192,98227,1,0,0:0:0:0:
402,192,98227,1,0,0:0:0:0:
182,192,98227,1,0,0:0:0:0:
329,192,98405,1,0,0:0:0:0:
109,192,98405,1,0,0:0:0:0:
402,192,98405,1,0,0:0:0:0:
256,192,98582,1,0,0:0:0:0:
182,192,98760,1,0,0:0:0:0:
36,192,98760,1,0,0:0:0:0:
475,192,98760,1,0,0:0:0:0:
329,192,98937,1,0,0:0:0:0:
402,192,99115,1,0,0:0:0:0:
256,192,99115,1,0,0:0:0:0:
109,192,99115,1,0,0:0:0:0:
182,192,99292,1,0,0:0:0:0:
36,192,99470,1,0,0:0:0:0:
329,192,99470,1,0,0:0:0:0:
475,192,99470,1,0,0:0:0:0:
256,192,99647,1,0,0:0:0:0:
182,192,99825,1,0,0:0:0:0:
109,192,100002,1,0,0:0:0:0:
475,192,100002,1,0,0:0:0:0:
402,192,100002,1,0,0:0:0:0:
329,192,100180,1,0,0:0:0:0:
402,192,100180,1,0,0:0:0:0:
36,192,100180,1,0,0:0:0:0:
256,192,100357,1,0,0:0:0:0:
109,192,100357,1,0,0:0:0:0:
475,192,100535,1,0,0:0:0:0:
329,192,100535,1,0,0:0:0:0:
182,192,100712,1,0,0:0:0:0:
36,192,100712,1,0,0:0:0:0:
256,192,100890,1,0,0:0:0:0:
402,192,100890,1,0,0:0:0:0:
475,192,100890,1,0,0:0:0:0:
182,192,101067,1,0,0:0:0:0:
109,192,101245,1,0,0:0:0:0:
329,192,101245,1,0,0:0:0:0:
475,192,101245,1,0,0:0:0:0:
402,192,101422,1,0,0:0:0:0:
256,192,101422,1,0,0:0:0:0:
36,192,101422,1,0,0:0:0:0:
182,192,101955,1,0,0:0:0:0:
36,192,101955,1,0,0:0:0:0:
182,192,102132,1,0,0:0:0:0:
36,192,102132,1,0,0:0:0:0:
109,192,102221,1,0,0:0:0:0:
256,192,102221,1,0,0:0:0:0:
182,192,102310,1,0,0:0:0:0:
329,192,102310,1,0,0:0:0:0:
475,192,102310,1,0,0:0:0:0:
109,192,102576,1,0,0:0:0:0:
256,192,102576,1,0,0:0:0:0:
402,192,102576,1,0,0:0:0:0:
36,192,102842,1,0,0:0:0:0:
182,192,102842,1,0,0:0:0:0:
329,192,102842,1,0,0:0:0:0:
329,192,103198,1,0,0:0:0:0:
475,192,103198,1,0,0:0:0:0:
182,192,103198,1,0,0:0:0:0:
256,192,103375,1,0,0:0:0:0:
109,192,103375,1,0,0:0:0:0:
475,192,103375,1,0,0:0:0:0:
182,192,103553,1,0,0:0:0:0:
36,192,103553,1,0,0:0:0:0:
402,192,103553,1,0,0:0:0:0:
36,192,103730,1,0,0:0:0:0:
329,192,103730,1,0,0:0:0:0:
256,192,103908,1,0,0:0:0:0:
182,192,104085,1,0,0:0:0:0:
402,192,104085,1,0,0:0:0:0:
475,192,104085,1,0,0:0:0:0:
109,192,104263,1,0,0:0:0:0:
256,192,104440,1,0,0:0:0:0:
36,192,104440,1,0,0:0:0:0:
329,192,104440,1,0,0:0:0:0:
402,192,104618,1,0,0:0:0:0:
475,192,104795,1,0,0:0:0:0:
256,192,104795,1,0,0:0:0:0:
109,192,104795,1,0,0:0:0:0:
329,192,104973,1,0,0:0:0:0:
402,192,105150,1,0,0:0:0:0:
182,192,105150,1,0,0:0:0:0:
36,192,105150,1,0,0:0:0:0:
475,192,105150,1,0,0:0:0:0:
256,192,105328,1,0,0:0:0:0:
329,192,105505,1,0,0:0:0:0:
402,192,105683,1,0,0:0:0:0:
475,192,105683,1,0,0:0:0:0:
182,192,105683,1,0,0:0:0:0:
109,192,105860,1,0,0:0:0:0:
36,192,105860,1,0,0:0:0:0:
329,192,105860,1,0,0:0:0:0:
256,192,106038,1,0,0:0:0:0:
402,192,106038,1,0,0:0:0:0:
182,192,106215,1,0,0:0:0:0:
475,192,106215,1,0,0:0:0:0:
329,192,106393,1,0,0:0:0:0:
36,192,106393,1,0,0:0:0:0:
256,192,106570,1,0,0:0:0:0:
109,192,106570,1,0,0:0:0:0:
329,192,106748,1,0,0:0:0:0:
182,192,106748,1,0,0:0:0:0:
256,192,106925,5,0,0:0:0:0:
402,192,106925,1,0,0:0:0:0:
329,192,107103,1,0,0:0:0:0:
475,192,107103,1,0,0:0:0:0:
182,192,107280,5,0,0:0:0:0:
36,192,107280,1,0,0:0:0:0:
475,192,107458,5,0,0:0:0:0:
329,192,107458,1,0,0:0:0:0:
402,192,107635,1,0,0:0:0:0:
256,192,107635,1,0,0:0:0:0:
329,192,107813,1,0,0:0:0:0:
182,192,107813,1,0,0:0:0:0:
36,192,107990,128,0,109411:0:0:0:0:
256,192,107990,1,0,0:0:0:0:
109,192,107990,1,0,0:0:0:0:
475,192,107990,1,0,0:0:0:0:
329,192,108168,1,0,0:0:0:0:
402,192,108168,1,0,0:0:0:0:
256,192,108345,1,0,0:0:0:0:
182,192,108345,1,0,0:0:0:0:
475,192,108523,1,0,0:0:0:0:
402,192,108523,1,0,0:0:0:0:
329,192,108700,1,0,0:0:0:0:
256,192,108700,1,0,0:0:0:0:
182,192,108878,1,0,0:0:0:0:
109,192,108878,1,0,0:0:0:0:
329,192,109056,1,0,0:0:0:0:
475,192,109056,1,0,0:0:0:0:
256,192,109233,1,0,0:0:0:0:
109,192,109233,1,0,0:0:0:0:
402,192,109411,1,0,0:0:0:0:
475,192,109411,1,0,0:0:0:0:
182,192,109411,1,0,0:0:0:0:
329,192,109588,1,0,0:0:0:0:
109,192,109588,1,0,0:0:0:0:
36,192,109766,1,0,0:0:0:0:
256,192,109766,1,0,0:0:0:0:
475,192,109766,1,0,0:0:0:0:
182,192,109943,1,0,0:0:0:0:
109,192,109943,1,0,0:0:0:0:
256,192,110121,1,0,0:0:0:0:
475,192,110121,1,0,0:0:0:0:
402,192,110121,1,0,0:0:0:0:
329,192,110298,1,0,0:0:0:0:
182,192,110298,1,0,0:0:0:0:
256,192,110476,1,0,0:0:0:0:
109,192,110476,1,0,0:0:0:0:
36,192,110476,1,0,0:0:0:0:
329,192,110653,1,0,0:0:0:0:
182,192,110653,1,0,0:0:0:0:
256,192,110831,1,0,0:0:0:0:
402,192,110831,1,0,0:0:0:0:
475,192,110831,1,0,0:0:0:0:
182,192,111008,1,0,0:0:0:0:
36,192,111008,1,0,0:0:0:0:
256,192,111186,1,0,0:0:0:0:
329,192,111363,1,0,0:0:0:0:
109,192,111363,1,0,0:0:0:0:
182,192,111541,1,0,0:0:0:0:
402,192,111541,1,0,0:0:0:0:
475,192,111541,1,0,0:0:0:0:
36,192,111896,1,0,0:0:0:0:
256,192,111896,1,0,0:0:0:0:
402,192,111896,1,0,0:0:0:0:
329,192,112073,1,0,0:0:0:0:
475,192,112073,1,0,0:0:0:0:
109,192,112073,1,0,0:0:0:0:
182,192,112251,1,0,0:0:0:0:
475,192,112251,1,0,0:0:0:0:
402,192,112251,1,0,0:0:0:0:
36,192,112251,1,0,0:0:0:0:
256,192,112428,1,0,0:0:0:0:
109,192,112428,1,0,0:0:0:0:
182,192,112606,5,0,0:0:0:0:
329,192,112606,1,0,0:0:0:0:
256,192,112783,1,0,0:0:0:0:
402,192,112783,1,0,0:0:0:0:
475,192,112961,1,0,0:0:0:0:
329,192,112961,1,0,0:0:0:0:
182,192,113316,1,0,0:0:0:0:
329,192,113316,1,0,0:0:0:0:
36,192,113493,1,0,0:0:0:0:
256,192,113493,1,0,0:0:0:0:
109,192,113553,1,0,0:0:0:0:
329,192,113553,1,0,0:0:0:0:
182,192,113612,1,0,0:0:0:0:
402,192,113612,1,0,0:0:0:0:
475,192,113671,128,0,116511:0:0:0:0:
36,192,113671,128,0,116511:0:0:0:0:
256,192,113671,1,0,0:0:0:0:
109,192,113848,1,0,0:0:0:0:
182,192,114026,1,0,0:0:0:0:
256,192,114203,1,0,0:0:0:0:
402,192,114381,1,0,0:0:0:0:
329,192,114381,1,0,0:0:0:0:
329,192,114647,1,0,0:0:0:0:
182,192,114647,1,0,0:0:0:0:
109,192,114913,1,0,0:0:0:0:
182,192,114913,1,0,0:0:0:0:
256,192,115091,1,0,0:0:0:0:
402,192,115091,1,0,0:0:0:0:
182,192,115269,1,0,0:0:0:0:
109,192,115446,1,0,0:0:0:0:
329,192,115446,1,0,0:0:0:0:
256,192,115624,1,0,0:0:0:0:
182,192,115801,1,0,0:0:0:0:
402,192,115801,1,0,0:0:0:0:
329,192,115979,1,0,0:0:0:0:
256,192,116156,1,0,0:0:0:0:
109,192,116156,1,0,0:0:0:0:
329,192,116334,1,0,0:0:0:0:
402,192,116511,1,0,0:0:0:0:
182,192,116511,1,0,0:0:0:0:
109,192,116511,1,0,0:0:0:0:
329,192,116689,1,0,0:0:0:0:
475,192,116689,1,0,0:0:0:0:
182,192,116777,1,0,0:0:0:0:
256,192,116777,1,0,0:0:0:0:
36,192,116866,1,0,0:0:0:0:
109,192,116866,1,0,0:0:0:0:
475,192,116866,1,0,0:0:0:0:
402,192,116866,1,0,0:0:0:0:
329,192,117044,1,0,0:0:0:0:
182,192,117044,1,0,0:0:0:0:
36,192,117044,1,0,0:0:0:0:
475,192,117044,1,0,0:0:0:0:
256,192,117221,1,0,0:0:0:0:
109,192,117221,1,0,0:0:0:0:
329,192,117310,1,0,0:0:0:0:
475,192,117399,1,0,0:0:0:0:
402,192,117399,1,0,0:0:0:0:
256,192,117487,1,0,0:0:0:0:
109,192,117576,1,0,0:0:0:0:
36,192,117576,1,0,0:0:0:0:
329,192,117576,1,0,0:0:0:0:
475,192,117576,1,0,0:0:0:0:
256,192,117665,1,0,0:0:0:0:
182,192,117665,1,0,0:0:0:0:
329,192,117754,1,0,0:0:0:0:
402,192,117754,1,0,0:0:0:0:
256,192,117931,1,0,0:0:0:0:
109,192,117931,1,0,0:0:0:0:
36,192,117931,1,0,0:0:0:0:
329,192,118109,1,0,0:0:0:0:
182,192,118109,1,0,0:0:0:0:
402,192,118286,1,0,0:0:0:0:
475,192,118286,1,0,0:0:0:0:
256,192,118286,1,0,0:0:0:0:
36,192,118286,1,0,0:0:0:0:
329,192,118464,1,0,0:0:0:0:
36,192,118464,1,0,0:0:0:0:
109,192,118464,1,0,0:0:0:0:
256,192,118553,1,0,0:0:0:0:
402,192,118641,1,0,0:0:0:0:
475,192,118641,1,0,0:0:0:0:
182,192,118641,1,0,0:0:0:0:
329,192,118730,1,0,0:0:0:0:
256,192,118819,1,0,0:0:0:0:
109,192,118819,1,0,0:0:0:0:
329,192,118908,1,0,0:0:0:0:
182,192,118996,1,0,0:0:0:0:
36,192,118996,1,0,0:0:0:0:
402,192,118996,1,0,0:0:0:0:
475,192,118996,1,0,0:0:0:0:
329,192,119174,1,0,0:0:0:0:
182,192,119174,1,0,0:0:0:0:
256,192,119351,1,0,0:0:0:0:
36,192,119351,1,0,0:0:0:0:
109,192,119351,1,0,0:0:0:0:
402,192,119351,1,0,0:0:0:0:
475,192,119351,1,0,0:0:0:0:
329,192,119529,1,0,0:0:0:0:
182,192,119529,1,0,0:0:0:0:
109,192,119618,1,0,0:0:0:0:
402,192,119618,1,0,0:0:0:0:
36,192,119706,1,0,0:0:0:0:
475,192,119706,1,0,0:0:0:0:
475,192,119884,1,0,0:0:0:0:
329,192,119884,1,0,0:0:0:0:
182,192,119884,1,0,0:0:0:0:
109,192,119973,1,0,0:0:0:0:
256,192,119973,1,0,0:0:0:0:
402,192,119973,1,0,0:0:0:0:
36,192,120061,1,0,0:0:0:0:
182,192,120061,1,0,0:0:0:0:
329,192,120061,1,0,0:0:0:0:
256,192,120239,1,0,0:0:0:0:
109,192,120239,1,0,0:0:0:0:
475,192,120328,1,0,0:0:0:0:
402,192,120328,1,0,0:0:0:0:
182,192,120416,1,0,0:0:0:0:
329,192,120416,1,0,0:0:0:0:
36,192,120505,1,0,0:0:0:0:
109,192,120505,1,0,0:0:0:0:
329,192,120594,1,0,0:0:0:0:
402,192,120594,1,0,0:0:0:0:
182,192,120683,1,0,0:0:0:0:
256,192,120683,1,0,0:0:0:0:
475,192,120771,128,0,120949:0:0:0:0:
402,192,120771,128,0,120949:0:0:0:0:
329,192,120771,128,0,120949:0:0:0:0:
109,192,120771,128,0,120949:0:0:0:0:
36,192,120771,128,0,120949:0:0:0:0:
109,192,121038,128,0,121215:0:0:0:0:
475,192,121038,128,0,121215:0:0:0:0:
36,192,121038,128,0,121215:0:0:0:0:
256,192,121038,128,0,121215:0:0:0:0:
402,192,121038,128,0,121215:0:0:0:0:
109,192,121304,128,0,121393:0:0:0:0:
182,192,121304,128,0,121393:0:0:0:0:
402,192,121304,128,0,121393:0:0:0:0:
475,192,121304,128,0,121393:0:0:0:0:
36,192,121304,128,0,121393:0:0:0:0:
256,192,121393,128,0,121482:0:0:0:0:
329,192,121393,128,0,121482:0:0:0:0:
182,192,121482,1,0,0:0:0:0:
109,192,121511,1,0,0:0:0:0:
36,192,121541,1,0,0:0:0:0:
475,192,121570,1,0,0:0:0:0:
329,192,121570,1,0,0:0:0:0:
402,192,121570,1,0,0:0:0:0:
256,192,121600,1,0,0:0:0:0:
182,192,121629,1,0,0:0:0:0:
109,192,121659,1,0,0:0:0:0:
36,192,121689,1,0,0:0:0:0:
475,192,121718,1,0,0:0:0:0:
402,192,121748,1,0,0:0:0:0:
329,192,121777,1,0,0:0:0:0:
256,192,121807,1,0,0:0:0:0:
36,192,121837,128,0,122192:0:0:0:0:
109,192,121837,128,0,122192:0:0:0:0:
182,192,121837,128,0,122192:0:0:0:0:
329,192,122014,1,0,0:0:0:0:
402,192,122014,1,0,0:0:0:0:
475,192,122014,1,0,0:0:0:0:
329,192,122192,1,0,0:0:0:0:
402,192,122192,1,0,0:0:0:0:
475,192,122192,1,0,0:0:0:0:
256,192,122192,128,0,122458:0:0:0:0:
182,192,122369,128,0,122547:0:0:0:0:
402,192,122369,1,0,0:0:0:0:
109,192,122458,128,0,122635:0:0:0:0:
329,192,122458,1,0,0:0:0:0:
475,192,122547,1,0,0:0:0:0:
256,192,122547,1,0,0:0:0:0:
36,192,122635,128,0,122902:0:0:0:0:
402,192,122635,1,0,0:0:0:0:
182,192,122724,128,0,122902:0:0:0:0:
329,192,122724,1,0,0:0:0:0:
402,192,122813,1,0,0:0:0:0:
475,192,122902,128,0,123079:0:0:0:0:
109,192,122902,1,0,0:0:0:0:
256,192,122902,1,0,0:0:0:0:
329,192,122990,128,0,123168:0:0:0:0:
182,192,122990,1,0,0:0:0:0:
256,192,123079,1,0,0:0:0:0:
475,192,123168,128,0,123345:0:0:0:0:
109,192,123168,1,0,0:0:0:0:
329,192,123257,128,0,123434:0:0:0:0:
182,192,123257,1,0,0:0:0:0:
36,192,123257,1,0,0:0:0:0:
256,192,123434,128,0,123612:0:0:0:0:
475,192,123434,1,0,0:0:0:0:
182,192,123523,128,0,123700:0:0:0:0:
402,192,123523,1,0,0:0:0:0:
109,192,123612,128,0,123789:0:0:0:0:
329,192,123612,1,0,0:0:0:0:
36,192,123700,128,0,123878:0:0:0:0:
402,192,123700,1,0,0:0:0:0:
475,192,123789,1,0,0:0:0:0:
329,192,123878,128,0,124144:0:0:0:0:
182,192,123878,1,0,0:0:0:0:
109,192,123967,1,0,0:0:0:0:
36,192,123967,1,0,0:0:0:0:
402,192,124056,128,0,124233:0:0:0:0:
256,192,124056,1,0,0:0:0:0:
475,192,124144,128,0,124322:0:0:0:0:
182,192,124144,1,0,0:0:0:0:
109,192,124233,1,0,0:0:0:0:
36,192,124322,128,0,124499:0:0:0:0:
329,192,124322,128,0,124499:0:0:0:0:
256,192,124322,1,0,0:0:0:0:
402,192,124411,128,0,124588:0:0:0:0:
109,192,124411,128,0,124588:0:0:0:0:
182,192,124499,128,0,124677:0:0:0:0:
475,192,124499,128,0,124677:0:0:0:0:
256,192,124588,128,0,124766:0:0:0:0:
329,192,124588,128,0,124766:0:0:0:0:
36,192,124677,128,0,124854:0:0:0:0:
109,192,124677,128,0,124854:0:0:0:0:
402,192,124677,1,0,0:0:0:0:
475,192,124766,128,0,124943:0:0:0:0:
182,192,124766,128,0,124943:0:0:0:0:
256,192,124854,128,0,125032:0:0:0:0:
329,192,124854,128,0,125032:0:0:0:0:
182,192,125032,1,0,0:0:0:0:
475,192,125032,1,0,0:0:0:0:
36,192,125032,128,0,125298:0:0:0:0:
109,192,125209,128,0,125387:0:0:0:0:
402,192,125209,1,0,0:0:0:0:
182,192,125298,128,0,125476:0:0:0:0:
329,192,125298,1,0,0:0:0:0:
256,192,125387,1,0,0:0:0:0:
475,192,125387,1,0,0:0:0:0:
36,192,125476,128,0,125742:0:0:0:0:
402,192,125476,1,0,0:0:0:0:
182,192,125564,128,0,125742:0:0:0:0:
329,192,125564,1,0,0:0:0:0:
402,192,125653,1,0,0:0:0:0:
475,192,125742,128,0,125919:0:0:0:0:
109,192,125742,1,0,0:0:0:0:
256,192,125742,1,0,0:0:0:0:
329,192,125831,128,0,126008:0:0:0:0:
36,192,125831,1,0,0:0:0:0:
402,192,125919,128,0,126097:0:0:0:0:
182,192,125919,1,0,0:0:0:0:
475,192,126008,128,0,126186:0:0:0:0:
109,192,126008,1,0,0:0:0:0:
329,192,126097,128,0,126274:0:0:0:0:
36,192,126097,1,0,0:0:0:0:
256,192,126097,1,0,0:0:0:0:
402,192,126186,128,0,126363:0:0:0:0:
182,192,126186,1,0,0:0:0:0:
475,192,126274,128,0,126452:0:0:0:0:
109,192,126274,1,0,0:0:0:0:
182,192,126363,1,0,0:0:0:0:
36,192,126452,128,0,126629:0:0:0:0:
329,192,126452,128,0,126629:0:0:0:0:
256,192,126452,1,0,0:0:0:0:
109,192,126541,128,0,126718:0:0:0:0:
402,192,126541,128,0,126718:0:0:0:0:
182,192,126629,128,0,126807:0:0:0:0:
475,192,126629,128,0,126807:0:0:0:0:
36,192,126718,128,0,126896:0:0:0:0:
256,192,126718,128,0,126896:0:0:0:0:
329,192,126807,128,0,126985:0:0:0:0:
402,192,126807,128,0,126985:0:0:0:0:
109,192,126807,1,0,0:0:0:0:
475,192,126896,128,0,127073:0:0:0:0:
182,192,126896,128,0,126985:0:0:0:0:
256,192,126985,128,0,127073:0:0:0:0:
36,192,126985,128,0,127162:0:0:0:0:
109,192,127073,128,0,127162:0:0:0:0:
329,192,127073,128,0,127162:0:0:0:0:
182,192,127162,1,0,0:0:0:0:
402,192,127162,128,0,127340:0:0:0:0:
475,192,127162,128,0,127340:0:0:0:0:
256,192,127162,1,0,0:0:0:0:
36,192,127251,128,0,127428:0:0:0:0:
109,192,127251,128,0,127428:0:0:0:0:
329,192,127251,1,0,0:0:0:0:
256,192,127340,1,0,0:0:0:0:
182,192,127428,1,0,0:0:0:0:
475,192,127428,128,0,127606:0:0:0:0:
402,192,127428,128,0,127517:0:0:0:0:
36,192,127517,128,0,127695:0:0:0:0:
109,192,127517,128,0,127606:0:0:0:0:
329,192,127517,1,0,0:0:0:0:
402,192,127606,128,0,127783:0:0:0:0:
256,192,127606,128,0,127695:0:0:0:0:
182,192,127606,1,0,0:0:0:0:
109,192,127695,128,0,127872:0:0:0:0:
475,192,127695,128,0,127783:0:0:0:0:
329,192,127695,1,0,0:0:0:0:
36,192,127783,128,0,127872:0:0:0:0:
256,192,127783,128,0,127872:0:0:0:0:
182,192,127872,1,0,0:0:0:0:
402,192,127872,1,0,0:0:0:0:
475,192,127872,1,0,0:0:0:0:
329,192,127872,128,0,128138:0:0:0:0:
256,192,128050,128,0,128227:0:0:0:0:
109,192,128050,1,0,0:0:0:0:
182,192,128138,128,0,128316:0:0:0:0:
36,192,128138,1,0,0:0:0:0:
402,192,128227,1,0,0:0:0:0:
475,192,128227,1,0,0:0:0:0:
36,192,128316,128,0,128493:0:0:0:0:
329,192,128316,1,0,0:0:0:0:
182,192,128405,128,0,128582:0:0:0:0:
256,192,128405,1,0,0:0:0:0:
36,192,128582,1,0,0:0:0:0:
475,192,128582,128,0,128760:0:0:0:0:
109,192,128582,1,0,0:0:0:0:
329,192,128671,128,0,128848:0:0:0:0:
182,192,128671,1,0,0:0:0:0:
256,192,128760,1,0,0:0:0:0:
36,192,128848,128,0,129026:0:0:0:0:
475,192,128848,1,0,0:0:0:0:
329,192,128937,1,0,0:0:0:0:
109,192,128937,128,0,129115:0:0:0:0:
182,192,128937,1,0,0:0:0:0:
475,192,129115,128,0,129292:0:0:0:0:
256,192,129115,1,0,0:0:0:0:
402,192,129203,128,0,129381:0:0:0:0:
182,192,129203,1,0,0:0:0:0:
329,192,129292,128,0,129470:0:0:0:0:
109,192,129292,1,0,0:0:0:0:
36,192,129292,1,0,0:0:0:0:
256,192,129381,1,0,0:0:0:0:
475,192,129381,128,0,129558:0:0:0:0:
182,192,129470,1,0,0:0:0:0:
36,192,129558,128,0,129736:0:0:0:0:
109,192,129558,1,0,0:0:0:0:
256,192,129647,1,0,0:0:0:0:
475,192,129647,1,0,0:0:0:0:
402,192,129736,128,0,129913:0:0:0:0:
182,192,129736,1,0,0:0:0:0:
329,192,129825,128,0,130002:0:0:0:0:
109,192,129825,1,0,0:0:0:0:
256,192,129913,1,0,0:0:0:0:
36,192,130002,1,0,0:0:0:0:
182,192,130002,1,0,0:0:0:0:
475,192,130091,128,0,130357:0:0:0:0:
256,192,130091,128,0,130269:0:0:0:0:
402,192,130180,128,0,130446:0:0:0:0:
182,192,130180,128,0,130357:0:0:0:0:
329,192,130269,128,0,130535:0:0:0:0:
109,192,130269,128,0,130446:0:0:0:0:
256,192,130357,128,0,130535:0:0:0:0:
36,192,130357,128,0,130535:0:0:0:0:
182,192,130446,128,0,130535:0:0:0:0:
475,192,130446,128,0,130535:0:0:0:0:
402,192,130535,128,0,130624:0:0:0:0:
109,192,130535,128,0,130624:0:0:0:0:
329,192,130624,128,0,130712:0:0:0:0:
182,192,130624,128,0,130712:0:0:0:0:
36,192,130712,128,0,130979:0:0:0:0:
402,192,130712,1,0,0:0:0:0:
475,192,130712,1,0,0:0:0:0:
256,192,130712,128,0,130801:0:0:0:0:
109,192,130801,128,0,130979:0:0:0:0:
329,192,130801,128,0,130890:0:0:0:0:
182,192,130890,128,0,130979:0:0:0:0:
402,192,130890,128,0,130979:0:0:0:0:
475,192,130979,128,0,131067:0:0:0:0:
109,192,131067,1,0,0:0:0:0:
36,192,131067,1,0,0:0:0:0:
256,192,131067,1,0,0:0:0:0:
182,192,131156,128,0,131422:0:0:0:0:
329,192,131334,128,0,131422:0:0:0:0:
475,192,131422,128,0,131689:0:0:0:0:
109,192,131422,1,0,0:0:0:0:
36,192,131422,1,0,0:0:0:0:
256,192,131422,128,0,131511:0:0:0:0:
402,192,131511,128,0,131689:0:0:0:0:
182,192,131511,128,0,131600:0:0:0:0:
329,192,131600,128,0,131689:0:0:0:0:
109,192,131600,128,0,131689:0:0:0:0:
36,192,131689,128,0,131777:0:0:0:0:
256,192,131777,1,0,0:0:0:0:
475,192,131777,1,0,0:0:0:0:
402,192,131777,1,0,0:0:0:0:
329,192,131866,128,0,132132:0:0:0:0:
36,192,131955,1,0,0:0:0:0:
109,192,131955,1,0,0:0:0:0:
182,192,132044,128,0,132132:0:0:0:0:
402,192,132044,1,0,0:0:0:0:
475,192,132044,1,0,0:0:0:0:
402,192,132132,1,0,0:0:0:0:
475,192,132132,1,0,0:0:0:0:
36,192,132132,128,0,132399:0:0:0:0:
256,192,132132,128,0,132221:0:0:0:0:
109,192,132221,128,0,132399:0:0:0:0:
329,192,132221,128,0,132310:0:0:0:0:
182,192,132310,128,0,132399:0:0:0:0:
402,192,132310,128,0,132399:0:0:0:0:
475,192,132399,128,0,132487:0:0:0:0:
329,192,132399,1,0,0:0:0:0:
256,192,132399,1,0,0:0:0:0:
182,192,132487,1,0,0:0:0:0:
109,192,132487,1,0,0:0:0:0:
36,192,132487,1,0,0:0:0:0:
256,192,132665,1,0,0:0:0:0:
182,192,132665,1,0,0:0:0:0:
475,192,132665,128,0,132842:0:0:0:0:
109,192,132754,1,0,0:0:0:0:
36,192,132754,1,0,0:0:0:0:
402,192,132754,128,0,132931:0:0:0:0:
36,192,132842,1,0,0:0:0:0:
109,192,132842,1,0,0:0:0:0:
182,192,132842,1,0,0:0:0:0:
256,192,132842,1,0,0:0:0:0:
329,192,132842,128,0,133020:0:0:0:0:
109,192,133020,128,0,133198:0:0:0:0:
475,192,133020,1,0,0:0:0:0:
402,192,133020,1,0,0:0:0:0:
36,192,133109,128,0,133198:0:0:0:0:
182,192,133109,1,0,0:0:0:0:
256,192,133109,1,0,0:0:0:0:
475,192,133198,1,0,0:0:0:0:
402,192,133198,1,0,0:0:0:0:
329,192,133198,1,0,0:0:0:0:
256,192,133242,1,0,0:0:0:0:
182,192,133286,1,0,0:0:0:0:
109,192,133331,1,0,0:0:0:0:
402,192,133375,1,0,0:0:0:0:
475,192,133375,1,0,0:0:0:0:
36,192,133375,1,0,0:0:0:0:
329,192,133419,1,0,0:0:0:0:
256,192,133464,1,0,0:0:0:0:
182,192,133508,1,0,0:0:0:0:
475,192,133553,128,0,133996:0:0:0:0:
109,192,133553,128,0,133730:0:0:0:0:
402,192,133553,1,0,0:0:0:0:
36,192,133553,128,0,133730:0:0:0:0:
329,192,133553,1,0,0:0:0:0:
182,192,133641,128,0,133819:0:0:0:0:
256,192,133730,128,0,133908:0:0:0:0:
329,192,133819,128,0,134174:0:0:0:0:
36,192,133819,128,0,133996:0:0:0:0:
109,192,133908,128,0,134085:0:0:0:0:
402,192,133908,128,0,134085:0:0:0:0:
182,192,133996,128,0,134174:0:0:0:0:
475,192,134085,128,0,134529:0:0:0:0:
36,192,134085,128,0,134263:0:0:0:0:
402,192,134174,128,0,134529:0:0:0:0:
109,192,134174,128,0,134263:0:0:0:0:
256,192,134263,128,0,134351:0:0:0:0:
182,192,134263,128,0,134440:0:0:0:0:
329,192,134263,128,0,134351:0:0:0:0:
36,192,134351,128,0,134529:0:0:0:0:
109,192,134351,128,0,134440:0:0:0:0:
329,192,134440,128,0,134529:0:0:0:0:
256,192,134440,128,0,134618:0:0:0:0:
109,192,134529,128,0,134706:0:0:0:0:
182,192,134529,128,0,134618:0:0:0:0:
329,192,134618,128,0,134884:0:0:0:0:
402,192,134618,128,0,134706:0:0:0:0:
475,192,134618,128,0,134706:0:0:0:0:
182,192,134706,128,0,134884:0:0:0:0:
256,192,134706,128,0,134795:0:0:0:0:
402,192,134795,128,0,134973:0:0:0:0:
475,192,134795,128,0,135150:0:0:0:0:
256,192,134884,128,0,135061:0:0:0:0:
36,192,134973,128,0,135416:0:0:0:0:
109,192,134973,128,0,135150:0:0:0:0:
329,192,134973,128,0,135150:0:0:0:0:
402,192,135061,128,0,135239:0:0:0:0:
256,192,135150,128,0,135328:0:0:0:0:
475,192,135239,128,0,135416:0:0:0:0:
182,192,135239,128,0,135416:0:0:0:0:
402,192,135328,128,0,135505:0:0:0:0:
109,192,135328,128,0,135505:0:0:0:0:
329,192,135416,128,0,135594:0:0:0:0:
36,192,135505,128,0,135949:0:0:0:0:
475,192,135505,128,0,135683:0:0:0:0:
109,192,135594,128,0,135949:0:0:0:0:
402,192,135594,128,0,135683:0:0:0:0:
182,192,135683,128,0,135771:0:0:0:0:
329,192,135683,128,0,135860:0:0:0:0:
256,192,135683,128,0,135771:0:0:0:0:
402,192,135771,128,0,135860:0:0:0:0:
475,192,135771,128,0,135949:0:0:0:0:
256,192,135860,128,0,136038:0:0:0:0:
182,192,135860,128,0,135949:0:0:0:0:
329,192,135949,128,0,136038:0:0:0:0:
402,192,135949,128,0,136127:0:0:0:0:
36,192,136038,128,0,136127:0:0:0:0:
182,192,136038,128,0,136304:0:0:0:0:
109,192,136038,128,0,136127:0:0:0:0:
256,192,136127,128,0,136215:0:0:0:0:
329,192,136127,128,0,136304:0:0:0:0:
36,192,136215,128,0,136482:0:0:0:0:
109,192,136215,128,0,136393:0:0:0:0:
256,192,136304,128,0,136482:0:0:0:0:
402,192,136393,128,0,136570:0:0:0:0:
475,192,136393,128,0,136748:0:0:0:0:
182,192,136393,128,0,136570:0:0:0:0:
109,192,136482,128,0,136659:0:0:0:0:
36,192,136570,128,0,136748:0:0:0:0:
256,192,136659,128,0,136837:0:0:0:0:
329,192,136659,128,0,136837:0:0:0:0:
402,192,136748,128,0,136925:0:0:0:0:
182,192,136748,128,0,137014:0:0:0:0:
109,192,136837,128,0,137014:0:0:0:0:
36,192,136925,128,0,137192:0:0:0:0:
329,192,136925,128,0,137103:0:0:0:0:
475,192,137014,128,0,137103:0:0:0:0:
402,192,137014,128,0,137103:0:0:0:0:
256,192,137103,128,0,137280:0:0:0:0:
182,192,137103,128,0,137192:0:0:0:0:
109,192,137103,128,0,137192:0:0:0:0:
329,192,137192,128,0,137280:0:0:0:0:
402,192,137192,128,0,137369:0:0:0:0:
182,192,137280,128,0,137458:0:0:0:0:
109,192,137280,128,0,137369:0:0:0:0:
256,192,137369,128,0,137458:0:0:0:0:
329,192,137369,128,0,137547:0:0:0:0:
109,192,137458,128,0,137635:0:0:0:0:
36,192,137458,128,0,137547:0:0:0:0:
475,192,137458,128,0,137635:0:0:0:0:
182,192,137547,128,0,137635:0:0:0:0:
256,192,137547,128,0,137724:0:0:0:0:
36,192,137635,128,0,137813:0:0:0:0:
402,192,137635,128,0,137813:0:0:0:0:
182,192,137724,128,0,137902:0:0:0:0:
329,192,137813,128,0,137990:0:0:0:0:
109,192,137813,128,0,137990:0:0:0:0:
475,192,137813,128,0,138168:0:0:0:0:
36,192,137902,128,0,138079:0:0:0:0:
256,192,137990,128,0,138168:0:0:0:0:
182,192,138079,128,0,138257:0:0:0:0:
36,192,138168,128,0,138434:0:0:0:0:
329,192,138168,128,0,138257:0:0:0:0:
109,192,138168,128,0,138345:0:0:0:0:
256,192,138257,128,0,138345:0:0:0:0:
475,192,138345,128,0,138523:0:0:0:0:
182,192,138345,128,0,138434:0:0:0:0:
402,192,138434,128,0,138523:0:0:0:0:
329,192,138434,128,0,138523:0:0:0:0:
256,192,138523,128,0,138700:0:0:0:0:
182,192,138523,1,0,0:0:0:0:
109,192,138523,1,0,0:0:0:0:
36,192,138523,1,0,0:0:0:0:
329,192,138612,128,0,138789:0:0:0:0:
475,192,138612,1,0,0:0:0:0:
402,192,138612,1,0,0:0:0:0:
36,192,138700,1,0,0:0:0:0:
182,192,138700,128,0,138878:0:0:0:0:
109,192,138700,1,0,0:0:0:0:
256,192,138789,128,0,138967:0:0:0:0:
109,192,138878,128,0,139056:0:0:0:0:
475,192,138878,1,0,0:0:0:0:
402,192,138878,1,0,0:0:0:0:
329,192,138878,1,0,0:0:0:0:
182,192,138967,128,0,139144:0:0:0:0:
475,192,138967,1,0,0:0:0:0:
402,192,138967,1,0,0:0:0:0:
36,192,139056,128,0,139233:0:0:0:0:
329,192,139056,1,0,0:0:0:0:
256,192,139056,1,0,0:0:0:0:
109,192,139144,128,0,139233:0:0:0:0:
402,192,139144,1,0,0:0:0:0:
475,192,139144,1,0,0:0:0:0:
402,192,139233,1,0,0:0:0:0:
475,192,139233,1,0,0:0:0:0:
256,192,139233,1,0,0:0:0:0:
182,192,139233,1,0,0:0:0:0:
329,192,139233,128,0,139588:0:0:0:0:
182,192,139411,128,0,139588:0:0:0:0:
36,192,139411,1,0,0:0:0:0:
36,192,139588,128,0,139766:0:0:0:0:
402,192,139588,1,0,0:0:0:0:
475,192,139588,1,0,0:0:0:0:
182,192,139677,128,0,139854:0:0:0:0:
475,192,139766,1,0,0:0:0:0:
329,192,139854,128,0,140032:0:0:0:0:
182,192,139943,128,0,140121:0:0:0:0:
475,192,139943,128,0,140653:0:0:0:0:
109,192,139943,1,0,0:0:0:0:
36,192,139943,1,0,0:0:0:0:
256,192,140121,1,0,0:0:0:0:
109,192,140209,128,0,140387:0:0:0:0:
402,192,140209,128,0,140653:0:0:0:0:
182,192,140298,1,0,0:0:0:0:
329,192,140298,1,0,0:0:0:0:
36,192,140476,128,0,140653:0:0:0:0:
329,192,140476,128,0,140653:0:0:0:0:
182,192,140476,1,0,0:0:0:0:
109,192,140653,1,0,0:0:0:0:
182,192,140653,1,0,0:0:0:0:
256,192,140653,128,0,140831:0:0:0:0:
402,192,140742,128,0,140919:0:0:0:0:
36,192,140831,1,0,0:0:0:0:
182,192,140831,128,0,141008:0:0:0:0:
329,192,140919,128,0,141097:0:0:0:0:
109,192,141008,1,0,0:0:0:0:
36,192,141008,1,0,0:0:0:0:
475,192,141097,128,0,141274:0:0:0:0:
329,192,141186,128,0,141363:0:0:0:0:
182,192,141186,1,0,0:0:0:0:
182,192,141363,128,0,142073:0:0:0:0:
475,192,141363,128,0,141541:0:0:0:0:
36,192,141363,1,0,0:0:0:0:
256,192,141363,1,0,0:0:0:0:
256,192,141541,1,0,0:0:0:0:
402,192,141629,128,0,141807:0:0:0:0:
109,192,141629,128,0,142073:0:0:0:0:
329,192,141718,1,0,0:0:0:0:
36,192,141718,1,0,0:0:0:0:
329,192,141896,128,0,142073:0:0:0:0:
475,192,141896,1,0,0:0:0:0:
36,192,141896,128,0,141985:0:0:0:0:
256,192,142073,128,0,142251:0:0:0:0:
475,192,142073,1,0,0:0:0:0:
402,192,142073,1,0,0:0:0:0:
36,192,142073,128,0,142517:0:0:0:0:
329,192,142162,128,0,142340:0:0:0:0:
109,192,142162,128,0,142428:0:0:0:0:
402,192,142251,128,0,142428:0:0:0:0:
182,192,142251,128,0,142340:0:0:0:0:
475,192,142340,128,0,142517:0:0:0:0:
256,192,142340,128,0,142428:0:0:0:0:
329,192,142428,128,0,142517:0:0:0:0:
182,192,142428,128,0,142606:0:0:0:0:
402,192,142517,128,0,142606:0:0:0:0:
109,192,142517,128,0,142695:0:0:0:0:
36,192,142606,128,0,142783:0:0:0:0:
475,192,142606,128,0,142695:0:0:0:0:
329,192,142695,128,0,142783:0:0:0:0:
475,192,142783,128,0,142961:0:0:0:0:
109,192,142783,1,0,0:0:0:0:
402,192,142783,128,0,142961:0:0:0:0:
256,192,142783,1,0,0:0:0:0:
182,192,142783,1,0,0:0:0:0:
36,192,142961,128,0,143138:0:0:0:0:
109,192,142961,128,0,143138:0:0:0:0:
256,192,143138,128,0,143227:0:0:0:0:
475,192,143138,128,0,143405:0:0:0:0:
182,192,143227,128,0,143316:0:0:0:0:
402,192,143227,128,0,143405:0:0:0:0:
109,192,143316,128,0,143405:0:0:0:0:
329,192,143316,128,0,143405:0:0:0:0:
36,192,143405,128,0,143493:0:0:0:0:
256,192,143405,128,0,143493:0:0:0:0:
109,192,143493,1,0,0:0:0:0:
182,192,143493,1,0,0:0:0:0:
329,192,143493,1,0,0:0:0:0:
402,192,143493,1,0,0:0:0:0:
475,192,143493,1,0,0:0:0:0:
109,192,143760,1,0,0:0:0:0:
36,192,143760,1,0,0:0:0:0:
256,192,143760,1,0,0:0:0:0:
402,192,143760,1,0,0:0:0:0:
329,192,144026,1,0,0:0:0:0:
475,192,144026,1,0,0:0:0:0:
182,192,144026,1,0,0:0:0:0:
36,192,144026,1,0,0:0:0:0:
256,192,144203,1,0,0:0:0:0:
402,192,144203,1,0,0:0:0:0:
475,192,144203,1,0,0:0:0:0:
109,192,144203,1,0,0:0:0:0:
36,192,144203,1,0,0:0:0:0:
329,192,144292,1,0,0:0:0:0:
182,192,144292,1,0,0:0:0:0:
182,192,144381,1,0,0:0:0:0:
329,192,144381,1,0,0:0:0:0:
109,192,144558,1,0,0:0:0:0:
256,192,144558,1,0,0:0:0:0:
36,192,144558,1,0,0:0:0:0:
182,192,144647,1,0,0:0:0:0:
402,192,144647,1,0,0:0:0:0:
475,192,144647,1,0,0:0:0:0:
109,192,144736,1,0,0:0:0:0:
329,192,144736,1,0,0:0:0:0:
36,192,144736,1,0,0:0:0:0:
256,192,144825,1,0,0:0:0:0:
182,192,144825,1,0,0:0:0:0:
475,192,144825,1,0,0:0:0:0:
402,192,144913,1,0,0:0:0:0:
329,192,144913,1,0,0:0:0:0:
109,192,144913,128,0,145091:0:0:0:0:
36,192,144913,128,0,145091:0:0:0:0:
329,192,145091,1,0,0:0:0:0:
402,192,145091,1,0,0:0:0:0:
402,192,145180,128,0,145357:0:0:0:0:
475,192,145180,128,0,145357:0:0:0:0:
329,192,145269,1,0,0:0:0:0:
256,192,145269,1,0,0:0:0:0:
182,192,145357,1,0,0:0:0:0:
109,192,145357,1,0,0:0:0:0:
36,192,145446,128,0,145624:0:0:0:0:
109,192,145446,128,0,145624:0:0:0:0:
256,192,145624,1,0,0:0:0:0:
402,192,145624,128,0,145801:0:0:0:0:
475,192,145624,128,0,145801:0:0:0:0:
182,192,145801,1,0,0:0:0:0:
109,192,145801,1,0,0:0:0:0:
109,192,145890,128,0,146067:0:0:0:0:
36,192,145890,128,0,146067:0:0:0:0:
256,192,145979,1,0,0:0:0:0:
182,192,145979,1,0,0:0:0:0:
329,192,146067,1,0,0:0:0:0:
402,192,146067,1,0,0:0:0:0:
402,192,146156,128,0,146334:0:0:0:0:
475,192,146156,128,0,146334:0:0:0:0:
36,192,146334,1,0,0:0:0:0:
256,192,146334,128,0,146511:0:0:0:0:
182,192,146334,128,0,146511:0:0:0:0:
402,192,146511,1,0,0:0:0:0:
329,192,146511,1,0,0:0:0:0:
402,192,146600,128,0,146777:0:0:0:0:
475,192,146600,128,0,146777:0:0:0:0:
256,192,146689,1,0,0:0:0:0:
182,192,146689,1,0,0:0:0:0:
109,192,146777,1,0,0:0:0:0:
36,192,146777,1,0,0:0:0:0:
256,192,146866,128,0,147044:0:0:0:0:
329,192,146866,128,0,147044:0:0:0:0:
36,192,147044,128,0,147221:0:0:0:0:
182,192,147044,128,0,147132:0:0:0:0:
475,192,147044,128,0,147310:0:0:0:0:
109,192,147132,128,0,147310:0:0:0:0:
256,192,147132,128,0,147221:0:0:0:0:
182,192,147221,128,0,147399:0:0:0:0:
329,192,147221,128,0,147310:0:0:0:0:
256,192,147310,128,0,147487:0:0:0:0:
402,192,147310,128,0,147399:0:0:0:0:
329,192,147399,128,0,147576:0:0:0:0:
475,192,147399,128,0,147487:0:0:0:0:
36,192,147399,128,0,147576:0:0:0:0:
402,192,147487,128,0,147665:0:0:0:0:
182,192,147487,128,0,147576:0:0:0:0:
475,192,147576,128,0,147754:0:0:0:0:
109,192,147576,128,0,147665:0:0:0:0:
36,192,147665,128,0,147754:0:0:0:0:
256,192,147665,128,0,147754:0:0:0:0:
182,192,147754,1,0,0:0:0:0:
329,192,147754,128,0,147931:0:0:0:0:
402,192,147754,128,0,147931:0:0:0:0:
109,192,147931,1,0,0:0:0:0:
256,192,147931,1,0,0:0:0:0:
36,192,148020,128,0,148198:0:0:0:0:
182,192,148020,128,0,148198:0:0:0:0:
402,192,148109,1,0,0:0:0:0:
475,192,148109,1,0,0:0:0:0:
256,192,148198,1,0,0:0:0:0:
109,192,148198,1,0,0:0:0:0:
329,192,148286,128,0,148464:0:0:0:0:
475,192,148286,128,0,148464:0:0:0:0:
36,192,148464,128,0,148641:0:0:0:0:
256,192,148464,128,0,148553:0:0:0:0:
402,192,148464,128,0,148641:0:0:0:0:
182,192,148553,128,0,148641:0:0:0:0:
329,192,148553,128,0,148730:0:0:0:0:
109,192,148641,128,0,148730:0:0:0:0:
256,192,148641,128,0,148819:0:0:0:0:
182,192,148730,128,0,148908:0:0:0:0:
36,192,148730,128,0,148819:0:0:0:0:
109,192,148819,128,0,148996:0:0:0:0:
475,192,148819,128,0,148908:0:0:0:0:
329,192,148819,128,0,148996:0:0:0:0:
36,192,148908,128,0,149085:0:0:0:0:
402,192,148908,128,0,149085:0:0:0:0:
475,192,148996,128,0,149174:0:0:0:0:
256,192,148996,128,0,149085:0:0:0:0:
182,192,149085,128,0,149174:0:0:0:0:
329,192,149085,128,0,149174:0:0:0:0:
402,192,149174,1,0,0:0:0:0:
109,192,149174,128,0,149351:0:0:0:0:
36,192,149174,128,0,149351:0:0:0:0:
475,192,149351,1,0,0:0:0:0:
329,192,149351,1,0,0:0:0:0:
475,192,149440,128,0,149618:0:0:0:0:
329,192,149440,128,0,149618:0:0:0:0:
256,192,149529,1,0,0:0:0:0:
109,192,149529,1,0,0:0:0:0:
182,192,149618,1,0,0:0:0:0:
36,192,149618,1,0,0:0:0:0:
182,192,149706,128,0,149884:0:0:0:0:
36,192,149706,128,0,149884:0:0:0:0:
329,192,149884,1,0,0:0:0:0:
109,192,149884,1,0,0:0:0:0:
256,192,149884,1,0,0:0:0:0:
402,192,149884,128,0,150061:0:0:0:0:
475,192,149884,128,0,150061:0:0:0:0:
36,192,149973,128,0,150150:0:0:0:0:
182,192,149973,128,0,150061:0:0:0:0:
256,192,150061,128,0,150150:0:0:0:0:
109,192,150061,128,0,150239:0:0:0:0:
329,192,150150,128,0,150239:0:0:0:0:
182,192,150150,128,0,150328:0:0:0:0:
256,192,150239,128,0,150416:0:0:0:0:
36,192,150239,128,0,150328:0:0:0:0:
402,192,150239,128,0,150328:0:0:0:0:
475,192,150239,128,0,150505:0:0:0:0:
109,192,150328,128,0,150416:0:0:0:0:
329,192,150328,128,0,150505:0:0:0:0:
182,192,150416,128,0,150505:0:0:0:0:
402,192,150416,128,0,150594:0:0:0:0:
256,192,150505,128,0,150594:0:0:0:0:
36,192,150505,128,0,150594:0:0:0:0:
109,192,150594,1,0,0:0:0:0:
182,192,150594,1,0,0:0:0:0:
329,192,150594,1,0,0:0:0:0:
475,192,150594,1,0,0:0:0:0:
182,192,150771,1,0,0:0:0:0:
36,192,150771,1,0,0:0:0:0:
36,192,150860,128,0,151038:0:0:0:0:
182,192,150860,128,0,151038:0:0:0:0:
256,192,150949,1,0,0:0:0:0:
402,192,150949,1,0,0:0:0:0:
329,192,151038,1,0,0:0:0:0:
475,192,151038,1,0,0:0:0:0:
475,192,151127,128,0,151304:0:0:0:0:
329,192,151127,128,0,151304:0:0:0:0:
36,192,151304,128,0,151482:0:0:0:0:
109,192,151304,128,0,151482:0:0:0:0:
256,192,151304,1,0,0:0:0:0:
402,192,151482,1,0,0:0:0:0:
475,192,151482,1,0,0:0:0:0:
402,192,151570,128,0,151748:0:0:0:0:
475,192,151570,128,0,151748:0:0:0:0:
109,192,151659,1,0,0:0:0:0:
256,192,151659,1,0,0:0:0:0:
182,192,151748,1,0,0:0:0:0:
329,192,151748,1,0,0:0:0:0:
182,192,151837,128,0,152014:0:0:0:0:
329,192,151837,128,0,152014:0:0:0:0:
109,192,152014,128,0,152192:0:0:0:0:
36,192,152014,128,0,152103:0:0:0:0:
256,192,152014,128,0,152103:0:0:0:0:
402,192,152014,128,0,152280:0:0:0:0:
475,192,152014,128,0,152280:0:0:0:0:
182,192,152103,128,0,152280:0:0:0:0:
329,192,152103,128,0,152192:0:0:0:0:
256,192,152192,128,0,152458:0:0:0:0:
36,192,152192,128,0,152458:0:0:0:0:
109,192,152280,128,0,152369:0:0:0:0:
329,192,152280,128,0,152369:0:0:0:0:
475,192,152369,128,0,152635:0:0:0:0:
182,192,152369,128,0,152547:0:0:0:0:
402,192,152369,128,0,152547:0:0:0:0:
109,192,152458,128,0,152635:0:0:0:0:
329,192,152458,128,0,152724:0:0:0:0:
256,192,152547,128,0,152635:0:0:0:0:
36,192,152547,128,0,152724:0:0:0:0:
182,192,152635,128,0,152813:0:0:0:0:
402,192,152635,128,0,152813:0:0:0:0:
475,192,152724,128,0,152902:0:0:0:0:
109,192,152724,128,0,152990:0:0:0:0:
256,192,152724,128,0,152902:0:0:0:0:
36,192,152813,128,0,152990:0:0:0:0:
329,192,152813,128,0,152990:0:0:0:0:
182,192,152902,128,0,153079:0:0:0:0:
402,192,152902,128,0,153079:0:0:0:0:
475,192,152990,128,0,153168:0:0:0:0:
256,192,152990,128,0,153168:0:0:0:0:
329,192,153079,128,0,153257:0:0:0:0:
109,192,153079,128,0,153257:0:0:0:0:
36,192,153079,128,0,153345:0:0:0:0:
402,192,153168,128,0,153345:0:0:0:0:
182,192,153168,128,0,153345:0:0:0:0:
475,192,153257,128,0,153345:0:0:0:0:
256,192,153257,128,0,153434:0:0:0:0:
329,192,153345,128,0,153523:0:0:0:0:
109,192,153345,128,0,153434:0:0:0:0:
36,192,153434,128,0,153878:0:0:0:0:
182,192,153434,128,0,153523:0:0:0:0:
475,192,153434,128,0,153700:0:0:0:0:
402,192,153434,128,0,153612:0:0:0:0:
109,192,153523,128,0,153878:0:0:0:0:
256,192,153523,128,0,153612:0:0:0:0:
182,192,153612,128,0,153789:0:0:0:0:
329,192,153612,128,0,153700:0:0:0:0:
256,192,153700,128,0,153789:0:0:0:0:
402,192,153700,128,0,154144:0:0:0:0:
475,192,153789,128,0,154056:0:0:0:0:
329,192,153789,128,0,154056:0:0:0:0:
256,192,153878,128,0,153967:0:0:0:0:
182,192,153878,128,0,153967:0:0:0:0:
109,192,153967,128,0,154056:0:0:0:0:
36,192,153967,128,0,154056:0:0:0:0:
256,192,154056,128,0,154144:0:0:0:0:
182,192,154056,128,0,154233:0:0:0:0:
109,192,154144,128,0,154322:0:0:0:0:
36,192,154144,128,0,154411:0:0:0:0:
475,192,154144,128,0,154588:0:0:0:0:
329,192,154144,128,0,154233:0:0:0:0:
256,192,154233,128,0,154322:0:0:0:0:
402,192,154233,128,0,154588:0:0:0:0:
182,192,154322,128,0,154411:0:0:0:0:
329,192,154322,128,0,154499:0:0:0:0:
109,192,154411,128,0,154766:0:0:0:0:
256,192,154411,128,0,154499:0:0:0:0:
36,192,154499,128,0,154766:0:0:0:0:
182,192,154499,128,0,154677:0:0:0:0:
256,192,154588,128,0,154677:0:0:0:0:
329,192,154588,128,0,154854:0:0:0:0:
402,192,154677,128,0,154766:0:0:0:0:
475,192,154677,128,0,154766:0:0:0:0:
256,192,154766,128,0,154854:0:0:0:0:
182,192,154766,128,0,154943:0:0:0:0:
36,192,154854,128,0,155387:0:0:0:0:
109,192,154854,128,0,154943:0:0:0:0:
475,192,154854,128,0,155209:0:0:0:0:
402,192,154854,128,0,155032:0:0:0:0:
256,192,154943,128,0,155121:0:0:0:0:
329,192,154943,128,0,155032:0:0:0:0:
182,192,155032,128,0,155121:0:0:0:0:
109,192,155032,128,0,155387:0:0:0:0:
329,192,155121,128,0,155298:0:0:0:0:
402,192,155121,128,0,155209:0:0:0:0:
182,192,155209,128,0,155387:0:0:0:0:
256,192,155209,128,0,155298:0:0:0:0:
402,192,155298,128,0,155476:0:0:0:0:
475,192,155298,128,0,155476:0:0:0:0:
329,192,155387,128,0,155476:0:0:0:0:
256,192,155387,128,0,155564:0:0:0:0:
182,192,155476,128,0,155564:0:0:0:0:
109,192,155476,128,0,155564:0:0:0:0:
329,192,155564,128,0,155831:0:0:0:0:
475,192,155564,128,0,155742:0:0:0:0:
402,192,155564,128,0,155742:0:0:0:0:
36,192,155564,128,0,155742:0:0:0:0:
256,192,155742,128,0,155831:0:0:0:0:
182,192,155742,128,0,155831:0:0:0:0:
109,192,155831,128,0,156008:0:0:0:0:
36,192,155831,128,0,156008:0:0:0:0:
402,192,155831,128,0,156097:0:0:0:0:
475,192,155831,128,0,156008:0:0:0:0:
329,192,156008,128,0,156097:0:0:0:0:
256,192,156008,128,0,156097:0:0:0:0:
475,192,156097,128,0,156274:0:0:0:0:
182,192,156097,128,0,156274:0:0:0:0:
109,192,156097,128,0,156274:0:0:0:0:
36,192,156097,128,0,156274:0:0:0:0:
256,192,156274,128,0,156452:0:0:0:0:
329,192,156274,1,0,0:0:0:0:
182,192,156363,128,0,156541:0:0:0:0:
402,192,156363,1,0,0:0:0:0:
109,192,156452,128,0,156629:0:0:0:0:
475,192,156452,1,0,0:0:0:0:
36,192,156541,128,0,160269:0:0:0:0:
475,192,156629,1,0,0:0:0:0:
402,192,156629,1,0,0:0:0:0:
256,192,156629,1,0,0:0:0:0:
329,192,156718,1,0,0:0:0:0:
182,192,156718,1,0,0:0:0:0:
182,192,156985,1,0,0:0:0:0:
329,192,156985,1,0,0:0:0:0:
402,192,156985,1,0,0:0:0:0:
182,192,157162,1,0,0:0:0:0:
329,192,157162,1,0,0:0:0:0:
256,192,157251,1,0,0:0:0:0:
109,192,157251,1,0,0:0:0:0:
475,192,157340,1,0,0:0:0:0:
402,192,157340,1,0,0:0:0:0:
109,192,157517,1,0,0:0:0:0:
256,192,157517,1,0,0:0:0:0:
182,192,157695,1,0,0:0:0:0:
329,192,157695,1,0,0:0:0:0:
109,192,157695,1,0,0:0:0:0:
256,192,157783,1,0,0:0:0:0:
402,192,157783,1,0,0:0:0:0:
329,192,157872,1,0,0:0:0:0:
475,192,157872,1,0,0:0:0:0:
256,192,157961,1,0,0:0:0:0:
109,192,157961,1,0,0:0:0:0:
182,192,158050,1,0,0:0:0:0:
402,192,158050,1,0,0:0:0:0:
475,192,158050,1,0,0:0:0:0:
329,192,158138,1,0,0:0:0:0:
109,192,158138,1,0,0:0:0:0:
256,192,158227,1,0,0:0:0:0:
475,192,158227,1,0,0:0:0:0:
182,192,158316,1,0,0:0:0:0:
402,192,158316,1,0,0:0:0:0:
109,192,158405,1,0,0:0:0:0:
475,192,158405,1,0,0:0:0:0:
329,192,158405,1,0,0:0:0:0:
109,192,158582,1,0,0:0:0:0:
402,192,158582,1,0,0:0:0:0:
182,192,158671,1,0,0:0:0:0:
329,192,158671,1,0,0:0:0:0:
475,192,158760,1,0,0:0:0:0:
256,192,158760,1,0,0:0:0:0:
182,192,158937,1,0,0:0:0:0:
402,192,158937,1,0,0:0:0:0:
109,192,159115,1,0,0:0:0:0:
329,192,159115,1,0,0:0:0:0:
475,192,159115,1,0,0:0:0:0:
182,192,159203,1,0,0:0:0:0:
402,192,159203,1,0,0:0:0:0:
256,192,159292,1,0,0:0:0:0:
475,192,159292,1,0,0:0:0:0:
329,192,159470,1,0,0:0:0:0:
182,192,159470,1,0,0:0:0:0:
402,192,159558,1,0,0:0:0:0:
475,192,159558,1,0,0:0:0:0:
402,192,159825,1,0,0:0:0:0:
475,192,159825,1,0,0:0:0:0:
109,192,159825,1,0,0:0:0:0:
402,192,160002,1,0,0:0:0:0:
475,192,160002,1,0,0:0:0:0:
329,192,160091,1,0,0:0:0:0:
182,192,160091,1,0,0:0:0:0:
256,192,160180,1,0,0:0:0:0:
109,192,160180,1,0,0:0:0:0:
182,192,160269,128,0,160446:0:0:0:0:
402,192,160269,128,0,160446:0:0:0:0:
109,192,160357,128,0,160535:0:0:0:0:
329,192,160357,128,0,160446:0:0:0:0:
36,192,160446,128,0,160624:0:0:0:0:
256,192,160446,128,0,160535:0:0:0:0:
475,192,160535,128,0,160801:0:0:0:0:
182,192,160535,128,0,160712:0:0:0:0:
329,192,160535,128,0,160624:0:0:0:0:
402,192,160535,128,0,160712:0:0:0:0:
109,192,160624,128,0,160801:0:0:0:0:
256,192,160624,128,0,160801:0:0:0:0:
329,192,160712,128,0,160890:0:0:0:0:
36,192,160712,128,0,160890:0:0:0:0:
402,192,160801,128,0,160979:0:0:0:0:
182,192,160801,128,0,160890:0:0:0:0:
475,192,160890,128,0,161067:0:0:0:0:
109,192,160890,128,0,160979:0:0:0:0:
36,192,160979,128,0,161067:0:0:0:0:
256,192,160979,128,0,161067:0:0:0:0:
182,192,161067,128,0,161156:0:0:0:0:
329,192,161067,128,0,161156:0:0:0:0:
402,192,161156,128,0,161245:0:0:0:0:
109,192,161156,128,0,161245:0:0:0:0:
475,192,161245,128,0,161422:0:0:0:0:
36,192,161245,128,0,161422:0:0:0:0:
256,192,161245,128,0,161422:0:0:0:0:
182,192,161245,128,0,161334:0:0:0:0:
329,192,161334,128,0,161511:0:0:0:0:
109,192,161334,128,0,161511:0:0:0:0:
182,192,161422,128,0,161600:0:0:0:0:
402,192,161422,128,0,161600:0:0:0:0:
256,192,161511,1,0,0:0:0:0:
36,192,161511,1,0,0:0:0:0:
475,192,161600,1,0,0:0:0:0:
109,192,161600,128,0,161777:0:0:0:0:
329,192,161600,128,0,161777:0:0:0:0:
182,192,161689,128,0,161866:0:0:0:0:
402,192,161689,128,0,161866:0:0:0:0:
256,192,161777,1,0,0:0:0:0:
36,192,161777,1,0,0:0:0:0:
109,192,161866,1,0,0:0:0:0:
329,192,161866,1,0,0:0:0:0:
182,192,161955,1,0,0:0:0:0:
36,192,161955,1,0,0:0:0:0:
402,192,161955,128,0,162132:0:0:0:0:
475,192,161955,128,0,162132:0:0:0:0:
329,192,162132,1,0,0:0:0:0:
182,192,162221,1,0,0:0:0:0:
109,192,162251,1,0,0:0:0:0:
36,192,162280,1,0,0:0:0:0:
329,192,162310,1,0,0:0:0:0:
402,192,162310,1,0,0:0:0:0:
475,192,162310,1,0,0:0:0:0:
256,192,162340,1,0,0:0:0:0:
182,192,162369,1,0,0:0:0:0:
109,192,162399,1,0,0:0:0:0:
36,192,162428,1,0,0:0:0:0:
329,192,162458,1,0,0:0:0:0:
402,192,162487,1,0,0:0:0:0:
475,192,162517,1,0,0:0:0:0:
36,192,162547,1,0,0:0:0:0:
109,192,162576,1,0,0:0:0:0:
182,192,162606,1,0,0:0:0:0:
256,192,162635,1,0,0:0:0:0:
402,192,162665,1,0,0:0:0:0:
475,192,162665,1,0,0:0:0:0:
329,192,162665,1,0,0:0:0:0:
109,192,162754,128,0,162931:0:0:0:0:
36,192,162754,128,0,162931:0:0:0:0:
182,192,162754,1,0,0:0:0:0:
256,192,162842,1,0,0:0:0:0:
329,192,162931,1,0,0:0:0:0:
475,192,163020,128,0,163198:0:0:0:0:
36,192,163020,1,0,0:0:0:0:
109,192,163020,1,0,0:0:0:0:
402,192,163020,128,0,163198:0:0:0:0:
256,192,163109,1,0,0:0:0:0:
182,192,163198,1,0,0:0:0:0:
109,192,163286,1,0,0:0:0:0:
36,192,163286,1,0,0:0:0:0:
475,192,163375,1,0,0:0:0:0:
402,192,163375,1,0,0:0:0:0:
329,192,163375,1,0,0:0:0:0:
256,192,163375,1,0,0:0:0:0:
36,192,163375,128,0,164618:0:0:0:0:
109,192,163375,128,0,164618:0:0:0:0:
475,192,163553,1,0,0:0:0:0:
402,192,163553,1,0,0:0:0:0:
329,192,163641,1,0,0:0:0:0:
182,192,163641,1,0,0:0:0:0:
402,192,163730,1,0,0:0:0:0:
475,192,163730,1,0,0:0:0:0:
256,192,163908,1,0,0:0:0:0:
402,192,163908,1,0,0:0:0:0:
182,192,164085,1,0,0:0:0:0:
329,192,164085,1,0,0:0:0:0:
402,192,164174,1,0,0:0:0:0:
475,192,164174,1,0,0:0:0:0:
475,192,164440,1,0,0:0:0:0:
402,192,164440,1,0,0:0:0:0:
256,192,164440,1,0,0:0:0:0:
182,192,164618,1,0,0:0:0:0:
329,192,164618,1,0,0:0:0:0:
36,192,164795,128,0,165505:0:0:0:0:
475,192,164795,1,0,0:0:0:0:
402,192,164795,1,0,0:0:0:0:
329,192,164795,1,0,0:0:0:0:
182,192,164795,1,0,0:0:0:0:
109,192,164795,1,0,0:0:0:0:
329,192,164973,1,0,0:0:0:0:
182,192,164973,1,0,0:0:0:0:
475,192,165150,5,0,0:0:0:0:
402,192,165150,1,0,0:0:0:0:
329,192,165150,1,0,0:0:0:0:
256,192,165328,1,0,0:0:0:0:
182,192,165328,1,0,0:0:0:0:
109,192,165328,1,0,0:0:0:0:
402,192,165416,1,0,0:0:0:0:
475,192,165416,1,0,0:0:0:0:
329,192,165416,1,0,0:0:0:0:
256,192,165505,128,0,166215:0:0:0:0:
402,192,165505,1,0,0:0:0:0:
475,192,165505,1,0,0:0:0:0:
329,192,165505,1,0,0:0:0:0:
182,192,165505,1,0,0:0:0:0:
109,192,165505,1,0,0:0:0:0:
329,192,165683,1,0,0:0:0:0:
475,192,165683,1,0,0:0:0:0:
182,192,165860,1,0,0:0:0:0:
109,192,165860,1,0,0:0:0:0:
36,192,165860,1,0,0:0:0:0:
329,192,166038,1,0,0:0:0:0:
402,192,166038,1,0,0:0:0:0:
475,192,166038,1,0,0:0:0:0:
182,192,166127,1,0,0:0:0:0:
109,192,166127,1,0,0:0:0:0:
36,192,166127,1,0,0:0:0:0:
475,192,166215,128,0,166925:0:0:0:0:
36,192,166215,1,0,0:0:0:0:
109,192,166215,1,0,0:0:0:0:
182,192,166215,1,0,0:0:0:0:
329,192,166215,1,0,0:0:0:0:
402,192,166215,1,0,0:0:0:0:
109,192,166393,1,0,0:0:0:0:
36,192,166393,1,0,0:0:0:0:
256,192,166393,1,0,0:0:0:0:
329,192,166482,1,0,0:0:0:0:
402,192,166482,1,0,0:0:0:0:
182,192,166482,1,0,0:0:0:0:
329,192,166570,1,0,0:0:0:0:
402,192,166570,1,0,0:0:0:0:
109,192,166570,1,0,0:0:0:0:
36,192,166570,1,0,0:0:0:0:
36,192,166748,1,0,0:0:0:0:
109,192,166748,1,0,0:0:0:0:
256,192,166748,1,0,0:0:0:0:
329,192,166837,1,0,0:0:0:0:
402,192,166837,1,0,0:0:0:0:
182,192,166837,1,0,0:0:0:0:
36,192,166925,1,0,0:0:0:0:
329,192,166925,1,0,0:0:0:0:
402,192,166925,1,0,0:0:0:0:
109,192,166955,1,0,0:0:0:0:
182,192,166985,1,0,0:0:0:0:
256,192,167014,1,0,0:0:0:0:
329,192,167044,1,0,0:0:0:0:
402,192,167073,1,0,0:0:0:0:
475,192,167103,1,0,0:0:0:0:
182,192,167132,1,0,0:0:0:0:
109,192,167162,1,0,0:0:0:0:
36,192,167192,1,0,0:0:0:0:
475,192,167221,1,0,0:0:0:0:
402,192,167251,1,0,0:0:0:0:
329,192,167280,1,0,0:0:0:0:
256,192,167310,1,0,0:0:0:0:
182,192,167340,1,0,0:0:0:0:
109,192,167369,1,0,0:0:0:0:
36,192,167399,1,0,0:0:0:0:
329,192,167428,1,0,0:0:0:0:
402,192,167458,1,0,0:0:0:0:
475,192,167487,1,0,0:0:0:0:
182,192,167517,1,0,0:0:0:0:
256,192,167547,1,0,0:0:0:0:
329,192,167576,1,0,0:0:0:0:
402,192,167606,1,0,0:0:0:0:
36,192,167635,128,0,167990:0:0:0:0:
182,192,167635,128,0,167813:0:0:0:0:
475,192,167635,1,0,0:0:0:0:
256,192,167724,128,0,167902:0:0:0:0:
402,192,167724,1,0,0:0:0:0:
329,192,167813,128,0,167990:0:0:0:0:
109,192,167813,1,0,0:0:0:0:
402,192,167902,128,0,168079:0:0:0:0:
182,192,167902,1,0,0:0:0:0:
109,192,167990,128,0,168168:0:0:0:0:
475,192,167990,128,0,168345:0:0:0:0:
256,192,167990,1,0,0:0:0:0:
182,192,168079,128,0,168257:0:0:0:0:
329,192,168079,1,0,0:0:0:0:
256,192,168168,128,0,168345:0:0:0:0:
402,192,168168,1,0,0:0:0:0:
329,192,168257,128,0,168434:0:0:0:0:
109,192,168257,1,0,0:0:0:0:
36,192,168345,128,0,168523:0:0:0:0:
402,192,168345,128,0,168700:0:0:0:0:
182,192,168345,1,0,0:0:0:0:
109,192,168434,128,0,168612:0:0:0:0:
256,192,168434,1,0,0:0:0:0:
182,192,168523,128,0,168700:0:0:0:0:
329,192,168523,1,0,0:0:0:0:
256,192,168612,128,0,168789:0:0:0:0:
36,192,168612,1,0,0:0:0:0:
329,192,168700,128,0,169056:0:0:0:0:
475,192,168700,128,0,168878:0:0:0:0:
109,192,168700,1,0,0:0:0:0:
182,192,168789,1,0,0:0:0:0:
36,192,168789,128,0,168967:0:0:0:0:
256,192,168878,1,0,0:0:0:0:
109,192,168878,128,0,169056:0:0:0:0:
182,192,168967,128,0,169144:0:0:0:0:
402,192,168967,1,0,0:0:0:0:
256,192,169056,128,0,169411:0:0:0:0:
475,192,169056,128,0,169233:0:0:0:0:
36,192,169056,1,0,0:0:0:0:
402,192,169144,128,0,169322:0:0:0:0:
109,192,169144,1,0,0:0:0:0:
329,192,169233,128,0,169411:0:0:0:0:
182,192,169233,1,0,0:0:0:0:
109,192,169322,128,0,169499:0:0:0:0:
475,192,169322,1,0,0:0:0:0:
36,192,169411,128,0,169766:0:0:0:0:
402,192,169411,1,0,0:0:0:0:
182,192,169411,128,0,169588:0:0:0:0:
329,192,169499,1,0,0:0:0:0:
256,192,169499,128,0,169677:0:0:0:0:
475,192,169588,128,0,169766:0:0:0:0:
109,192,169588,1,0,0:0:0:0:
402,192,169677,128,0,169854:0:0:0:0:
182,192,169677,1,0,0:0:0:0:
329,192,169766,128,0,169943:0:0:0:0:
256,192,169766,1,0,0:0:0:0:
109,192,169766,128,0,170121:0:0:0:0:
182,192,169854,128,0,170032:0:0:0:0:
475,192,169854,1,0,0:0:0:0:
256,192,169943,128,0,170121:0:0:0:0:
402,192,169943,1,0,0:0:0:0:
329,192,170032,128,0,170209:0:0:0:0:
475,192,170032,1,0,0:0:0:0:
402,192,170121,128,0,170476:0:0:0:0:
36,192,170121,1,0,0:0:0:0:
182,192,170121,128,0,170298:0:0:0:0:
109,192,170209,128,0,170387:0:0:0:0:
256,192,170209,1,0,0:0:0:0:
36,192,170298,128,0,170476:0:0:0:0:
329,192,170298,1,0,0:0:0:0:
182,192,170387,1,0,0:0:0:0:
109,192,170476,1,0,0:0:0:0:
475,192,170476,128,0,170831:0:0:0:0:
329,192,170476,128,0,170653:0:0:0:0:
256,192,170564,128,0,170742:0:0:0:0:
36,192,170564,1,0,0:0:0:0:
182,192,170653,128,0,170831:0:0:0:0:
402,192,170653,1,0,0:0:0:0:
109,192,170742,128,0,170919:0:0:0:0:
329,192,170742,1,0,0:0:0:0:
36,192,170831,128,0,171186:0:0:0:0:
402,192,170831,128,0,171008:0:0:0:0:
256,192,170831,1,0,0:0:0:0:
329,192,170919,128,0,171097:0:0:0:0:
182,192,170919,1,0,0:0:0:0:
256,192,171008,128,0,171186:0:0:0:0:
109,192,171008,1,0,0:0:0:0:
182,192,171097,128,0,171274:0:0:0:0:
402,192,171097,1,0,0:0:0:0:
475,192,171186,128,0,171363:0:0:0:0:
109,192,171186,128,0,171541:0:0:0:0:
329,192,171186,1,0,0:0:0:0:
402,192,171274,128,0,171452:0:0:0:0:
256,192,171274,1,0,0:0:0:0:
329,192,171363,128,0,171541:0:0:0:0:
182,192,171363,1,0,0:0:0:0:
256,192,171452,128,0,171629:0:0:0:0:
475,192,171452,1,0,0:0:0:0:
182,192,171541,128,0,171896:0:0:0:0:
36,192,171541,128,0,171807:0:0:0:0:
402,192,171541,1,0,0:0:0:0:
329,192,171629,1,0,0:0:0:0:
109,192,171629,128,0,171807:0:0:0:0:
256,192,171718,1,0,0:0:0:0:
475,192,171718,128,0,171896:0:0:0:0:
402,192,171718,128,0,171896:0:0:0:0:
256,192,171896,1,0,0:0:0:0:
36,192,171896,128,0,172073:0:0:0:0:
109,192,171896,128,0,172073:0:0:0:0:
329,192,171896,128,0,172073:0:0:0:0:
182,192,172014,128,0,172192:0:0:0:0:
475,192,172014,128,0,172192:0:0:0:0:
402,192,172014,128,0,172192:0:0:0:0:
256,192,172132,128,0,172310:0:0:0:0:
329,192,172132,128,0,172310:0:0:0:0:
109,192,172132,128,0,172310:0:0:0:0:
36,192,172251,128,0,172428:0:0:0:0:
182,192,172251,128,0,172428:0:0:0:0:
475,192,172251,128,0,172428:0:0:0:0:
402,192,172369,128,0,172547:0:0:0:0:
329,192,172369,128,0,172547:0:0:0:0:
109,192,172369,128,0,172547:0:0:0:0:
36,192,172487,128,0,172606:0:0:0:0:
475,192,172487,128,0,172606:0:0:0:0:
182,192,172487,128,0,172606:0:0:0:0:
402,192,172606,1,0,0:0:0:0:
329,192,172606,1,0,0:0:0:0:
256,192,172606,128,0,172961:0:0:0:0:
109,192,172606,1,0,0:0:0:0:
475,192,172695,128,0,172872:0:0:0:0:
182,192,172695,128,0,172872:0:0:0:0:
109,192,172783,128,0,172961:0:0:0:0:
402,192,172783,128,0,172961:0:0:0:0:
36,192,172872,128,0,173050:0:0:0:0:
329,192,172872,128,0,173050:0:0:0:0:
182,192,172961,1,0,0:0:0:0:
475,192,172961,1,0,0:0:0:0:
109,192,173050,1,0,0:0:0:0:
402,192,173050,1,0,0:0:0:0:
36,192,173138,1,0,0:0:0:0:
329,192,173138,1,0,0:0:0:0:
256,192,173227,1,0,0:0:0:0:
475,192,173316,128,0,173493:0:0:0:0:
182,192,173316,1,0,0:0:0:0:
109,192,173316,128,0,173671:0:0:0:0:
329,192,173316,1,0,0:0:0:0:
36,192,173316,1,0,0:0:0:0:
402,192,173405,128,0,173582:0:0:0:0:
256,192,173405,1,0,0:0:0:0:
329,192,173493,128,0,173671:0:0:0:0:
182,192,173493,1,0,0:0:0:0:
256,192,173582,128,0,173760:0:0:0:0:
475,192,173582,1,0,0:0:0:0:
402,192,173671,128,0,173848:0:0:0:0:
36,192,173671,128,0,174026:0:0:0:0:
182,192,173671,1,0,0:0:0:0:
329,192,173760,128,0,173937:0:0:0:0:
109,192,173760,1,0,0:0:0:0:
256,192,173848,128,0,174026:0:0:0:0:
475,192,173848,1,0,0:0:0:0:
182,192,173937,128,0,174115:0:0:0:0:
402,192,173937,1,0,0:0:0:0:
329,192,174026,128,0,174203:0:0:0:0:
475,192,174026,128,0,174381:0:0:0:0:
109,192,174026,1,0,0:0:0:0:
256,192,174115,128,0,174292:0:0:0:0:
36,192,174115,1,0,0:0:0:0:
182,192,174203,128,0,174381:0:0:0:0:
402,192,174203,1,0,0:0:0:0:
109,192,174292,128,0,174470:0:0:0:0:
329,192,174292,1,0,0:0:0:0:
256,192,174381,128,0,174558:0:0:0:0:
402,192,174381,128,0,174736:0:0:0:0:
36,192,174381,1,0,0:0:0:0:
182,192,174470,128,0,174647:0:0:0:0:
475,192,174470,1,0,0:0:0:0:
109,192,174558,128,0,174736:0:0:0:0:
329,192,174558,1,0,0:0:0:0:
36,192,174647,128,0,174825:0:0:0:0:
256,192,174647,1,0,0:0:0:0:
329,192,174736,128,0,175091:0:0:0:0:
475,192,174736,128,0,174913:0:0:0:0:
182,192,174736,1,0,0:0:0:0:
256,192,174825,128,0,175002:0:0:0:0:
109,192,174825,1,0,0:0:0:0:
182,192,174913,128,0,175091:0:0:0:0:
36,192,174913,1,0,0:0:0:0:
109,192,175002,128,0,175180:0:0:0:0:
402,192,175002,1,0,0:0:0:0:
36,192,175091,128,0,175446:0:0:0:0:
475,192,175091,128,0,175269:0:0:0:0:
256,192,175091,1,0,0:0:0:0:
402,192,175180,128,0,175357:0:0:0:0:
182,192,175180,1,0,0:0:0:0:
329,192,175269,128,0,175446:0:0:0:0:
109,192,175269,1,0,0:0:0:0:
256,192,175357,128,0,175535:0:0:0:0:
475,192,175357,1,0,0:0:0:0:
402,192,175446,1,0,0:0:0:0:
182,192,175446,128,0,175624:0:0:0:0:
109,192,175446,128,0,175801:0:0:0:0:
329,192,175535,1,0,0:0:0:0:
475,192,175535,128,0,175712:0:0:0:0:
402,192,175624,128,0,175801:0:0:0:0:
256,192,175624,1,0,0:0:0:0:
329,192,175712,128,0,175890:0:0:0:0:
182,192,175712,1,0,0:0:0:0:
256,192,175801,128,0,175979:0:0:0:0:
475,192,175801,128,0,176156:0:0:0:0:
36,192,175801,1,0,0:0:0:0:
182,192,175890,128,0,176067:0:0:0:0:
109,192,175890,1,0,0:0:0:0:
402,192,175979,128,0,176156:0:0:0:0:
36,192,175979,1,0,0:0:0:0:
329,192,176067,128,0,176156:0:0:0:0:
256,192,176067,1,0,0:0:0:0:
182,192,176156,128,0,176334:0:0:0:0:
109,192,176156,128,0,176334:0:0:0:0:
36,192,176156,128,0,176334:0:0:0:0:
475,192,176274,128,0,176452:0:0:0:0:
256,192,176274,128,0,176452:0:0:0:0:
402,192,176274,128,0,176452:0:0:0:0:
329,192,176393,128,0,176570:0:0:0:0:
109,192,176393,128,0,176570:0:0:0:0:
36,192,176393,128,0,176570:0:0:0:0:
182,192,176511,128,0,176689:0:0:0:0:
402,192,176511,128,0,176689:0:0:0:0:
475,192,176511,128,0,176689:0:0:0:0:
36,192,176689,1,0,0:0:0:0:
109,192,176689,1,0,0:0:0:0:
256,192,176689,1,0,0:0:0:0:
402,192,176748,1,0,0:0:0:0:
475,192,176748,1,0,0:0:0:0:
329,192,176748,1,0,0:0:0:0:
182,192,176807,1,0,0:0:0:0:
109,192,176807,1,0,0:0:0:0:
36,192,176807,1,0,0:0:0:0:
256,192,176866,128,0,177044:0:0:0:0:
402,192,176866,128,0,177044:0:0:0:0:
475,192,176866,128,0,177044:0:0:0:0:
182,192,177044,1,0,0:0:0:0:
109,192,177044,1,0,0:0:0:0:
36,192,177044,1,0,0:0:0:0:
256,192,177132,1,0,0:0:0:0:
402,192,177132,1,0,0:0:0:0:
475,192,177132,1,0,0:0:0:0:
329,192,177221,1,0,0:0:0:0:
182,192,177221,1,0,0:0:0:0:
36,192,177221,1,0,0:0:0:0:
256,192,177399,128,0,177576:0:0:0:0:
182,192,177399,1,0,0:0:0:0:
109,192,177399,1,0,0:0:0:0:
36,192,177399,1,0,0:0:0:0:
329,192,177487,1,0,0:0:0:0:
402,192,177487,1,0,0:0:0:0:
475,192,177487,1,0,0:0:0:0:
475,192,177576,1,0,0:0:0:0:
329,192,177576,1,0,0:0:0:0:
402,192,177576,1,0,0:0:0:0:
109,192,177576,1,0,0:0:0:0:
182,192,177576,1,0,0:0:0:0:
36,192,177576,1,0,0:0:0:0:
36,192,177842,1,0,0:0:0:0:
109,192,177842,1,0,0:0:0:0:
182,192,177842,1,0,0:0:0:0:
475,192,177842,1,0,0:0:0:0:
329,192,177842,1,0,0:0:0:0:
402,192,177842,1,0,0:0:0:0:
182,192,178109,1,0,0:0:0:0:
109,192,178109,1,0,0:0:0:0:
36,192,178109,1,0,0:0:0:0:
329,192,178109,1,0,0:0:0:0:
402,192,178109,1,0,0:0:0:0:
475,192,178109,1,0,0:0:0:0:
329,192,178375,1,0,0:0:0:0:
402,192,178375,1,0,0:0:0:0:
475,192,178375,1,0,0:0:0:0:
182,192,178375,1,0,0:0:0:0:
109,192,178375,1,0,0:0:0:0:
36,192,178375,1,0,0:0:0:0:
329,192,178641,1,0,0:0:0:0:
475,192,178641,1,0,0:0:0:0:
402,192,178641,1,0,0:0:0:0:
182,192,178641,1,0,0:0:0:0:
109,192,178641,1,0,0:0:0:0:
36,192,178641,1,0,0:0:0:0:
329,192,178819,1,0,0:0:0:0:
402,192,178819,1,0,0:0:0:0:
475,192,178819,1,0,0:0:0:0:
182,192,178819,1,0,0:0:0:0:
109,192,178819,1,0,0:0:0:0:
36,192,178819,1,0,0:0:0:0:
256,192,178996,1,0,0:0:0:0:
329,192,179174,1,0,0:0:0:0:
402,192,179351,1,0,0:0:0:0:
36,192,179618,1,0,0:0:0:0:
475,192,179884,1,0,0:0:0:0:
182,192,179884,1,0,0:0:0:0:
329,192,179884,1,0,0:0:0:0:
109,192,180150,1,0,0:0:0:0:
256,192,180150,1,0,0:0:0:0:
329,192,180416,1,0,0:0:0:0:
36,192,180416,1,0,0:0:0:0:
256,192,180416,1,0,0:0:0:0:
402,192,180683,1,0,0:0:0:0:
109,192,180683,1,0,0:0:0:0:
329,192,180683,1,0,0:0:0:0:
182,192,180949,1,0,0:0:0:0:
475,192,180949,1,0,0:0:0:0:
402,192,180949,1,0,0:0:0:0:
256,192,181215,1,0,0:0:0:0:
109,192,181215,1,0,0:0:0:0:
36,192,181215,1,0,0:0:0:0:
329,192,181482,1,0,0:0:0:0:
402,192,181570,1,0,0:0:0:0:
475,192,181659,1,0,0:0:0:0:
182,192,181718,1,0,0:0:0:0:
36,192,181777,1,0,0:0:0:0:
402,192,181925,1,0,0:0:0:0:
256,192,182014,1,0,0:0:0:0:
475,192,182192,1,0,0:0:0:0:
329,192,182192,1,0,0:0:0:0:
182,192,182458,1,0,0:0:0:0:
36,192,182458,1,0,0:0:0:0:
402,192,182724,1,0,0:0:0:0:
256,192,182724,1,0,0:0:0:0:
329,192,182990,1,0,0:0:0:0:
182,192,182990,1,0,0:0:0:0:
256,192,183257,1,0,0:0:0:0:
109,192,183257,1,0,0:0:0:0:
36,192,183257,1,0,0:0:0:0:
402,192,183523,1,0,0:0:0:0:
475,192,183523,1,0,0:0:0:0:
329,192,183789,1,0,0:0:0:0:
256,192,183789,1,0,0:0:0:0:
182,192,184056,1,0,0:0:0:0:
109,192,184056,1,0,0:0:0:0:
36,192,184322,128,0,184588:0:0:0:0:
256,192,184588,1,0,0:0:0:0:
329,192,184618,1,0,0:0:0:0:
402,192,184647,1,0,0:0:0:0:
475,192,184677,1,0,0:0:0:0:
182,192,184721,1,0,0:0:0:0:
36,192,184766,1,0,0:0:0:0:
256,192,184854,1,0,0:0:0:0:
402,192,184854,1,0,0:0:0:0:
329,192,185032,1,0,0:0:0:0:
475,192,185032,1,0,0:0:0:0:
109,192,185209,1,0,0:0:0:0:
256,192,185298,1,0,0:0:0:0:
402,192,185298,1,0,0:0:0:0:
36,192,185476,1,0,0:0:0:0:
182,192,185564,1,0,0:0:0:0:
329,192,185564,1,0,0:0:0:0:
256,192,185742,1,0,0:0:0:0:
402,192,185831,1,0,0:0:0:0:
475,192,185831,1,0,0:0:0:0:
182,192,186008,1,0,0:0:0:0:
36,192,186097,1,0,0:0:0:0:
329,192,186097,1,0,0:0:0:0:
256,192,186274,1,0,0:0:0:0:
402,192,186363,1,0,0:0:0:0:
475,192,186363,1,0,0:0:0:0:
329,192,186629,1,0,0:0:0:0:
182,192,186629,1,0,0:0:0:0:
256,192,186807,1,0,0:0:0:0:
109,192,186896,1,0,0:0:0:0:
36,192,186896,1,0,0:0:0:0:
329,192,187162,1,0,0:0:0:0:
256,192,187251,1,0,0:0:0:0:
182,192,187340,128,0,187517:0:0:0:0:
402,192,187517,1,0,0:0:0:0:
475,192,187517,1,0,0:0:0:0:
182,192,187695,1,0,0:0:0:0:
36,192,187695,1,0,0:0:0:0:
256,192,187783,1,0,0:0:0:0:
329,192,187872,1,0,0:0:0:0:
402,192,187872,1,0,0:0:0:0:
182,192,187961,1,0,0:0:0:0:
36,192,188050,1,0,0:0:0:0:
475,192,188050,1,0,0:0:0:0:
402,192,188227,1,0,0:0:0:0:
256,192,188316,1,0,0:0:0:0:
109,192,188316,1,0,0:0:0:0:
329,192,188493,1,0,0:0:0:0:
475,192,188582,1,0,0:0:0:0:
182,192,188582,1,0,0:0:0:0:
36,192,188760,1,0,0:0:0:0:
329,192,188760,1,0,0:0:0:0:
475,192,188937,1,0,0:0:0:0:
109,192,188937,1,0,0:0:0:0:
402,192,189026,1,0,0:0:0:0:
182,192,189026,1,0,0:0:0:0:
329,192,189115,1,0,0:0:0:0:
36,192,189115,1,0,0:0:0:0:
256,192,189203,5,0,0:0:0:0:
109,192,189203,1,0,0:0:0:0:
182,192,189292,1,0,0:0:0:0:
402,192,189292,1,0,0:0:0:0:
475,192,189381,1,0,0:0:0:0:
256,192,189381,1,0,0:0:0:0:
329,192,189470,1,0,0:0:0:0:
109,192,189470,1,0,0:0:0:0:
36,192,189558,1,0,0:0:0:0:
402,192,189558,1,0,0:0:0:0:
475,192,189647,1,0,0:0:0:0:
182,192,189647,1,0,0:0:0:0:
109,192,189736,1,0,0:0:0:0:
329,192,189736,1,0,0:0:0:0:
36,192,189825,1,0,0:0:0:0:
402,192,189825,1,0,0:0:0:0:
256,192,189913,1,0,0:0:0:0:
475,192,189913,1,0,0:0:0:0:
329,192,190002,1,0,0:0:0:0:
109,192,190002,1,0,0:0:0:0:
402,192,190091,1,0,0:0:0:0:
36,192,190091,1,0,0:0:0:0:
182,192,190180,1,0,0:0:0:0:
475,192,190180,1,0,0:0:0:0:
256,192,190269,1,0,0:0:0:0:
36,192,190269,1,0,0:0:0:0:
475,192,190357,128,0,196393:0:0:0:0:
109,192,190357,1,0,0:0:0:0:
329,192,190357,128,0,196393:0:0:0:0:
402,192,190357,128,0,196393:0:0:0:0:
36,192,192842,128,0,196393:0:0:0:0:
109,192,192887,128,0,196393:0:0:0:0:
182,192,192931,128,0,196393:0:0:0:0:
