osu file format v14

[General]
AudioFilename: audio.mp3
AudioLeadIn: 0
PreviewTime: 731
Countdown: 0
SampleSet: Soft
StackLeniency: 0.7
Mode: 0
LetterboxInBreaks: 0
WidescreenStoryboard: 1

[Editor]
DistanceSpacing: 1.2
BeatDivisor: 4
GridSize: 4
TimelineZoom: 4.299998

[Metadata]
Title:Moonlight Densetsu (TV Size)
TitleUnicode:ムーンライト伝説 (TV Size)
Artist:DALI
ArtistUnicode:DALI
Creator:intiaz
Version:Moonlight
Source:美少女戦士セーラームーン
Tags:misuzu takahashi 高橋 美鈴 mari nishimoto 西本麻里 manish heart moving legend sailor moon opening op anime animation television tv show series japanese bishoujo senshi jpop j-pop pop power aranel nyantiaz -doodle dooe riffy Bakari -Bakari-
BeatmapID:4200202
BeatmapSetID:2017400

[Difficulty]
HPDrainRate:5.5
CircleSize:4.2
OverallDifficulty:7.5
ApproachRate:9
SliderMultiplier:1.8
SliderTickRate:1

[Events]
//Background and Video events
Video,76,"wow.mp4"
0,0,"THANK YOU BLOXI.jpg",0,0
//Break Periods
//Storyboard Layer 0 (Background)
//Storyboard Layer 1 (Fail)
//Storyboard Layer 2 (Pass)
//Storyboard Layer 3 (Foreground)
//Storyboard Layer 4 (Overlay)
//Storyboard Sound Samples

[TimingPoints]
1268,429.27666881305,4,2,0,50,1,0
4702,-90.9090909090909,4,2,0,60,0,0
17151,-133.333333333333,4,2,0,40,0,0
18439,-111.111111111111,4,2,0,50,0,0
30673,-100,4,2,0,60,0,0
32175,-111.111111111111,4,2,0,60,0,0
45912,-90.9090909090909,4,2,0,70,0,0
59649,-111.111111111111,4,2,0,50,0,0
66518,-105.263157894737,4,2,0,60,0,0
69952,-90.9090909090909,4,2,0,60,0,0
78967,429.27666881305,4,2,0,50,1,0
78967,-100,4,2,0,50,0,0

[Colours]
Combo1 : 255,164,209
Combo2 : 255,255,170
Combo3 : 157,157,255
Combo4 : 255,89,89

[HitObjects]
63,125,1268,5,6,1:2:0:0:
195,200,1482,1,2,0:2:0:0:
297,28,1697,1,8,0:3:0:0:
295,59,1804,1,8,0:3:0:0:
293,90,1911,1,8,0:3:0:0:
292,122,2019,1,8,0:3:0:0:
290,153,2126,1,8,0:3:0:0:
300,169,2555,5,6,1:2:0:0:
161,78,2770,1,2,0:2:0:0:
364,111,2985,1,6,1:2:0:0:
166,193,3199,1,2,0:2:0:0:
277,0,3414,1,6,1:2:0:0:
388,214,3629,1,6,1:2:0:0:
402,233,4058,6,0,L|389:304,1,45,8|8,0:3|0:3,0:0:0:0:
362,369,4272,1,0,1:2:0:0:
335,332,4380,1,8,0:3:0:0:
298,307,4487,1,8,0:3:0:0:
254,298,4594,1,8,0:3:0:0:
210,304,4702,6,0,P|135:326|106:318,1,99.0000030212403,2|0,3:2|0:2,0:0:0:0:
7,233,5131,1,2,1:2:0:0:
126,124,5346,2,0,L|118:243,1,99.0000030212403,2|0,0:2|3:2,0:0:0:0:
9,102,5775,1,2,0:2:0:0:
202,34,5990,2,0,L|210:153,1,99.0000030212403,2|0,1:2|0:2,0:0:0:0:
298,307,6419,6,0,B|319:266|319:266|304:208,1,99.0000030212403,2|0,3:2|0:2,0:0:0:0:
279,104,6741,1,2,0:2:0:0:
287,66,6848,2,0,B|399:45|357:121|489:103,1,198.000006042481,2|0,1:2|3:2,0:0:0:0:
376,177,7492,1,2,0:2:0:0:
439,16,7707,1,2,1:2:0:0:
477,213,7921,1,2,0:2:0:0:
285,176,8136,6,0,P|298:125|348:92,1,99.0000030212403,2|0,3:2|0:2,0:0:0:0:
389,261,8565,1,2,1:2:0:0:
233,250,8780,2,0,P|182:237|149:187,1,99.0000030212403,2|0,0:2|3:2,0:0:0:0:
165,36,9209,1,2,0:2:0:0:
285,176,9424,1,2,1:2:0:0:
93,135,9638,1,2,0:2:0:0:
259,4,9853,6,0,L|251:123,1,99.0000030212403,2|0,3:2|0:2,0:0:0:0:
297,196,10175,1,2,0:2:0:0:
314,227,10282,2,0,L|322:346,1,99.0000030212403,2|0,1:2|0:2,0:0:0:0:
412,226,10712,1,0,3:2:0:0:
231,271,10926,1,0,0:2:0:0:
444,298,11141,1,4,1:2:0:0:
478,264,11248,1,8,0:3:0:0:
487,216,11356,1,8,0:3:0:0:
466,172,11463,1,8,0:3:0:0:
423,149,11570,5,2,3:2:0:0:
284,218,11785,1,2,0:2:0:0:
409,44,11999,1,0,1:2:0:0:
329,141,12214,1,2,0:2:0:0:
213,4,12429,1,2,3:2:0:0:
240,141,12643,1,2,0:2:0:0:
77,79,12858,1,0,1:2:0:0:
219,159,13073,1,2,0:2:0:0:
8,192,13287,5,2,1:2:0:0:
214,285,13502,1,0,3:2:0:0:
192,61,13717,1,2,1:2:0:0:
160,89,14360,5,2,0:2:0:0:
217,171,14575,1,2,0:2:0:0:
134,228,14790,1,2,0:2:0:0:
302,195,15004,5,6,1:2:0:0:
69,148,15219,1,2,0:2:0:0:
281,110,15434,5,6,1:2:0:0:
149,261,15648,1,0,3:2:0:0:
171,58,15863,5,6,1:2:0:0:
355,137,16078,1,6,1:2:0:0:
255,300,16292,1,0,1:2:0:0:
75,222,16507,1,6,1:2:0:0:
56,192,17151,6,0,L|68:354,1,135.000005149842,2|0,3:2|0:2,0:0:0:0:
241,328,17795,5,2,0:2:0:0:
321,263,18009,1,6,1:2:0:0:
264,181,18224,1,2,0:2:0:0:
160,67,18439,6,0,B|253:46|225:101|321:85,1,161.999995056153,2|2,3:2|1:2,0:0:0:0:
417,16,19082,2,0,P|437:60|435:105,1,80.9999975280763,2|0,0:2|3:2,0:0:0:0:
369,167,19512,1,2,0:2:0:0:
240,103,19726,2,0,P|242:62|260:26,1,80.9999975280763,2|2,1:2|0:2,0:0:0:0:
369,150,20156,5,2,3:2:0:0:
240,216,20370,2,0,L|194:206,2,40.4999987640381,0|0|2,0:2|0:2|1:2,0:0:0:0:
339,350,20800,1,8,0:3:0:0:
346,322,20907,1,8,0:3:0:0:
349,294,21014,1,8,3:3:0:0:
304,170,21229,5,2,0:2:0:0:
371,40,21444,1,2,1:2:0:0:
458,133,21658,1,2,0:2:0:0:
274,93,21873,6,0,P|231:132|254:234,1,161.999995056153,2|2,3:2|1:2,0:0:0:0:
196,350,22517,2,0,L|112:336,1,80.9999975280763,2|0,0:2|3:2,0:0:0:0:
25,275,22946,1,2,0:2:0:0:
82,156,23161,2,0,B|122:151|122:151|161:169,1,80.9999975280763,2|0,1:2|0:2,0:0:0:0:
266,299,23590,6,0,B|306:304|306:304|345:285,1,80.9999975280763,2|0,3:2|0:2,0:0:0:0:
436,199,24019,1,2,1:2:0:0:
433,61,24234,1,8,0:3:0:0:
405,54,24341,1,8,0:3:0:0:
377,51,24448,1,8,3:3:0:0:
261,88,24663,5,2,0:2:0:0:
172,190,24878,1,2,1:2:0:0:
124,49,25092,1,2,0:2:0:0:
35,183,25307,6,0,B|4:269|66:253|23:375,1,161.999995056153,2|2,3:2|1:2,0:0:0:0:
166,351,25951,2,0,P|179:303|171:262,1,80.9999975280763,2|0,0:2|3:2,0:0:0:0:
103,224,26380,1,2,0:2:0:0:
175,108,26595,2,0,P|162:60|170:19,1,80.9999975280763,2|2,1:2|0:2,0:0:0:0:
342,8,27024,5,2,3:2:0:0:
313,140,27239,2,0,L|322:182,2,40.4999987640381,0|0|2,0:2|0:2|1:2,0:0:0:0:
466,63,27668,1,8,0:3:0:0:
470,38,27775,1,8,0:3:0:0:
475,14,27883,1,8,3:3:0:0:
502,134,28097,5,2,0:2:0:0:
447,214,28312,1,2,1:2:0:0:
319,199,28527,1,2,0:2:0:0:
258,43,28741,6,0,L|224:212,1,161.999995056153,2|2,3:2|1:2,0:0:0:0:
186,328,29385,1,2,0:2:0:0:
275,281,29600,1,2,3:2:0:0:
136,259,29814,2,0,P|104:305|103:338,1,80.9999975280763,2|0,0:2|1:2,0:0:0:0:
265,288,30244,5,2,0:2:0:0:
192,195,30458,1,0,3:2:0:0:
283,73,30673,1,2,0:2:0:0:
119,102,30888,1,0,1:2:0:0:
304,177,31102,1,8,3:3:0:0:
304,177,31210,1,8,0:3:0:0:
304,177,31317,5,8,0:3:0:0:
341,201,31424,1,8,0:3:0:0:
385,204,31532,1,8,3:3:0:0:
424,184,31639,1,8,0:3:0:0:
448,146,31746,2,0,L|435:71,1,45,0|8,1:2|0:3,0:0:0:0:
437,262,31961,2,0,L|450:337,1,45,8|8,0:3|0:3,0:0:0:0:
294,353,32175,6,0,B|234:378|171:345|171:345|194:303,1,161.999995056153,2|2,3:2|1:2,0:0:0:0:
241,162,32819,2,0,B|292:201|295:272|295:272|247:273,1,161.999995056153,2|2,0:2|0:2,0:0:0:0:
189,230,33463,2,0,P|151:198|145:150,1,80.9999975280763,2|0,1:2|0:2,0:0:0:0:
139,18,33893,6,0,P|177:50|183:98,1,80.9999975280763,2|0,3:2|0:2,0:0:0:0:
85,87,34322,1,2,1:2:0:0:
251,143,34536,1,8,0:3:0:0:
279,136,34644,1,8,0:3:0:0:
307,133,34751,1,8,0:3:0:0:
409,48,34966,5,2,0:2:0:0:
367,207,35180,1,2,1:2:0:0:
480,136,35395,1,2,0:2:0:0:
335,14,35610,6,0,B|323:56|323:56|338:87|347:107,1,80.9999975280763,2|0,3:2|0:2,0:0:0:0:
379,220,36039,1,2,1:2:0:0:
270,206,36254,1,2,0:2:0:0:
398,300,36468,1,2,3:2:0:0:
265,325,36683,2,0,L|153:309,1,80.9999975280763,2|0,0:2|1:2,0:0:0:0:
39,242,37112,6,0,P|68:183|162:216,1,161.999995056153,2|0,0:2|0:2,0:0:0:0:
115,283,37756,1,2,1:2:0:0:
13,125,37971,1,8,0:3:0:0:
9,100,38078,1,8,0:3:0:0:
4,76,38185,1,8,0:3:0:0:
164,52,38400,5,2,0:2:0:0:
21,0,38615,1,2,1:2:0:0:
116,134,38829,1,2,0:2:0:0:
253,11,39044,6,0,B|232:117|232:117|237:190,1,161.999995056153,6|2,3:2|1:2,0:0:0:0:
355,259,39688,2,0,P|362:197|360:161,1,80.9999975280763,2|0,0:2|3:2,0:0:0:0:
235,182,40117,1,2,0:2:0:0:
174,251,40332,2,0,P|167:313|169:349,1,80.9999975280763,2|2,1:2|0:2,0:0:0:0:
315,373,40761,6,0,L|420:368,1,80.9999975280763,2|0,3:2|0:2,0:0:0:0:
335,251,41190,1,2,1:2:0:0:
491,228,41405,1,8,0:3:0:0:
491,199,41512,1,8,0:3:0:0:
488,171,41620,1,8,0:3:0:0:
322,142,41834,5,2,0:2:0:0:
467,94,42049,1,2,1:2:0:0:
264,48,42263,1,2,0:2:0:0:
463,23,42478,6,0,L|448:109,1,80.9999975280763,2|0,1:2|0:2,0:0:0:0:
334,205,42907,2,0,B|317:171|317:171|334:128,1,80.9999975280763,2|0,1:2|0:2,0:0:0:0:
479,229,43337,1,2,1:2:0:0:
390,318,43552,1,2,1:2:0:0:
244,189,43767,1,0,1:2:0:0:
209,369,43981,5,6,1:2:0:0:
197,347,44409,1,8,0:3:0:0:
327,359,44624,1,8,3:3:0:0:
153,279,44839,1,8,0:3:0:0:
346,254,45053,5,0,1:2:0:0:
384,243,45161,1,8,0:3:0:0:
410,213,45268,1,8,0:3:0:0:
413,173,45375,1,8,0:3:0:0:
393,138,45483,1,8,3:3:0:0:
369,124,45590,1,8,0:3:0:0:
353,101,45697,1,8,0:3:0:0:
349,73,45805,1,8,0:3:0:0:
357,46,45912,6,0,L|222:54,1,99.0000030212403,6|0,3:2|0:2,0:0:0:0:
191,21,46235,1,0,0:2:0:0:
171,7,46342,1,0,1:2:0:0:
56,14,46557,1,0,0:2:0:0:
33,18,46664,1,0,0:2:0:0:
13,24,46772,6,0,P|-3:78|5:138,1,99.0000030212403,0|0,3:2|0:2,0:0:0:0:
80,248,47201,1,2,1:2:0:0:
237,166,47415,2,0,L|243:106,1,49.5000015106202,2|0,0:2|0:2,0:0:0:0:
228,246,47630,6,0,P|288:238|355:235,1,99.0000030212403,0|0,3:2|0:2,0:0:0:0:
467,128,48059,2,0,B|414:136|414:136|368:117,1,99.0000030212403,2|0,1:2|0:2,0:0:0:0:
309,90,48381,1,0,0:2:0:0:
315,67,48489,1,2,3:2:0:0:
410,249,48703,1,2,0:2:0:0:
227,159,48918,1,0,1:2:0:0:
277,340,49133,2,0,P|355:329|372:329,1,49.5000015106202,0|0,0:2|0:2,0:0:0:0:
197,310,49347,6,0,P|119:299|83:295,1,99.0000030212403,2|0,3:2|0:2,0:0:0:0:
40,252,49669,1,0,0:2:0:0:
31,230,49776,1,0,1:2:0:0:
141,88,49991,2,0,P|154:152|154:167,1,49.5000015106202,2|0,0:2|0:2,0:0:0:0:
56,75,50206,1,2,3:2:0:0:
201,20,50420,1,2,0:2:0:0:
9,12,50635,1,0,1:2:0:0:
13,41,50742,1,0,0:2:0:0:
17,70,50850,1,2,0:2:0:0:
150,215,51064,5,0,3:2:0:0:
279,92,51279,1,0,0:2:0:0:
274,121,51386,1,0,0:2:0:0:
270,150,51494,1,0,1:2:0:0:
271,323,51708,2,0,P|275:298|282:275,1,49.5000015106202,8|8,0:3|0:3,0:0:0:0:
445,179,51923,5,8,0:3:0:0:
415,183,52030,1,8,0:3:0:0:
386,187,52137,1,8,0:3:0:0:
356,191,52245,1,8,0:3:0:0:
326,197,52352,1,6,1:2:0:0:
281,190,52459,1,8,0:3:0:0:
237,183,52567,1,8,0:3:0:0:
193,176,52674,1,8,0:3:0:0:
149,170,52781,6,0,L|128:45,1,99.0000030212403,2|0,3:2|0:2,0:0:0:0:
159,8,53103,1,0,0:2:0:0:
182,0,53211,1,0,1:2:0:0:
300,96,53425,1,0,0:2:0:0:
323,104,53533,1,0,0:2:0:0:
349,114,53640,6,0,P|409:122|434:81,1,99.0000030212403,0|0,3:2|0:2,0:0:0:0:
368,229,54069,1,2,1:2:0:0:
280,67,54284,1,2,0:2:0:0:
204,266,54498,5,0,3:2:0:0:
367,339,54712,2,0,L|374:298,3,33.0000010070801,8|8|8|0,0:3|0:3|0:3|1:2,0:0:0:0:
182,273,55142,1,2,0:2:0:0:
368,145,55357,6,0,P|307:119|300:119,1,49.5000015106202,8|0,0:3|0:2,0:0:0:0:
159,118,55678,2,0,P|167:184|170:190,1,49.5000015106202,8|0,0:3|0:2,0:0:0:0:
240,312,56000,2,0,P|293:272|297:266,1,49.5000015106202,8|0,0:3|0:2,0:0:0:0:
244,204,56216,5,4,3:2:0:0:
56,228,56430,1,0,0:2:0:0:
34,24,56645,2,0,P|80:82|84:127,1,99.0000030212403,0|0,1:2|0:2,0:0:0:0:
72,311,57074,5,4,3:2:0:0:
160,167,57289,1,0,0:2:0:0:
292,360,57503,1,0,1:2:0:0:
337,357,57611,1,8,0:3:0:0:
381,354,57718,1,8,0:3:0:0:
426,351,57825,1,8,0:3:0:0:
470,347,57933,5,4,3:2:0:0:
325,121,58147,1,0,3:2:0:0:
232,296,58362,1,4,1:2:0:0:
452,108,58577,1,4,1:2:0:0:
470,130,59221,1,4,1:2:0:0:
488,152,59650,6,0,L|309:123,1,161.999995056153,2|2,3:2|1:2,0:0:0:0:
266,31,60294,2,0,P|239:57|217:102,1,80.9999975280763,2|0,0:2|3:2,0:0:0:0:
223,199,60722,1,2,0:2:0:0:
132,152,60938,2,0,P|113:116|84:87,1,80.9999975280763,2|2,1:2|0:2,0:0:0:0:
25,234,61367,5,2,3:2:0:0:
157,239,61582,2,0,L|153:284,2,40.4999987640381,0|0|2,0:2|0:2|1:2,0:0:0:0:
292,131,62011,1,8,0:3:0:0:
299,159,62118,1,8,0:3:0:0:
302,187,62225,1,8,0:3:0:0:
265,334,62440,5,2,0:2:0:0:
363,264,62655,1,2,1:2:0:0:
498,330,62869,1,2,0:2:0:0:
337,384,63084,6,0,P|347:302|375:215,1,161.999995056153,2|2,3:2|1:2,0:0:0:0:
468,132,63728,1,2,0:2:0:0:
338,95,63942,1,2,3:2:0:0:
485,135,64157,2,0,L|495:45,1,80.9999975280763,2|0,0:2|1:2,0:0:0:0:
283,38,64586,6,0,B|247:70|247:70|268:112|287:191,1,161.999995056153,2|0,0:2|0:2,0:0:0:0:
220,308,65230,1,2,1:2:0:0:
106,217,65445,1,8,0:3:0:0:
109,189,65552,1,8,0:3:0:0:
116,161,65660,1,8,0:3:0:0:
89,303,65874,5,2,0:2:0:0:
31,153,66089,1,2,1:2:0:0:
189,177,66303,1,2,0:2:0:0:
14,269,66518,6,0,P|16:178|37:102,1,170.999995433807,6|2,3:2|1:2,0:0:0:0:
195,34,67162,2,0,P|125:25|79:24,1,85.4999977169037,2|0,0:2|3:2,0:0:0:0:
257,99,67591,1,2,0:2:0:0:
154,103,67806,1,2,1:2:0:0:
51,107,68020,1,2,0:2:0:0:
209,191,68235,6,0,P|279:182|325:181,1,85.4999977169037,2|0,3:2|0:2,0:0:0:0:
405,85,68665,1,2,1:2:0:0:
368,256,68879,1,8,0:3:0:0:
340,259,68987,1,8,0:3:0:0:
312,266,69094,1,8,0:3:0:0:
459,166,69309,5,2,0:2:0:0:
398,347,69523,1,2,1:2:0:0:
312,175,69737,1,2,0:2:0:0:
512,266,69952,6,0,P|428:257|379:259,1,99.0000030212403,6|0,1:2|0:2,0:0:0:0:
200,164,70382,2,0,P|284:155|333:157,1,99.0000030212403,6|0,1:2|0:2,0:0:0:0:
174,293,70811,1,6,1:2:0:0:
123,69,71026,1,6,1:2:0:0:
129,40,71455,6,0,L|114:241,1,198.000006042481,6|8,3:2|0:3,0:0:0:0:
211,370,72099,5,0,1:2:0:0:
35,313,72313,2,0,P|29:252|25:232,1,49.5000015106202,8|8,0:3|0:3,0:0:0:0:
37,100,72528,5,8,0:3:0:0:
69,75,72635,1,8,0:3:0:0:
109,69,72743,1,8,0:3:0:0:
147,84,72850,1,8,0:3:0:0:
177,108,72957,1,2,1:2:0:0:
211,135,73065,1,8,0:3:0:0:
255,142,73172,1,8,0:3:0:0:
297,130,73279,1,8,0:3:0:0:
328,98,73387,6,0,L|314:-6,1,99.0000030212403,6|0,1:2|0:2,0:0:0:0:
481,122,73816,2,0,L|467:220,1,99.0000030212403,6|0,1:2|0:2,0:0:0:0:
266,302,74245,1,6,1:2:0:0:
463,340,74460,1,6,1:2:0:0:
489,319,74889,6,0,B|416:312|416:312|367:340|367:340|279:330,1,198.000006042481,6|8,3:2|0:3,0:0:0:0:
183,175,75533,1,0,1:2:0:0:
169,370,75748,1,8,0:3:0:0:
344,241,75962,5,0,1:2:0:0:
370,211,76070,1,8,0:3:0:0:
379,172,76177,1,8,0:3:0:0:
366,135,76284,1,8,0:3:0:0:
346,103,76391,1,2,1:2:0:0:
375,63,76498,1,8,0:3:0:0:
421,48,76605,1,8,0:3:0:0:
467,62,76712,1,8,0:3:0:0:
497,100,76820,5,2,3:2:0:0:
497,100,77679,1,2,0:2:0:0:
297,40,77894,5,2,1:2:0:0:
83,76,78109,1,0,1:2:0:0:
222,244,78323,1,2,1:2:0:0:
0,192,78967,5,4,3:2:0:0:
256,192,79075,12,8,80684,0:3:0:0:
