osu file format v14

[General]
AudioFilename: audio.mp3
AudioLeadIn: 0
PreviewTime: 731
Countdown: 0
SampleSet: Soft
StackLeniency: 0.7
Mode: 0
LetterboxInBreaks: 0
WidescreenStoryboard: 1

[Editor]
DistanceSpacing: 1.2
BeatDivisor: 4
GridSize: 4
TimelineZoom: 4

[Metadata]
Title:Moonlight Densetsu (TV Size)
TitleUnicode:ムーンライト伝説 (TV Size)
Artist:DALI
ArtistUnicode:DALI
Creator:intiaz
Version:Hard
Source:美少女戦士セーラームーン
Tags:misuzu takahashi 高橋 美鈴 mari nishimoto 西本麻里 manish heart moving legend sailor moon opening op anime animation television tv show series japanese bishoujo senshi jpop j-pop pop power aranel nyantiaz -doodle dooe riffy Bakari -Bakari-
BeatmapID:4200201
BeatmapSetID:2017400

[Difficulty]
HPDrainRate:4.5
CircleSize:3.8
OverallDifficulty:6
ApproachRate:7.5
SliderMultiplier:1.5
SliderTickRate:1

[Events]
//Background and Video events
Video,76,"wow.mp4"
0,0,"THANK YOU BLOXI.jpg",0,0
//Break Periods
//Storyboard Layer 0 (Background)
//Storyboard Layer 1 (Fail)
//Storyboard Layer 2 (Pass)
//Storyboard Layer 3 (Foreground)
//Storyboard Layer 4 (Overlay)
//Storyboard Sound Samples

[TimingPoints]
1268,429.27666881305,4,2,0,50,1,0
4702,-95.2380952380952,4,2,0,60,0,0
17151,-111.111111111111,4,2,0,40,0,0
18439,-105.263157894737,4,2,0,50,0,0
30673,-100,4,2,0,60,0,0
32175,-105.263157894737,4,2,0,60,0,0
45912,-90.9090909090909,4,2,0,70,0,0
59649,-105.263157894737,4,2,0,50,0,0
66518,-105.263157894737,4,2,0,60,0,0
69952,-90.9090909090909,4,2,0,60,0,0
78967,429.27666881305,4,2,0,50,1,0
78967,-100,4,2,0,50,0,0

[Colours]
Combo1 : 255,164,209
Combo2 : 255,255,170
Combo3 : 157,157,255
Combo4 : 255,89,89

[HitObjects]
44,90,1268,6,0,L|129:83,1,75,6|2,1:2|0:2,0:0:0:0:
193,133,1697,2,0,P|194:173|192:196,4,37.5,8|8|8|8|8,0:3|0:3|0:3|0:3|0:3,0:0:0:0:
352,48,2555,6,0,P|373:91|368:139,1,75,6|2,1:2|0:2,0:0:0:0:
459,143,2985,2,0,P|434:185|392:207,1,75,6|2,1:2|0:2,0:0:0:0:
460,277,3414,2,0,P|412:289|367:275,1,75,6|6,1:2|1:2,0:0:0:0:
218,257,4058,1,8,0:3:0:0:
218,257,4165,1,8,0:3:0:0:
218,257,4272,2,0,L|148:260,3,37.5,0|8|8|8,1:2|0:3|0:3|0:3,0:0:0:0:
136,275,4702,6,0,L|126:104,1,157.499995193482,2|2,3:2|1:2,0:0:0:0:
61,48,5346,2,0,P|105:24|149:30,1,78.7499975967408,2|0,0:2|3:2,0:0:0:0:
209,74,5775,1,2,0:2:0:0:
285,123,5990,2,0,P|323:120|356:99,1,78.7499975967408,2|0,1:2|0:2,0:0:0:0:
468,29,6419,6,0,L|461:111,1,78.7499975967408,2|0,3:2|0:2,0:0:0:0:
436,148,6741,1,0,0:2:0:0:
436,148,6848,2,0,B|464:221|428:234|450:304,1,157.499995193482,2|0,1:2|3:2,0:0:0:0:
379,366,7492,1,2,0:2:0:0:
284,364,7707,1,2,1:2:0:0:
257,273,7921,1,2,0:2:0:0:
334,161,8136,6,0,B|261:189|248:153|178:175,1,157.499995193482,2|2,3:2|1:2,0:0:0:0:
100,228,8780,2,0,B|78:195|78:195|92:131,1,78.7499975967408,2|0,0:2|3:2,0:0:0:0:
146,83,9209,1,2,0:2:0:0:
72,23,9424,2,0,B|39:45|39:45|-24:32,1,78.7499975967408,2|2,1:2|0:2,0:0:0:0:
0,168,9853,5,2,3:2:0:0:
9,270,10068,1,0,0:2:0:0:
9,270,10175,1,0,0:2:0:0:
9,270,10282,2,0,P|85:301|158:265,1,157.499995193482,2|0,1:2|3:2,0:0:0:0:
232,224,10926,1,0,0:2:0:0:
278,307,11141,1,4,1:2:0:0:
302,294,11248,1,8,0:3:0:0:
328,287,11356,2,0,L|374:291,1,39.3749987983704,8|8,0:3|0:3,0:0:0:0:
409,269,11570,6,0,P|466:271|502:172,1,157.499995193482,2|2,3:2|1:2,0:0:0:0:
476,103,12214,1,2,0:2:0:0:
400,158,12429,2,0,P|343:165|306:149,1,78.7499975967408,2|2,3:2|0:2,0:0:0:0:
228,162,12858,1,0,1:2:0:0:
272,77,13073,1,2,0:2:0:0:
131,130,13287,6,0,L|147:238,1,78.7499975967408,2|0,1:2|3:2,0:0:0:0:
52,178,13717,1,2,1:2:0:0:
319,271,14360,2,0,L|303:379,1,78.7499975967408,2|2,0:2|0:2,0:0:0:0:
398,319,14790,1,2,0:2:0:0:
339,190,15004,6,0,P|293:191|258:213,1,78.7499975967408,6|0,1:2|3:2,0:0:0:0:
179,165,15434,2,0,P|178:119|156:84,1,78.7499975967408,6|0,1:2|3:2,0:0:0:0:
213,10,15863,1,6,1:2:0:0:
284,71,16078,1,6,1:2:0:0:
353,6,16292,1,0,1:2:0:0:
468,87,16507,5,6,1:2:0:0:
434,309,17151,2,0,P|356:288|277:303,1,134.999995880127,2|0,3:2|0:2,0:0:0:0:
263,365,17795,1,2,0:2:0:0:
221,294,18009,1,6,1:2:0:0:
263,223,18224,1,2,0:2:0:0:
346,153,18439,6,0,P|373:91|326:12,1,142.49999619484,2|2,3:2|1:2,0:0:0:0:
261,44,19082,2,0,B|210:62|210:62|117:37,1,142.49999619484,2|2,0:2|0:2,0:0:0:0:
76,110,19726,2,0,L|151:132,1,71.2499980974198,2|2,1:2|0:2,0:0:0:0:
133,214,20156,5,2,3:2:0:0:
49,194,20370,2,0,L|11:182,2,35.6249990487099,0|0|2,0:2|0:2|1:2,0:0:0:0:
74,277,20800,1,8,0:3:0:0:
74,277,20907,1,8,0:3:0:0:
74,277,21014,2,0,L|61:361,1,71.2499980974198,8|2,3:3|0:2,0:0:0:0:
147,370,21444,1,2,1:2:0:0:
221,328,21658,1,2,0:2:0:0:
221,328,21873,6,0,P|231:279|173:204,1,142.49999619484,2|2,3:2|1:2,0:0:0:0:
166,122,22517,2,0,B|224:140|224:140|308:111,1,142.49999619484,2|2,0:2|0:2,0:0:0:0:
387,108,23161,2,0,P|372:66|337:37,1,71.2499980974198,2|0,1:2|0:2,0:0:0:0:
301,113,23590,6,0,P|316:155|351:184,1,71.2499980974198,2|0,3:2|0:2,0:0:0:0:
418,186,24019,1,2,1:2:0:0:
484,134,24234,1,8,0:3:0:0:
484,134,24341,1,8,0:3:0:0:
484,134,24448,2,0,P|506:171|505:217,1,71.2499980974198,8|2,3:3|0:2,0:0:0:0:
452,270,24878,1,2,1:2:0:0:
444,363,25092,1,2,0:2:0:0:
444,363,25307,6,0,B|352:365|352:365|320:331|323:308,1,142.49999619484,2|2,3:2|1:2,0:0:0:0:
242,347,25951,2,0,P|240:304|336:239,1,142.49999619484,2|2,0:2|0:2,0:0:0:0:
377,190,26595,2,0,L|372:96,1,71.2499980974198,2|2,1:2|0:2,0:0:0:0:
296,81,27024,6,0,L|301:-13,1,71.2499980974198,2|0,3:2|0:2,0:0:0:0:
218,36,27453,1,2,1:2:0:0:
136,11,27668,1,8,0:3:0:0:
136,11,27775,1,8,0:3:0:0:
136,11,27883,2,0,L|139:82,1,71.2499980974198,8|2,3:3|0:2,0:0:0:0:
96,156,28312,1,2,1:2:0:0:
168,201,28527,1,2,0:2:0:0:
168,201,28741,6,0,L|1:185,1,142.49999619484,2|2,3:2|1:2,0:0:0:0:
5,104,29385,1,2,0:2:0:0:
37,24,29600,1,2,3:2:0:0:
37,24,29814,2,0,L|178:37,1,142.49999619484,2|2,0:2|0:2,0:0:0:0:
249,85,30458,5,0,3:2:0:0:
331,49,30673,2,0,L|416:45,1,75,2|0,0:2|1:2,0:0:0:0:
472,106,31102,1,8,3:3:0:0:
472,106,31210,1,8,0:3:0:0:
472,106,31317,2,0,L|482:171,3,37.5,8|8|8|8,0:3|0:3|3:3|0:3,0:0:0:0:
460,184,31746,2,0,P|418:191|401:189,1,37.5,0|8,1:2|0:3,0:0:0:0:
384,169,31961,2,0,P|365:170|347:176,1,37.5,8|8,0:3|0:3,0:0:0:0:
306,188,32175,6,0,L|285:91,1,71.2499980974198,2|0,3:2|0:0,0:0:0:0:
221,68,32605,1,2,1:2:0:0:
175,140,32819,2,0,L|207:287,1,142.49999619484,2|2,0:2|0:2,0:0:0:0:
288,299,33463,2,0,L|272:368,1,71.2499980974198,2|0,1:2|0:2,0:0:0:0:
358,377,33893,6,0,L|373:307,1,71.2499980974198,2|0,3:2|0:2,0:0:0:0:
338,230,34322,1,2,1:2:0:0:
395,168,34536,1,8,0:3:0:0:
395,168,34644,1,8,0:3:0:0:
395,168,34751,2,0,P|441:168|471:143,1,71.2499980974198,8|2,0:3|0:2,0:0:0:0:
476,70,35180,1,2,1:2:0:0:
409,17,35395,1,2,0:2:0:0:
409,17,35610,6,0,B|368:53|368:53|259:41,1,142.49999619484,2|2,3:2|1:2,0:0:0:0:
195,30,36254,1,2,0:2:0:0:
109,16,36468,1,2,3:2:0:0:
109,16,36683,2,0,L|105:99,1,71.2499980974198,2|0,0:2|1:2,0:0:0:0:
169,143,37112,6,0,P|116:174|42:148,1,142.49999619484,2|0,0:2|0:2,0:0:0:0:
13,229,37756,1,2,1:2:0:0:
78,300,37971,1,8,0:3:0:0:
78,300,38078,1,8,0:3:0:0:
78,300,38185,2,0,B|116:307|116:307|171:295,1,71.2499980974198,8|2,0:3|0:2,0:0:0:0:
232,313,38615,1,2,1:2:0:0:
201,234,38829,1,2,0:2:0:0:
201,234,39044,6,0,L|209:77,1,142.49999619484,6|2,3:2|1:2,0:0:0:0:
275,40,39688,2,0,P|324:49|374:39,1,71.2499980974198,2|0,0:2|3:2,0:0:0:0:
416,95,40117,1,2,0:2:0:0:
371,167,40332,2,0,P|322:158|272:168,1,71.2499980974198,2|2,1:2|0:2,0:0:0:0:
233,213,40761,6,0,L|240:361,1,142.49999619484,2|2,3:2|1:2,0:0:0:0:
158,328,41405,1,8,0:3:0:0:
158,328,41512,1,8,0:3:0:0:
158,328,41620,1,8,0:3:0:0:
78,358,41834,1,2,0:2:0:0:
10,305,42049,2,0,B|3:271|3:271|17:227,1,71.2499980974198,2|2,1:2|0:2,0:0:0:0:
85,188,42478,6,0,B|92:154|92:154|78:110,1,71.2499980974198,2|0,1:2|0:2,0:0:0:0:
27,51,42907,2,0,L|116:36,1,71.2499980974198,2|0,1:2|0:2,0:0:0:0:
171,1,43337,1,2,1:2:0:0:
171,1,43552,1,2,1:2:0:0:
235,57,43767,1,0,1:2:0:0:
299,1,43981,1,6,1:2:0:0:
464,37,44409,2,0,L|471:131,1,71.2499980974198,8|8,0:3|3:3,0:0:0:0:
399,157,44839,1,8,0:3:0:0:
450,225,45053,1,0,1:2:0:0:
428,237,45161,1,8,0:3:0:0:
404,243,45268,1,8,0:3:0:0:
379,241,45375,1,8,0:3:0:0:
356,231,45483,2,0,L|312:195,3,35.6249990487099,8|8|8|8,3:3|0:3|0:3|0:3,0:0:0:0:
289,178,45912,6,0,P|200:141|122:188,1,165.000005035401,6|0,3:2|1:2,0:0:0:0:
95,257,46557,1,0,0:2:0:0:
95,257,46664,1,0,0:2:0:0:
95,257,46772,2,0,P|47:222|41:188,1,82.5000025177003,0|0,3:2|0:2,0:0:0:0:
51,103,47201,1,2,1:2:0:0:
164,37,47415,1,2,0:2:0:0:
164,37,47523,1,0,0:2:0:0:
164,37,47630,6,0,L|270:47,1,82.5000025177003,0|0,3:2|0:2,0:0:0:0:
311,119,48059,2,0,B|349:101|349:101|417:109,1,82.5000025177003,2|0,1:2|0:2,0:0:0:0:
491,88,48489,1,2,3:2:0:0:
454,184,48703,1,2,0:2:0:0:
484,278,48918,2,0,P|426:277|383:249,1,82.5000025177003,0|0,1:2|0:2,0:0:0:0:
324,163,49347,6,0,B|268:139|268:139|142:151,1,165.000005035401,2|0,3:2|1:2,0:0:0:0:
72,151,49991,1,2,0:2:0:0:
72,151,50098,1,0,0:2:0:0:
72,151,50206,1,2,3:2:0:0:
37,243,50420,1,2,0:2:0:0:
73,335,50635,2,0,L|75:381,2,41.2500012588501,0|0|2,1:2|0:2|0:2,0:0:0:0:
198,292,51064,6,0,P|213:246|204:200,1,82.5000025177003,0|0,3:2|0:2,0:0:0:0:
187,168,51386,1,0,0:2:0:0:
187,168,51494,1,0,1:2:0:0:
154,74,51708,2,0,L|202:69,1,41.2500012588501,8|8,0:3|0:3,0:0:0:0:
238,93,51922,1,8,0:3:0:0:
266,92,52029,1,8,0:3:0:0:
295,91,52137,1,8,0:3:0:0:
324,90,52244,1,8,0:3:0:0:
353,89,52351,2,0,L|401:84,3,41.2500012588501,6|8|8|8,1:2|0:3|0:3|0:3,0:0:0:0:
442,71,52781,6,0,B|428:131|428:131|436:180|436:180|422:241,1,165.000005035401,2|0,3:2|1:2,0:0:0:0:
331,194,53425,1,0,0:2:0:0:
331,194,53533,1,0,0:2:0:0:
331,194,53640,1,0,3:2:0:0:
262,265,53855,1,0,0:2:0:0:
172,221,54069,2,0,L|180:129,1,82.5000025177003,2|2,1:2|0:2,0:0:0:0:
108,27,54498,5,0,3:2:0:0:
29,87,54712,2,0,L|-7:90,3,27.5000008392334,8|8|8|0,0:3|0:3|0:3|1:2,0:3:0:0:
0,178,55142,1,2,0:2:0:0:
14,268,55357,2,0,P|75:264|62:331,2,123.75000377655,8|8|8,0:3|0:3|0:3,0:0:0:0:
108,174,56216,5,4,3:2:0:0:
205,187,56430,1,0,0:2:0:0:
187,90,56645,2,0,B|206:55|206:55|191:-23,1,82.5000025177003,0|0,1:2|0:2,0:0:0:0:
293,41,57074,1,4,3:2:0:0:
386,7,57289,1,0,0:2:0:0:
371,105,57503,1,0,1:2:0:0:
373,133,57611,1,8,0:3:0:0:
375,162,57718,1,8,0:3:0:0:
377,191,57825,1,8,0:3:0:0:
379,220,57933,5,4,3:2:0:0:
326,291,58147,1,0,3:2:0:0:
243,262,58362,1,4,1:2:0:0:
247,173,58577,1,4,1:2:0:0:
493,7,59221,1,4,1:2:0:0:
507,168,59650,6,0,P|522:236|484:296,1,142.49999619484,2|2,3:2|1:2,0:0:0:0:
398,337,60294,2,0,B|347:319|347:319|254:344,1,142.49999619484,2|2,0:2|0:2,0:0:0:0:
217,268,60938,2,0,L|292:246,1,71.2499980974198,2|2,1:2|0:2,0:0:0:0:
367,223,61367,5,2,3:2:0:0:
304,162,61582,2,0,L|292:124,2,35.6249990487099,0|0|2,0:2|0:2|1:2,0:0:0:0:
394,144,62011,1,8,0:3:0:0:
394,144,62118,1,8,0:3:0:0:
394,144,62225,2,0,P|400:103|381:60,1,71.2499980974198,8|2,0:3|0:2,0:0:0:0:
321,25,62655,1,2,1:2:0:0:
241,48,62869,1,2,0:2:0:0:
241,48,63084,6,0,L|248:214,1,142.49999619484,2|2,3:2|1:2,0:0:0:0:
188,252,63728,1,2,0:2:0:0:
196,341,63943,1,2,3:2:0:0:
196,341,64157,2,0,P|258:338|287:337,1,71.2499980974198,2|0,0:2|1:2,0:0:0:0:
350,358,64586,6,0,P|365:316|474:299,1,142.49999619484,2|0,0:2|0:2,0:0:0:0:
418,208,65230,1,2,1:2:0:0:
494,165,65445,1,8,0:3:0:0:
494,165,65552,1,8,0:3:0:0:
494,165,65660,2,0,P|502:122|486:79,1,71.2499980974198,8|2,0:3|0:2,0:0:0:0:
423,49,66089,1,2,1:2:0:0:
342,78,66304,1,2,0:2:0:0:
263,44,66518,6,0,B|204:27|204:27|93:43,1,142.49999619484,6|2,3:2|1:2,0:0:0:0:
41,14,67162,2,0,P|112:80|111:118,1,142.49999619484,2|2,0:2|0:2,0:0:0:0:
82,199,67806,2,0,P|37:191|-20:192,1,71.2499980974198,2|2,1:2|0:2,0:0:0:0:
5,275,68235,6,0,P|50:283|107:282,1,71.2499980974198,2|0,3:2|0:2,0:0:0:0:
153,246,68665,1,2,1:2:0:0:
224,309,68879,1,8,0:3:0:0:
224,309,68987,1,8,0:3:0:0:
224,309,69094,2,0,L|294:294,1,71.2499980974198,8|2,0:3|0:2,0:0:0:0:
348,226,69523,1,2,1:2:0:0:
317,146,69738,1,2,0:2:0:0:
234,55,69952,6,0,P|289:24|338:25,1,82.5000025177003,6|0,1:2|0:2,0:0:0:0:
385,82,70382,2,0,P|424:72|458:48,1,82.5000025177003,6|0,1:2|0:2,0:0:0:0:
498,138,70811,1,6,1:2:0:0:
467,232,71026,2,0,P|426:230|386:244,1,82.5000025177003,6|0,1:2|0:0,0:0:0:0:
293,147,71455,5,6,3:2:0:0:
203,323,71884,2,0,L|107:313,1,82.5000025177003,8|0,0:3|1:2,0:0:0:0:
38,260,72313,1,8,0:3:0:0:
38,260,72421,1,8,0:3:0:0:
38,260,72528,2,0,L|19:191,3,41.2500012588501,8|8|8|8,0:3|0:3|0:3|0:3,0:0:0:0:
68,194,72957,2,0,L|87:125,3,41.2500012588501,2|8|8|8,1:2|0:3|0:3|0:3,0:0:0:0:
50,112,73387,6,0,L|41:20,1,82.5000025177003,6|0,1:2|0:2,0:0:0:0:
140,16,73816,2,0,L|148:98,1,82.5000025177003,6|0,1:2|0:2,0:0:0:0:
162,196,74245,1,6,1:2:0:0:
239,134,74460,2,0,P|300:127|349:138,1,82.5000025177003,6|0,1:2|0:0,0:0:0:0:
402,232,74889,5,6,3:2:0:0:
483,52,75318,1,8,0:3:0:0:
393,93,75533,1,0,1:2:0:0:
336,15,75748,1,8,0:3:0:0:
263,84,75962,2,0,L|268:138,3,41.2500012588501,0|8|8|8,1:2|0:3|0:3|0:3,0:0:0:0:
288,167,76392,1,0,1:2:0:0:
285,195,76499,1,8,0:3:0:0:
282,224,76606,1,8,0:3:0:0:
279,253,76714,1,8,0:3:0:0:
276,281,76821,5,2,3:2:0:0:
62,66,77679,1,2,0:2:0:0:
160,56,77894,1,2,1:2:0:0:
170,154,78109,1,0,1:2:0:0:
72,164,78323,1,2,1:2:0:0:
332,90,78967,5,4,3:2:0:0:
256,192,79074,12,8,80684,0:3:0:0:
