osu file format v14

[General]
AudioFilename: audio.mp3
AudioLeadIn: 0
PreviewTime: 85266
Countdown: 0
SampleSet: Normal
StackLeniency: 0.7
Mode: 1
LetterboxInBreaks: 0
WidescreenStoryboard: 0

[Editor]
DistanceSpacing: 0.8
BeatDivisor: 4
GridSize: 32
TimelineZoom: 1.6

[Metadata]
Title:Kyokuron
TitleUnicode:極論
Artist:DAIHAKKEN
ArtistUnicode:工藤大発見
Creator:Jaltzu
Version:Inner Oni
Source:
Tags:japanese j-pop jpop pop electronic kudo kudou pinocchiop solo project ピノキオピー だいはっけん extremist Zhuosh davidminh0111 Hoshikuz [Karcher] 2
BeatmapID:2310614
BeatmapSetID:1105455

[Difficulty]
HPDrainRate:5
CircleSize:2
OverallDifficulty:6
ApproachRate:0
SliderMultiplier:1.4
SliderTickRate:1

[Events]
//Background and Video events
0,0,"kyokuron.jpg",0,30
//Break Periods
//Storyboard Layer 0 (Background)
//Storyboard Layer 1 (Fail)
//Storyboard Layer 2 (Pass)
//Storyboard Layer 3 (Foreground)
//Storyboard Layer 4 (Overlay)
//Storyboard Sound Samples

[TimingPoints]
1788,434.782608695652,4,1,0,50,1,0
1788,-125,4,1,0,50,0,0
8507,-104.166666666667,4,1,0,80,0,0
8635,-107.52688172043,4,1,0,80,0,0
8744,-111.111111111111,4,1,0,80,0,0
9158,-111.111111111111,4,1,0,60,0,0
10265,-104.166666666667,4,1,0,60,0,0
10374,-107.52688172043,4,1,0,60,0,0
10483,-111.111111111111,4,1,0,60,0,0
11984,-104.166666666667,4,1,0,80,0,0
12113,-107.52688172043,4,1,0,80,0,0
12222,-111.111111111111,4,1,0,80,0,0
12874,-104.166666666667,4,1,0,80,0,0
12983,-107.52688172043,4,1,0,80,0,0
13091,-111.111111111111,4,1,0,80,0,0
13743,-104.166666666667,4,1,0,80,0,0
13852,-107.52688172043,4,1,0,80,0,0
13961,-111.111111111111,4,1,0,80,0,0
15700,-100,4,1,0,80,0,0
15897,-100,4,1,0,60,0,0
16115,-100,4,1,0,80,0,0
16223,-100,4,1,0,60,0,0
16441,-100,4,1,0,80,0,0
16767,-100,4,1,0,60,0,0
16984,-100,4,1,0,80,0,0
17202,-100,4,1,0,60,0,0
17419,-100,4,1,0,80,0,0
17637,-100,4,1,0,60,0,0
17854,-100,4,1,0,80,0,0
17963,-100,4,1,0,60,0,0
18180,-100,4,1,0,80,0,0
19702,-100,4,1,0,60,0,0
19919,-100,4,1,0,80,0,0
20245,-100,4,1,0,60,0,0
20463,-100,4,1,0,80,0,0
20680,-100,4,1,0,60,0,0
20897,-100,4,1,0,80,0,0
21115,-100,4,1,0,60,0,0
21332,-100,4,1,0,80,0,0
21984,-100,4,1,0,60,0,0
22093,-100,4,1,0,80,0,0
23180,-100,4,1,0,60,0,0
23397,-100,4,1,0,80,0,0
23723,-100,4,1,0,60,0,0
23941,-100,4,1,0,80,0,0
24158,-100,4,1,0,60,0,0
24376,-100,4,1,0,80,0,0
24593,-100,4,1,0,60,0,0
24810,-100,4,1,0,80,0,0
24919,-100,4,1,0,60,0,0
25137,-100,4,1,0,80,0,0
26658,-100,4,1,0,60,0,0
26876,-100,4,1,0,80,0,0
27202,-100,4,1,0,60,0,0
27419,-100,4,1,0,80,0,0
27637,-100,4,1,0,60,0,0
30028,-100,4,1,0,80,0,0
32637,-92.5925925925926,4,1,0,85,0,0
32765,-94.3396226415094,4,1,0,85,0,0
32874,-96.1538461538461,4,1,0,85,0,0
32983,-98.0392156862745,4,1,0,85,0,0
33091,-100,4,1,0,80,0,0
36135,-92.5925925925926,4,1,0,85,0,0
36243,-94.3396226415094,4,1,0,85,0,0
36352,-96.1538461538461,4,1,0,85,0,0
36461,-98.0392156862745,4,1,0,85,0,0
36570,-100,4,1,0,80,0,0
39613,-92.5925925925926,4,1,0,85,0,0
39722,-94.3396226415094,4,1,0,85,0,0
39830,-96.1538461538461,4,1,0,85,0,0
39939,-98.0392156862745,4,1,0,85,0,0
40048,-100,4,1,0,80,0,0
42637,-98.0392156862745,4,1,0,60,0,0
42874,-96.1538461538461,4,1,0,60,0,0
42983,-95.2380952380952,4,1,0,60,0,0
43091,-94.3396226415094,4,1,0,60,0,0
43200,-93.4579439252336,4,1,0,60,0,0
43309,-92.5925925925926,4,1,0,60,0,0
43417,-91.743119266055,4,1,0,60,0,0
43472,-91.743119266055,4,1,0,85,0,0
43527,-90.9090909090909,4,1,0,85,0,1
57440,-90.9090909090909,4,1,0,80,0,0
57874,-100,4,1,0,80,0,0
72093,-100,4,1,0,60,0,0
72637,-100,4,1,0,80,0,0
72854,-100,4,1,0,60,0,0
73071,-100,4,1,0,80,0,0
73289,-100,4,1,0,60,0,0
73723,-100,4,1,0,80,0,0
73832,-100,4,1,0,60,0,0
74158,-100,4,1,0,80,0,0
75137,-100,4,1,0,60,0,0
75463,-100,4,1,0,80,0,0
75571,-100,4,1,0,60,0,0
76115,-100,4,1,0,80,0,0
76332,-100,4,1,0,60,0,0
76550,-100,4,1,0,80,0,0
76767,-100,4,1,0,60,0,0
77202,-100,4,1,0,80,0,0
77310,-100,4,1,0,60,0,0
77637,-100,4,1,0,80,0,0
78506,-100,4,1,0,60,0,0
78941,-100,4,1,0,80,0,0
79050,-100,4,1,0,60,0,0
79593,-100,4,1,0,80,0,0
79810,-100,4,1,0,60,0,0
80028,-100,4,1,0,80,0,0
80245,-100,4,1,0,60,0,0
80680,-100,4,1,0,80,0,0
80789,-100,4,1,0,60,0,0
81115,-100,4,1,0,80,0,0
85700,-100,4,1,0,80,0,0
88289,-92.5925925925926,4,1,0,85,0,0
88417,-94.3396226415094,4,1,0,85,0,0
88526,-96.1538461538461,4,1,0,85,0,0
88635,-98.0392156862745,4,1,0,85,0,0
88723,-100,4,1,0,80,0,0
91767,-92.5925925925926,4,1,0,85,0,0
91896,-94.3396226415094,4,1,0,85,0,0
92004,-96.1538461538461,4,1,0,85,0,0
92113,-98.0392156862745,4,1,0,85,0,0
92202,-100,4,1,0,80,0,0
95245,-92.5925925925926,4,1,0,85,0,0
95374,-94.3396226415094,4,1,0,85,0,0
95483,-96.1538461538461,4,1,0,85,0,0
95591,-98.0392156862745,4,1,0,85,0,0
95680,-100,4,1,0,80,0,0
98269,-98.0392156862745,4,1,0,60,0,0
98526,-96.1538461538461,4,1,0,60,0,0
98743,-94.3396226415094,4,1,0,60,0,0
98852,-93.4579439252336,4,1,0,60,0,0
98961,-92.5925925925926,4,1,0,60,0,0
99070,-91.743119266055,4,1,0,60,0,0
99124,-91.743119266055,4,1,0,85,0,0
99179,-90.9090909090909,4,1,0,85,0,1
113092,-90.9090909090909,4,1,0,80,0,0
113282,-95.2380952380952,4,1,0,80,0,0
113499,-100,4,1,0,80,0,0
113615,-100,4,1,0,60,0,0
113832,-100,4,1,0,80,0,0
114158,-100,4,1,0,60,0,0
114376,-100,4,1,0,80,0,0
114593,-100,4,1,0,60,0,0
114810,-100,4,1,0,80,0,0
114919,-100,4,1,0,60,0,0
115245,-100,4,1,0,80,0,0
115354,-100,4,1,0,60,0,0
115571,-100,4,1,0,80,0,0
115897,-100,4,1,0,60,0,0
116115,-100,4,1,0,80,0,0
116767,-100,4,1,0,60,0,0
116984,-100,4,1,0,80,0,0
117093,-100,4,1,0,60,0,0
117310,-100,4,1,0,80,0,0
117637,-100,4,1,0,60,0,0
117854,-100,4,1,0,80,0,0
118071,-100,4,1,0,60,0,0
118289,-100,4,1,0,80,0,0
118397,-100,4,1,0,60,0,0
118723,-100,4,1,0,80,0,0
118832,-100,4,1,0,60,0,0
119050,-100,4,1,0,80,0,0
119376,-100,4,1,0,60,0,0
119593,-100,4,1,0,80,0,0
120245,-100,4,1,0,60,0,0
120463,-100,4,1,0,80,0,0
120571,-100,4,1,0,60,0,0
120789,-100,4,1,0,80,0,0
121115,-100,4,1,0,60,0,0
121332,-100,4,1,0,80,0,0
121550,-100,4,1,0,60,0,0
121767,-100,4,1,0,80,0,0
121876,-100,4,1,0,60,0,0
122202,-100,4,1,0,80,0,0
122310,-100,4,1,0,60,0,0
122528,-100,4,1,0,80,0,0
122854,-100,4,1,0,60,0,0
123071,-100,4,1,0,80,0,0
123723,-100,4,1,0,60,0,0
123941,-100,4,1,0,80,0,0
124050,-100,4,1,0,60,0,0
124267,-100,4,1,0,80,0,0
124593,-100,4,1,0,60,0,0
124810,-100,4,1,0,80,0,0
140265,-96.1538461538461,4,1,0,80,0,0
140463,-94.3396226415094,4,1,0,70,0,0
140591,-93.4579439252336,4,1,0,70,0,0
140700,-92.5925925925926,4,1,0,70,0,0
140809,-91.743119266055,4,1,0,70,0,0
140863,-91.743119266055,4,1,0,85,0,0
140918,-90.9090909090909,4,1,0,85,0,1
153180,-90.7770515613653,4,1,0,85,0,1
153289,-90.6344684696279,4,1,0,85,0,1
153397,-90.3614185658378,4,1,0,85,0,1
153506,-90.0900900900901,4,1,0,85,0,1
153615,-89.8203861737683,4,1,0,85,0,1
153723,-89.5522120739665,4,1,0,85,0,1
153832,-89.2857142857143,4,1,0,85,0,1
153941,-89.0207979290202,4,1,0,85,0,1
154050,-88.7573701901272,4,1,0,85,0,1
154158,-88.495575221239,4,1,0,85,0,1
154267,-88.2353200692118,4,1,0,85,0,1
154376,-87.9765137898787,4,1,0,85,0,1
154484,-87.719298245614,4,1,0,85,0,1
154593,-87.4635823508986,4,1,0,85,0,1
154702,-87.2092769740474,4,1,0,85,0,1
154810,-86.9565217391304,4,1,0,85,0,1
162222,-90.9090909090909,4,1,0,85,0,1
168744,-90.9090909090909,4,1,0,80,0,0
169178,-100,4,1,0,80,0,0

[HitObjects]
256,192,2222,5,0,0:0:0:0:
256,192,2657,1,8,0:0:0:0:
256,192,2874,1,0,0:0:0:0:
256,192,3309,1,8,0:0:0:0:
256,192,3961,1,8,0:0:0:0:
256,192,4396,1,8,0:0:0:0:
256,192,4614,1,0,0:0:0:0:
256,192,5701,1,0,0:0:0:0:
256,192,6135,1,8,0:0:0:0:
256,192,6353,1,0,0:0:0:0:
256,192,6787,1,8,0:0:0:0:
256,192,7440,1,0,0:0:0:0:
256,192,7874,1,0,0:0:0:0:
256,192,8092,1,8,0:0:0:0:
256,192,8527,1,8,0:0:0:0:
256,192,8635,1,8,0:0:0:0:
256,192,8744,1,0,0:0:0:0:
256,192,9179,1,8,0:0:0:0:
256,192,10048,1,8,0:0:0:0:
256,192,10266,1,8,0:0:0:0:
256,192,10374,1,0,0:0:0:0:
256,192,10483,1,0,0:0:0:0:
256,192,10918,1,8,0:0:0:0:
256,192,11787,1,8,0:0:0:0:
256,192,12005,1,8,0:0:0:0:
256,192,12114,1,8,0:0:0:0:
256,192,12222,1,0,0:0:0:0:
256,192,12657,1,8,0:0:0:0:
256,192,12874,1,8,0:0:0:0:
256,192,12983,1,0,0:0:0:0:
256,192,13092,1,0,0:0:0:0:
256,192,13527,1,8,0:0:0:0:
256,192,13744,1,8,0:0:0:0:
256,192,13853,1,8,0:0:0:0:
256,192,13961,1,0,0:0:0:0:
256,192,14179,1,0,0:0:0:0:
256,192,14287,1,0,0:0:0:0:
256,192,14396,1,8,0:0:0:0:
256,192,14505,1,0,0:0:0:0:
256,192,14831,1,0,0:0:0:0:
256,192,15157,1,0,0:0:0:0:
256,192,15266,1,8,0:0:0:0:
256,192,15701,5,4,0:0:0:0:
256,192,15918,1,0,0:0:0:0:
256,192,16027,1,0,0:0:0:0:
256,192,16135,1,8,0:0:0:0:
256,192,16244,1,0,0:0:0:0:
256,192,16461,1,0,0:0:0:0:
256,192,16679,1,0,0:0:0:0:
256,192,16787,1,8,0:0:0:0:
256,192,17005,1,8,0:0:0:0:
256,192,17222,1,0,0:0:0:0:
256,192,17440,1,12,0:0:0:0:
256,192,17657,1,0,0:0:0:0:
256,192,17766,1,8,0:0:0:0:
256,192,17874,1,8,0:0:0:0:
256,192,17983,1,0,0:0:0:0:
256,192,18201,1,0,0:0:0:0:
256,192,18418,1,0,0:0:0:0:
256,192,18527,1,8,0:0:0:0:
256,192,18635,1,0,0:0:0:0:
256,192,18744,1,8,0:0:0:0:
256,192,18961,1,0,0:0:0:0:
256,192,19179,1,4,0:0:0:0:
256,192,19614,1,8,0:0:0:0:
256,192,19722,1,0,0:0:0:0:
256,192,19940,1,0,0:0:0:0:
256,192,20157,1,0,0:0:0:0:
256,192,20266,1,8,0:0:0:0:
256,192,20483,1,8,0:0:0:0:
256,192,20701,1,0,0:0:0:0:
256,192,20918,1,12,0:0:0:0:
256,192,21135,1,0,0:0:0:0:
256,192,21244,1,0,0:0:0:0:
256,192,21353,1,8,0:0:0:0:
256,192,21570,1,8,0:0:0:0:
256,192,21679,1,0,0:0:0:0:
256,192,21896,1,0,0:0:0:0:
256,192,22005,1,0,0:0:0:0:
256,192,22114,1,0,0:0:0:0:
256,192,22222,1,8,0:0:0:0:
256,192,22440,1,8,0:0:0:0:
256,192,22657,1,4,0:0:0:0:
256,192,23092,1,8,0:0:0:0:
256,192,23201,1,0,0:0:0:0:
256,192,23418,1,0,0:0:0:0:
256,192,23635,1,0,0:0:0:0:
256,192,23744,1,8,0:0:0:0:
256,192,23961,1,8,0:0:0:0:
256,192,24179,1,0,0:0:0:0:
256,192,24396,1,12,0:0:0:0:
256,192,24614,1,0,0:0:0:0:
256,192,24722,1,0,0:0:0:0:
256,192,24831,1,8,0:0:0:0:
256,192,25048,1,0,0:0:0:0:
256,192,25157,1,0,0:0:0:0:
256,192,25374,1,0,0:0:0:0:
256,192,25483,1,8,0:0:0:0:
256,192,25592,1,0,0:0:0:0:
256,192,25701,1,8,0:0:0:0:
256,192,25918,1,0,0:0:0:0:
256,192,26135,1,4,0:0:0:0:
256,192,26570,1,8,0:0:0:0:
256,192,26679,1,0,0:0:0:0:
256,192,26787,1,0,0:0:0:0:
256,192,26896,1,0,0:0:0:0:
256,192,27114,1,0,0:0:0:0:
256,192,27222,1,8,0:0:0:0:
256,192,27331,1,0,0:0:0:0:
256,192,27440,1,8,0:0:0:0:
256,192,27657,1,0,0:0:0:0:
256,192,27874,1,8,0:0:0:0:
256,192,27983,1,0,0:0:0:0:
256,192,28092,1,0,0:0:0:0:
256,192,28201,1,0,0:0:0:0:
256,192,28309,1,8,0:0:0:0:
256,192,28418,1,0,0:0:0:0:
256,192,28527,1,0,0:0:0:0:
256,192,28635,1,8,0:0:0:0:
256,192,28744,1,0,0:0:0:0:
256,192,28853,1,0,0:0:0:0:
256,192,28961,1,8,0:0:0:0:
256,192,29179,1,8,0:0:0:0:
256,192,29251,1,8,0:0:0:0:
256,192,29324,1,8,0:0:0:0:
256,192,29396,1,0,0:0:0:0:
256,192,29505,1,0,0:0:0:0:
256,192,29614,5,12,0:0:0:0:
256,192,29831,1,0,0:0:0:0:
256,192,30048,1,8,0:0:0:0:
256,192,30266,1,8,0:0:0:0:
256,192,30374,1,0,0:0:0:0:
256,192,30592,1,8,0:0:0:0:
256,192,30701,1,0,0:0:0:0:
256,192,30809,1,0,0:0:0:0:
256,192,30918,1,8,0:0:0:0:
256,192,31135,1,0,0:0:0:0:
256,192,31244,1,8,0:0:0:0:
256,192,31353,1,0,0:0:0:0:
256,192,31570,1,0,0:0:0:0:
256,192,31787,1,8,0:0:0:0:
256,192,32005,1,8,0:0:0:0:
256,192,32114,1,0,0:0:0:0:
256,192,32331,1,8,0:0:0:0:
256,192,32440,1,0,0:0:0:0:
256,192,32548,1,0,0:0:0:0:
256,192,32657,1,8,0:0:0:0:
256,192,32766,1,8,0:0:0:0:
256,192,32874,1,8,0:0:0:0:
256,192,32983,1,8,0:0:0:0:
256,192,33092,1,0,0:0:0:0:
256,192,33309,1,0,0:0:0:0:
256,192,33527,1,8,0:0:0:0:
256,192,33744,1,8,0:0:0:0:
256,192,33853,1,0,0:0:0:0:
256,192,34070,1,0,0:0:0:0:
256,192,34179,1,0,0:0:0:0:
256,192,34396,1,8,0:0:0:0:
256,192,34505,1,8,0:0:0:0:
256,192,34614,1,0,0:0:0:0:
256,192,34722,1,8,0:0:0:0:
256,192,34831,1,0,0:0:0:0:
256,192,35048,1,0,0:0:0:0:
256,192,35266,1,8,0:0:0:0:
256,192,35483,1,0,0:0:0:0:
256,192,35592,1,8,0:0:0:0:
256,192,35809,1,0,0:0:0:0:
256,192,35918,1,8,0:0:0:0:
256,192,36027,1,0,0:0:0:0:
256,192,36135,1,8,0:0:0:0:
256,192,36244,1,8,0:0:0:0:
256,192,36353,1,8,0:0:0:0:
256,192,36461,1,8,0:0:0:0:
256,192,36570,1,0,0:0:0:0:
256,192,36787,1,0,0:0:0:0:
256,192,37005,1,8,0:0:0:0:
256,192,37222,1,8,0:0:0:0:
256,192,37331,1,0,0:0:0:0:
256,192,37548,1,8,0:0:0:0:
256,192,37657,1,0,0:0:0:0:
256,192,37766,1,0,0:0:0:0:
256,192,37874,1,8,0:0:0:0:
256,192,38092,1,8,0:0:0:0:
256,192,38201,1,0,0:0:0:0:
256,192,38309,1,0,0:0:0:0:
256,192,38527,1,0,0:0:0:0:
256,192,38744,1,8,0:0:0:0:
256,192,38961,1,8,0:0:0:0:
256,192,39070,1,0,0:0:0:0:
256,192,39287,1,0,0:0:0:0:
256,192,39396,1,0,0:0:0:0:
256,192,39505,1,0,0:0:0:0:
256,192,39614,1,8,0:0:0:0:
256,192,39722,1,8,0:0:0:0:
256,192,39831,1,8,0:0:0:0:
256,192,39940,1,8,0:0:0:0:
256,192,40048,1,0,0:0:0:0:
256,192,40266,1,0,0:0:0:0:
256,192,40483,1,8,0:0:0:0:
256,192,40701,1,0,0:0:0:0:
256,192,40809,1,8,0:0:0:0:
256,192,41027,1,0,0:0:0:0:
256,192,41135,1,8,0:0:0:0:
256,192,41353,1,8,0:0:0:0:
256,192,41461,1,8,0:0:0:0:
256,192,41570,1,0,0:0:0:0:
256,192,41679,1,8,0:0:0:0:
256,192,41787,1,4,0:0:0:0:
256,192,42222,1,12,0:0:0:0:
256,192,42657,1,8,0:0:0:0:
256,192,42874,1,8,0:0:0:0:
256,192,42983,1,8,0:0:0:0:
256,192,43092,1,0,0:0:0:0:
256,192,43201,1,8,0:0:0:0:
256,192,43309,1,8,0:0:0:0:
256,192,43418,1,8,0:0:0:0:
256,192,43527,1,0,0:0:0:0:
256,192,43744,1,8,0:0:0:0:
256,192,43853,1,0,0:0:0:0:
256,192,43961,1,8,0:0:0:0:
256,192,44179,1,0,0:0:0:0:
256,192,44287,1,0,0:0:0:0:
256,192,44505,1,0,0:0:0:0:
256,192,44614,1,0,0:0:0:0:
256,192,44722,1,0,0:0:0:0:
256,192,44831,1,8,0:0:0:0:
256,192,44940,1,0,0:0:0:0:
256,192,45266,1,0,0:0:0:0:
256,192,45374,1,8,0:0:0:0:
256,192,45483,1,8,0:0:0:0:
256,192,45701,1,8,0:0:0:0:
256,192,45809,1,0,0:0:0:0:
256,192,46027,1,0,0:0:0:0:
256,192,46244,1,0,0:0:0:0:
256,192,46353,1,8,0:0:0:0:
256,192,46461,1,0,0:0:0:0:
256,192,46570,1,8,0:0:0:0:
256,192,46679,1,8,0:0:0:0:
256,192,46787,1,0,0:0:0:0:
256,192,47005,1,0,0:0:0:0:
256,192,47222,1,0,0:0:0:0:
256,192,47331,1,0,0:0:0:0:
256,192,47440,1,8,0:0:0:0:
256,192,47657,1,8,0:0:0:0:
256,192,47766,1,0,0:0:0:0:
256,192,47983,1,0,0:0:0:0:
256,192,48092,1,0,0:0:0:0:
256,192,48201,1,0,0:0:0:0:
256,192,48309,1,8,0:0:0:0:
256,192,48527,1,8,0:0:0:0:
256,192,48744,1,0,0:0:0:0:
256,192,48853,1,8,0:0:0:0:
256,192,48961,1,8,0:0:0:0:
256,192,49179,1,8,0:0:0:0:
256,192,49396,1,0,0:0:0:0:
256,192,49505,1,8,0:0:0:0:
256,192,49722,1,0,0:0:0:0:
256,192,49831,1,0,0:0:0:0:
256,192,50048,1,8,0:0:0:0:
256,192,50157,1,8,0:0:0:0:
256,192,50266,1,0,0:0:0:0:
256,192,50483,1,12,0:0:0:0:
256,192,50701,1,0,0:0:0:0:
256,192,50809,1,0,0:0:0:0:
256,192,50918,1,8,0:0:0:0:
256,192,51135,1,0,0:0:0:0:
256,192,51244,1,0,0:0:0:0:
256,192,51461,1,0,0:0:0:0:
256,192,51570,1,8,0:0:0:0:
256,192,51679,1,0,0:0:0:0:
256,192,51787,1,8,0:0:0:0:
256,192,51896,1,8,0:0:0:0:
256,192,52222,1,0,0:0:0:0:
256,192,52331,1,0,0:0:0:0:
256,192,52440,1,0,0:0:0:0:
256,192,52657,1,8,0:0:0:0:
256,192,52766,1,0,0:0:0:0:
256,192,52983,1,0,0:0:0:0:
256,192,53201,1,0,0:0:0:0:
256,192,53309,1,0,0:0:0:0:
256,192,53418,1,0,0:0:0:0:
256,192,53527,1,8,0:0:0:0:
256,192,53635,1,0,0:0:0:0:
256,192,53961,1,8,0:0:0:0:
256,192,54070,1,0,0:0:0:0:
256,192,54179,1,0,0:0:0:0:
256,192,54287,1,0,0:0:0:0:
256,192,54396,1,8,0:0:0:0:
256,192,54505,1,0,0:0:0:0:
256,192,54614,1,8,0:0:0:0:
256,192,54722,1,0,0:0:0:0:
256,192,54940,1,0,0:0:0:0:
256,192,55048,1,0,0:0:0:0:
256,192,55157,1,0,0:0:0:0:
256,192,55266,1,8,0:0:0:0:
256,192,55374,1,8,0:0:0:0:
256,192,55483,1,0,0:0:0:0:
256,192,55701,1,8,0:0:0:0:
256,192,56135,1,12,0:0:0:0:
256,192,56787,1,0,0:0:0:0:
256,192,57005,1,8,0:0:0:0:
256,192,57114,1,8,0:0:0:0:
256,192,57222,1,8,0:0:0:0:
256,192,57331,1,8,0:0:0:0:
256,192,57440,5,0,0:0:0:0:
256,192,57874,1,8,0:0:0:0:
256,192,58092,1,0,0:0:0:0:
256,192,58201,1,8,0:0:0:0:
256,192,58418,1,8,0:0:0:0:
256,192,58527,1,0,0:0:0:0:
256,192,58744,1,8,0:0:0:0:
256,192,58853,1,8,0:0:0:0:
256,192,58961,1,0,0:0:0:0:
256,192,59179,1,0,0:0:0:0:
256,192,59614,1,8,0:0:0:0:
256,192,59831,1,8,0:0:0:0:
256,192,59940,1,0,0:0:0:0:
256,192,60048,1,8,0:0:0:0:
256,192,60157,1,0,0:0:0:0:
256,192,60266,1,0,0:0:0:0:
256,192,60483,1,8,0:0:0:0:
256,192,60701,1,0,0:0:0:0:
256,192,60809,1,8,0:0:0:0:
256,192,60918,1,0,0:0:0:0:
256,192,61353,1,8,0:0:0:0:
256,192,61570,1,8,0:0:0:0:
256,192,61679,1,0,0:0:0:0:
256,192,61896,1,8,0:0:0:0:
256,192,62005,1,0,0:0:0:0:
256,192,62222,1,8,0:0:0:0:
256,192,62331,1,8,0:0:0:0:
256,192,62440,1,0,0:0:0:0:
256,192,62657,1,0,0:0:0:0:
256,192,63092,1,8,0:0:0:0:
256,192,63309,1,8,0:0:0:0:
256,192,63418,1,0,0:0:0:0:
256,192,63527,1,0,0:0:0:0:
256,192,63635,1,0,0:0:0:0:
256,192,63744,1,8,0:0:0:0:
256,192,63961,1,8,0:0:0:0:
256,192,64179,1,0,0:0:0:0:
256,192,64287,1,8,0:0:0:0:
256,192,64396,1,0,0:0:0:0:
256,192,64831,1,8,0:0:0:0:
256,192,65048,1,0,0:0:0:0:
256,192,65157,1,8,0:0:0:0:
256,192,65374,1,8,0:0:0:0:
256,192,65483,1,0,0:0:0:0:
256,192,65701,1,8,0:0:0:0:
256,192,65809,1,8,0:0:0:0:
256,192,65918,1,0,0:0:0:0:
256,192,66135,1,0,0:0:0:0:
256,192,66570,1,8,0:0:0:0:
256,192,66787,1,8,0:0:0:0:
256,192,66896,1,0,0:0:0:0:
256,192,67005,1,8,0:0:0:0:
256,192,67114,1,0,0:0:0:0:
256,192,67222,1,0,0:0:0:0:
256,192,67440,1,8,0:0:0:0:
256,192,67657,1,8,0:0:0:0:
256,192,67766,1,8,0:0:0:0:
256,192,67874,1,0,0:0:0:0:
256,192,68309,1,8,0:0:0:0:
256,192,68527,1,8,0:0:0:0:
256,192,68635,1,0,0:0:0:0:
256,192,68853,1,0,0:0:0:0:
256,192,68961,1,8,0:0:0:0:
256,192,69179,1,8,0:0:0:0:
256,192,69287,1,0,0:0:0:0:
256,192,69396,1,8,0:0:0:0:
256,192,69614,1,0,0:0:0:0:
256,192,70374,1,0,0:0:0:0:
256,192,70483,1,8,0:0:0:0:
256,192,70592,1,0,0:0:0:0:
256,192,70701,1,8,0:0:0:0:
256,192,70809,1,8,0:0:0:0:
256,192,70918,1,8,0:0:0:0:
256,192,71027,1,8,0:0:0:0:
256,192,71135,1,8,0:0:0:0:
256,192,71244,1,8,0:0:0:0:
256,192,71353,5,0,0:0:0:0:
256,192,72005,1,0,0:0:0:0:
256,192,72114,1,8,0:0:0:0:
256,192,72331,1,8,0:0:0:0:
256,192,72440,1,0,0:0:0:0:
256,192,72548,1,0,0:0:0:0:
256,192,72657,1,8,0:0:0:0:
256,192,72874,1,0,0:0:0:0:
256,192,73092,1,12,0:0:0:0:
256,192,73309,1,0,0:0:0:0:
256,192,73418,1,0,0:0:0:0:
256,192,73527,1,0,0:0:0:0:
256,192,73635,1,8,0:0:0:0:
256,192,73744,1,0,0:0:0:0:
256,192,73853,1,8,0:0:0:0:
256,192,74070,1,8,0:0:0:0:
256,192,74179,1,0,0:0:0:0:
256,192,74287,1,0,0:0:0:0:
256,192,74396,1,8,0:0:0:0:
256,192,74614,1,0,0:0:0:0:
256,192,74831,1,4,0:0:0:0:
256,192,75266,1,0,0:0:0:0:
256,192,75374,1,8,0:0:0:0:
256,192,75483,1,0,0:0:0:0:
256,192,75592,1,8,0:0:0:0:
256,192,75809,1,0,0:0:0:0:
256,192,75918,1,8,0:0:0:0:
256,192,76027,1,8,0:0:0:0:
256,192,76135,1,8,0:0:0:0:
256,192,76353,1,0,0:0:0:0:
256,192,76570,1,12,0:0:0:0:
256,192,76787,1,8,0:0:0:0:
256,192,76896,1,8,0:0:0:0:
256,192,77005,1,0,0:0:0:0:
256,192,77114,1,0,0:0:0:0:
256,192,77222,1,12,0:0:0:0:
256,192,77548,1,8,0:0:0:0:
256,192,77657,1,0,0:0:0:0:
256,192,77874,1,8,0:0:0:0:
256,192,78092,1,0,0:0:0:0:
256,192,78309,1,4,0:0:0:0:
256,192,78527,1,0,0:0:0:0:
256,192,78635,1,0,0:0:0:0:
256,192,78744,1,0,0:0:0:0:
256,192,78853,1,8,0:0:0:0:
256,192,78961,1,0,0:0:0:0:
256,192,79070,1,8,0:0:0:0:
256,192,79287,1,0,0:0:0:0:
256,192,79396,1,8,0:0:0:0:
256,192,79505,1,0,0:0:0:0:
256,192,79614,1,8,0:0:0:0:
256,192,79831,1,0,0:0:0:0:
256,192,80048,1,12,0:0:0:0:
256,192,80266,1,8,0:0:0:0:
256,192,80374,1,0,0:0:0:0:
256,192,80483,1,0,0:0:0:0:
256,192,80592,1,8,0:0:0:0:
256,192,80701,1,0,0:0:0:0:
256,192,80809,1,8,0:0:0:0:
256,192,81027,1,8,0:0:0:0:
256,192,81135,1,0,0:0:0:0:
256,192,81244,1,0,0:0:0:0:
256,192,81353,1,8,0:0:0:0:
256,192,81787,1,4,0:0:0:0:
256,192,83527,1,8,0:0:0:0:
256,192,83635,1,8,0:0:0:0:
256,192,83744,1,0,0:0:0:0:
256,192,83853,1,0,0:0:0:0:
256,192,83961,1,8,0:0:0:0:
256,192,84070,1,8,0:0:0:0:
256,192,84179,1,0,0:0:0:0:
256,192,84287,1,8,0:0:0:0:
256,192,84396,1,0,0:0:0:0:
256,192,84505,1,0,0:0:0:0:
256,192,84614,1,8,0:0:0:0:
256,192,84831,1,8,0:0:0:0:
256,192,84903,1,8,0:0:0:0:
256,192,84976,1,8,0:0:0:0:
256,192,85048,1,0,0:0:0:0:
256,192,85157,1,0,0:0:0:0:
256,192,85266,5,12,0:0:0:0:
256,192,85483,1,0,0:0:0:0:
256,192,85701,1,8,0:0:0:0:
256,192,85918,1,0,0:0:0:0:
256,192,86027,1,8,0:0:0:0:
256,192,86244,1,8,0:0:0:0:
256,192,86353,1,0,0:0:0:0:
256,192,86570,1,8,0:0:0:0:
256,192,86679,1,8,0:0:0:0:
256,192,86787,1,0,0:0:0:0:
256,192,86896,1,8,0:0:0:0:
256,192,87005,1,0,0:0:0:0:
256,192,87222,1,0,0:0:0:0:
256,192,87440,1,8,0:0:0:0:
256,192,87657,1,8,0:0:0:0:
256,192,87766,1,0,0:0:0:0:
256,192,87983,1,8,0:0:0:0:
256,192,88092,1,0,0:0:0:0:
256,192,88201,1,0,0:0:0:0:
256,192,88309,1,8,0:0:0:0:
256,192,88418,1,8,0:0:0:0:
256,192,88527,1,8,0:0:0:0:
256,192,88635,1,8,0:0:0:0:
256,192,88744,1,0,0:0:0:0:
256,192,88961,1,0,0:0:0:0:
256,192,89179,1,8,0:0:0:0:
256,192,89396,1,8,0:0:0:0:
256,192,89505,1,0,0:0:0:0:
256,192,89722,1,0,0:0:0:0:
256,192,89831,1,0,0:0:0:0:
256,192,90048,1,8,0:0:0:0:
256,192,90157,1,8,0:0:0:0:
256,192,90266,1,0,0:0:0:0:
256,192,90374,1,0,0:0:0:0:
256,192,90483,1,0,0:0:0:0:
256,192,90701,1,0,0:0:0:0:
256,192,90918,1,8,0:0:0:0:
256,192,91135,1,8,0:0:0:0:
256,192,91244,1,0,0:0:0:0:
256,192,91461,1,0,0:0:0:0:
256,192,91570,1,8,0:0:0:0:
256,192,91679,1,0,0:0:0:0:
256,192,91787,1,8,0:0:0:0:
256,192,91896,1,8,0:0:0:0:
256,192,92005,1,8,0:0:0:0:
256,192,92114,1,8,0:0:0:0:
256,192,92222,1,0,0:0:0:0:
256,192,92440,1,0,0:0:0:0:
256,192,92657,1,8,0:0:0:0:
256,192,92874,1,0,0:0:0:0:
256,192,92983,1,8,0:0:0:0:
256,192,93201,1,8,0:0:0:0:
256,192,93309,1,0,0:0:0:0:
256,192,93527,1,8,0:0:0:0:
256,192,93635,1,8,0:0:0:0:
256,192,93744,1,0,0:0:0:0:
256,192,93961,1,8,0:0:0:0:
256,192,94179,1,0,0:0:0:0:
256,192,94396,1,8,0:0:0:0:
256,192,94614,1,8,0:0:0:0:
256,192,94722,1,0,0:0:0:0:
256,192,94940,1,0,0:0:0:0:
256,192,95048,1,8,0:0:0:0:
256,192,95157,1,0,0:0:0:0:
256,192,95266,1,8,0:0:0:0:
256,192,95374,1,8,0:0:0:0:
256,192,95483,1,8,0:0:0:0:
256,192,95592,1,8,0:0:0:0:
256,192,95701,1,0,0:0:0:0:
256,192,95918,1,0,0:0:0:0:
256,192,96135,1,8,0:0:0:0:
256,192,96353,1,8,0:0:0:0:
256,192,96461,1,0,0:0:0:0:
256,192,96679,1,0,0:0:0:0:
256,192,96787,1,8,0:0:0:0:
256,192,97005,1,8,0:0:0:0:
256,192,97114,1,8,0:0:0:0:
256,192,97222,1,0,0:0:0:0:
248,192,97331,1,8,0:0:0:0:
256,192,97440,1,4,0:0:0:0:
256,192,97874,1,12,0:0:0:0:
256,192,98309,1,8,0:0:0:0:
256,192,98527,1,8,0:0:0:0:
256,192,98744,1,0,0:0:0:0:
256,192,98853,1,8,0:0:0:0:
256,192,98961,1,8,0:0:0:0:
256,192,99070,1,8,0:0:0:0:
256,192,99179,5,0,0:0:0:0:
256,192,99396,1,8,0:0:0:0:
256,192,99505,1,0,0:0:0:0:
256,192,99614,1,8,0:0:0:0:
256,192,99831,1,0,0:0:0:0:
256,192,99940,1,0,0:0:0:0:
256,192,100157,1,0,0:0:0:0:
256,192,100266,1,0,0:0:0:0:
256,192,100374,1,0,0:0:0:0:
256,192,100483,1,8,0:0:0:0:
256,192,100592,1,0,0:0:0:0:
256,192,100918,1,0,0:0:0:0:
256,192,101027,1,0,0:0:0:0:
256,192,101135,1,0,0:0:0:0:
256,192,101353,1,8,0:0:0:0:
256,192,101461,1,0,0:0:0:0:
256,192,101679,1,0,0:0:0:0:
256,192,101896,1,0,0:0:0:0:
256,192,102005,1,8,0:0:0:0:
256,192,102114,1,0,0:0:0:0:
256,192,102222,1,8,0:0:0:0:
256,192,102331,1,8,0:0:0:0:
256,192,102440,1,0,0:0:0:0:
256,192,102657,1,0,0:0:0:0:
256,192,102874,1,0,0:0:0:0:
256,192,102983,1,0,0:0:0:0:
256,192,103092,1,8,0:0:0:0:
256,192,103309,1,8,0:0:0:0:
256,192,103418,1,0,0:0:0:0:
256,192,103635,1,0,0:0:0:0:
256,192,103744,1,0,0:0:0:0:
256,192,103853,1,0,0:0:0:0:
256,192,103961,1,8,0:0:0:0:
256,192,104179,1,8,0:0:0:0:
256,192,104396,1,0,0:0:0:0:
256,192,104505,1,8,0:0:0:0:
256,192,104614,1,8,0:0:0:0:
256,192,104831,1,8,0:0:0:0:
256,192,104940,1,0,0:0:0:0:
256,192,105048,1,0,0:0:0:0:
256,192,105157,1,8,0:0:0:0:
256,192,105374,1,0,0:0:0:0:
256,192,105483,1,0,0:0:0:0:
256,192,105701,1,8,0:0:0:0:
256,192,105809,1,8,0:0:0:0:
256,192,105918,1,0,0:0:0:0:
256,192,106135,1,12,0:0:0:0:
256,192,106353,1,0,0:0:0:0:
256,192,106461,1,0,0:0:0:0:
256,192,106570,1,8,0:0:0:0:
256,192,106787,1,0,0:0:0:0:
256,192,106896,1,0,0:0:0:0:
256,192,107114,1,0,0:0:0:0:
256,192,107222,1,8,0:0:0:0:
256,192,107331,1,0,0:0:0:0:
256,192,107440,1,8,0:0:0:0:
256,192,107548,1,8,0:0:0:0:
256,192,107874,1,0,0:0:0:0:
256,192,107983,1,8,0:0:0:0:
256,192,108092,1,8,0:0:0:0:
256,192,108309,1,8,0:0:0:0:
256,192,108418,1,0,0:0:0:0:
256,192,108635,1,0,0:0:0:0:
256,192,108853,1,0,0:0:0:0:
256,192,108961,1,0,0:0:0:0:
256,192,109070,1,0,0:0:0:0:
256,192,109179,1,8,0:0:0:0:
256,192,109287,1,0,0:0:0:0:
256,192,109614,1,8,0:0:0:0:
256,192,109722,1,0,0:0:0:0:
256,192,109831,1,0,0:0:0:0:
256,192,109940,1,0,0:0:0:0:
256,192,110048,1,8,0:0:0:0:
256,192,110157,1,0,0:0:0:0:
256,192,110266,1,8,0:0:0:0:
256,192,110374,1,0,0:0:0:0:
256,192,110592,1,0,0:0:0:0:
256,192,110701,1,0,0:0:0:0:
256,192,110809,1,0,0:0:0:0:
256,192,110918,1,8,0:0:0:0:
256,192,111135,1,8,0:0:0:0:
256,192,111244,1,0,0:0:0:0:
256,192,111353,1,8,0:0:0:0:
256,192,111787,1,12,0:0:0:0:
256,192,112440,1,0,0:0:0:0:
256,192,112657,1,8,0:0:0:0:
256,192,112766,1,8,0:0:0:0:
256,192,112874,1,8,0:0:0:0:
256,192,112983,1,8,0:0:0:0:
256,192,113092,5,0,0:0:0:0:
256,192,113309,1,0,0:0:0:0:
256,192,113527,1,8,0:0:0:0:
256,192,113635,1,0,0:0:0:0:
256,192,113853,1,0,0:0:0:0:
256,192,114070,1,0,0:0:0:0:
256,192,114179,1,0,0:0:0:0:
256,192,114287,1,0,0:0:0:0:
256,192,114396,1,8,0:0:0:0:
256,192,114614,1,0,0:0:0:0:
256,192,114831,1,8,0:0:0:0:
256,192,114940,1,0,0:0:0:0:
256,192,115157,1,0,0:0:0:0:
256,192,115266,1,8,0:0:0:0:
256,192,115483,1,8,0:0:0:0:
256,192,115592,1,0,0:0:0:0:
256,192,115809,1,0,0:0:0:0:
256,192,115918,1,0,0:0:0:0:
256,192,116027,1,0,0:0:0:0:
256,192,116135,1,8,0:0:0:0:
256,192,116570,1,0,0:0:0:0:
256,192,116787,1,8,0:0:0:0:
256,192,116896,1,0,0:0:0:0:
256,192,117005,1,8,0:0:0:0:
256,192,117114,1,8,0:0:0:0:
256,192,117331,1,0,0:0:0:0:
256,192,117548,1,0,0:0:0:0:
256,192,117657,1,8,0:0:0:0:
256,192,117766,1,0,0:0:0:0:
256,192,117874,1,8,0:0:0:0:
256,192,118092,1,0,0:0:0:0:
256,192,118309,1,8,0:0:0:0:
256,192,118418,1,0,0:0:0:0:
256,192,118635,1,0,0:0:0:0:
256,192,118744,1,8,0:0:0:0:
256,192,118961,1,8,0:0:0:0:
256,192,119070,1,0,0:0:0:0:
256,192,119287,1,0,0:0:0:0:
256,192,119396,1,0,0:0:0:0:
256,192,119505,1,0,0:0:0:0:
256,192,119614,1,8,0:0:0:0:
256,192,120048,1,4,0:0:0:0:
256,192,120266,1,0,0:0:0:0:
256,192,120374,1,0,0:0:0:0:
256,192,120483,1,8,0:0:0:0:
256,192,120592,1,0,0:0:0:0:
256,192,120809,1,0,0:0:0:0:
256,192,121027,1,0,0:0:0:0:
256,192,121135,1,0,0:0:0:0:
256,192,121244,1,0,0:0:0:0:
256,192,121353,1,8,0:0:0:0:
256,192,121570,1,0,0:0:0:0:
256,192,121787,1,0,0:0:0:0:
256,192,121896,1,0,0:0:0:0:
256,192,122114,1,0,0:0:0:0:
256,192,122222,1,8,0:0:0:0:
256,192,122440,1,8,0:0:0:0:
256,192,122548,1,0,0:0:0:0:
256,192,122766,1,0,0:0:0:0:
256,192,122874,1,0,0:0:0:0:
256,192,122983,1,0,0:0:0:0:
256,192,123092,1,8,0:0:0:0:
256,192,123527,1,12,0:0:0:0:
256,192,123744,1,8,0:0:0:0:
256,192,123853,1,0,0:0:0:0:
256,192,123961,1,8,0:0:0:0:
256,192,124070,1,8,0:0:0:0:
256,192,124287,1,0,0:0:0:0:
256,192,124505,1,0,0:0:0:0:
256,192,124614,1,8,0:0:0:0:
256,192,124722,1,0,0:0:0:0:
256,192,124831,1,8,0:0:0:0:
256,192,124940,1,8,0:0:0:0:
256,192,125048,1,8,0:0:0:0:
256,192,125157,1,8,0:0:0:0:
256,192,125266,1,0,0:0:0:0:
256,192,127005,5,4,0:0:0:0:
256,192,127440,1,8,0:0:0:0:
256,192,127548,1,0,0:0:0:0:
256,192,127766,1,0,0:0:0:0:
256,192,127983,1,0,0:0:0:0:
256,192,128201,1,0,0:0:0:0:
256,192,128309,1,8,0:0:0:0:
256,192,128744,1,0,0:0:0:0:
256,192,128853,1,0,0:0:0:0:
256,192,128961,1,0,0:0:0:0:
256,192,129179,1,8,0:0:0:0:
256,192,129287,1,0,0:0:0:0:
256,192,129505,1,0,0:0:0:0:
256,192,129722,1,0,0:0:0:0:
256,192,129831,1,0,0:0:0:0:
256,192,129940,1,0,0:0:0:0:
256,192,130048,1,8,0:0:0:0:
256,192,130157,1,0,0:0:0:0:
256,192,130483,1,0,0:0:0:0:
256,192,130592,1,0,0:0:0:0:
256,192,130701,1,0,0:0:0:0:
256,192,130918,1,8,0:0:0:0:
256,192,131027,1,0,0:0:0:0:
256,192,131244,1,0,0:0:0:0:
256,192,131461,1,0,0:0:0:0:
256,192,131570,1,0,0:0:0:0:
256,192,131679,1,0,0:0:0:0:
256,192,131787,1,8,0:0:0:0:
256,192,132222,1,0,0:0:0:0:
256,192,132331,1,0,0:0:0:0:
256,192,132440,1,0,0:0:0:0:
256,192,132548,1,0,0:0:0:0:
256,192,132657,1,8,0:0:0:0:
256,192,132766,1,0,0:0:0:0:
256,192,132983,1,0,0:0:0:0:
256,192,133201,1,0,0:0:0:0:
256,192,133309,1,0,0:0:0:0:
256,192,133418,1,0,0:0:0:0:
256,192,133527,1,8,0:0:0:0:
256,192,133635,1,8,0:0:0:0:
256,192,133744,1,0,0:0:0:0:
256,192,133961,1,0,0:0:0:0:
256,192,134070,1,0,0:0:0:0:
256,192,134179,1,0,0:0:0:0:
256,192,134396,1,8,0:0:0:0:
256,192,134505,1,0,0:0:0:0:
256,192,134722,1,0,0:0:0:0:
256,192,134940,1,0,0:0:0:0:
256,192,135048,1,0,0:0:0:0:
256,192,135157,1,0,0:0:0:0:
256,192,135266,1,8,0:0:0:0:
256,192,135701,1,0,0:0:0:0:
256,192,135809,1,0,0:0:0:0:
256,192,135918,1,0,0:0:0:0:
256,192,136135,1,8,0:0:0:0:
256,192,136244,1,0,0:0:0:0:
256,192,136353,1,0,0:0:0:0:
256,192,136461,1,0,0:0:0:0:
256,192,136679,1,0,0:0:0:0:
256,192,136787,1,0,0:0:0:0:
256,192,137005,1,8,0:0:0:0:
256,192,137114,1,8,0:0:0:0:
256,192,137222,1,0,0:0:0:0:
256,192,137440,1,0,0:0:0:0:
256,192,137548,1,0,0:0:0:0:
256,192,137657,1,0,0:0:0:0:
256,192,137874,1,8,0:0:0:0:
256,192,137983,1,0,0:0:0:0:
256,192,138092,1,8,0:0:0:0:
256,192,138201,1,0,0:0:0:0:
256,192,138418,1,0,0:0:0:0:
256,192,138527,1,0,0:0:0:0:
256,192,138635,1,0,0:0:0:0:
256,192,138744,1,8,0:0:0:0:
256,192,138961,1,8,0:0:0:0:
256,192,139179,1,0,0:0:0:0:
256,192,139614,1,12,0:0:0:0:
256,192,140266,1,0,0:0:0:0:
256,192,140483,1,8,0:0:0:0:
256,192,140592,1,8,0:0:0:0:
256,192,140701,1,8,0:0:0:0:
256,192,140809,1,8,0:0:0:0:
256,192,140918,5,0,0:0:0:0:
256,192,141135,1,0,0:0:0:0:
256,192,141244,1,0,0:0:0:0:
256,192,141353,1,8,0:0:0:0:
256,192,141461,1,0,0:0:0:0:
256,192,141679,1,0,0:0:0:0:
256,192,141896,1,8,0:0:0:0:
256,192,142005,1,0,0:0:0:0:
256,192,142114,1,0,0:0:0:0:
256,192,142222,1,8,0:0:0:0:
256,192,142331,1,0,0:0:0:0:
256,192,142657,1,0,0:0:0:0:
256,192,142766,1,0,0:0:0:0:
256,192,142874,1,0,0:0:0:0:
256,192,143092,1,8,0:0:0:0:
256,192,143201,1,0,0:0:0:0:
256,192,143418,1,0,0:0:0:0:
256,192,143635,1,0,0:0:0:0:
256,192,143744,1,0,0:0:0:0:
256,192,143853,1,0,0:0:0:0:
256,192,143961,1,8,0:0:0:0:
256,192,144179,1,0,0:0:0:0:
256,192,144396,1,0,0:0:0:0:
256,192,144614,1,0,0:0:0:0:
256,192,144722,1,0,0:0:0:0:
256,192,144831,1,8,0:0:0:0:
256,192,144940,1,0,0:0:0:0:
256,192,145157,1,0,0:0:0:0:
256,192,145374,1,8,0:0:0:0:
256,192,145483,1,0,0:0:0:0:
256,192,145592,1,0,0:0:0:0:
256,192,145701,1,8,0:0:0:0:
256,192,145809,1,0,0:0:0:0:
256,192,146135,1,0,0:0:0:0:
256,192,146244,1,0,0:0:0:0:
256,192,146353,1,0,0:0:0:0:
256,192,146570,1,8,0:0:0:0:
256,192,146679,1,0,0:0:0:0:
256,192,146896,1,0,0:0:0:0:
256,192,147114,1,0,0:0:0:0:
256,192,147222,1,0,0:0:0:0:
256,192,147440,1,8,0:0:0:0:
256,192,147548,1,8,0:0:0:0:
256,192,147657,1,0,0:0:0:0:
256,192,147874,1,12,0:0:0:0:
256,192,148092,1,0,0:0:0:0:
256,192,148201,1,0,0:0:0:0:
256,192,148309,1,8,0:0:0:0:
256,192,148418,1,0,0:0:0:0:
256,192,148635,1,0,0:0:0:0:
256,192,148853,1,0,0:0:0:0:
256,192,148961,1,0,0:0:0:0:
256,192,149070,1,0,0:0:0:0:
256,192,149179,1,8,0:0:0:0:
256,192,149396,1,0,0:0:0:0:
256,192,149614,1,0,0:0:0:0:
256,192,150048,1,8,0:0:0:0:
256,192,150374,1,0,0:0:0:0:
256,192,150592,1,0,0:0:0:0:
256,192,150701,1,8,0:0:0:0:
256,192,150809,1,0,0:0:0:0:
256,192,150918,1,8,0:0:0:0:
256,192,151135,1,0,0:0:0:0:
256,192,151353,1,0,0:0:0:0:
256,192,151461,1,0,0:0:0:0:
256,192,151570,1,0,0:0:0:0:
256,192,151787,1,8,0:0:0:0:
256,192,151896,1,0,0:0:0:0:
256,192,152114,1,0,0:0:0:0:
256,192,152331,1,0,0:0:0:0:
256,192,152440,1,8,0:0:0:0:
256,192,152548,1,0,0:0:0:0:
256,192,152657,1,8,0:0:0:0:
256,192,152766,1,8,0:0:0:0:
256,192,152874,1,0,0:0:0:0:
256,192,153092,1,0,0:0:0:0:
256,192,153201,1,8,0:0:0:0:
256,192,153309,1,0,0:0:0:0:
256,192,153418,1,0,0:0:0:0:
256,192,153527,1,8,0:0:0:0:
256,192,153635,1,0,0:0:0:0:
256,192,153744,1,8,0:0:0:0:
256,192,153853,1,0,0:0:0:0:
256,192,153961,1,0,0:0:0:0:
256,192,154070,1,8,0:0:0:0:
256,192,154179,1,0,0:0:0:0:
256,192,154287,1,0,0:0:0:0:
256,192,154396,1,8,0:0:0:0:
256,192,154505,1,8,0:0:0:0:
256,192,154614,1,8,0:0:0:0:
256,192,154722,1,8,0:0:0:0:
256,192,154831,5,4,0:0:0:0:
256,192,155048,1,0,0:0:0:0:
256,192,155266,1,8,0:0:0:0:
256,192,155374,1,0,0:0:0:0:
256,192,155592,1,0,0:0:0:0:
256,192,155701,1,8,0:0:0:0:
256,192,155918,1,0,0:0:0:0:
256,192,156027,1,0,0:0:0:0:
256,192,156135,1,8,0:0:0:0:
256,192,156244,1,0,0:0:0:0:
256,192,156570,1,8,0:0:0:0:
256,192,156679,1,0,0:0:0:0:
256,192,156787,1,0,0:0:0:0:
256,192,157005,1,8,0:0:0:0:
256,192,157114,1,0,0:0:0:0:
256,192,157331,1,0,0:0:0:0:
256,192,157440,1,8,0:0:0:0:
256,192,157657,1,0,0:0:0:0:
256,192,157766,1,0,0:0:0:0:
256,192,157874,1,8,0:0:0:0:
256,192,158092,1,0,0:0:0:0:
256,192,158309,1,8,0:0:0:0:
256,192,158418,1,0,0:0:0:0:
256,192,158527,1,0,0:0:0:0:
256,192,158744,1,8,0:0:0:0:
256,192,158853,1,0,0:0:0:0:
256,192,159070,1,0,0:0:0:0:
256,192,159179,1,8,0:0:0:0:
256,192,159396,1,0,0:0:0:0:
256,192,159505,1,0,0:0:0:0:
256,192,159614,1,8,0:0:0:0:
256,192,159722,1,8,0:0:0:0:
256,192,159831,1,0,0:0:0:0:
256,192,160048,1,8,0:0:0:0:
256,192,160157,1,0,0:0:0:0:
256,192,160266,1,0,0:0:0:0:
256,192,160483,1,8,0:0:0:0:
256,192,160592,1,0,0:0:0:0:
256,192,160809,1,0,0:0:0:0:
256,192,160918,1,8,0:0:0:0:
256,192,161135,1,0,0:0:0:0:
256,192,161244,1,0,0:0:0:0:
256,192,161353,1,8,0:0:0:0:
256,192,161461,1,0,0:0:0:0:
256,192,161570,1,8,0:0:0:0:
256,192,161679,1,8,0:0:0:0:
256,192,161787,1,4,0:0:0:0:
256,192,162222,1,8,0:0:0:0:
256,192,162331,1,0,0:0:0:0:
256,192,162548,1,0,0:0:0:0:
256,192,162766,1,0,0:0:0:0:
256,192,162874,1,0,0:0:0:0:
256,192,162983,1,0,0:0:0:0:
256,192,163092,1,8,0:0:0:0:
256,192,163309,1,0,0:0:0:0:
256,192,163527,1,0,0:0:0:0:
256,192,163635,1,0,0:0:0:0:
256,192,163744,1,0,0:0:0:0:
256,192,163961,1,8,0:0:0:0:
256,192,164070,1,0,0:0:0:0:
256,192,164287,1,8,0:0:0:0:
256,192,164614,1,0,0:0:0:0:
256,192,164831,1,8,0:0:0:0:
256,192,164940,1,8,0:0:0:0:
256,192,165048,1,0,0:0:0:0:
256,192,165266,1,0,0:0:0:0:
256,192,165483,1,0,0:0:0:0:
256,192,165701,1,8,0:0:0:0:
256,192,165809,1,0,0:0:0:0:
256,192,165918,1,8,0:0:0:0:
256,192,166027,1,0,0:0:0:0:
256,192,166244,1,0,0:0:0:0:
256,192,166353,1,0,0:0:0:0:
256,192,166461,1,0,0:0:0:0:
256,192,166570,1,8,0:0:0:0:
256,192,166679,1,8,0:0:0:0:
256,192,166787,1,0,0:0:0:0:
256,192,167005,1,0,0:0:0:0:
256,192,167440,1,12,0:0:0:0:
256,192,168092,1,0,0:0:0:0:
256,192,168309,1,8,0:0:0:0:
256,192,168418,1,8,0:0:0:0:
256,192,168527,1,8,0:0:0:0:
256,192,168635,1,8,0:0:0:0:
256,192,168744,5,0,0:0:0:0:
256,192,169179,1,8,0:0:0:0:
256,192,169396,1,0,0:0:0:0:
256,192,169505,1,8,0:0:0:0:
256,192,169722,1,8,0:0:0:0:
256,192,169831,1,0,0:0:0:0:
256,192,170048,1,8,0:0:0:0:
256,192,170157,1,8,0:0:0:0:
256,192,170266,1,0,0:0:0:0:
256,192,170483,1,0,0:0:0:0:
256,192,170918,1,8,0:0:0:0:
256,192,171135,1,8,0:0:0:0:
256,192,171244,1,0,0:0:0:0:
256,192,171353,1,8,0:0:0:0:
256,192,171461,1,0,0:0:0:0:
256,192,171570,1,0,0:0:0:0:
256,192,171787,1,8,0:0:0:0:
256,192,172005,1,8,0:0:0:0:
256,192,172114,1,8,0:0:0:0:
256,192,172222,1,0,0:0:0:0:
256,192,172657,1,8,0:0:0:0:
256,192,172874,1,8,0:0:0:0:
256,192,172983,1,0,0:0:0:0:
256,192,173201,1,8,0:0:0:0:
256,192,173309,1,0,0:0:0:0:
256,192,173527,1,8,0:0:0:0:
256,192,173635,1,0,0:0:0:0:
256,192,173744,1,8,0:0:0:0:
256,192,173961,1,0,0:0:0:0:
256,192,174396,1,8,0:0:0:0:
256,192,174614,1,8,0:0:0:0:
256,192,174722,1,0,0:0:0:0:
256,192,174831,1,0,0:0:0:0:
256,192,174940,1,0,0:0:0:0:
256,192,175048,1,8,0:0:0:0:
256,192,175266,1,8,0:0:0:0:
256,192,175483,1,0,0:0:0:0:
256,192,175592,1,8,0:0:0:0:
256,192,175701,1,0,0:0:0:0:
256,192,176135,1,8,0:0:0:0:
256,192,176353,1,8,0:0:0:0:
256,192,176461,1,0,0:0:0:0:
256,192,176679,1,8,0:0:0:0:
256,192,176787,1,0,0:0:0:0:
256,192,177005,1,8,0:0:0:0:
256,192,177222,1,0,0:0:0:0:
256,192,177440,1,0,0:0:0:0:
256,192,177874,1,8,0:0:0:0:
256,192,178092,1,8,0:0:0:0:
256,192,178201,1,0,0:0:0:0:
256,192,178309,1,8,0:0:0:0:
256,192,178418,1,0,0:0:0:0:
256,192,178527,1,0,0:0:0:0:
256,192,178744,1,8,0:0:0:0:
256,192,178961,1,0,0:0:0:0:
256,192,179179,1,0,0:0:0:0:
256,192,180918,1,12,0:0:0:0:
256,192,181787,1,8,0:0:0:0:
256,192,181896,1,0,0:0:0:0:
256,192,182005,1,8,0:0:0:0:
256,192,182114,1,8,0:0:0:0:
256,192,182222,1,0,0:0:0:0:
256,192,182331,1,8,0:0:0:0:
256,192,182440,1,0,0:0:0:0:
256,192,182548,1,0,0:0:0:0:
