osu file format v14

[General]
AudioFilename: audio.mp3
AudioLeadIn: 0
PreviewTime: -1
Countdown: 1
SampleSet: Normal
StackLeniency: 0.7
Mode: 0
LetterboxInBreaks: 0
WidescreenStoryboard: 1

[Editor]
DistanceSpacing: 0.8
BeatDivisor: 4
GridSize: 16
TimelineZoom: 1

[Metadata]
Title:build our machine
TitleUnicode:build our machine
Artist:DAGames
ArtistUnicode:DAGames
Creator:rayman34477
Version:The Illusion Of Living Book and Disc
Source:DAgames
Tags:#bendy #bendyandtheinkmachine #buildourmachine
BeatmapID:1722598
BeatmapSetID:821553

[Difficulty]
HPDrainRate:6
CircleSize:5
OverallDifficulty:6
ApproachRate:6
SliderMultiplier:1.4
SliderTickRate:1

[Events]
//Background and Video events
0,0,"big_1489190175_image.jpg",0,0
Video,0,"Bendy And The Ink Machine Build Our Machine Animation Lucas The Dubber.mp4"
//Break Periods
//Storyboard Layer 0 (Background)
//Storyboard Layer 1 (Fail)
//Storyboard Layer 2 (Pass)
//Storyboard Layer 3 (Foreground)
//Storyboard Sound Samples

[TimingPoints]
1364.80952380952,476.190476190476,4,1,0,100,1,0

[Colours]
Combo1 : 226,253,254
Combo2 : 0,202,0
Combo3 : 18,124,255
Combo4 : 242,24,57
Combo5 : 255,192,0

[HitObjects]
154,54,12912,5,0,0:0:0:0:
218,50,13150,1,0,0:0:0:0:
277,47,13388,1,0,0:0:0:0:
332,47,13626,1,0,0:0:0:0:
390,47,13864,2,0,L|392:164,1,105
372,171,14579,1,0,0:0:0:0:
329,166,14817,2,0,B|121:185|128:270|127:290,1,245
228,272,16007,1,0,0:0:0:0:
350,277,16483,2,0,B|477:107|417:68|401:55,1,245
329,52,17793,2,0,L|145:51,2,175
350,57,19221,2,0,L|378:161,1,105
377,188,19698,2,0,P|312:265|267:250,1,140
232,265,20293,2,0,P|127:256|113:232,1,140
273,68,21483,1,0,0:0:0:0:
186,109,22079,1,0,0:0:0:0:
72,142,22436,1,0,0:0:0:0:
147,191,22912,2,0,L|226:257,1,70
307,223,23507,1,0,0:0:0:0:
315,228,23745,2,0,P|401:155|386:77,1,175
374,86,24340,2,0,L|83:73,1,280
78,113,25293,2,0,P|191:309|240:304,1,315
270,284,26602,1,0,0:0:0:0:
310,271,27198,2,0,L|445:225,1,140
426,182,27793,1,0,0:0:0:0:
287,84,28031,1,0,0:0:0:0:
176,66,28507,2,0,L|70:75,1,105
74,200,28983,1,0,0:0:0:0:
101,223,29340,1,0,0:0:0:0:
130,236,29817,1,0,0:0:0:0:
161,237,30055,1,0,0:0:0:0:
248,277,30293,2,0,L|434:199,1,175
365,132,31245,1,0,0:0:0:0:
299,91,31840,1,0,0:0:0:0:
262,72,32079,1,0,0:0:0:0:
233,73,32317,2,0,L|2:94,1,210
38,143,33269,1,0,0:0:0:0:
86,192,33626,1,0,0:0:0:0:
87,259,34102,1,0,0:0:0:0:
173,304,34579,1,0,0:0:0:0:
301,326,35174,2,0,L|405:229,1,140
397,166,35888,1,0,0:0:0:0:
372,118,36245,2,0,L|197:65,1,175
90,115,36840,1,0,0:0:0:0:
75,229,37198,1,0,0:0:0:0:
181,302,37555,2,0,L|497:298,1,315
510,203,38626,1,0,0:0:0:0:
483,162,39340,2,0,L|360:110,1,105
287,106,40174,1,0,0:0:0:0:
245,125,40293,1,0,0:0:0:0:
200,148,40412,1,0,0:0:0:0:
181,179,40650,1,0,0:0:0:0:
192,217,40769,1,0,0:0:0:0:
213,246,40888,1,0,0:0:0:0:
241,272,41007,1,0,0:0:0:0:
281,288,41245,1,0,0:0:0:0:
331,283,41364,1,0,0:0:0:0:
384,216,41602,1,0,0:0:0:0:
427,165,41840,1,0,0:0:0:0:
439,105,42436,2,0,L|108:49,1,315
95,132,43626,2,0,L|73:184,1,35
92,215,43983,2,0,P|165:259|257:292,1,175
293,273,45412,1,0,0:0:0:0:
361,279,46245,1,0,0:0:0:0:
214,59,47793,2,0,L|294:61,1,70
332,55,48388,1,0,0:0:0:0:
199,180,48864,2,0,L|284:180,1,70
323,188,49340,1,0,0:0:0:0:
143,244,50055,1,0,0:0:0:0:
225,298,50888,1,0,0:0:0:0:
329,301,51245,1,0,0:0:0:0:
390,244,51483,1,0,0:0:0:0:
410,185,51721,2,0,L|406:95,1,70
366,51,52555,1,0,0:0:0:0:
276,31,53150,1,0,0:0:0:0:
152,42,53745,1,0,0:0:0:0:
79,87,54340,1,0,0:0:0:0:
77,193,54817,1,0,0:0:0:0:
90,264,55293,1,0,0:0:0:0:
192,325,55888,1,0,0:0:0:0:
312,330,56245,1,0,0:0:0:0:
403,293,56840,1,0,0:0:0:0:
403,267,57198,2,0,L|518:115,1,175
448,83,58150,1,0,0:0:0:0:
423,37,58626,1,0,0:0:0:0:
285,259,58864,1,0,0:0:0:0:
129,265,59102,1,0,0:0:0:0:
72,173,59460,1,0,0:0:0:0:
316,215,59698,1,0,0:0:0:0:
138,228,60055,1,0,0:0:0:0:
180,245,60174,2,0,L|461:178,1,280
184,190,61840,2,0,P|98:109|138:66,1,175
456,188,62912,1,0,0:0:0:0:
422,142,63150,1,0,0:0:0:0:
362,130,63388,1,0,0:0:0:0:
350,135,63745,2,0,L|297:136,1,35
266,137,63983,1,0,0:0:0:0:
244,153,64340,1,0,0:0:0:0:
183,149,64579,1,0,0:0:0:0:
273,246,65293,2,0,P|202:247|172:250,1,70
256,192,65650,12,0,68150,0:0:0:0:
168,121,68150,6,0,B|93:230|145:161,1,105
375,105,69340,1,0,0:0:0:0:
401,164,69698,1,0,0:0:0:0:
378,225,69817,1,0,0:0:0:0:
330,270,69936,1,0,0:0:0:0:
283,271,70174,6,0,P|292:4|354:33,1,525
410,124,72198,1,0,0:0:0:0:
412,213,72555,1,0,0:0:0:0:
320,260,72912,1,0,0:0:0:0:
254,293,73269,1,0,0:0:0:0:
181,301,73626,1,0,0:0:0:0:
124,281,73983,1,0,0:0:0:0:
80,211,74340,1,0,0:0:0:0:
86,48,75769,6,0,P|225:189|225:190,1,210
208,209,76602,2,0,L|279:258,1,70
32,36,77436,1,0,0:0:0:0:
188,154,77912,1,0,0:0:0:0:
330,258,78269,1,0,0:0:0:0:
51,331,78983,1,0,0:0:0:0:
239,207,79460,1,0,0:0:0:0:
339,80,79817,1,0,0:0:0:0:
440,94,80293,1,0,0:0:0:0:
153,203,81007,2,0,L|492:22,1,385
494,64,82436,1,0,0:0:0:0:
64,34,82912,1,0,0:0:0:0:
70,84,83388,2,0,B|213:233|69:82,1,175
215,136,84579,1,0,0:0:0:0:
144,280,84936,1,0,0:0:0:0:
218,284,85293,2,0,L|430:151,1,245
328,113,86245,1,0,0:0:0:0:
210,198,86721,1,0,0:0:0:0:
310,266,87317,2,0,L|525:278,1,210
30,253,88507,1,0,0:0:0:0:
20,250,88864,2,0,L|15:211,1,35
13,148,89102,1,0,0:0:0:0:
6,105,89460,2,0,B|9:27|74:34|88:52,1,105
182,84,90531,5,0,0:0:0:0:
190,75,91245,2,0,L|306:175,1,140
227,255,91721,1,0,0:0:0:0:
322,238,92198,2,0,L|414:233,1,70
426,83,93150,2,0,L|295:31,1,140
137,63,94102,1,0,0:0:0:0:
94,148,94460,2,0,P|257:299|318:291,1,280
327,237,96007,1,0,0:0:0:0:
392,160,96483,1,0,0:0:0:0:
362,98,96960,1,0,0:0:0:0:
424,142,97436,2,0,L|496:287,1,140
305,298,98269,5,0,0:0:0:0:
132,291,98507,1,0,0:0:0:0:
75,233,98983,1,0,0:0:0:0:
104,213,99340,2,0,L|303:31,1,245
310,71,100531,1,0,0:0:0:0:
350,66,101007,2,0,L|480:145,1,140
460,188,101840,2,0,L|326:278,1,140
232,290,102793,1,0,0:0:0:0:
199,307,103269,2,0,P|83:48|189:44,1,525
211,78,105769,1,0,0:0:0:0:
260,58,106960,2,0,L|355:119,1,105
359,129,107436,1,0,0:0:0:0:
114,42,108388,1,0,0:0:0:0:
205,37,108626,1,0,0:0:0:0:
250,26,108864,2,0,B|403:67|371:170|376:150,1,175
172,100,109936,1,0,0:0:0:0:
160,103,110531,2,0,L|232:103,1,70
292,109,111126,1,0,0:0:0:0:
97,204,111483,1,0,0:0:0:0:
145,211,111721,2,0,L|219:209,1,70
263,206,112079,1,0,0:0:0:0:
115,249,112674,6,0,P|110:48|205:55,1,350
219,72,113983,1,0,0:0:0:0:
346,158,114340,1,0,0:0:0:0:
288,251,115174,1,0,0:0:0:0:
178,261,115412,1,0,0:0:0:0:
97,33,116245,6,0,L|366:190,1,280
155,158,118150,1,0,0:0:0:0:
210,179,118507,1,0,0:0:0:0:
265,174,118745,1,0,0:0:0:0:
277,179,118983,2,0,L|321:179,1,35
374,204,119340,1,0,0:0:0:0:
448,230,119698,1,0,0:0:0:0:
394,189,121483,1,0,0:0:0:0:
290,278,121721,1,0,0:0:0:0:
395,210,122317,2,0,L|46:229,1,350
165,127,123626,1,0,0:0:0:0:
144,129,125412,2,0,L|214:127,1,70
262,126,126007,1,0,0:0:0:0:
155,197,126245,2,0,L|228:197,1,70
269,191,126721,1,0,0:0:0:0:
88,53,127317,2,0,L|245:204,1,210
105,127,128507,1,0,0:0:0:0:
119,262,128864,1,0,0:0:0:0:
247,318,129221,1,0,0:0:0:0:
386,225,130174,1,0,0:0:0:0:
399,222,130650,2,0,L|307:88,1,140
274,76,131960,1,0,0:0:0:0:
115,76,132436,1,0,0:0:0:0:
137,229,132793,1,0,0:0:0:0:
213,276,133388,2,0,L|383:281,1,140
83,137,134698,2,0,L|175:303,1,175
138,201,136007,1,0,0:0:0:0:
270,225,136364,1,0,0:0:0:0:
341,228,136721,1,0,0:0:0:0:
241,237,137198,1,0,0:0:0:0:
192,187,137436,1,0,0:0:0:0:
175,233,138269,6,0,L|314:238,1,140
103,87,140412,1,0,0:0:0:0:
166,79,140650,1,0,0:0:0:0:
225,87,141007,1,0,0:0:0:0:
248,88,141245,2,0,L|287:88,1,35
359,89,141602,1,0,0:0:0:0:
415,87,141840,1,0,0:0:0:0:
427,102,142079,2,0,L|417:275,1,140
369,232,143388,1,0,0:0:0:0:
225,207,143626,1,0,0:0:0:0:
125,235,144460,1,0,0:0:0:0:
83,134,144817,1,0,0:0:0:0:
143,73,145055,1,0,0:0:0:0:
203,37,145174,1,0,0:0:0:0:
293,39,145531,1,0,0:0:0:0:
377,86,145769,2,0,L|437:222,1,140
119,55,147555,1,0,0:0:0:0:
194,75,147912,1,0,0:0:0:0:
239,86,148150,1,0,0:0:0:0:
237,84,148626,2,0,L|286:88,1,35
335,91,148864,1,0,0:0:0:0:
379,83,149221,1,0,0:0:0:0:
386,97,149460,2,0,L|375:269,1,140
195,55,150531,2,0,L|372:53,1,175
366,71,151245,2,0,L|375:135,1,35
351,142,152198,1,0,0:0:0:0:
356,280,152555,1,0,0:0:0:0:
199,258,152674,5,0,0:0:0:0:
206,153,153031,1,0,0:0:0:0:
223,68,153388,1,0,0:0:0:0:
308,58,153745,1,0,0:0:0:0:
352,168,153983,1,0,0:0:0:0:
261,288,154221,1,0,0:0:0:0:
414,111,154936,2,0,L|76:182,1,315
92,147,156245,1,0,0:0:0:0:
160,229,156721,2,0,L|356:248,1,175
345,184,157555,1,0,0:0:0:0:
358,112,157793,1,0,0:0:0:0:
345,73,158031,1,0,0:0:0:0:
306,44,158269,1,0,0:0:0:0:
274,34,158507,1,0,0:0:0:0:
240,31,158745,1,0,0:0:0:0:
189,43,159579,2,0,L|8:53,1,175
14,68,160412,2,0,L|532:346,1,560
476,211,162436,1,0,0:0:0:0:
352,143,162793,1,0,0:0:0:0:
240,137,163864,1,0,0:0:0:0:
85,260,164221,1,0,0:0:0:0:
192,245,165412,2,0,L|485:258,1,280
459,228,166602,2,0,L|453:116,1,105
365,77,167436,1,0,0:0:0:0:
234,78,167793,1,0,0:0:0:0:
85,93,168150,1,0,0:0:0:0:
87,211,168507,1,0,0:0:0:0:
290,263,168864,1,0,0:0:0:0:
307,208,169817,1,0,0:0:0:0:
179,204,170174,1,0,0:0:0:0:
246,113,170531,1,0,0:0:0:0:
322,162,171007,1,0,0:0:0:0:
289,180,171245,1,0,0:0:0:0:
239,187,171483,1,0,0:0:0:0:
174,183,171602,1,0,0:0:0:0:
213,185,172793,5,0,0:0:0:0:
134,151,173150,1,0,0:0:0:0:
201,91,173388,1,0,0:0:0:0:
346,158,173864,1,0,0:0:0:0:
277,201,174221,1,0,0:0:0:0:
129,197,174340,1,0,0:0:0:0:
137,117,174817,1,0,0:0:0:0:
214,80,175055,1,0,0:0:0:0:
317,222,177079,1,0,0:0:0:0:
255,216,177436,1,0,0:0:0:0:
195,189,177793,1,0,0:0:0:0:
319,89,179221,1,0,0:0:0:0:
340,188,179698,1,0,0:0:0:0:
146,217,180174,1,0,0:0:0:0:
326,107,180769,1,0,0:0:0:0:
296,290,181245,1,0,0:0:0:0:
186,146,181721,1,0,0:0:0:0:
363,195,182198,1,0,0:0:0:0:
174,241,182555,1,0,0:0:0:0:
203,110,183031,1,0,0:0:0:0:
400,127,183507,1,0,0:0:0:0:
163,129,183983,1,0,0:0:0:0:
370,220,184460,1,0,0:0:0:0:
10,75,184936,2,0,L|411:229,1,420
370,137,186840,1,0,0:0:0:0:
222,124,187436,1,0,0:0:0:0:
51,76,187793,1,0,0:0:0:0:
277,70,188150,1,0,0:0:0:0:
285,181,188626,1,0,0:0:0:0:
98,160,189102,1,0,0:0:0:0:
87,132,189340,2,0,L|73:87,1,35
84,79,189579,2,0,L|118:46,1,35
134,53,189936,2,0,B|458:105|343:222|223:244,1,385
94,146,191840,1,0,0:0:0:0:
130,119,192079,1,0,0:0:0:0:
155,105,192198,1,0,0:0:0:0:
192,90,192436,1,0,0:0:0:0:
243,74,192674,1,0,0:0:0:0:
182,73,193150,2,0,L|421:184,1,245
375,213,194102,1,0,0:0:0:0:
291,218,194579,1,0,0:0:0:0:
195,217,195174,1,0,0:0:0:0:
63,151,195531,1,0,0:0:0:0:
165,74,196245,1,0,0:0:0:0:
246,113,197317,2,0,L|429:247,1,210
190,221,198388,1,0,0:0:0:0:
153,82,199221,2,0,L|244:86,1,70
266,87,199817,1,0,0:0:0:0:
181,172,200055,2,0,L|259:176,1,70
294,171,200531,1,0,0:0:0:0:
121,29,201126,2,0,L|135:260,1,210
145,162,202674,1,0,0:0:0:0:
292,93,203031,1,0,0:0:0:0:
287,96,203269,1,0,0:0:0:0:
191,165,203745,1,0,0:0:0:0:
134,104,203864,1,0,0:0:0:0:
299,126,204460,1,0,0:0:0:0:
386,240,204817,1,0,0:0:0:0:
138,218,205293,1,0,0:0:0:0:
326,110,205769,1,0,0:0:0:0:
117,80,206126,1,0,0:0:0:0:
256,192,206721,12,0,208388,0:0:0:0:
248,193,208507,6,0,P|106:187|100:116,1,210
94,41,209936,5,0,0:0:0:0:
154,118,210412,2,0,L|239:195,1,105
318,98,211602,1,0,0:0:0:0:
386,128,212079,2,0,L|228:331,1,245
116,105,213626,1,0,0:0:0:0:
199,106,213864,2,0,L|269:106,1,70
314,100,214460,1,0,0:0:0:0:
152,164,214936,1,0,0:0:0:0:
170,166,215174,2,0,L|262:166,1,70
295,171,215531,1,0,0:0:0:0:
54,51,216007,2,0,L|52:195,1,140
12,68,217317,1,0,0:0:0:0:
21,154,217555,1,0,0:0:0:0:
13,197,217793,2,0,L|119:342,1,175
174,299,218626,1,0,0:0:0:0:
224,255,218864,1,0,0:0:0:0:
271,256,219221,1,0,0:0:0:0:
328,276,219460,2,0,L|523:286,1,175
256,192,221364,12,0,223269,0:0:0:0:
255,184,223388,6,0,B|142:152|118:109|32:130,1,210
2,120,224340,5,0,0:0:0:0:
27,215,224698,1,0,0:0:0:0:
133,277,224817,1,0,0:0:0:0:
190,255,225293,1,0,0:0:0:0:
364,272,225769,1,0,0:0:0:0:
405,207,226245,1,0,0:0:0:0:
412,149,226602,2,0,L|93:9,1,315
315,194,228031,2,0,P|178:187|164:158,1,175
119,88,228864,1,0,0:0:0:0:
161,77,229102,1,0,0:0:0:0:
214,71,229221,1,0,0:0:0:0:
272,64,229460,1,0,0:0:0:0:
305,60,229698,2,0,L|383:62,1,70
383,108,230055,1,0,0:0:0:0:
390,182,230412,1,0,0:0:0:0:
426,210,230650,2,0,L|112:266,1,315
95,212,232436,1,0,0:0:0:0:
117,117,233031,5,0,0:0:0:0:
265,168,233388,1,0,0:0:0:0:
225,264,233507,1,0,0:0:0:0:
399,149,233745,1,0,0:0:0:0:
161,155,233983,1,0,0:0:0:0:
135,146,234460,2,0,L|365:104,1,210
305,293,235888,2,0,B|465:289|465:289|465:158|465:158|465:17|465:17|273:17|273:17|277:95|277:95|284:277|284:277|191:194|225:110|155:126|106:183|69:-25|-118:339|103:273|109:359|212:364|252:224|252:224|297:160|297:160|463:158|463:158|463:226|463:226|285:229|285:229|282:97|282:97|446:97|446:97|285:101|285:101|278:263|278:263|197:217|197:217|121:149|79:197|63:220|104:270|125:273|146:285|195:282|201:257|247:260|119:218|119:218,1,3045
