osu file format v14

[General]
AudioFilename: Will Ryan - Break My Mind.mp3
AudioLeadIn: 0
PreviewTime: 44453
Countdown: 1
SampleSet: Normal
StackLeniency: 0.5
Mode: 0
LetterboxInBreaks: 1
WidescreenStoryboard: 1
SamplesMatchPlaybackRate: 1

[Editor]
DistanceSpacing: 0.8
BeatDivisor: 6
GridSize: 4
TimelineZoom: 1.2

[Metadata]
Title:Break my mind
TitleUnicode:Break my mind
Artist:DAGames - Will Ryan
ArtistUnicode:DAGames - Will Ryan
Creator:natsudens
Version:New Normal
Source:Five Nights at Freddy's 4
Tags:Five Nights at Freddy's Game Series
BeatmapID:874515
BeatmapSetID:368009

[Difficulty]
HPDrainRate:3
CircleSize:3
OverallDifficulty:2
ApproachRate:2
SliderMultiplier:2
SliderTickRate:1

[Events]
//Background and Video events
0,0,"they're here!.png",0,0
Video,0,"Break my mind.avi"
//Break Periods
2,66807,71970
//Storyboard Layer 0 (Background)
//Storyboard Layer 1 (Fail)
//Storyboard Layer 2 (Pass)
//Storyboard Layer 3 (Foreground)
//Storyboard Sound Samples

[TimingPoints]
607,461.538461538462,4,1,1,80,1,0
51837,-100,4,1,1,80,0,1
67068,-100,4,1,1,80,0,0
110914,-100,4,1,1,80,0,1
129837,-100,4,1,1,80,0,0
172299,-200,4,2,1,80,0,0
190760,-100,4,1,1,80,0,0
192145,-100,4,1,1,80,0,1
225837,-100,4,1,1,80,0,0

[Colours]
Combo1 : 36,36,36
Combo2 : 84,4,181
Combo3 : 111,55,0
Combo4 : 198,0,0
Combo5 : 255,255,9
Combo6 : 255,94,255

[HitObjects]
56,156,14914,6,0,P|116:48|192:64,1,200,8|0,0:0|0:0,0:0:0:0:
204,212,15837,1,4,0:0:0:0:
72,304,16299,2,0,P|168:296|200:196,1,200,0|8,0:0|0:0,0:0:0:0:
56,156,17222,1,0,0:0:0:0:
176,54,17683,1,4,0:0:0:0:
356,320,18607,6,8,P|384:232|496:232,2,200,8|0|8,0:0|0:0|0:0,0:0:0:0:
268,188,19991,2,0,P|348:200|388:84,2,200,0|8|0,0:0|0:0|0:0,0:0:0:0:
268,28,21376,1,12,0:0:0:0:
92,296,22299,2,0,P|160:212|96:164,2,200,0|0|8,0:0|0:0|0:0,0:0:0:0:
232,216,23683,1,0,0:0:0:0:
360,120,24145,2,0,P|300:204|376:264,2,200,8|0|0,0:0|0:0|0:0,0:0:0:0:
200,104,25530,6,0,L|12:192,1,200,0|8,0:0|0:0,0:0:0:0:
180,192,26453,1,0,0:0:0:0:
20,192,26914,2,0,L|204:284,1,200,8|0,0:0|0:0,0:0:0:0:
332,192,27837,1,8,0:0:0:0:
172,192,28299,2,0,P|256:140|336:204,1,200
252,332,29222,1,4,0:0:0:0:
412,336,29683,6,2,L|412:120,1,200
304,16,30607,2,2,L|304:244,1,200
144,220,31530,2,0,P|232:164|308:228,2,200,8|0|12,0:0|0:0|0:0,0:0:0:0:
464,208,33376,6,0,L|288:64,1,200
148,76,34299,1,8,0:0:0:0:
56,208,34760,1,8,0:0:0:0:
156,332,35222,2,2,B|212:228|212:228|232:272|284:272,1,200
436,272,36145,1,12,0:0:0:0:
100,208,37068,22,0,B|20:148|20:148|20:44,1,200,8|0,0:0|0:0,0:0:0:0:
180,48,37991,1,0,0:0:0:0:
252,192,38453,1,0,0:0:0:0:
320,48,38914,2,2,B|432:48|432:48|480:128,2,200,10|2|14,0:0|0:0|0:0,0:0:0:0:
392,192,40299,37,8,0:0:0:0:
484,320,40760,1,8,0:0:0:0:
396,188,41222,2,0,P|396:300|312:320,1,200
168,324,42145,1,8,0:0:0:0:
8,324,42607,2,0,B|72:264|72:264|72:136,1,200,0|4,0:0|0:0,0:0:0:0:
256,192,43530,12,4,44453,0:0:0:0:
64,280,44914,54,0,B|64:180|64:180|96:124|160:136,1,200
152,240,45683,1,8,0:0:0:0:
336,132,46299,2,0,B|272:164|280:208|312:216|336:256|312:280|256:300,2,200,0|0|8,0:0|0:0|0:0,0:0:0:0:
388,224,47530,1,12,0:0:0:0:
384,12,48145,1,4,0:0:0:0:
264,116,48607,1,4,0:0:0:0:
388,224,49068,1,4,0:0:0:0:
256,192,49530,12,0,51376,0:0:0:0:
136,296,51837,5,4,0:0:0:0:
256,192,52299,1,4,0:0:0:0:
136,80,52760,1,4,0:0:0:0:
296,80,53222,1,12,0:0:0:0:
372,220,53683,2,2,L|512:364,1,200,2|10,0:0|0:0,0:0:0:0:
356,324,54607,2,2,L|212:172,1,200,10|2,0:0|0:0,0:0:0:0:
68,128,55530,38,2,P|132:72|220:136,2,200,8|2|10,0:0|0:0|0:0,0:0:0:0:
148,264,56914,1,8,0:0:0:0:
252,144,57376,2,0,L|356:28,1,133.333333333333,4|0,0:0|0:0,0:0:0:0:
364,148,57991,2,0,L|464:244,1,133.333333333333,12|0,0:0|0:0,0:0:0:0:
352,248,58607,2,2,L|244:368,1,133.333333333333,4|0,0:0|0:0,0:0:0:0:
156,348,59222,22,0,B|68:276|68:276|68:176,3,200,4|0|8|8,0:0|0:0|0:0|0:0,0:0:0:0:
68,28,61068,1,0,0:0:0:0:
200,120,61530,1,8,0:0:0:0:
336,36,61991,1,8,0:0:0:0:
472,124,62453,1,0,0:0:0:0:
356,232,62914,38,0,P|324:288|392:248,3,200,2|8|2|8,0:0|0:0|0:0|0:0,0:0:0:0:
236,264,64760,2,0,B|180:184|180:184|72:184,1,200,8|2,0:0|0:0,0:0:0:0:
184,64,65683,2,0,B|252:152|252:152|364:152,1,200,8|2,0:0|0:0,0:0:0:0:
252,284,66607,1,4,0:0:0:0:
380,304,73530,22,0,P|396:260|404:332,1,200
276,276,74453,1,8,0:0:0:0:
116,272,74914,2,0,P|200:220|276:288,1,200,0|8,0:0|0:0,0:0:0:0:
276,116,75837,2,0,P|372:172|432:116,1,200,8|0,0:0|0:0,0:0:0:0:
352,264,76760,1,4,0:0:0:0:
116,48,77683,37,8,0:0:0:0:
212,176,78145,1,0,0:0:0:0:
116,304,78607,1,8,0:0:0:0:
276,308,79068,1,0,0:0:0:0:
116,304,79530,2,0,L|116:92,1,200
116,104,80453,1,12,0:0:0:0:
432,152,81376,70,0,P|376:92|296:176,2,200,8|2|8,0:0|0:0|0:0,0:0:0:0:
364,296,82760,1,4,0:0:0:0:
220,364,83222,2,0,B|292:292|292:292|204:204,2,200,2|8|2,0:0|0:0|0:0,0:0:0:0:
140,224,84607,69,4,0:0:0:0:
140,224,85068,2,0,B|172:108|172:108|212:144|252:124,1,200
308,276,85991,1,0,0:0:0:0:
460,224,86453,2,0,B|432:112|432:112|380:152|332:112,1,200
308,276,87376,1,4,0:0:0:0:
304,116,87837,1,12,0:0:0:0:
144,128,88299,2,2,P|156:76|184:148,1,200
156,304,89222,21,8,0:0:0:0:
316,308,89683,2,2,P|340:220|432:236,1,200,0|8,0:0|0:0,0:0:0:0:
304,136,90607,2,2,P|396:124|388:24,1,200
236,36,91530,1,12,0:0:0:0:
36,288,92453,22,8,L|160:128,1,200
320,132,93376,1,0,0:0:0:0:
158,129,93837,1,8,0:0:0:0:
280,232,94299,2,2,B|384:232|384:232|424:324,1,200,0|8,0:0|0:0,0:0:0:0:
264,320,95222,1,4,0:0:0:0:
48,84,96145,6,0,B|144:84|144:84|204:96|224:156,2,200,0|0|8,0:0|0:0|0:0,0:0:0:0:
140,216,97530,1,4,0:0:0:0:
232,348,97991,2,0,B|128:348|128:348|80:324|48:260,2,200,0|8|8,0:0|0:0|0:0,0:0:0:0:
140,216,99376,21,12,0:0:0:0:
288,152,99837,2,0,P|216:96|144:160,2,200,0|10|0,0:0|0:0|0:0,0:0:0:0:
448,156,101222,1,8,0:0:0:0:
328,260,101683,2,0,P|396:288|312:292,2,200,10|0|10,0:0|0:0|0:0,0:0:0:0:
168,260,103068,1,4,0:0:0:0:
28,340,103530,69,12,0:0:0:0:
168,260,103991,2,0,B|168:160|168:160|200:104|264:116,1,200
248,220,104760,1,0,0:0:0:0:
432,112,105376,2,0,B|368:144|376:188|408:196|432:236|408:260|352:280,2,200
324,112,106607,1,4,0:0:0:0:
112,112,107222,1,12,0:0:0:0:
184,256,107684,1,12,0:0:0:0:
344,256,108145,1,12,0:0:0:0:
256,192,108607,12,0,110453,0:0:0:0:
192,256,110914,22,12,P|192:160|288:144,2,200
112,120,112299,1,0,0:0:0:0:
260,56,112760,2,4,P|344:88|344:192,2,200
260,216,114145,1,12,0:0:0:0:
100,216,114607,6,0,B|100:320|100:320|188:396,2,200,0|0|8,0:0|0:0|0:0,0:0:0:0:
104,56,115991,1,8,0:0:0:0:
216,172,116453,1,0,0:0:0:0:
280,84,116760,1,0,0:0:0:0:
340,172,117068,1,8,0:0:0:0:
400,84,117376,1,0,0:0:0:0:
460,172,117684,2,10,L|368:288,1,133.333333333333
272,276,118299,21,4,0:0:0:0:
112,276,118760,1,4,0:0:0:0:
196,140,119222,1,12,0:0:0:0:
272,276,119683,1,12,0:0:0:0:
432,284,120145,2,0,P|348:220|304:284,1,200
368,128,121068,1,2,0:0:0:0:
208,124,121530,1,2,0:0:0:0:
48,124,121991,22,8,P|-16:192|56:256,3,200,8|8|8|0,0:0|0:0|0:0|0:0,0:0:0:0:
204,260,123837,1,0,0:0:0:0:
364,260,124299,1,0,0:0:0:0:
280,124,124760,2,4,B|344:124|344:124|384:68,2,133.333333333333,12|12|4,0:0|0:0|0:0,0:0:0:0:
256,192,125683,12,0,127068,0:0:0:0:
256,192,127530,12,4,129376,0:0:0:0:
200,316,129837,69,0,0:0:0:0:
80,212,130299,1,0,0:0:0:0:
116,172,130453,1,8,0:0:0:0:
152,132,130607,1,0,0:0:0:0:
188,92,130760,1,8,0:0:0:0:
348,96,131222,1,0,0:0:0:0:
460,212,131683,1,0,0:0:0:0:
344,324,132145,1,8,0:0:0:0:
236,208,132607,1,8,0:0:0:0:
120,316,133068,6,0,B|148:208|148:208|264:208,1,200
76,204,133991,1,8,0:0:0:0:
184,84,134453,1,0,0:0:0:0:
344,80,134914,2,2,P|264:32|184:92,3,200,2|10|10|6,0:0|0:0|0:0|0:0,0:0:0:0:
116,284,137222,5,8,0:0:0:0:
280,284,137683,2,0,P|340:224|268:152,1,200
408,56,138607,1,8,0:0:0:0:
248,56,139068,1,8,0:0:0:0:
96,112,139530,2,2,P|96:308|92:316,1,200,2|10,0:0|0:0,0:0:0:0:
416,308,140914,5,0,0:0:0:0:
416,148,141376,1,8,0:0:0:0:
292,48,141837,1,8,0:0:0:0:
144,108,142299,2,0,P|220:168|292:108,1,200
288,272,143222,2,12,P|408:232|440:288,1,200
296,48,144453,5,0,0:0:0:0:
296,48,144607,2,0,P|224:112|160:48,1,200,8|0,0:0|0:0,0:0:0:0:
228,200,145530,1,8,0:0:0:0:
68,200,145991,2,0,B|68:340|68:340|156:340,1,200
288,340,146914,2,0,B|416:340|416:340|416:252,1,200,8|8,0:0|0:0,0:0:0:0:
412,108,147837,37,0,0:0:0:0:
252,108,148299,1,4,0:0:0:0:
168,244,148760,2,0,B|116:152|116:152|8:152,1,200,8|0,0:0|0:0,0:0:0:0:
180,152,149683,1,0,0:0:0:0:
252,296,150145,1,0,0:0:0:0:
316,152,150607,2,2,B|372:248|372:248|472:248,1,200,2|10,0:0|0:0,0:0:0:0:
428,144,151376,1,12,0:0:0:0:
252,24,151991,21,0,0:0:0:0:
248,184,152453,2,2,B|184:80|184:80|76:80,1,200,10|2,0:0|0:0,0:0:0:0:
60,232,153376,69,12,0:0:0:0:
220,236,153837,37,4,0:0:0:0:
344,340,154299,2,0,B|404:300|428:260|428:260|428:164,1,200
428,16,155222,1,0,0:0:0:0:
316,128,155683,1,8,0:0:0:0:
200,236,156145,1,8,0:0:0:0:
316,128,156607,1,8,0:0:0:0:
156,128,157068,2,0,P|184:76|284:140,2,200
224,272,158453,1,4,0:0:0:0:
364,192,158914,6,0,P|308:252|372:340,2,200,8|8|8,0:0|0:0|0:0,0:0:0:0:
224,264,160299,1,0,0:0:0:0:
384,264,160760,1,0,0:0:0:0:
224,264,161222,1,8,0:0:0:0:
136,204,161530,2,0,P|196:284|128:348,2,200,8|0|2,0:0|0:0|0:0,0:0:0:0:
32,16,163068,37,0,0:0:0:0:
124,148,163530,1,8,0:0:0:0:
220,20,163991,1,0,0:0:0:0:
312,152,164453,1,8,0:0:0:0:
412,28,164914,1,0,0:0:0:0:
312,152,165376,1,8,0:0:0:0:
220,20,165837,1,0,0:0:0:0:
124,148,166299,1,12,0:0:0:0:
128,308,166760,54,0,B|216:308|216:308|216:188,1,200,0|8,0:0|0:0,0:0:0:0:
376,200,167683,1,0,0:0:0:0:
216,196,168145,2,0,B|216:80|216:80|120:80,1,200
56,160,168914,1,0,0:0:0:0:
268,160,169530,1,12,0:0:0:0:
268,160,169837,1,4,0:0:0:0:
128,320,170453,2,2,P|208:264|280:328,1,200,0|8,0:0|0:0,0:0:0:0:
268,160,171376,2,2,P|332:216|424:152,1,200,10|2,0:0|0:0,0:0:0:0:
256,192,172299,12,0,173222,0:0:0:0:
160,104,173683,54,0,P|96:104|32:216,1,200,6|2,0:0|0:0,0:0:0:0:
192,224,175530,6,2,P|248:272|176:256,1,200,8|8,0:0|0:0,0:0:0:0:
224,104,177376,6,2,P|312:104|368:192,1,200,10|2,0:0|0:0,0:0:0:0:
208,208,179221,6,2,P|144:232|144:264,2,100,0|4|4,0:0|0:0|0:0,0:0:0:0:
336,112,181067,5,8,0:0:0:0:
176,112,181990,1,8,0:0:0:0:
176,192,182453,2,2,P|160:248|112:256,2,100
256,188,183837,1,12,0:0:0:0:
336,192,184299,2,2,P|336:248|376:276,1,100,2|10,0:0|0:0,0:0:0:0:
208,300,185683,5,0,0:0:0:0:
212,220,186145,1,0,0:0:0:0:
192,144,186607,2,2,P|160:336|232:144,1,600,6|2,0:0|0:0,0:0:0:0:
48,204,192145,22,0,B|112:124|112:124|168:204,2,200
108,292,193375,1,12,0:0:0:0:
108,292,193529,1,12,0:0:0:0:
268,292,193991,2,0,L|424:140,1,200
252,148,194914,2,0,B|164:232|164:232|80:232,1,200
176,100,195836,6,0,P|244:44|328:108,2,200,0|8|8,0:0|0:0|0:0,0:0:0:0:
260,168,197067,1,0,0:0:0:0:
260,168,197221,1,4,0:0:0:0:
144,280,197683,2,0,L|240:180,2,133.333333333333
120,176,198607,2,8,L|8:292,2,133.333333333333
196,100,199530,5,0,0:0:0:0:
356,100,199991,1,0,0:0:0:0:
408,252,200453,1,0,0:0:0:0:
248,252,200914,1,0,0:0:0:0:
196,100,201376,1,8,0:0:0:0:
36,100,201837,1,8,0:0:0:0:
108,180,202145,2,0,L|160:252,1,66.6666666666667
256,232,202607,2,0,L|204:160,1,66.6666666666667
368,232,203222,38,0,P|340:308|396:252,3,200
240,268,205068,2,0,B|164:176|164:176|80:176,1,200
192,60,205991,2,0,B|260:144|260:144|356:144,1,200
256,192,206914,12,0,208299,0:0:0:0:
256,192,208759,12,0,210144,0:0:0:0:
188,64,210607,69,0,0:0:0:0:
84,184,211067,1,8,0:0:0:0:
188,304,211530,1,0,0:0:0:0:
352,308,211990,1,8,0:0:0:0:
460,192,212453,1,0,0:0:0:0:
348,76,212913,1,0,0:0:0:0:
240,72,213222,2,0,B|316:152|316:152|240:228,1,200
212,252,213837,2,6,B|164:300|164:300|228:356,1,133.333333333333,14|14,0:0|0:0,0:0:0:0:
52,332,214607,69,0,0:0:0:0:
52,332,214759,1,0,0:0:0:0:
140,268,215068,2,0,L|92:204,1,66.6666666666667
500,64,216453,53,0,0:0:0:0:
448,64,216607,1,0,0:0:0:0:
340,64,216914,2,0,L|284:136,1,66.6666666666667
24,124,217990,54,0,P|88:196|24:260,2,200,2|0|2,0:0|0:0|0:0,0:0:0:0:
172,188,219376,1,0,0:0:0:0:
332,188,219837,1,0,0:0:0:0:
420,128,220145,1,0,0:0:0:0:
428,236,220453,1,0,0:0:0:0:
332,188,220760,1,0,0:0:0:0:
172,188,221222,1,0,0:0:0:0:
256,192,221682,12,0,223067,0:0:0:0:
256,192,223530,12,0,225376,0:0:0:0:
