osu file format v14

[General]
AudioFilename: Will Ryan - Break My Mind.mp3
AudioLeadIn: 0
PreviewTime: 44453
Countdown: 1
SampleSet: Normal
StackLeniency: 0.5
Mode: 0
LetterboxInBreaks: 1
WidescreenStoryboard: 1

[Editor]
DistanceSpacing: 0.8
BeatDivisor: 6
GridSize: 4
TimelineZoom: 1.2

[Metadata]
Title:Break my mind
TitleUnicode:Break my mind
Artist:DAGames - Will Ryan
ArtistUnicode:DAGames - Will Ryan
Creator:natsudens
Version:Hard
Source:Five Nights at Freddy's 4
Tags:Five Nights at Freddy's Game Series
BeatmapID:806990
BeatmapSetID:368009

[Difficulty]
HPDrainRate:6
CircleSize:5
OverallDifficulty:5
ApproachRate:5
SliderMultiplier:2
SliderTickRate:1

[Events]
//Background and Video events
0,0,"they're here!.png",0,0
Video,0,"Break my mind.avi"
//Break Periods
2,66807,69099
2,189576,190944
//Storyboard Layer 0 (Background)
//Storyboard Layer 1 (Fail)
//Storyboard Layer 2 (Pass)
//Storyboard Layer 3 (Foreground)
//Storyboard Sound Samples
Sample,87222,0,"Break my mind.mp3",70
Sample,87222,0,"Break my mind.mp3",70

[TimingPoints]
607,461.538461538462,4,1,0,80,1,0
51837,-100,4,1,0,80,0,1
67068,-100,4,1,0,80,0,0
110914,-100,4,1,0,80,0,1
129837,-100,4,1,0,80,0,0
172299,-200,4,2,0,80,0,0
190760,-100,4,1,0,80,0,0
192145,-100,4,1,0,80,0,1
225837,-100,4,1,0,80,0,0

[Colours]
Combo1 : 36,36,36
Combo2 : 84,4,181
Combo3 : 111,55,0
Combo4 : 198,0,0
Combo5 : 255,255,9
Combo6 : 255,94,255

[HitObjects]
96,280,14914,6,0,P|128:200|184:200,1,133.333333333333,0|8,0:0|0:0,0:0:0:0:
216,192,15376,2,0,P|248:112|304:112,1,133.333333333333,0|8,0:0|0:0,0:0:0:0:
336,112,15837,2,0,P|376:88|336:144,2,200,0|8|0,0:0|0:0|0:0,0:0:0:0:
288,264,17222,1,0,0:0:0:0:
180,264,17530,1,8,0:0:0:0:
180,212,17683,1,8,0:0:0:0:
68,96,18145,37,0,0:0:0:0:
120,80,18299,1,0,0:0:0:0:
172,64,18453,1,0,0:0:0:0:
224,52,18607,2,2,P|288:116|208:180,2,200,8|8|8,0:0|0:0|0:0,0:0:0:0:
140,188,19991,2,0,B|92:244|92:244|28:244,1,133.333333333333,8|0,0:0|0:0,0:0:0:0:
60,292,20453,2,0,B|116:356|116:356|172:356,1,133.333333333333,8|0,0:0|0:0,0:0:0:0:
216,352,20914,1,8,0:0:0:0:
296,280,21222,1,0,0:0:0:0:
348,280,21376,1,8,0:0:0:0:
476,188,21837,53,8,0:0:0:0:
424,172,21991,1,0,0:0:0:0:
372,156,22145,1,8,0:0:0:0:
320,140,22299,2,0,P|384:88|316:24,2,200,0|8|0,0:0|0:0|0:0,0:0:0:0:
212,132,23530,1,8,0:0:0:0:
160,132,23683,1,0,0:0:0:0:
96,216,23991,1,0,0:0:0:0:
96,268,24145,2,0,P|160:332|224:268,2,200,8|8|8,0:0|0:0|0:0,0:0:0:0:
232,184,25530,5,0,0:0:0:0:
276,212,25683,1,0,0:0:0:0:
320,240,25837,1,8,0:0:0:0:
364,268,25991,1,8,0:0:0:0:
440,196,26299,1,0,0:0:0:0:
440,144,26453,1,8,0:0:0:0:
376,60,26760,1,0,0:0:0:0:
324,60,26914,1,8,0:0:0:0:
256,140,27222,1,8,0:0:0:0:
256,192,27376,1,0,0:0:0:0:
180,268,27683,1,8,0:0:0:0:
140,304,27837,2,0,L|36:176,1,133.333333333333,0|8,0:0|0:0,0:0:0:0:
96,164,28299,2,0,L|208:52,1,133.333333333333,8|0,0:0|0:0,0:0:0:0:
244,68,28760,1,0,0:0:0:0:
336,200,29222,2,0,P|360:132|368:212,1,200,8|4,0:0|0:0,0:0:0:0:
284,332,30145,21,0,0:0:0:0:
176,332,30453,1,0,0:0:0:0:
176,280,30607,2,0,B|104:280|104:280|56:212,1,133.333333333333
68,176,31068,1,8,0:0:0:0:
108,140,31222,1,8,0:0:0:0:
148,104,31376,1,0,0:0:0:0:
200,104,31530,2,0,P|255:143|294:91,1,133.333333333333,0|8,0:0|0:0,0:0:0:0:
346,103,31991,2,0,P|401:66|448:114,1,133.333333333333
448,156,32453,1,8,0:0:0:0:
446,262,32760,5,8,0:0:0:0:
397,285,32914,1,8,0:0:0:0:
349,310,33068,1,0,0:0:0:0:
301,333,33222,1,0,0:0:0:0:
248,339,33376,2,0,P|197:301|151:354,1,133.333333333333
112,303,33837,2,0,B|48:246|48:246|48:183,1,133.333333333333,8|0,0:0|0:0,0:0:0:0:
53,144,34299,1,0,0:0:0:0:
122,62,34607,1,8,0:0:0:0:
122,62,34760,1,0,0:0:0:0:
181,150,35068,1,8,0:0:0:0:
234,150,35222,2,0,B|234:70|234:70|282:30,1,133.333333333333,0|8,0:0|0:0,0:0:0:0:
328,34,35683,2,0,B|368:74|368:74|368:154,1,133.333333333333,0|8,0:0|0:0,0:0:0:0:
421,150,36145,1,12,0:0:0:0:
491,229,36453,37,0,0:0:0:0:
439,244,36607,1,0,0:0:0:0:
388,260,36760,1,8,0:0:0:0:
337,276,36914,1,0,0:0:0:0:
285,289,37068,2,0,B|215:368|215:368|100:367,1,200,8|0,0:0|0:0,0:0:0:0:
120,260,37837,1,0,0:0:0:0:
120,260,37991,2,0,B|85:132|85:132|-12:131,1,200
75,41,38760,1,8,0:0:0:0:
128,41,38914,2,0,B|240:41|240:41|288:121,2,200,0|8|0,0:0|0:0|0:0,0:0:0:0:
126,147,40145,69,8,0:0:0:0:
167,180,40299,1,0,0:0:0:0:
209,211,40453,1,8,0:0:0:0:
252,242,40607,1,8,0:0:0:0:
293,275,40760,2,0,L|293:111,1,133.333333333333,8|0,0:0|0:0,0:0:0:0:
341,118,41222,2,2,L|341:255,1,133.333333333333,2|10,0:0|0:0,0:0:0:0:
389,228,41683,2,0,L|390:73,1,133.333333333333,8|0,0:0|0:0,0:0:0:0:
437,70,42145,2,2,L|437:229,1,133.333333333333,2|10,0:0|0:0,0:0:0:0:
429,256,42607,2,0,L|301:355,1,133.333333333333
270,335,43068,1,8,0:0:0:0:
163,335,43376,21,0,0:0:0:0:
128,294,43530,2,2,P|48:254|52:190,1,133.333333333333
44,165,43991,1,0,0:0:0:0:
77,123,44145,1,8,0:0:0:0:
126,102,44299,1,8,0:0:0:0:
178,111,44453,1,12,0:0:0:0:
335,86,44914,37,4,0:0:0:0:
404,172,45222,1,4,0:0:0:0:
368,212,45376,1,12,0:0:0:0:
332,252,45530,1,12,0:0:0:0:
296,292,45683,1,4,0:0:0:0:
164,292,46068,53,4,0:0:0:0:
164,292,46222,1,4,0:0:0:0:
80,188,46607,1,12,0:0:0:0:
80,188,46760,1,12,0:0:0:0:
148,104,47068,1,4,0:0:0:0:
184,64,47222,1,12,0:0:0:0:
220,24,47376,1,4,0:0:0:0:
272,24,47530,1,12,0:0:0:0:
424,64,47991,5,4,0:0:0:0:
424,64,48145,1,12,0:0:0:0:
376,160,48453,1,12,0:0:0:0:
320,160,48607,1,4,0:0:0:0:
376,248,48914,1,12,0:0:0:0:
432,248,49068,1,4,0:0:0:0:
256,192,49530,12,4,51376,0:0:0:0:
136,296,51837,5,4,0:0:0:0:
256,192,52299,1,4,0:0:0:0:
136,80,52760,1,4,0:0:0:0:
240,80,53068,1,4,0:0:0:0:
240,80,53222,1,12,0:0:0:0:
296,168,53530,1,0,0:0:0:0:
352,168,53683,2,2,L|464:272,1,133.333333333333,10|2,0:0|0:0,0:0:0:0:
400,240,54145,2,0,L|312:344,1,133.333333333333,8|0,0:0|0:0,0:0:0:0:
328,288,54607,2,2,L|224:192,1,133.333333333333,10|10,0:0|0:0,0:0:0:0:
176,192,55068,1,8,0:0:0:0:
72,192,55376,37,0,0:0:0:0:
72,136,55530,2,0,P|136:80|224:144,2,200,8|0|8,0:0|0:0|0:0,0:0:0:0:
72,240,56760,1,0,0:0:0:0:
72,240,56914,1,8,0:0:0:0:
144,320,57222,1,8,0:0:0:0:
144,320,57376,2,2,L|248:208,1,133.333333333333,2|10,0:0|0:0,0:0:0:0:
344,224,57991,2,2,L|232:104,1,133.333333333333,2|10,0:0|0:0,0:0:0:0:
144,128,58607,2,2,L|32:240,1,133.333333333333,2|10,0:0|0:0,0:0:0:0:
104,224,59068,69,0,0:0:0:0:
160,224,59222,2,0,P|216:224|280:352,2,200,12|4|4,0:0|0:0|0:0,0:0:0:0:
224,136,60453,1,0,0:0:0:0:
280,136,60607,1,8,0:0:0:0:
344,48,60914,1,0,0:0:0:0:
344,48,61068,1,8,0:0:0:0:
400,144,61376,1,0,0:0:0:0:
456,144,61530,2,0,L|368:256,1,133.333333333333
376,192,61991,2,0,L|288:304,1,133.333333333333
240,296,62453,1,8,0:0:0:0:
240,192,62760,69,0,0:0:0:0:
184,184,62914,2,0,B|112:112|112:112|32:192,3,200,4|12|12|4,0:0|0:0|0:0|0:0,0:0:0:0:
112,264,64607,1,0,0:0:0:0:
168,264,64760,2,0,P|200:232|272:272,2,133.333333333333
224,168,65683,2,0,P|272:128|328:176,2,133.333333333333
120,168,66607,1,8,0:0:0:0:
56,184,70299,5,0,0:0:0:0:
216,184,70760,1,0,0:0:0:0:
216,344,71222,1,0,0:0:0:0:
216,184,71683,1,0,0:0:0:0:
376,184,72145,2,0,P|488:120|384:208,1,400,0|8,0:0|0:0,0:0:0:0:
244,280,73530,2,0,P|224:336|224:268,1,166.666666666667,0|12,0:0|0:0,0:0:0:0:
120,164,74299,5,0,0:0:0:0:
173,161,74453,2,0,L|272:44,1,133.333333333333,0|8,0:0|0:0,0:0:0:0:
312,58,74914,2,0,L|410:160,1,133.333333333333,8|0,0:0|0:0,0:0:0:0:
381,202,75376,1,0,0:0:0:0:
274,199,75683,1,0,0:0:0:0:
220,199,75837,1,8,0:0:0:0:
166,291,76145,1,8,0:0:0:0:
112,288,76299,1,0,0:0:0:0:
49,201,76607,1,8,0:0:0:0:
49,201,76760,1,8,0:0:0:0:
115,117,77068,5,0,0:0:0:0:
163,94,77222,1,8,0:0:0:0:
212,74,77376,1,8,0:0:0:0:
260,52,77530,1,0,0:0:0:0:
313,50,77683,2,0,B|385:50|385:50|441:122,1,133.333333333333
425,152,78145,1,0,0:0:0:0:
318,150,78453,1,0,0:0:0:0:
264,148,78607,2,2,B|184:148|184:148|136:204,1,133.333333333333
149,241,79068,1,0,0:0:0:0:
226,314,79376,1,0,0:0:0:0:
279,312,79530,2,0,P|351:312|375:264,1,133.333333333333,0|8,0:0|0:0,0:0:0:0:
347,217,79991,2,0,P|419:217|443:169,1,133.333333333333,0|8,0:0|0:0,0:0:0:0:
445,114,80453,1,8,0:0:0:0:
368,39,80760,37,0,0:0:0:0:
327,73,80914,1,0,0:0:0:0:
287,108,81068,1,0,0:0:0:0:
245,140,81222,1,8,0:0:0:0:
193,155,81376,2,0,P|153:99|57:179,2,200,8|2|2,0:0|0:0|0:0,0:0:0:0:
56,237,82760,1,0,0:0:0:0:
162,241,83068,1,0,0:0:0:0:
215,239,83222,2,0,B|287:159|287:159|199:79,2,200,2|8|2,0:0|0:0|0:0,0:0:0:0:
276,326,84453,5,0,0:0:0:0:
326,309,84607,1,8,0:0:0:0:
376,292,84760,1,0,0:0:0:0:
426,275,84914,1,0,0:0:0:0:
450,227,85068,2,0,P|402:187|354:235,1,133.333333333333,8|0,0:0|0:0,0:0:0:0:
348,172,85530,2,0,P|308:132|260:180,1,133.333333333333
252,121,85991,2,0,P|204:81|156:129,1,133.333333333333,8|0,0:0|0:0,0:0:0:0:
147,66,86453,2,0,P|107:26|59:74,1,133.333333333333
57,122,86914,1,8,0:0:0:0:
122,206,87222,1,0,0:0:0:0:
175,206,87376,1,8,0:0:0:0:
230,296,87683,1,8,0:0:0:0:
230,296,87837,1,8,0:0:0:0:
69,296,88299,2,2,P|21:364|89:328,1,200,0|4,0:0|0:0,0:0:0:0:
128,196,89222,53,0,0:0:0:0:
196,112,89530,1,0,0:0:0:0:
248,112,89684,2,2,B|312:112|312:112|360:176,1,133.333333333333,0|0,0:0|0:0,0:0:0:0:
400,192,90145,1,0,0:0:0:0:
396,300,90453,1,8,0:0:0:0:
344,300,90607,2,0,P|280:332|232:284,1,133.333333333333,0|8,0:0|0:0,0:0:0:0:
224,240,91068,2,0,P|160:272|112:224,1,133.333333333333,8|0,0:0|0:0,0:0:0:0:
64,240,91530,1,0,0:0:0:0:
64,136,91837,69,8,0:0:0:0:
104,104,91991,1,0,0:0:0:0:
144,72,92145,1,8,0:0:0:0:
184,40,92299,1,0,0:0:0:0:
240,40,92453,2,0,B|272:96|272:96|344:96,1,133.333333333333,8|0,0:0|0:0,0:0:0:0:
392,96,92914,2,0,B|456:128|456:128|456:208,1,133.333333333333
416,224,93376,1,12,0:0:0:0:
416,328,93684,1,0,0:0:0:0:
360,328,93837,1,0,0:0:0:0:
280,264,94145,1,0,0:0:0:0:
224,264,94299,2,0,B|152:264|152:264|112:200,1,133.333333333333,8|8,0:0|0:0,0:0:0:0:
64,208,94760,1,0,0:0:0:0:
64,104,95068,1,0,0:0:0:0:
120,104,95222,2,0,B|192:104|192:104|224:160,1,133.333333333333
280,160,95684,37,8,0:0:0:0:
336,160,95837,1,8,0:0:0:0:
392,160,95991,1,0,0:0:0:0:
448,160,96145,2,0,B|416:240|416:240|352:240,1,133.333333333333
312,240,96607,1,8,0:0:0:0:
248,328,96914,1,0,0:0:0:0:
248,328,97068,2,0,B|208:264|208:264|144:264,1,133.333333333333
96,264,97530,1,8,0:0:0:0:
96,160,97837,1,0,0:0:0:0:
96,104,97991,2,0,P|152:64|200:112,1,133.333333333333,0|8,0:0|0:0,0:0:0:0:
200,152,98453,2,0,P|256:192|304:144,1,133.333333333333,0|8,0:0|0:0,0:0:0:0:
304,104,98914,1,8,0:0:0:0:
408,104,99222,5,0,0:0:0:0:
432,152,99376,1,0,0:0:0:0:
424,208,99530,1,0,0:0:0:0:
384,248,99684,1,0,0:0:0:0:
336,280,99837,2,0,P|264:224|192:288,2,200,8|0|8,0:0|0:0|0:0,0:0:0:0:
336,176,101068,1,0,0:0:0:0:
280,176,101222,2,0,P|168:216|136:160,2,200,0|8|8,0:0|0:0|0:0,0:0:0:0:
208,96,102453,1,0,0:0:0:0:
264,96,102607,2,2,P|320:56|360:96,1,133.333333333333,2|10,0:0|0:0,0:0:0:0:
368,144,103068,1,8,0:0:0:0:
328,184,103222,1,0,0:0:0:0:
288,216,103376,1,0,0:0:0:0:
248,248,103530,1,12,0:0:0:0:
88,248,103991,53,4,0:0:0:0:
152,168,104299,1,4,0:0:0:0:
192,136,104453,1,12,0:0:0:0:
232,104,104607,1,12,0:0:0:0:
272,72,104760,1,4,0:0:0:0:
408,72,105145,5,12,0:0:0:0:
408,72,105299,1,4,0:0:0:0:
408,208,105683,1,12,0:0:0:0:
408,208,105837,1,4,0:0:0:0:
344,296,106145,1,4,0:0:0:0:
288,296,106299,1,12,0:0:0:0:
232,296,106453,1,4,0:0:0:0:
176,296,106607,1,12,0:0:0:0:
64,184,107068,37,8,0:0:0:0:
120,184,107222,1,4,0:0:0:0:
168,88,107530,1,12,0:0:0:0:
168,88,107684,1,12,0:0:0:0:
216,184,107991,1,4,0:0:0:0:
272,184,108145,1,12,0:0:0:0:
256,192,108607,12,12,110453,0:0:0:0:
192,256,110914,70,6,P|192:160|288:144,2,200
112,176,112145,1,4,0:0:0:0:
112,120,112299,1,12,0:0:0:0:
200,64,112607,69,0,0:0:0:0:
256,64,112760,2,0,P|336:80|376:184,2,200,0|8|8,0:0|0:0|0:0,0:0:0:0:
256,168,113991,1,0,0:0:0:0:
256,168,114145,1,0,0:0:0:0:
152,168,114453,2,0,L|96:232,1,66.6666666666667,0|8,0:0|0:0,0:0:0:0:
184,288,114914,2,0,L|248:344,1,66.6666666666667,0|8,0:0|0:0,0:0:0:0:
312,256,115376,2,0,L|360:200,1,66.6666666666667,8|0,0:0|0:0,0:0:0:0:
248,204,115837,1,8,0:0:0:0:
208,240,115991,1,0,0:0:0:0:
136,316,116299,37,0,0:0:0:0:
136,316,116453,2,0,L|136:236,9,66.6666666666667,8|8|0|8|8|0|8|8|0|8,0:0|0:0|0:0|0:0|0:0|0:0|0:0|0:0|0:0|0:0,0:0:0:0:
136,196,117991,1,8,0:0:0:0:
224,136,118299,6,6,P|280:200|216:288,2,200
308,72,119530,2,0,L|360:124,1,66.6666666666667,0|12,0:0|0:0,0:0:0:0:
428,196,119991,1,0,0:0:0:0:
384,228,120145,2,0,B|340:180|340:180|292:232,1,133.333333333333
240,228,120607,2,0,B|192:276|192:276|144:228,1,133.333333333333
108,192,121068,1,8,0:0:0:0:
108,84,121376,1,8,0:0:0:0:
108,84,121530,1,8,0:0:0:0:
216,80,121837,5,0,0:0:0:0:
268,80,121991,2,2,P|352:100|360:152,1,133.333333333333
312,160,122453,2,0,P|316:212|392:252,1,133.333333333333,8|8,0:0|0:0,0:0:0:0:
432,256,122914,2,2,P|428:316|360:352,1,133.333333333333
316,352,123376,1,0,0:0:0:0:
252,268,123683,1,0,0:0:0:0:
200,268,123837,1,8,0:0:0:0:
128,188,124145,1,8,0:0:0:0:
128,188,124299,1,0,0:0:0:0:
204,112,124607,1,8,0:0:0:0:
204,112,124760,2,0,B|268:112|268:112|308:56,2,133.333333333333,8|0|8,0:0|0:0|0:0,0:0:0:0:
256,192,125683,12,12,127068,0:0:0:0:
256,192,127530,12,4,129376,0:0:0:0:
192,160,129837,37,0,0:0:0:0:
352,160,130299,1,8,0:0:0:0:
392,200,130453,1,8,0:0:0:0:
432,240,130607,1,0,0:0:0:0:
472,280,130760,1,8,0:0:0:0:
368,288,131068,5,0,0:0:0:0:
344,240,131222,1,0,0:0:0:0:
320,192,131376,1,8,0:0:0:0:
264,192,131530,1,0,0:0:0:0:
240,240,131683,1,8,0:0:0:0:
216,288,131837,1,0,0:0:0:0:
160,288,131991,1,8,0:0:0:0:
136,240,132145,1,8,0:0:0:0:
112,192,132299,1,0,0:0:0:0:
56,192,132453,1,0,0:0:0:0:
56,192,132607,1,8,0:0:0:0:
56,88,132914,21,0,0:0:0:0:
112,88,133068,1,0,0:0:0:0:
112,88,133222,1,8,0:0:0:0:
216,88,133530,2,0,L|256:168,1,66.6666666666667,0|8,0:0|0:0,0:0:0:0:
352,144,133991,1,0,0:0:0:0:
456,144,134299,1,8,0:0:0:0:
480,192,134453,1,0,0:0:0:0:
464,240,134607,1,8,0:0:0:0:
416,272,134760,1,0,0:0:0:0:
364,272,134914,2,0,P|288:216|216:280,3,200,2|0|2|4,0:0|0:0|0:0|0:0,0:0:0:0:
32,144,136991,5,0,0:0:0:0:
56,96,137145,1,0,0:0:0:0:
96,64,137299,1,0,0:0:0:0:
176,64,137530,1,0,0:0:0:0:
232,64,137683,2,0,P|296:112|232:192,1,200,0|8,0:0|0:0,0:0:0:0:
76,192,138607,1,0,0:0:0:0:
76,244,138760,1,0,0:0:0:0:
104,288,138914,1,8,0:0:0:0:
140,328,139068,1,8,0:0:0:0:
192,340,139222,1,0,0:0:0:0:
244,324,139376,2,0,L|316:324,1,66.6666666666667,0|8,0:0|0:0,0:0:0:0:
312,272,139683,2,0,L|408:272,1,66.6666666666667,8|0,0:0|0:0,0:0:0:0:
432,272,139991,1,0,0:0:0:0:
432,220,140145,1,0,0:0:0:0:
448,36,140683,53,0,0:0:0:0:
448,88,140837,1,8,0:0:0:0:
404,120,140991,1,0,0:0:0:0:
324,120,141222,1,0,0:0:0:0:
276,96,141376,2,0,L|220:32,1,66.6666666666667
196,84,141683,2,0,L|132:148,1,66.6666666666667,0|8,0:0|0:0,0:0:0:0:
72,208,142145,54,0,L|120:272,1,66.6666666666667,0|8,0:0|0:0,0:0:0:0:
164,264,142453,1,8,0:0:0:0:
212,284,142607,1,8,0:0:0:0:
260,304,142760,1,0,0:0:0:0:
308,324,142914,1,0,0:0:0:0:
356,344,143068,1,0,0:0:0:0:
408,324,143222,2,0,L|456:260,3,66.6666666666667,8|8|8|0,0:0|0:0|0:0|0:0,0:0:0:0:
440,4,144453,69,0,0:0:0:0:
408,44,144607,2,0,P|336:108|272:44,1,200
220,48,145222,1,0,0:0:0:0:
168,48,145376,1,8,0:0:0:0:
116,48,145530,1,8,0:0:0:0:
84,148,145837,22,0,L|84:236,1,66.6666666666667,0|8,0:0|0:0,0:0:0:0:
136,220,146145,2,0,L|136:292,1,66.6666666666667,8|0,0:0|0:0,0:0:0:0:
188,288,146453,2,0,L|188:376,1,66.6666666666667,0|8,0:0|0:0,0:0:0:0:
240,344,146760,1,8,0:0:0:0:
288,324,146914,1,0,0:0:0:0:
336,296,147068,2,0,L|400:256,2,66.6666666666667,0|8|8,0:0|0:0|0:0,0:0:0:0:
332,188,147683,21,0,0:0:0:0:
380,168,147837,1,0,0:0:0:0:
428,148,147991,1,0,0:0:0:0:
428,40,148299,2,0,P|420:88|332:120,1,133.333333333333,0|8,0:0|0:0,0:0:0:0:
296,124,148760,2,0,B|256:68|256:68|192:68,1,133.333333333333,8|0,0:0|0:0,0:0:0:0:
160,112,149222,1,0,0:0:0:0:
124,152,149376,1,0,0:0:0:0:
72,152,149530,1,0,0:0:0:0:
76,204,149683,2,0,B|124:300|124:300|220:300,3,200,0|8|8|0,0:0|0:0|0:0|0:0,0:0:0:0:
256,232,151299,1,8,0:0:0:0:
428,300,151837,5,0,0:0:0:0:
428,300,151991,2,0,P|380:268|316:308,1,133.333333333333
264,300,152453,1,0,0:0:0:0:
216,276,152607,1,8,0:0:0:0:
172,248,152760,1,8,0:0:0:0:
124,220,152914,1,0,0:0:0:0:
20,100,153376,2,0,L|76:36,1,66.6666666666667,0|8,0:0|0:0,0:0:0:0:
116,52,153683,38,0,L|172:116,1,66.6666666666667,0|8,0:0|0:0,0:0:0:0:
212,104,153991,69,0,0:0:0:0:
264,104,154145,1,0,0:0:0:0:
320,104,154299,2,8,L|376:176,3,66.6666666666667
432,240,155068,21,0,0:0:0:0:
400,280,155222,1,0,0:0:0:0:
368,320,155376,1,0,0:0:0:0:
312,320,155530,2,0,L|224:320,1,66.6666666666667,8|0,0:0|0:0,0:0:0:0:
136,320,155991,1,0,0:0:0:0:
96,280,156145,1,0,0:0:0:0:
64,240,156299,1,0,0:0:0:0:
32,200,156453,2,8,L|32:120,1,66.6666666666667
136,136,156914,1,0,0:0:0:0:
192,136,157068,2,0,P|224:80|312:144,1,200,0|8,0:0|0:0,0:0:0:0:
420,144,157837,1,0,0:0:0:0:
472,144,157991,2,0,P|392:84|332:144,1,200,0|4,0:0|0:0,0:0:0:0:
312,304,158914,37,0,0:0:0:0:
312,144,159376,1,0,0:0:0:0:
312,304,159837,1,0,0:0:0:0:
152,304,160299,1,0,0:0:0:0:
152,200,160607,1,0,0:0:0:0:
208,200,160760,1,0,0:0:0:0:
208,96,161068,1,0,0:0:0:0:
208,96,161222,1,0,0:0:0:0:
104,96,161530,2,0,P|168:160|96:240,1,200,8|0,0:0|0:0,0:0:0:0:
64,240,162145,2,0,P|32:296|72:344,1,133.333333333333,0|8,0:0|0:0,0:0:0:0:
232,344,162914,53,8,0:0:0:0:
280,320,163068,1,8,0:0:0:0:
328,296,163222,1,0,0:0:0:0:
376,272,163376,1,0,0:0:0:0:
424,248,163530,1,8,0:0:0:0:
424,144,163837,2,0,L|368:80,1,66.6666666666667
328,96,164145,2,8,L|272:32,1,66.6666666666667
232,48,164453,1,0,0:0:0:0:
128,48,164760,53,0,0:0:0:0:
80,80,164914,1,8,0:0:0:0:
56,128,165068,1,0,0:0:0:0:
80,176,165222,1,0,0:0:0:0:
128,200,165376,1,8,0:0:0:0:
232,200,165683,1,0,0:0:0:0:
232,200,165837,1,0,0:0:0:0:
232,304,166145,37,8,0:0:0:0:
288,304,166299,2,0,B|376:304|376:304|376:184,2,200,0|8|0,0:0|0:0|0:0,0:0:0:0:
288,144,167683,1,0,0:0:0:0:
232,48,167991,1,0,0:0:0:0:
196,88,168145,2,0,L|52:88,1,133.333333333333,8|0,0:0|0:0,0:0:0:0:
32,132,168607,2,0,L|168:132,1,133.333333333333,0|8,0:0|0:0,0:0:0:0:
112,284,169376,1,0,0:0:0:0:
164,284,169530,1,0,0:0:0:0:
244,212,169837,1,8,0:0:0:0:
384,288,170299,54,0,L|448:224,4,66.6666666666667,0|0|8|0|8,0:0|0:0|0:0|0:0|0:0,0:0:0:0:
336,184,171222,2,0,L|272:112,4,66.6666666666667,8|0|8|0|0,0:0|0:0|0:0|0:0|0:0,0:0:0:0:
256,192,172299,12,12,173222,0:0:0:0:
160,104,173683,22,2,P|96:104|32:216,1,200
192,224,175530,38,2,P|248:272|176:256,1,200
224,104,177376,6,2,P|312:104|368:192,1,200,10|10,0:0|0:0,0:0:0:0:
208,208,179221,6,2,P|144:232|144:264,2,100,2|2|6,0:0|0:0|0:0,0:0:0:0:
368,208,181068,21,2,0:0:0:0:
312,144,181529,1,2,0:0:0:0:
232,144,181990,1,2,0:0:0:0:
232,224,182453,2,0,P|216:280|168:288,3,100,0|2|2|8,0:0|0:0|0:0|0:0,0:0:0:0:
104,288,184299,1,2,0:0:0:0:
104,208,184760,1,2,0:0:0:0:
240,208,185530,5,0,0:0:0:0:
240,208,185683,1,0,0:0:0:0:
320,208,186145,1,0,0:0:0:0:
300,132,186607,2,6,P|268:324|340:132,1,600,2|6,0:0|0:0,0:0:0:0:
464,80,192144,5,12,0:0:0:0:
344,188,192607,1,12,0:0:0:0:
456,300,193067,1,12,0:0:0:0:
348,304,193375,1,12,0:0:0:0:
348,304,193529,1,4,0:0:0:0:
240,304,193837,1,8,0:0:0:0:
188,304,193991,2,0,P|132:264|96:316,1,133.333333333333,0|8,0:0|0:0,0:0:0:0:
52,272,194453,2,0,P|72:196|136:168,1,133.333333333333
168,172,194914,2,8,P|200:204|280:160,1,133.333333333333
276,124,195375,1,0,0:0:0:0:
372,76,195682,5,8,0:0:0:0:
372,128,195836,1,0,0:0:0:0:
448,204,196145,2,0,L|400:252,1,66.6666666666667,8|0,0:0|0:0,0:0:0:0:
308,196,196607,2,0,L|364:268,1,66.6666666666667,0|8,0:0|0:0,0:0:0:0:
256,196,197068,2,0,L|204:256,1,66.6666666666667,0|8,0:0|0:0,0:0:0:0:
144,328,197530,2,0,L|64:328,1,66.6666666666667
76,276,197837,2,0,L|76:204,1,66.6666666666667
76,156,198145,2,0,L|148:156,1,66.6666666666667
196,156,198453,2,0,L|196:232,1,66.6666666666667
196,276,198760,2,0,L|280:276,1,66.6666666666667
316,276,199068,2,0,L|316:196,1,66.6666666666667
396,140,199530,2,4,P|452:184|384:280,2,200
288,136,200760,2,4,L|220:136,1,66.6666666666667,12|12,0:0|0:0,0:0:0:0:
116,136,201222,1,0,0:0:0:0:
116,136,201376,2,0,P|52:196|132:272,2,200,2|0|2,0:0|0:0|0:0,0:0:0:0:
192,212,202607,1,0,0:0:0:0:
244,212,202760,1,8,0:0:0:0:
328,280,203067,69,0,0:0:0:0:
380,280,203222,2,2,P|420:244|364:184,1,133.333333333333
332,176,203683,2,0,P|288:132|352:88,1,133.333333333333
324,32,204145,2,2,B|252:32|252:32|212:84,1,133.333333333333
176,120,204607,1,0,0:0:0:0:
68,120,204914,1,0,0:0:0:0:
68,172,205068,1,8,0:0:0:0:
144,248,205376,1,0,0:0:0:0:
144,248,205530,1,8,0:0:0:0:
252,248,205836,1,8,0:0:0:0:
252,248,205991,2,0,L|252:104,2,133.333333333333,8|0|0,0:0|0:0|0:0,0:0:0:0:
256,192,206914,12,12,208299,0:0:0:0:
256,192,208760,12,4,210145,0:0:0:0:
188,80,210607,69,4,0:0:0:0:
80,200,211067,1,4,0:0:0:0:
188,320,211530,1,12,0:0:0:0:
348,320,211991,1,4,0:0:0:0:
448,192,212453,1,4,0:0:0:0:
344,72,212914,1,4,0:0:0:0:
236,72,213222,2,6,B|304:148|304:148|232:216,1,200,0|8,0:0|0:0,0:0:0:0:
196,252,213837,2,2,B|144:304|144:304|192:356,1,133.333333333333,10|2,0:0|0:0,0:0:0:0:
32,300,214607,53,0,0:0:0:0:
32,300,214760,1,8,0:0:0:0:
112,232,215068,2,0,L|60:176,1,66.6666666666667
216,236,215682,1,0,0:0:0:0:
368,192,216144,1,0,0:0:0:0:
440,112,216453,37,8,0:0:0:0:
440,112,216607,1,0,0:0:0:0:
360,44,216914,2,8,L|304:104,1,66.6666666666667
156,92,217530,1,0,0:0:0:0:
44,204,217990,22,6,P|108:276|44:340,2,200,6|14|6,0:0|0:0|0:0,0:0:0:0:
188,276,219376,1,0,0:0:0:0:
288,316,219682,1,0,0:0:0:0:
340,316,219837,2,0,P|384:280|440:320,2,133.333333333333,0|8|8,0:0|0:0|0:0,0:0:0:0:
328,208,220760,2,0,P|244:268|196:196,1,200
256,192,221682,12,4,223067,0:0:0:0:
256,192,223530,12,4,225376,0:0:0:0:
