osu file format v14

[General]
AudioFilename: audio.mp3
AudioLeadIn: 0
PreviewTime: -1
Countdown: 0
SampleSet: Soft
StackLeniency: 0.7
Mode: 0
LetterboxInBreaks: 0
WidescreenStoryboard: 0

[Editor]
DistanceSpacing: 1
BeatDivisor: 16
GridSize: 4
TimelineZoom: 0.8

[Metadata]
Title:Build our Machine
TitleUnicode:Build our Machine
Artist:DAGames
ArtistUnicode:DAGames
Creator:Tae1212
Version:Normal
Source:BATIM
Tags:bendy
BeatmapID:1332769
BeatmapSetID:631079

[Difficulty]
HPDrainRate:0
CircleSize:4
OverallDifficulty:3
ApproachRate:3
SliderMultiplier:1
SliderTickRate:2

[Events]
//Background and Video events
0,0,"BendyA.jpg",0,0
//Break Periods
2,57730,59341
2,65542,66591
2,72918,74653
2,88136,88841
2,102980,104153
2,135293,136778
2,142450,144185
2,176918,177966
//Storyboard Layer 0 (Background)
//Storyboard Layer 1 (Fail)
//Storyboard Layer 2 (Pass)
//Storyboard Layer 3 (Foreground)
//Storyboard Sound Samples

[TimingPoints]
0,500,4,2,1,100,1,8
42739,-100,4,2,30,100,0,9
57750,-100,4,2,1,100,0,8
105481,-100,4,2,30,100,0,9
150507,-100,4,2,1,100,0,8

[Colours]
Combo1 : 56,56,56
Combo2 : 0,0,0
Combo3 : 141,141,141
Combo4 : 255,0,0

[HitObjects]
71,157,13218,6,0,L|181:158,1,106.25
222,269,14187,1,0,0:0:0:0:
346,176,14500,2,0,L|216:177,2,125,0|0|0,0:0|0:0|0:0,0:0:0:0:
264,112,16281,2,0,L|221:162,1,62.5
326,121,17156,2,0,L|227:123,1,100
279,113,18281,2,0,P|135:102|125:104,2,156.25
413,90,20593,2,0,L|310:92,1,100
246,178,21531,1,0,0:0:0:0:
113,122,22218,2,0,P|236:113|247:114,2,131.25
256,127,24250,2,0,L|204:166,1,62.5
314,115,24843,2,0,L|382:147,1,75
168,167,25718,2,0,P|277:158|336:161,2,168.75,0|0|0,0:0|0:0|0:0,0:0:0:0:
413,120,28093,2,0,L|340:144,2,75
150,149,29468,2,0,L|256:192,2,112.5
288,141,31718,1,0,0:0:0:0:
287,217,32031,2,0,L|232:172,1,68.75
241,118,32843,2,0,P|363:124|375:128,2,131.25
306,122,34781,2,0,L|282:162,1,43.75
179,113,35468,2,0,L|307:151,4,131.25
308,139,39000,2,0,L|246:210,2,93.75
95,231,40375,1,0,0:0:0:0:
99,206,41843,2,0,L|185:233,1,87.5
335,115,42906,6,4,L|325:187,1,68.75
137,200,43812,1,0,0:0:0:0:
216,197,44031,2,0,P|285:198|286:199,1,75
206,134,45468,1,0,0:0:0:0:
216,252,45625,2,0,L|238:331,1,81.25
260,239,46500,1,0,0:0:0:0:
427,126,47625,2,0,L|312:153,3,118.75
195,153,50000,2,0,L|151:188,1,56.25
134,165,51218,2,0,L|255:161,1,118.75
326,170,52437,2,0,P|185:167|176:166,2,150
280,119,54625,2,0,L|279:197,2,75
421,109,55843,2,0,P|311:139|256:159,2,168.75
388,92,60781,38,0,L|319:130,2,75
123,114,62968,2,0,P|346:159|351:162,2,237.5
302,94,68031,6,0,L|283:162,2,68.75
142,107,70218,2,0,P|254:118|271:126,2,131.25
292,121,72312,2,0,L|295:204,1,81.25
424,134,76093,6,0,P|344:197|343:197,2,106.25
160,141,77468,2,0,L|274:164,3,112.5,0|0|0|0,0:0|0:0|0:0|0:0,0:0:0:0:
206,245,79500,1,0,0:0:0:0:
364,140,79937,2,0,P|213:149|210:148,1,156.25
193,148,81156,2,0,L|326:149,2,131.25
59,125,82593,2,0,L|60:185,2,56.25
155,248,83437,2,0,L|237:246,1,81.25
276,145,84093,1,0,0:0:0:0:
205,157,84718,2,0,L|163:101,1,68.75
175,178,86500,2,0,L|178:260,1,81.25
266,145,87343,2,0,L|149:168,1,118.75
174,157,90281,6,0,B|316:148|313:148,2,137.5
91,124,91906,2,0,L|185:177,3,106.25
129,199,93843,1,0,0:0:0:0:
191,190,94031,2,0,L|297:146,1,112.5
373,108,94718,2,0,L|394:211,2,100
183,142,95937,2,0,L|185:205,1,62.5
210,300,96437,1,0,0:0:0:0:
292,259,96593,2,0,P|362:186|371:164,1,125
290,121,97406,2,0,L|287:191,1,68.75
334,137,98281,2,0,P|199:172|194:172,2,143.75
97,141,99968,2,0,L|218:152,2,118.75
96,146,101593,2,0,L|170:222,1,106.25
365,146,102218,2,0,L|266:202,1,112.5
69,122,105593,6,4,L|115:181,2,75
184,201,106562,1,0,0:0:0:0:
218,274,106750,2,0,P|317:284|313:275,1,225
288,184,108343,2,0,L|190:193,1,93.75
182,129,109093,1,0,0:0:0:0:
151,105,110093,2,0,P|307:125|317:130,3,168.75
151,84,112937,2,0,L|152:150,1,62.5
43,141,113812,2,0,L|206:137,1,162.5
204,145,115031,2,0,P|397:160|400:162,2,206.25
122,96,117500,2,0,P|126:190|127:190,1,143.75
155,85,118593,2,0,L|316:120,2,162.5
100,160,121375,2,0,L|192:160,2,87.5
404,240,123218,2,0,L|316:240,2,87.5
99,127,125125,2,0,P|250:139|271:146,2,175
197,136,127437,2,0,L|200:207,1,68.75
69,171,128656,2,0,L|223:172,1,150
215,168,129937,2,0,P|391:152|406:153,2,187.5
81,222,131937,2,0,L|107:114,1,106.25
111,141,132781,2,0,P|319:104|336:108,2,231.25
143,180,138218,5,0,0:0:0:0:
267,124,138500,1,0,0:0:0:0:
73,140,140500,2,0,P|233:153|234:154,2,175
387,159,145625,6,0,L|332:181,1,56.25
87,151,147750,2,0,P|200:144|228:148,2,137.5
191,144,149718,2,0,L|174:202,1,56.25
39,177,150593,2,0,L|174:157,2,131.25
341,154,152312,2,0,L|286:212,1,75
314,197,153437,2,0,L|303:254,3,56.25
99,200,155250,1,0,0:0:0:0:
271,117,155406,2,0,P|418:116|432:121,1,162.5
80,208,156437,2,0,L|180:204,2,100
129,109,157687,2,0,L|290:157,2,168.75
295,177,161406,2,0,L|211:179,1,81.25
359,201,163875,2,0,P|186:188|182:188,2,175
133,107,165875,38,0,L|222:138,2,93.75
119,212,167468,2,0,L|231:177,2,112.5
110,189,169031,2,0,L|119:241,1,50
175,214,169593,2,0,L|357:138,2,193.75
134,182,172500,2,0,P|257:190|285:196,2,150
305,181,174500,2,0,L|218:182,1,87.5
149,255,175125,1,0,0:0:0:0:
126,166,175312,2,0,L|158:166,9,31.25
145,106,179406,5,0,0:0:0:0:
163,184,179625,2,0,P|231:226|304:283,1,168.75
236,141,180843,2,0,L|229:227,3,81.25
117,182,182468,2,0,L|255:194,2,137.5
71,185,184250,2,0,L|248:201,2,175
34,197,186375,2,0,L|123:198,2,87.5
120,209,187468,1,0,0:0:0:0:
290,145,187843,38,0,P|186:177|171:172,2,125
55,198,189375,5,0,0:0:0:0:
111,180,189750,5,0,0:0:0:0:
180,176,190218,2,0,L|272:172,2,87.5
146,133,191281,2,0,L|96:223,1,100
131,207,192406,2,0,L|148:208,25,12.5
