osu file format v14

[General]
AudioFilename: audio.mp3
AudioLeadIn: 0
PreviewTime: -1
Countdown: 0
SampleSet: Soft
StackLeniency: 0.7
Mode: 0
LetterboxInBreaks: 0
WidescreenStoryboard: 0

[Editor]
DistanceSpacing: 1
BeatDivisor: 12
GridSize: 4
TimelineZoom: 0.8

[Metadata]
Title:Build our Machine
TitleUnicode:Build our Machine
Artist:DAGames
ArtistUnicode:DAGames
Creator:Tae1212
Version:Hard
Source:BATIM
Tags:bendy BAITM Build our Machine Bendy And The Ink Machine
BeatmapID:1332257
BeatmapSetID:631079

[Difficulty]
HPDrainRate:7
CircleSize:6
OverallDifficulty:7
ApproachRate:7
SliderMultiplier:1.3
SliderTickRate:2

[Events]
//Background and Video events
0,0,"BendyA.jpg",0,0
//Break Periods
2,25481,26756
2,57949,59706
2,65199,67143
2,72511,74737
2,88418,89456
2,103325,104362
2,135012,137018
2,142730,144487
//Storyboard Layer 0 (Background)
//Storyboard Layer 1 (Fail)
//Storyboard Layer 2 (Pass)
//Storyboard Layer 3 (Foreground)
//Storyboard Sound Samples

[TimingPoints]
0,500,4,2,0,100,1,0
333,-100,4,2,0,30,0,0
13250,-100,4,2,0,100,0,0
42539,-100,4,2,30,100,0,1
72769,-100,4,2,1,100,0,0
105458,-100,4,2,30,100,0,1
150291,-100,4,2,1,100,0,0
175541,-66.6666666666667,4,2,1,100,0,0
178666,-100,4,2,1,100,0,0
192458,-66.6666666666667,4,2,1,100,0,0

[Colours]
Combo1 : 64,0,0
Combo2 : 0,0,0
Combo3 : 255,255,255
Combo4 : 255,0,0

[HitObjects]
144,212,750,2,0,L|96:192,1,43.3333333333333
144,212,1708,2,0,L|96:192,1,43.3333333333333
144,212,2666,2,0,L|96:192,1,43.3333333333333
144,212,3583,2,0,L|96:192,1,43.3333333333333
144,212,4500,2,0,L|96:192,1,43.3333333333333
144,212,5375,2,0,L|96:192,1,43.3333333333333
144,212,6291,2,0,L|96:192,1,43.3333333333333
144,212,7166,2,0,L|96:192,1,43.3333333333333
144,212,8000,2,0,L|96:192,1,43.3333333333333
144,212,8916,2,0,L|96:192,1,43.3333333333333
144,212,9916,2,0,L|96:192,1,43.3333333333333
88,192,10666,2,0,L|152:192,8,65
128,156,13437,6,0,L|340:152,2,211.25
68,180,15593,2,0,L|148:232,1,89.375
112,180,16343,2,0,P|272:100|288:104,2,203.125
144,208,18437,1,0,0:0:0:0:
88,272,19031,1,0,0:0:0:0:
316,152,19562,2,0,L|252:228,2,97.5
284,192,20687,2,0,L|436:236,1,154.375
272,300,21625,1,0,0:0:0:0:
168,248,22437,1,0,0:0:0:0:
320,144,24156,1,0,0:0:0:0:
72,252,24375,1,0,0:0:0:0:
324,172,25000,1,0,0:0:0:0:
392,268,25281,1,0,0:0:0:0:
160,180,27656,6,0,L|340:180,2,178.75
208,184,29437,6,0,P|336:124|344:128,2,162.5
84,216,31156,6,0,L|188:212,1,97.5
404,152,31906,6,0,L|288:184,1,113.75
92,168,32593,6,0,L|204:240,2,130
128,184,34625,6,0,L|176:256,1,81.25
160,172,35281,6,0,B|320:208|316:220|240:264,2,211.25
176,156,37218,6,0,P|264:176|340:216,2,170.625
392,76,38906,6,0,L|312:144,1,105.625
196,168,39687,6,0,L|116:80,1,113.75
340,112,42500,6,4,L|320:180,1,65
160,152,43187,6,0,L|244:184,1,89.375
144,184,43875,6,0,L|252:196,1,105.625
272,312,44531,5,0,0:0:0:0:
84,168,45812,6,0,L|184:168,2,97.5
228,164,47093,6,0,P|372:184|408:208,1,186.875
368,284,47937,6,0,P|208:280|176:264,1,195
176,176,48781,6,0,L|304:156,1,130
160,120,49843,6,0,L|160:208,1,81.25
116,216,51031,6,0,L|348:176,1,235.625
408,176,52281,6,0,L|256:152,1,154.375
252,152,53656,6,0,L|280:192,1,48.75
112,200,55437,6,0,L|224:164,1,113.75
324,232,56343,6,0,L|256:272,1,73.125
100,216,57093,6,0,P|228:144|252:144,1,170.625
152,196,60906,6,0,L|232:248,1,89.375
144,164,62937,2,0,P|400:152|416:152,2,268.125
168,152,68343,6,0,L|168:220,1,65
88,144,69968,6,0,P|268:160|292:168,3,203.125
112,144,75937,6,0,L|288:152,2,170.625
300,124,77656,2,0,L|172:184,1,138.125
100,236,78343,2,0,L|160:256,1,56.875
352,148,79093,2,0,P|200:136|156:176,2,219.375
192,116,82458,2,0,L|188:200,2,81.25
336,152,84187,2,0,L|184:152,1,146.25
140,160,85218,2,0,P|324:152|336:156,1,195
288,296,86218,1,0,0:0:0:0:
264,80,86843,2,0,L|136:148,1,138.125
316,80,87656,2,0,L|432:176,1,146.25
156,176,90656,6,0,P|368:120|380:124,2,243.75
176,200,93031,2,0,L|304:168,1,130
352,96,93843,2,0,P|112:120|92:116,2,260
136,128,96187,2,0,L|296:172,1,162.5
256,212,97156,2,0,P|180:264|176:264,2,97.5
356,128,98250,2,0,P|160:120|144:116,2,211.25
132,196,100187,2,0,P|68:264|72:264,1,284.375
100,256,101843,1,0,0:0:0:0:
380,216,102125,1,0,0:0:0:0:
312,104,102687,1,0,0:0:0:0:
132,220,103125,1,0,0:0:0:0:
124,156,105562,6,4,L|248:156,1,121.875
220,156,106500,1,0,0:0:0:0:
336,280,106875,1,0,0:0:0:0:
128,136,107312,2,0,P|192:92|240:88,1,121.875
240,160,108718,1,0,0:0:0:0:
184,208,108937,2,0,P|228:312|248:296,1,203.125
148,144,110281,2,0,P|256:196|260:208,4,138.125
352,176,112937,2,0,L|352:252,1,73.125
164,164,114031,2,0,L|320:168,1,154.375
424,180,115250,2,0,B|152:144|212:148,2,235.625
152,224,117250,2,0,L|104:280,1,73.125
52,224,117718,2,0,P|60:156|80:144,1,97.5
192,144,118312,2,0,P|420:188|424:192,2,251.875
104,172,121531,2,0,L|208:172,2,97.5
104,172,123375,2,0,L|208:172,2,97.5
164,156,125343,2,0,P|336:104|368:112,2,219.375
156,120,127406,2,0,L|152:180,1,56.875
92,176,128687,2,0,L|308:144,1,211.25
452,124,129843,2,0,L|264:212,2,203.125
248,236,132312,2,0,P|160:200|168:188,1,162.5
112,132,133406,2,0,P|204:116|232:120,3,121.875
224,120,138218,6,0,L|144:120,2,73.125
120,136,140375,2,0,P|244:184|304:224,2,203.125
292,172,142312,2,0,L|292:236,1,56.875
320,184,145687,6,0,L|236:184,1,81.25
160,172,147625,2,0,P|368:188|376:192,3,219.375
128,192,150625,2,0,P|284:152|292:156,1,178.75
316,232,151593,2,0,L|240:260,1,81.25
116,220,152593,2,0,P|192:168|208:172,1,113.75
272,252,153250,2,0,L|320:216,5,56.875
240,128,154875,2,0,P|140:140|80:224,3,203.125
172,224,157843,2,0,P|328:160|332:164,1,211.25
128,136,159250,2,0,L|240:160,1,108.333333333333
364,212,159958,2,0,L|240:256,1,130
160,252,160875,2,0,P|120:156|156:148,2,184.166666666667
132,172,164125,2,0,L|220:152,1,86.6666666666667
320,160,164666,2,0,L|368:244,1,97.5
296,288,165416,2,0,P|112:224|120:208,1,325
144,196,167541,2,0,L|264:192,1,119.166666666667
340,188,168458,2,0,P|300:92|268:88,1,140.833333333333
108,156,169500,2,0,P|328:220|348:220,2,249.166666666667
340,160,171750,2,0,L|288:200,1,65
72,168,172458,2,0,P|196:156|416:232,2,357.5
224,148,175458,2,0,L|256:152,13,32.5
152,148,179666,2,0,P|352:136|372:144,1,227.5
412,216,180791,2,0,P|264:228|232:192,1,205.833333333333
376,136,182250,1,0,0:0:0:0:
212,208,182875,1,0,0:0:0:0:
32,316,183375,1,0,0:0:0:0:
388,272,183875,1,0,0:0:0:0:
188,228,184333,2,0,P|156:120|180:116,1,184.166666666667
316,208,185333,2,0,P|168:256|168:252,1,303.333333333333
228,136,186583,2,0,L|76:140,1,151.666666666667
80,232,187291,2,0,L|268:272,1,184.166666666667
344,228,188250,2,0,L|248:232,2,86.6666666666667
248,176,189166,2,0,P|136:156|120:160,1,130
104,240,189833,2,0,L|196:292,1,97.5
384,144,190458,2,0,L|312:148,2,65
180,172,191375,2,0,L|288:172,2,108.333333333333
152,216,192375,2,0,L|176:216,21,21.6666666666667
