osu file format v14

[General]
AudioFilename: audio.mp3
AudioLeadIn: 0
PreviewTime: 51847
Countdown: 0
SampleSet: Normal
StackLeniency: 0.7
Mode: 0
LetterboxInBreaks: 0
WidescreenStoryboard: 1

[Editor]
DistanceSpacing: 1.3
BeatDivisor: 3
GridSize: 8
TimelineZoom: 1.6

[Metadata]
Title:Break My Mind
TitleUnicode:Break My Mind
Artist:DAGames
ArtistUnicode:DAGames
Creator:epes2001 773
Version:MIND BROKEN
Source:Five Nights at Freddy's 4
Tags:fnaf fnaf4 five nights at freddys 4 dagames break my mind
BeatmapID:1644086
BeatmapSetID:481303

[Difficulty]
HPDrainRate:6
CircleSize:4.2
OverallDifficulty:8
ApproachRate:9.3
SliderMultiplier:2.50000000596047
SliderTickRate:1

[Events]
//Background and Video events
0,0,"BG.jpg",0,0
//Break Periods
2,66826,69764
2,186826,191610
//Storyboard Layer 0 (Background)
//Storyboard Layer 1 (Fail)
//Storyboard Layer 2 (Pass)
//Storyboard Layer 3 (Foreground)
//Storyboard Sound Samples

[TimingPoints]
14934,461.538461538462,4,1,0,70,1,0
14934,-100,4,1,1,70,0,0
44472,-133.333333333333,4,1,0,60,0,0
51857,-83.3333333333333,4,1,1,80,0,1
66626,-100,4,1,0,90,0,0
70318,-100,4,1,1,50,0,0
72164,-100,4,1,1,70,0,0
103549,-133.333333333333,4,1,0,50,0,0
110934,-83.3333333333333,4,1,1,80,0,1
128472,-83.3333333333333,4,1,1,80,0,0
148318,-66.6666666666667,4,1,1,80,0,0
148626,-83.3333333333333,4,1,1,80,0,0
158934,-133.333333333333,4,1,1,80,0,0
162626,-83.3333333333333,4,1,1,80,0,0
166318,-133.333333333333,4,1,1,80,0,0
170010,-83.3333333333333,4,1,1,80,0,0
173703,-200,4,2,0,40,0,0
192164,-83.3333333333333,4,1,1,80,0,1
206934,-83.3333333333333,4,1,1,80,0,0
210626,-83.3333333333333,4,1,1,80,0,1
225395,-100,4,1,0,100,0,0

[Colours]
Combo1 : 128,128,128
Combo2 : 128,128,0
Combo3 : 128,64,64
Combo4 : 128,0,0
Combo5 : 64,0,128
Combo6 : 255,0,0
Combo7 : 255,0,128
Combo8 : 255,255,255

[HitObjects]
160,128,14933,6,0,B|120:232|120:232|144:312,1,166.666667064031
352,176,15395,2,0,B|320:64|320:64|272:24,1,166.666667064031,8|0,0:0|0:0,0:0:0:0:
261,271,15857,2,0,P|365:335|441:282,1,166.666667064031
478,240,16318,1,8,0:0:0:0:
352,104,16626,1,0,0:0:0:0:
352,104,16780,2,0,P|256:136|184:104,1,166.666667064031
56,24,17241,2,0,P|24:120|72:200,1,166.666667064031,8|0,0:0|0:0,0:0:0:0:
144,320,17703,1,0,0:0:0:0:
264,272,17857,1,0,0:0:0:0:
176,224,18010,1,0,0:0:0:0:
344,160,18164,1,8,0:0:0:0:
360,344,18318,1,0,0:0:0:0:
464,280,18472,1,0,0:0:0:0:
248,176,18626,6,0,P|280:80|368:72,1,166.666667064031
288,320,19087,2,0,P|208:328|144:248,1,166.666667064031,8|0,0:0|0:0,0:0:0:0:
402,178,19549,2,0,B|458:210|458:210|465:332|465:332|434:353,1,166.666667064031
388,375,20010,1,8,0:0:0:0:
248,256,20318,1,0,0:0:0:0:
248,256,20472,2,0,P|144:216|56:248,1,166.666667064031
224,368,20933,2,0,P|320:352|384:264,1,166.666667064031,8|0,0:0|0:0,0:0:0:0:
416,160,21395,1,0,0:0:0:0:
150,133,21703,1,0,0:0:0:0:
316,57,21857,1,8,0:0:0:0:
224,208,22010,1,0,0:0:0:0:
202,26,22164,1,0,0:0:0:0:
304,160,22318,6,0,L|328:344,1,166.666667064031
112,200,22780,2,0,L|144:16,1,166.666667064031,8|0,0:0|0:0,0:0:0:0:
311,176,23241,2,0,L|277:358,1,166.666667064031
120,176,23703,2,0,L|176:8,1,166.666667064031,8|0,0:0|0:0,0:0:0:0:
296,208,24164,2,0,L|240:384,1,166.666667064031
152,152,24626,2,0,L|224:0,1,166.666667064031,8|0,0:0|0:0,0:0:0:0:
256,232,25087,1,0,0:0:0:0:
80,168,25395,1,0,0:0:0:0:
80,168,25549,2,0,B|120:112|120:112|192:144|256:80,1,166.666667064031,8|0,0:0|0:0,0:0:0:0:
360,48,26010,6,0,B|392:112|392:112|376:240,1,166.666667064031
168,288,26472,2,0,B|128:216|128:216|144:112,1,166.666667064031,8|0,0:0|0:0,0:0:0:0:
400,336,26934,2,0,L|224:384,1,166.666667064031
192,72,27395,2,0,L|376:8,1,166.666667064031,8|0,0:0|0:0,0:0:0:0:
184,216,27857,2,0,B|120:200|120:200|32:104,1,166.666667064031,8|0,0:0|0:0,0:0:0:0:
328,216,28318,2,0,B|392:200|392:200|464:112,1,166.666667064031,8|0,0:0|0:0,0:0:0:0:
256,8,28780,1,8,0:0:0:0:
256,104,29241,1,0,0:0:0:0:
256,208,29703,70,0,P|160:184|128:96,1,166.666667064031
408,176,30164,2,0,P|424:248|376:336,1,166.666667064031,8|0,0:0|0:0,0:0:0:0:
248,88,30626,2,0,B|280:48|280:48|416:8,1,166.666667064031
224,224,31087,1,8,0:0:0:0:
152,288,31241,1,0,0:0:0:0:
136,184,31395,1,0,0:0:0:0:
216,104,31549,2,0,B|120:80|120:80|64:88|32:136,1,166.666667064031
320,216,32010,2,0,B|424:240|424:240|472:224|488:144,1,166.666667064031,8|0,0:0|0:0,0:0:0:0:
344,64,32472,1,0,0:0:0:0:
368,160,32626,1,0,0:0:0:0:
440,96,32780,1,0,0:0:0:0:
240,144,32934,1,8,0:0:0:0:
320,216,33088,1,0,0:0:0:0:
216,248,33241,1,0,0:0:0:0:
96,80,33395,6,0,L|136:256,1,166.666667064031
392,112,33857,2,0,P|268:120|220:176,1,166.666667064031,8|0,0:0|0:0,0:0:0:0:
280,312,34318,2,0,P|416:296|448:256,1,166.666667064031
384,80,34780,2,0,P|260:88|212:144,1,166.666667064031,8|0,0:0|0:0,0:0:0:0:
280,352,35241,2,0,P|408:352|456:312,1,166.666667064031
376,40,35703,2,0,B|296:32|296:32|184:72,1,166.666667064031,8|0,0:0|0:0,0:0:0:0:
128,216,36164,1,0,0:0:0:0:
214,61,36472,1,0,0:0:0:0:
272,176,36626,1,8,0:0:0:0:
160,152,36780,1,0,0:0:0:0:
312,72,36934,1,0,0:0:0:0:
200,288,37087,6,0,P|72:296|16:216,1,166.666667064031
328,176,37549,2,0,B|360:224|360:224|336:344,1,166.666667064031,8|0,0:0|0:0,0:0:0:0:
176,128,38010,1,0,0:0:0:0:
176,128,38472,2,0,B|232:72|232:72|296:112|360:88,1,166.666667064031,8|0,0:0|0:0,0:0:0:0:
447,26,38934,6,0,P|471:98|431:210,1,166.666667064031
288,368,39395,2,0,P|264:248|288:192,1,166.666667064031,8|0,0:0|0:0,0:0:0:0:
336,32,39857,1,0,0:0:0:0:
336,32,40318,2,0,B|408:64|408:64|432:168,1,166.666667064031,8|0,0:0|0:0,0:0:0:0:
360,272,40780,70,0,P|264:240|176:272,1,166.666667064031
72,168,41241,2,0,P|160:128|200:40,1,166.666667064031,8|0,0:0|0:0,0:0:0:0:
328,16,41703,2,0,P|376:104|464:144,1,166.666667064031
376,272,42164,2,0,P|264:288|208:352,1,166.666667064031,8|0,0:0|0:0,0:0:0:0:
120,248,42626,2,0,B|144:168|144:168|120:88|120:88|120:88,1,166.666667064031,8|0,0:0|0:0,0:0:0:0:
272,16,43087,2,0,B|248:112|248:112|280:208,1,166.666667064031,8|0,0:0|0:0,0:0:0:0:
304,280,43549,1,8,0:0:0:0:
40,176,44010,1,8,0:0:0:0:
48,208,44164,1,0,0:0:0:0:
56,240,44318,1,0,0:0:0:0:
96,328,44472,85,8,0:0:0:0:
128,312,44626,1,0,0:0:0:0:
160,304,44780,1,0,0:0:0:0:
192,304,44934,2,0,P|224:312|256:336,2,62.5000023841859,8|0|0,0:0|0:0|0:0,0:0:0:0:
184,272,45395,1,8,0:0:0:0:
192,240,45549,1,0,0:0:0:0:
208,208,45703,1,0,0:0:0:0:
304,176,45857,1,8,0:0:0:0:
312,144,46010,1,0,0:0:0:0:
312,112,46164,1,0,0:0:0:0:
296,80,46318,6,0,P|328:64|368:64,2,62.5000023841859,8|0|0,0:0|0:0|0:0,0:0:0:0:
240,136,46780,2,0,P|192:152|160:152,2,62.5000023841859,8|0|0,0:0|0:0|0:0,0:0:0:0:
272,136,47241,1,8,0:0:0:0:
304,144,47395,1,0,0:0:0:0:
336,160,47549,1,0,0:0:0:0:
392,248,47703,1,8,0:0:0:0:
368,272,47857,1,0,0:0:0:0:
352,304,48010,1,0,0:0:0:0:
344,336,48164,102,0,P|400:352|432:352,2,62.5000023841859,4|0|0,0:0|0:0|0:0,0:0:0:0:
248,304,48626,2,0,P|208:304|176:320,2,62.5000023841859,4|0|0,0:0|0:0|0:0,0:0:0:0:
344,240,49087,2,0,P|384:224|408:200,2,62.5000023841859,4|0|0,0:0|0:0|0:0,0:0:0:0:
208,208,49549,2,0,P|160:216|128:240,2,62.5000023841859,4|0|0,0:0|0:0|0:0,0:0:0:0:
344,128,50010,5,4,0:0:0:0:
232,88,50164,1,4,0:0:0:0:
256,208,50318,1,4,0:0:0:0:
236,9,50472,1,4,0:0:0:0:
200,160,50626,1,4,0:0:0:0:
344,128,50780,1,4,0:0:0:0:
236,9,50934,1,4,0:0:0:0:
236,9,51395,1,4,0:0:0:0:
236,9,51857,86,0,P|332:89|340:177,1,199.999993896485,4|0,0:0|0:0,0:0:0:0:
71,238,52318,2,0,P|159:134|263:134,1,199.999993896485,4|0,0:0|0:0,0:0:0:0:
320,288,52780,2,0,P|232:376|136:392,1,199.999993896485,4|0,0:0|0:0,0:0:0:0:
215,124,53241,1,4,0:0:0:0:
327,92,53395,1,0,0:0:0:0:
415,180,53549,1,0,0:0:0:0:
430,293,53703,102,0,B|366:325|366:325|286:325|230:245,1,199.999993896485,4|0,0:0|0:0,0:0:0:0:
72,136,54164,2,0,B|128:168|128:168|224:160|256:88,1,199.999993896485,4|0,0:0|0:0,0:0:0:0:
352,16,54626,2,0,P|464:32|504:152,1,199.999993896485,4|0,0:0|0:0,0:0:0:0:
360,152,55087,1,4,0:0:0:0:
232,232,55241,1,0,0:0:0:0:
232,64,55395,1,0,0:0:0:0:
509,193,55549,6,0,P|515:292|464:376,1,199.999993896485,4|0,0:0|0:0,0:0:0:0:
216,144,56010,2,0,P|240:264|320:336,1,199.999993896485,4|0,0:0|0:0,0:0:0:0:
432,104,56472,2,0,P|344:0|264:-8,1,199.999993896485,4|0,0:0|0:0,0:0:0:0:
80,272,56934,2,0,P|224:272|280:208,1,199.999993896485,4|0,0:0|0:0,0:0:0:0:
144,64,57395,101,4,0:0:0:0:
104,168,57549,1,0,0:0:0:0:
168,272,57703,1,0,0:0:0:0:
392,136,57857,1,4,0:0:0:0:
448,240,58010,1,0,0:0:0:0:
392,336,58164,1,0,0:0:0:0:
224,176,58318,2,4,B|184:224|184:224|160:368,2,199.999993896485
304,56,59241,6,0,P|408:32|496:120,1,199.999993896485,4|0,0:0|0:0,0:0:0:0:
352,216,59703,2,0,B|280:152|240:264|128:152,1,199.999993896485,4|0,0:0|0:0,0:0:0:0:
64,320,60164,2,0,P|176:352|248:288,1,199.999993896485,4|0,0:0|0:0,0:0:0:0:
304,184,60626,1,4,0:0:0:0:
208,72,60780,1,0,0:0:0:0:
352,32,60934,1,0,0:0:0:0:
128,184,61087,102,0,B|80:152|80:152|40:72|88:8,1,199.999993896485,4|0,0:0|0:0,0:0:0:0:
360,200,61549,2,0,B|408:232|408:232|448:312|400:384,1,199.999993896485,4|0,0:0|0:0,0:0:0:0:
168,88,62010,2,0,P|264:16|416:40,1,199.999993896485,4|0,0:0|0:0,0:0:0:0:
296,288,62472,1,4,0:0:0:0:
152,352,62626,1,0,0:0:0:0:
160,200,62780,1,0,0:0:0:0:
400,168,62934,6,0,P|488:264|472:352,1,199.999994373322,4|0,0:0|0:0,0:0:0:0:
184,136,63395,2,0,P|232:40|376:8,1,199.999993896485,4|0,0:0|0:0,0:0:0:0:
248,312,63857,2,0,P|120:360|32:296,1,199.999993896485,4|0,0:0|0:0,0:0:0:0:
272,160,64318,2,0,L|488:216,1,199.999993896485,4|0,0:0|0:0,0:0:0:0:
160,280,64780,101,4,0:0:0:0:
120,160,64934,1,0,0:0:0:0:
176,48,65087,1,0,0:0:0:0:
304,8,65241,2,0,P|424:64|456:216,1,199.999993896485,4|0,0:0|0:0,0:0:0:0:
472,240,65703,1,4,0:0:0:0:
216,160,66010,1,0,0:0:0:0:
400,32,66318,1,0,0:0:0:0:
352,304,66626,21,0,0:0:0:0:
256,192,70318,5,0,0:0:0:0:
256,192,70780,1,0,0:0:0:0:
256,192,71241,1,0,0:0:0:0:
256,192,71703,1,0,0:0:0:0:
256,192,72164,1,0,0:0:0:0:
256,192,73395,1,0,0:0:0:0:
272,176,73472,1,0,0:0:0:0:
288,160,73549,1,0,0:0:0:0:
200,112,73703,1,0,0:0:0:0:
176,216,73857,1,0,0:0:0:0:
280,72,74010,6,0,P|208:24|128:64,1,166.666666666667
256,192,74472,2,0,P|320:200|384:128,1,166.666666666667,8|0,0:0|0:0,0:0:0:0:
160,136,74934,2,0,P|128:256|184:328,1,166.666666666667
344,216,75395,2,0,P|376:120|344:48,1,166.666666666667,8|0,0:0|0:0,0:0:0:0:
232,8,75857,2,0,B|176:72|176:72|80:96,1,166.666666666667
24,272,76318,2,0,B|80:208|80:208|176:184,1,166.666666666667,8|0,0:0|0:0,0:0:0:0:
288,160,76780,1,0,0:0:0:0:
352,248,76934,1,0,0:0:0:0:
288,336,77087,1,0,0:0:0:0:
232,248,77241,1,8,0:0:0:0:
352,248,77395,1,0,0:0:0:0:
416,152,77549,1,0,0:0:0:0:
344,56,77703,6,0,P|256:40|168:104,1,166.666666666667
120,288,78164,2,0,P|240:256|264:200,1,166.666666666667,8|0,0:0|0:0,0:0:0:0:
88,136,78626,2,0,P|8:208|8:280,1,166.666666666667
272,160,79087,2,0,P|256:56|184:8,1,166.666666666667,8|0,0:0|0:0,0:0:0:0:
176,280,79549,2,0,B|240:288|240:288|272:312|272:312|400:328,1,166.666666666667
488,177,80010,2,0,B|431:170|431:170|396:140|396:140|319:127,1,166.666667064031,8|0,0:0|0:0,0:0:0:0:
281,3,80472,1,0,0:0:0:0:
216,203,80780,1,0,0:0:0:0:
148,49,80934,1,8,0:0:0:0:
112,166,81087,1,0,0:0:0:0:
260,95,81241,1,0,0:0:0:0:
400,128,81395,6,0,P|440:208|416:304,1,166.666666666667
152,264,81857,2,0,P|176:160|240:112,1,166.666666666667,8|0,0:0|0:0,0:0:0:0:
320,32,82318,1,0,0:0:0:0:
320,32,82780,2,0,L|296:216,1,166.666666666667,8|0,0:0|0:0,0:0:0:0:
224,336,83241,2,0,P|152:280|176:192,1,166.666666666667
440,224,83703,2,0,P|448:312|360:344,1,166.666666666667,8|0,0:0|0:0,0:0:0:0:
296,200,84164,2,0,B|312:24|312:24|336:120,1,250.000000596047,0|8,0:0|0:0,0:0:0:0:
376,232,84934,1,0,0:0:0:0:
376,232,85087,6,0,P|304:336|224:336,1,166.666667064031
117,138,85549,2,0,P|213:146|269:210,1,166.666667064031,8|0,0:0|0:0,0:0:0:0:
174,353,86010,2,0,P|85:348|29:277,1,166.666667064031
212,188,86472,2,0,P|255:226|370:229,1,166.666667064031,8|0,0:0|0:0,0:0:0:0:
226,43,86934,2,0,P|113:121|60:111,1,166.666667064031,8|0,0:0|0:0,0:0:0:0:
308,311,87395,2,0,P|205:301|157:235,1,166.666667064031,8|0,0:0|0:0,0:0:0:0:
398,185,87857,1,8,0:0:0:0:
295,49,88318,1,0,0:0:0:0:
159,149,88780,70,0,L|200:314,1,166.666667064031
406,198,89241,2,0,L|358:22,1,166.666667064031,8|0,0:0|0:0,0:0:0:0:
181,229,89703,2,0,P|253:265|333:247,1,166.666667064031
379,56,90164,2,0,P|302:84|261:155,1,166.666667064031,8|0,0:0|0:0,0:0:0:0:
387,354,90626,2,0,B|435:260|435:260|411:204,1,166.666667064031
212,164,91087,2,0,B|188:100|188:100|252:-20,1,166.666667064031,8|0,0:0|0:0,0:0:0:0:
317,108,91549,1,0,0:0:0:0:
212,164,91703,1,0,0:0:0:0:
307,222,91857,1,0,0:0:0:0:
264,56,92010,1,8,0:0:0:0:
236,281,92164,1,0,0:0:0:0:
403,182,92318,1,0,0:0:0:0:
472,48,92472,6,0,P|392:16|320:72,1,166.666667064031
208,232,92934,2,0,P|320:216|344:160,1,166.666667064031,8|0,0:0|0:0,0:0:0:0:
104,128,93395,2,0,B|72:176|72:176|64:304,1,166.666667064031
272,136,93857,2,0,P|240:32|168:-8,1,166.666667064031,8|0,0:0|0:0,0:0:0:0:
184,304,94318,2,0,B|245:275|245:275|363:301,1,166.666667064031
506,177,94780,2,0,B|418:161|418:161|362:104,1,166.666667064031,8|0,0:0|0:0,0:0:0:0:
324,0,95241,1,0,0:0:0:0:
343,288,95549,1,0,0:0:0:0:
265,73,95703,1,8,0:0:0:0:
239,229,95857,1,0,0:0:0:0:
384,120,96010,1,0,0:0:0:0:
430,221,96164,6,0,P|318:205|278:141,1,166.666667064031
248,24,96626,2,0,P|368:48|400:96,1,166.666667064031,8|0,0:0|0:0,0:0:0:0:
324,227,97087,2,0,P|244:259|148:243,1,166.666667064031
64,96,97549,2,0,P|168:72|248:96,1,166.666667064031,8|0,0:0|0:0,0:0:0:0:
280,320,98010,2,0,P|160:320|112:272,1,166.666667064031
360,184,98472,2,0,P|456:224|480:304,1,166.666667064031,8|0,0:0|0:0,0:0:0:0:
192,176,98934,2,0,B|160:120|160:120|192:8,1,166.666667064031
360,272,99395,2,0,B|337:328|337:328|216:376,1,166.666667064031,8|0,0:0|0:0,0:0:0:0:
312,104,99857,6,0,B|373:88|373:88|416:104|416:104|496:80,1,166.666667064031
237,279,100318,2,0,B|173:263|173:263|141:279|141:279|69:263,1,166.666667064031,8|0,0:0|0:0,0:0:0:0:
73,116,100780,2,0,B|129:125|129:125|166:111|166:111|235:126,1,166.666667064031
475,237,101241,2,0,B|429:252|429:252|373:228|373:228|317:244,1,166.666667064031,8|0,0:0|0:0,0:0:0:0:
118,197,101703,1,8,0:0:0:0:
403,116,102010,1,0,0:0:0:0:
403,116,102164,1,8,0:0:0:0:
197,67,102472,1,0,0:0:0:0:
197,67,102626,1,8,0:0:0:0:
475,237,103087,1,8,0:0:0:0:
152,200,103549,37,8,0:0:0:0:
192,184,103703,1,0,0:0:0:0:
232,168,103857,1,0,0:0:0:0:
304,248,104010,2,0,L|376:264,2,62.5000025331976,8|0|0,0:0|0:0|0:0,0:0:0:0:
232,312,104472,1,8,0:0:0:0:
184,304,104626,1,0,0:0:0:0:
144,272,104780,1,0,0:0:0:0:
192,112,104934,1,8,0:0:0:0:
192,160,105088,1,0,0:0:0:0:
207,203,105241,1,0,0:0:0:0:
288,96,105395,6,0,P|312:48|336:32,2,62.5000025331976,8|0|0,0:0|0:0|0:0,0:0:0:0:
384,128,105857,2,0,P|408:192|400:216,2,62.5000025331976,8|0|0,0:0|0:0|0:0,0:0:0:0:
304,192,106318,1,8,0:0:0:0:
288,240,106472,1,0,0:0:0:0:
288,288,106626,1,0,0:0:0:0:
424,248,106780,1,8,0:0:0:0:
424,296,106933,1,0,0:0:0:0:
408,344,107087,1,0,0:0:0:0:
293,383,107241,102,0,L|213:362,1,62.5000025331976,4|0,0:0|0:0,0:0:0:0:
152,288,107549,1,0,0:0:0:0:
280,240,107703,2,0,L|360:208,1,62.5000025331976,4|0,0:0|0:0,0:0:0:0:
199,145,108010,1,0,0:0:0:0:
152,288,108164,2,0,L|64:272,1,62.5000025331976,4|0,0:0|0:0,0:0:0:0:
199,184,108472,1,0,0:0:0:0:
288,376,108626,2,0,L|216:360,1,62.5000025331976,4|0,0:0|0:0,0:0:0:0:
344,280,108934,1,0,0:0:0:0:
420,351,109087,5,4,0:0:0:0:
367,212,109241,1,4,0:0:0:0:
509,248,109395,1,4,0:0:0:0:
296,60,109549,101,4,0:0:0:0:
282,202,109703,1,4,0:0:0:0:
424,139,109857,1,4,0:0:0:0:
158,108,110010,1,4,0:0:0:0:
158,108,110472,1,4,0:0:0:0:
88,104,110934,86,0,B|56:200|56:200|120:336,1,199.999994373322,4|0,0:0|0:0,0:0:0:0:
342,169,111395,2,0,B|294:81|294:81|182:49,1,199.999994373322,4|0,0:0|0:0,0:0:0:0:
272,328,111857,2,0,P|392:352|472:272,1,199.999994373322,4|0,0:0|0:0,0:0:0:0:
488,168,112318,1,4,0:0:0:0:
336,112,112472,1,0,0:0:0:0:
448,32,112626,1,0,0:0:0:0:
368,256,112780,6,0,P|264:240|216:144,1,199.999994373322,4|0,0:0|0:0,0:0:0:0:
199,15,113241,2,0,P|102:31|40:106,1,199.999994373322,4|0,0:0|0:0,0:0:0:0:
135,345,113703,2,0,P|231:336|302:266,1,199.999994373322,4|0,0:0|0:0,0:0:0:0:
376,120,114164,1,4,0:0:0:0:
240,80,114318,1,0,0:0:0:0:
170,200,114472,1,0,0:0:0:0:
240,80,114626,102,0,P|296:16|440:16,1,199.999994373322,4|0,0:0|0:0,0:0:0:0:
344,208,115087,2,0,P|240:264|136:216,1,199.999994373322,4|0,0:0|0:0,0:0:0:0:
432,120,115549,2,0,B|488:192|488:192|464:328,1,199.999994373322,4|0,0:0|0:0,0:0:0:0:
240,152,116010,2,0,B|264:64|264:64|376:16,1,199.999994373322,4|0,0:0|0:0,0:0:0:0:
264,320,116472,1,4,0:0:0:0:
136,248,116626,1,0,0:0:0:0:
152,376,116780,1,0,0:0:0:0:
256,104,116934,1,4,0:0:0:0:
384,184,117087,1,0,0:0:0:0:
248,240,117241,1,0,0:0:0:0:
128,144,117395,2,4,P|175:21|264:0,2,199.999994373322
344,304,118318,6,0,P|344:184|240:128,1,199.999994373322,4|0,0:0|0:0,0:0:0:0:
128,214,118780,2,0,P|144:318|232:382,1,199.999994373322,4|0,0:0|0:0,0:0:0:0:
194,80,119241,2,0,P|114:64|10:128,1,199.999994373322,4|0,0:0|0:0,0:0:0:0:
128,214,119703,1,4,0:0:0:0:
257,152,119857,1,0,0:0:0:0:
376,224,120010,1,0,0:0:0:0:
400,352,120164,102,0,B|464:320|464:320|504:176,1,199.999994373322,4|0,0:0|0:0,0:0:0:0:
293,54,120626,2,0,B|357:110|357:110|381:254,1,199.999994373322,4|0,0:0|0:0,0:0:0:0:
136,368,121087,2,0,B|208:320|208:320|240:184,1,199.999994373322,4|0,0:0|0:0,0:0:0:0:
104,120,121549,1,4,0:0:0:0:
200,264,121703,1,0,0:0:0:0:
248,96,121857,1,0,0:0:0:0:
41,225,122010,6,4,B|118:212|118:212|143:181|143:181|206:168|206:168|243:187|243:187|323:173,1,299.999991559983
472,336,122780,1,0,0:0:0:0:
471,335,122934,2,4,B|397:317|397:317|371:286|371:286|308:273|308:273|272:292|272:292|197:274,1,299.999991559983
92,254,123549,1,0,0:0:0:0:
110,161,123703,1,0,0:0:0:0:
110,161,123857,102,0,B|86:97|86:97|102:1|230:25,1,199.999994373322,4|0,0:0|0:0,0:0:0:0:
250,313,124318,2,0,B|212:366|212:366|148:414|85:360,1,199.999994373322,4|0,0:0|0:0,0:0:0:0:
274,89,124780,2,0,P|370:105|410:249,2,199.999994373322,4|0|0,0:0|0:0|0:0,0:0:0:0:
176,224,125703,5,6,0:0:0:0:
144,128,125857,1,2,0:0:0:0:
192,40,126010,1,2,0:0:0:0:
272,112,126164,101,6,0:0:0:0:
376,144,126318,1,2,0:0:0:0:
464,80,126472,1,2,0:0:0:0:
408,272,126626,5,6,0:0:0:0:
288,240,126780,1,2,0:0:0:0:
224,336,126934,1,2,0:0:0:0:
80,208,127087,101,6,0:0:0:0:
192,168,127241,1,2,0:0:0:0:
288,240,127395,1,2,0:0:0:0:
400,168,127549,5,6,0:0:0:0:
226,59,127703,1,6,0:0:0:0:
394,38,127857,1,6,0:0:0:0:
248,216,128010,1,6,0:0:0:0:
125,12,128164,1,6,0:0:0:0:
104,267,128318,1,6,0:0:0:0:
326,107,128472,5,6,0:0:0:0:
48,128,128934,1,0,0:0:0:0:
40,160,129087,1,0,0:0:0:0:
32,192,129241,1,0,0:0:0:0:
24,224,129395,22,0,B|80:304|152:240|152:240|192:64,1,299.999991559983,0|10,0:0|0:0,0:0:0:0:
184,96,130318,1,0,0:0:0:0:
312,56,130472,1,0,0:0:0:0:
272,192,130626,1,0,0:0:0:0:
392,144,130780,2,0,B|448:192|448:192|464:280|416:336,1,199.999994373322,10|0,0:0|0:0,0:0:0:0:
184,368,131241,6,0,B|216:304|216:304|344:264,1,199.999994373322
160,160,131703,1,10,0:0:0:0:
264,224,131857,1,0,0:0:0:0:
304,88,132010,1,0,0:0:0:0:
80,248,132164,1,0,0:0:0:0:
120,80,132318,1,0,0:0:0:0:
256,144,132472,1,0,0:0:0:0:
32,144,132626,2,0,P|40:24|112:-16,1,199.999994373322,10|0,0:0|0:0,0:0:0:0:
184,208,133087,6,0,B|160:280|160:280|40:352,1,199.999994373322
136,96,133549,2,0,P|248:80|296:176,1,199.999994373322,10|0,0:0|0:0,0:0:0:0:
344,296,134010,2,0,P|448:328|512:224,1,199.999994373322
480,176,134472,1,10,0:0:0:0:
360,128,134626,1,0,0:0:0:0:
336,16,134780,1,0,0:0:0:0:
464,90,134934,6,0,B|440:198|440:198|346:260,1,199.999994373322
175,133,135395,2,0,B|262:92|262:92|368:130,1,199.999994373322,10|0,0:0|0:0,0:0:0:0:
167,284,135857,2,0,P|71:236|63:52,2,299.999991559983,0|10|0,0:0|0:0|0:0,0:0:0:0:
256,216,136934,69,0,0:0:0:0:
376,176,137087,1,0,0:0:0:0:
464,280,137241,2,0,B|384:344|384:344|328:368|248:328,1,199.999994373322,10|0,0:0|0:0,0:0:0:0:
208,248,137703,1,0,0:0:0:0:
272,136,137857,1,0,0:0:0:0:
160,56,138010,1,0,0:0:0:0:
96,168,138164,2,0,P|64:232|32:296,2,99.9999971866611,10|0|0,0:0|0:0|0:0,0:0:0:0:
160,56,138626,5,0,0:0:0:0:
288,32,138780,1,0,0:0:0:0:
360,144,138934,1,0,0:0:0:0:
234,273,139087,5,10,0:0:0:0:
106,297,139241,1,0,0:0:0:0:
34,185,139395,1,0,0:0:0:0:
182,115,139549,5,0,0:0:0:0:
310,171,139703,1,0,0:0:0:0:
341,299,139857,1,0,0:0:0:0:
84,177,140010,69,10,0:0:0:0:
152,48,140164,1,0,0:0:0:0:
298,88,140318,1,0,0:0:0:0:
176,184,140472,6,0,P|56:96|72:16,1,199.999994373322
304,136,140934,2,0,P|304:280|205:317,1,199.999994373322,10|0,0:0|0:0,0:0:0:0:
152,80,141395,1,0,0:0:0:0:
328,40,141549,1,0,0:0:0:0:
224,216,141703,1,0,0:0:0:0:
240,8,141857,2,0,P|272:112|416:96,1,199.999994373322,10|0,0:0|0:0,0:0:0:0:
464,64,142318,5,0,0:0:0:0:
416,272,142472,1,0,0:0:0:0:
496,192,142626,1,0,0:0:0:0:
248,192,142780,1,10,0:0:0:0:
376,96,142934,1,0,0:0:0:0:
328,304,143087,1,0,0:0:0:0:
224,80,143241,1,0,0:0:0:0:
192,288,143395,1,0,0:0:0:0:
352,200,143549,1,0,0:0:0:0:
128,192,143703,2,0,B|88:136|88:136|64:40|120:-8,1,199.999994373322,10|0,0:0|0:0,0:0:0:0:
264,240,144164,6,0,P|200:328|64:320,1,199.999994373322
128,192,144626,1,0,0:0:0:0:
304,32,144934,1,0,0:0:0:0:
176,40,145087,2,0,P|280:144|376:120,1,199.999994373322
440,96,145549,1,0,0:0:0:0:
376,336,145857,1,0,0:0:0:0:
464,248,146010,69,0,0:0:0:0:
336,216,146164,1,0,0:0:0:0:
256,320,146318,1,0,0:0:0:0:
88,176,146472,5,10,0:0:0:0:
224,224,146626,1,0,0:0:0:0:
296,112,146780,1,0,0:0:0:0:
152,64,146934,5,0,0:0:0:0:
296,112,147087,1,0,0:0:0:0:
240,16,147241,1,0,0:0:0:0:
384,64,147395,2,0,B|408:120|408:120|368:272,1,199.999994373322,10|0,0:0|0:0,0:0:0:0:
160,320,147857,6,0,P|120:208|216:136,1,199.999994373322
360,248,148318,70,0,B|376:216|376:216|360:192|360:192|384:160|384:160|360:136|360:136|392:112|392:112|392:48|344:-8,1,250.000010132791,10|0,0:0|0:0,0:0:0:0:
240,8,148780,5,0,0:0:0:0:
184,232,149087,1,0,0:0:0:0:
160,112,149241,2,0,P|232:120|272:144,2,99.9999971866611,10|0|0,0:0|0:0|0:0,0:0:0:0:
184,232,149703,101,0,0:0:0:0:
320,208,149857,1,0,0:0:0:0:
392,320,150010,1,0,0:0:0:0:
456,168,150164,5,10,0:0:0:0:
320,208,150318,1,0,0:0:0:0:
256,336,150472,1,0,0:0:0:0:
208,136,150626,5,0,0:0:0:0:
320,208,150780,1,0,0:0:0:0:
152,232,150934,1,0,0:0:0:0:
336,112,151087,2,0,P|264:16|144:32,1,199.999994373322,10|0,0:0|0:0,0:0:0:0:
73,213,151549,6,0,B|98:335|216:347|216:347|346:320,1,299.999991559983,0|10,0:0|0:0,0:0:0:0:
470,210,152318,1,0,0:0:0:0:
470,210,152472,2,0,P|414:78|272:64,1,299.999991559983,0|10,0:0|0:0,0:0:0:0:
336,344,153241,1,0,0:0:0:0:
336,344,153395,70,0,P|256:312|216:312,1,99.9999971866611
103,203,153703,1,0,0:0:0:0:
80,304,153857,2,0,P|181:274|200:232,1,99.9999971866611,10|0,0:0|0:0,0:0:0:0:
264,112,154164,1,0,0:0:0:0:
348,184,154318,2,0,P|276:224|232:216,1,99.9999971866611
97,73,154626,1,0,0:0:0:0:
68,180,154781,2,0,P|126:177|172:154,1,99.9999971866611,10|0,0:0|0:0,0:0:0:0:
252,16,155087,1,0,0:0:0:0:
361,75,155241,6,0,P|290:135|249:137,1,99.9999971866611
173,180,155549,1,0,0:0:0:0:
420,243,155703,2,0,B|341:303|341:303|242:304|197:222,1,199.999994373322,10|0,0:0|0:0,0:0:0:0:
173,180,156164,1,0,0:0:0:0:
252,16,156318,1,0,0:0:0:0:
110,69,156472,1,0,0:0:0:0:
328,213,156626,2,0,B|418:193|418:193|413:90|413:90|302:115,1,299.999991559983,10|0,0:0|0:0,0:0:0:0:
272,248,158472,1,10,0:0:0:0:
376,336,158780,1,0,0:0:0:0:
376,336,158934,70,0,P|400:240|344:152,2,187.500007599593
224,296,160318,2,0,P|144:264|88:288,1,125.000005066395
48,208,160780,2,0,P|128:168|160:104,1,125.000005066395
192,64,161241,2,0,L|304:160,1,125.000005066395
344,200,161703,1,0,0:0:0:0:
488,128,162010,1,0,0:0:0:0:
488,128,162164,2,0,L|440:272,1,125.000005066395
416,320,162626,22,0,P|248:368|208:344,1,199.999994373322
168,240,163087,1,10,0:0:0:0:
136,368,163241,1,0,0:0:0:0:
296,248,163395,1,0,0:0:0:0:
88,184,163549,2,0,P|96:64|192:40,1,199.999994373322
224,136,164010,1,10,0:0:0:0:
160,32,164164,1,0,0:0:0:0:
352,96,164318,1,0,0:0:0:0:
104,120,164472,6,0,B|80:168|80:168|104:312,1,199.999994373322
325,210,164934,1,10,0:0:0:0:
171,288,165087,1,0,0:0:0:0:
199,133,165241,1,0,0:0:0:0:
296,376,165395,2,0,P|416:352|456:256,1,199.999994373322
360,200,165857,1,10,0:0:0:0:
456,112,166010,1,0,0:0:0:0:
255,80,166164,1,0,0:0:0:0:
334,14,166318,70,0,L|366:246,2,187.500007599593
230,52,167703,2,0,P|134:60|94:116,1,125.000005066395
106,161,168164,2,0,L|90:305,1,125.000005066395
143,365,168626,2,0,P|239:381|303:317,1,187.500007599593
256,176,169395,1,0,0:0:0:0:
256,176,169549,2,0,P|352:144|392:160,1,125.000005066395
448,216,170010,21,10,0:0:0:0:
472,96,170164,1,0,0:0:0:0:
368,32,170318,1,0,0:0:0:0:
368,200,170472,5,10,0:0:0:0:
256,144,170626,1,0,0:0:0:0:
152,200,170780,1,0,0:0:0:0:
320,264,170934,5,10,0:0:0:0:
224,336,171087,1,0,0:0:0:0:
112,280,171241,1,0,0:0:0:0:
280,192,171395,5,10,0:0:0:0:
168,136,171549,1,0,0:0:0:0:
128,24,171703,1,0,0:0:0:0:
328,104,171857,70,10,L|448:80,2,99.9999971866611
152,224,172318,2,10,L|40:208,2,99.9999971866611
376,288,172780,1,10,0:0:0:0:
272,144,172934,1,10,0:0:0:0:
224,344,173087,1,10,0:0:0:0:
408,160,173241,2,0,P|416:40|248:40,1,299.999991559983,10|0,0:0|0:0,0:0:0:0:
176,104,174010,85,0,0:0:0:0:
176,104,174164,1,0,0:0:0:0:
64,56,174472,1,0,0:0:0:0:
64,56,174626,2,0,L|40:192,1,125.000000298023
72,272,175395,1,0,0:0:0:0:
72,272,175549,2,0,P|144:288|184:280,1,83.3333335320157
232,248,176010,2,0,P|280:240|336:248,1,83.3333335320157
376,304,176472,2,0,P|440:264|408:112,1,250.000000596047
304,72,177703,5,0,0:0:0:0:
304,72,177857,1,0,0:0:0:0:
208,128,178164,1,0,0:0:0:0:
208,128,178318,1,0,0:0:0:0:
112,80,178626,1,0,0:0:0:0:
112,80,178780,1,0,0:0:0:0:
48,160,179087,1,0,0:0:0:0:
48,160,179241,2,0,B|72:288|72:288|144:336|200:280,1,250.000000596047
304,232,180626,1,0,0:0:0:0:
392,304,180934,101,0,0:0:0:0:
392,304,181087,2,0,P|448:256|488:256,1,83.3333335320157
480,176,181549,2,0,P|448:144|424:96,1,83.3333335320157
400,40,182010,1,0,0:0:0:0:
280,96,182472,2,0,P|232:112|184:112,1,83.3333335320157
128,72,182934,6,0,L|104:168,1,83.3333335320157
59,215,183395,2,0,L|83:303,1,83.3333335320157
144,352,183857,1,0,0:0:0:0:
237,268,184318,2,0,P|279:232|321:222,1,83.3333335320157
380,212,184780,1,0,0:0:0:0:
380,212,185472,101,0,0:0:0:0:
463,275,185703,2,0,P|482:180|447:138,2,125.000000298023
120,224,192164,86,0,B|88:144|88:144|80:64|176:48,1,199.999994373322,4|0,0:0|0:0,0:0:0:0:
263,270,192626,2,0,B|220:345|220:345|163:401|90:337,1,199.999994373322,4|0,0:0|0:0,0:0:0:0:
224,72,193087,2,0,P|344:56|408:128,1,199.999994373322,4|0,0:0|0:0,0:0:0:0:
352,272,193549,1,4,0:0:0:0:
296,128,193703,1,0,0:0:0:0:
472,200,193857,1,0,0:0:0:0:
224,208,194010,6,0,B|160:192|160:192|136:152|136:152|40:128,1,199.999994373322,4|0,0:0|0:0,0:0:0:0:
320,280,194472,2,0,B|392:264|392:264|424:216|424:216|512:192,1,199.999994373322,4|0,0:0|0:0,0:0:0:0:
192,336,194934,2,0,B|128:320|128:320|88:288|88:288|-8:272,1,199.999994373322,4|0,0:0|0:0,0:0:0:0:
272,184,195395,1,4,0:0:0:0:
200,88,195549,1,0,0:0:0:0:
304,24,195703,1,0,0:0:0:0:
384,120,195857,102,0,B|408:176|408:176|384:320,1,199.999994373322,4|0,0:0|0:0,0:0:0:0:
216,24,196318,2,0,L|256:232,1,199.999994373322,4|0,0:0|0:0,0:0:0:0:
144,336,196780,2,0,B|80:296|80:296|64:160,1,199.999994373322,4|0,0:0|0:0,0:0:0:0:
352,264,197241,2,0,L|160:200,1,199.999994373322,4|0,0:0|0:0,0:0:0:0:
432,96,197703,5,4,0:0:0:0:
304,176,197857,1,0,0:0:0:0:
448,224,198010,1,0,0:0:0:0:
280,48,198164,1,4,0:0:0:0:
248,288,198318,1,0,0:0:0:0:
384,168,198472,1,0,0:0:0:0:
176,168,198626,2,4,B|80:176|80:176|24:160|-16:200,2,199.999994373322
432,96,199549,102,0,B|464:160|464:160|448:304,1,199.999994373322,4|0,0:0|0:0,0:0:0:0:
272,40,200010,2,0,B|312:128|312:128|288:272,1,199.999994373322,4|0,0:0|0:0,0:0:0:0:
104,336,200472,2,0,B|56:272|56:272|80:152,1,199.999994373322,4|0,0:0|0:0,0:0:0:0:
120,24,200934,1,4,0:0:0:0:
280,200,201087,1,0,0:0:0:0:
112,176,201241,1,0,0:0:0:0:
256,56,201395,6,0,P|368:56|424:152,1,199.999994373322,4|0,0:0|0:0,0:0:0:0:
224,224,201857,2,0,P|120:224|64:304,1,199.999994373322,4|0,0:0|0:0,0:0:0:0:
400,336,202318,2,0,P|448:216|416:160,1,199.999994373322,4|0,0:0|0:0,0:0:0:0:
224,96,202780,1,4,0:0:0:0:
376,24,202934,1,0,0:0:0:0:
256,288,203087,1,0,0:0:0:0:
98,234,203241,102,4,B|175:221|175:221|200:190|200:190|263:177|263:177|300:196|300:196|380:182,1,299.999991559983
480,360,204010,1,0,0:0:0:0:
480,360,204164,2,4,B|404:349|404:349|375:319|375:319|311:312|311:312|277:334|277:334|200:323,1,299.999991559983
112,276,204780,1,0,0:0:0:0:
120,184,204934,1,0,0:0:0:0:
120,184,205087,6,0,B|166:109|166:109|221:69|296:114,1,199.999994373322,4|0,0:0|0:0,0:0:0:0:
210,294,205549,2,0,B|139:346|139:346|73:362|20:292,1,199.999994373322,4|0,0:0|0:0,0:0:0:0:
376,144,206010,2,0,B|416:184|416:184|440:344,2,199.999994373322,4|0|0,0:0|0:0|0:0,0:0:0:0:
256,96,206934,101,6,0:0:0:0:
208,184,207087,1,2,0:0:0:0:
112,192,207241,1,2,0:0:0:0:
280,144,207395,5,6,0:0:0:0:
264,248,207549,1,2,0:0:0:0:
192,320,207703,1,2,0:0:0:0:
328,152,207857,101,6,0:0:0:0:
344,256,208010,1,2,0:0:0:0:
296,344,208164,1,2,0:0:0:0:
376,144,208318,5,6,0:0:0:0:
432,240,208472,1,2,0:0:0:0:
416,344,208626,1,2,0:0:0:0:
400,96,208780,101,6,0:0:0:0:
488,224,208934,1,6,0:0:0:0:
512,64,209087,1,6,0:0:0:0:
256,224,209241,5,6,0:0:0:0:
432,176,209395,1,6,0:0:0:0:
270,88,209549,1,6,0:0:0:0:
320,336,209703,101,6,0:0:0:0:
176,214,209857,1,6,0:0:0:0:
337,152,210010,1,6,0:0:0:0:
152,72,210164,5,6,0:0:0:0:
93,264,210318,1,6,0:0:0:0:
294,198,210472,1,6,0:0:0:0:
55,137,210626,102,4,B|95:44|95:44|152:18|152:18|208:89|296:46,1,299.999991559983
456,247,211549,2,4,B|417:340|417:340|360:365|360:365|304:295|216:338,1,299.999991559983
128,208,212318,1,0,0:0:0:0:
128,208,212472,2,0,P|248:160|280:88,1,199.999994373322,4|0,0:0|0:0,0:0:0:0:
48,88,212934,2,0,L|16:320,1,199.999994373322,4|0,0:0|0:0,0:0:0:0:
160,336,213395,2,0,B|259:305|256:376|392:320,1,199.999994373322,4|0,0:0|0:0,0:0:0:0:
480,304,213857,2,0,L|424:88,1,199.999994373322,4|0,0:0|0:0,0:0:0:0:
312,32,214318,54,0,P|264:120|376:200,1,199.999994373322,4|0,0:0|0:0,0:0:0:0:
224,360,214780,2,0,P|152:280|56:296,1,199.999994373322,4|0,0:0|0:0,0:0:0:0:
120,376,215241,1,4,0:0:0:0:
192,96,215549,1,0,0:0:0:0:
128,208,215703,1,4,0:0:0:0:
256,176,215857,1,0,0:0:0:0:
200,296,216010,1,0,0:0:0:0:
320,264,216164,6,0,B|392:296|392:296|456:272|472:184,1,199.999994373322,4|0,0:0|0:0,0:0:0:0:
336,104,216626,2,0,B|272:72|272:72|208:112|224:192,1,199.999994373322,4|0,0:0|0:0,0:0:0:0:
472,144,217087,2,0,P|464:16|360:-8,1,199.999994373322,4|0,0:0|0:0,0:0:0:0:
264,104,217549,1,4,0:0:0:0:
388,85,217703,1,0,0:0:0:0:
200,208,217857,1,0,0:0:0:0:
336,168,218010,38,0,L|448:184,2,99.9999971866611,4|0|0,0:0|0:0|0:0,0:0:0:0:
240,280,218472,2,0,L|120:304,2,99.9999971866611,4|0|0,0:0|0:0|0:0,0:0:0:0:
216,104,218934,2,0,L|160:0,2,99.9999971866611,4|0|0,0:0|0:0|0:0,0:0:0:0:
376,304,219395,2,0,L|432:400,2,99.9999971866611,4|0|0,0:0|0:0|0:0,0:0:0:0:
136,192,219857,2,0,P|200:224|264:216,1,99.9999971866611,4|0,0:0|0:0,0:0:0:0:
424,80,220164,2,0,P|336:96|312:128,1,99.9999971866611,0|4,0:0|0:0,0:0:0:0:
448,336,220472,2,0,P|440:248|424:216,1,99.9999971866611
168,336,220780,6,0,P|248:336|272:320,2,99.9999971866611,4|0|0,0:0|0:0|0:0,0:0:0:0:
192,152,221241,2,0,P|128:136|72:160,2,99.9999971866611,4|0|0,0:0|0:0|0:0,0:0:0:0:
400,224,221703,102,2,B|416:176|416:176|400:96,1,99.9999971866611,6|2,0:0|0:0,0:0:0:0:
240,56,222010,1,2,0:0:0:0:
288,360,222164,2,2,B|304:304|304:304|288:248,1,99.9999971866611,6|2,0:0|0:0,0:0:0:0:
128,208,222472,1,2,0:0:0:0:
281,171,222626,2,2,B|305:219|305:219|281:299,1,99.9999971866611,6|2,0:0|0:0,0:0:0:0:
144,344,222934,1,2,0:0:0:0:
424,112,223087,2,2,B|448:160|448:160|424:264,1,99.9999971866611,6|2,0:0|0:0,0:0:0:0:
291,263,223395,1,2,0:0:0:0:
120,72,223549,6,2,L|232:48,1,99.9999971866611,6|2,0:0|0:0,0:0:0:0:
408,272,223857,1,2,0:0:0:0:
488,176,224010,2,2,L|360:152,1,99.9999971866611,6|2,0:0|0:0,0:0:0:0:
88,304,224318,1,2,0:0:0:0:
408,272,224472,2,2,L|208:240,1,199.999994373322,6|2,0:0|0:0,0:0:0:0:
53,212,224934,5,4,0:0:0:0:
131,226,225087,1,0,0:0:0:0:
112,311,225241,1,0,0:0:0:0:
35,289,225395,5,0,0:0:0:0:
