osu file format v14

[General]
AudioFilename: audio.mp3
AudioLeadIn: 0
PreviewTime: 51847
Countdown: 0
SampleSet: Normal
StackLeniency: 0.7
Mode: 0
LetterboxInBreaks: 0
WidescreenStoryboard: 1

[Editor]
DistanceSpacing: 1.3
BeatDivisor: 3
GridSize: 8
TimelineZoom: 1.4

[Metadata]
Title:Break My Mind
TitleUnicode:Break My Mind
Artist:DAGames
ArtistUnicode:DAGames
Creator:epes2001 773
Version:Breaking
Source:Five Nights at Freddy's 4
Tags:
BeatmapID:1699611
BeatmapSetID:481303

[Difficulty]
HPDrainRate:5.5
CircleSize:4
OverallDifficulty:8
ApproachRate:9
SliderMultiplier:2.2
SliderTickRate:1

[Events]
//Background and Video events
0,0,"BG.jpg",0,0
//Break Periods
2,66826,73410
2,186826,191564
//Storyboard Layer 0 (Background)
//Storyboard Layer 1 (Fail)
//Storyboard Layer 2 (Pass)
//Storyboard Layer 3 (Foreground)
//Storyboard Sound Samples

[TimingPoints]
14934,461.538461538462,4,1,1,70,1,0
14934,-100,4,1,1,70,0,0
44472,-133.333333333333,4,1,0,60,0,0
51857,-83.3333333333333,4,1,1,80,0,1
66626,-100,4,1,0,90,0,0
70318,-100,4,1,1,50,0,0
72164,-100,4,1,1,70,0,0
103549,-133.333333333333,4,1,0,50,0,0
110934,-83.3333333333333,4,1,1,80,0,1
128472,-83.3333333333333,4,1,1,80,0,0
158934,-133.333333333333,4,1,1,80,0,0
162626,-83.3333333333333,4,1,1,80,0,0
166318,-133.333333333333,4,1,1,80,0,0
170010,-83.3333333333333,4,1,1,80,0,0
173703,-200,4,2,0,40,0,0
192164,-83.3333333333333,4,1,1,80,0,1
206934,-83.3333333333333,4,1,1,80,0,0
210626,-83.3333333333333,4,1,1,80,0,1
225395,-100,4,1,0,100,0,0

[Colours]
Combo1 : 128,128,128
Combo2 : 128,128,0
Combo3 : 128,64,64
Combo4 : 128,0,0
Combo5 : 64,0,128
Combo6 : 255,0,0
Combo7 : 255,0,128
Combo8 : 255,255,255

[HitObjects]
112,64,14933,6,0,P|80:136|128:224,1,146.666666666667
197,273,15395,2,0,P|293:249|357:273,1,146.666666666667,8|0,0:0|0:0,0:0:0:0:
424,356,15857,2,0,P|472:276|436:179,1,146.666666666667
251,153,16318,2,0,P|283:225|347:265,1,146.666666666667,8|0,0:0|0:0,0:0:0:0:
364,70,16780,2,0,P|276:22|212:30,1,146.666666666667
128,212,17241,2,0,P|199:203|250:152,1,146.666666666667,8|0,0:0|0:0,0:0:0:0:
96,64,17703,1,0,0:0:0:0:
152,112,17857,1,0,0:0:0:0:
176,184,18010,1,0,0:0:0:0:
160,312,18164,1,8,0:0:0:0:
224,280,18318,1,0,0:0:0:0:
264,216,18472,1,0,0:0:0:0:
280,144,18626,6,0,P|376:88|432:88,1,146.666666666667
472,224,19087,2,0,P|384:296|304:296,1,146.666666666667,8|0,0:0|0:0,0:0:0:0:
208,304,19549,2,0,B|168:240|168:240|208:152|128:80,1,220,0|8,0:0|0:0,0:0:0:0:
72,192,20318,1,0,0:0:0:0:
72,192,20472,2,0,L|248:136,1,146.666666666667
392,208,20933,2,0,P|328:128|336:56,1,146.666666666667,8|0,0:0|0:0,0:0:0:0:
448,96,21395,1,0,0:0:0:0:
320,280,21703,1,0,0:0:0:0:
320,280,21857,2,0,L|408:256,2,73.3333333333333,8|0|0,0:0|0:0|0:0,0:0:0:0:
248,312,22318,6,0,P|144:320|80:272,1,146.666666666667
72,176,22780,2,0,P|88:72|136:24,1,146.666666666667,8|0,0:0|0:0,0:0:0:0:
248,8,23241,2,0,P|344:24|408:80,1,146.666666666667
440,176,23703,2,0,P|416:272|368:320,1,146.666666666667,8|0,0:0|0:0,0:0:0:0:
248,335,24164,2,0,P|144:328|80:272,1,146.666666666667
88,184,24626,2,0,P|96:96|144:32,1,146.666666666667,8|0,0:0|0:0,0:0:0:0:
232,0,25087,1,0,0:0:0:0:
344,360,25549,2,0,B|352:312|352:312|312:208,1,146.666666666667,8|0,0:0|0:0,0:0:0:0:
336,112,26010,86,0,P|263:114|208:160,1,146.666666666667
90,238,26472,2,0,P|143:287|215:299,1,146.666666666667,8|0,0:0|0:0,0:0:0:0:
408,216,26934,2,0,P|360:162|291:144,1,146.666666666667
178,210,27395,2,0,P|154:140|187:58,1,146.666666666667,8|0,0:0|0:0,0:0:0:0:
283,284,27857,2,0,P|187:340|107:332,1,146.666666666667,8|0,0:0|0:0,0:0:0:0:
235,126,28318,2,0,P|331:86|403:94,1,146.666666666667,8|0,0:0|0:0,0:0:0:0:
470,154,28780,1,8,0:0:0:0:
264,184,29241,1,0,0:0:0:0:
264,184,29703,6,0,P|264:112|184:128,1,146.666666666667
240,272,30164,2,0,P|232:312|320:328,1,146.666666666667,8|0,0:0|0:0,0:0:0:0:
182,194,30626,2,0,P|94:194|38:250,1,146.666666666667
368,208,31087,2,0,P|456:176|464:160,2,73.3333333333333,8|0|0,0:0|0:0|0:0,0:0:0:0:
304,168,31549,2,0,P|288:72|328:16,1,146.666666666667
456,200,32010,2,0,P|480:288|440:360,1,146.666666666667,8|0,0:0|0:0,0:0:0:0:
344,360,32472,1,0,0:0:0:0:
280,320,32626,1,0,0:0:0:0:
208,312,32780,1,0,0:0:0:0:
88,272,32934,1,8,0:0:0:0:
136,216,33087,1,0,0:0:0:0:
152,144,33241,1,0,0:0:0:0:
128,72,33395,6,0,P|200:48|304:64,1,146.666666666667
384,216,33857,2,0,P|280:232|208:208,1,146.666666666667,8|0,0:0|0:0,0:0:0:0:
392,64,34318,2,0,P|488:112|520:176,1,146.666666666667
320,312,34780,2,0,P|232:296|184:240,1,146.666666666667,8|0,0:0|0:0,0:0:0:0:
464,232,35241,2,0,P|480:344|440:384,1,146.666666666667
128,176,35703,2,0,P|192:88|248:80,1,146.666666666667,8|0,0:0|0:0,0:0:0:0:
280,232,36164,1,0,0:0:0:0:
88,288,36472,1,0,0:0:0:0:
88,288,36626,2,0,L|56:192,2,73.3333333333333,8|0|0,0:0|0:0|0:0,0:0:0:0:
64,376,37087,6,0,P|160:352|184:296,1,146.666666666667
255,140,37549,2,0,P|279:236|335:260,1,146.666666666667,8|0,0:0|0:0,0:0:0:0:
420,322,38010,1,0,0:0:0:0:
144,176,38472,2,0,B|176:144|176:144|304:184,1,146.666666666667,8|0,0:0|0:0,0:0:0:0:
136,272,38934,2,0,P|64:224|48:152,1,146.666666666667
218,61,39395,2,0,P|186:149|114:181,1,146.666666666667,8|0,0:0|0:0,0:0:0:0:
81,52,39857,1,0,0:0:0:0:
448,48,40318,2,0,B|400:128|400:128|400:216,1,146.666666666667,8|0,0:0|0:0,0:0:0:0:
360,288,40780,70,0,P|464:272|504:216,1,146.666666666667
224,176,41241,2,0,P|120:184|64:240,1,146.666666666667,8|0,0:0|0:0,0:0:0:0:
376,120,41703,2,0,P|368:16|320:-24,1,146.666666666667
232,272,42164,2,0,P|256:376|312:400,1,146.666666666667,8|0,0:0|0:0,0:0:0:0:
440,200,42626,2,0,B|344:176|344:176|288:192,1,146.666666666667,8|0,0:0|0:0,0:0:0:0:
64,128,43087,2,0,B|168:152|168:152|256:112,1,146.666666666667,8|0,0:0|0:0,0:0:0:0:
296,40,43549,1,8,0:0:0:0:
296,40,44010,1,8,0:0:0:0:
288,80,44164,1,0,0:0:0:0:
288,120,44318,1,0,0:0:0:0:
296,160,44472,86,0,P|312:216|328:240,2,55.0000020980836,8|0|0,0:0|0:0|0:0,0:0:0:0:
392,208,44934,2,0,P|400:256|400:296,2,55.0000020980836,8|0|0,0:0|0:0|0:0,0:0:0:0:
256,160,45395,2,0,P|256:216|272:240,2,55.0000020980836,8|0|0,0:0|0:0|0:0,0:0:0:0:
424,224,45857,2,0,P|432:288|424:304,2,55.0000020980836,8|0|0,0:0|0:0|0:0,0:0:0:0:
256,336,46318,6,0,P|208:344|176:344,2,55.0000020980836,8|0|0,0:0|0:0|0:0,0:0:0:0:
272,264,46780,2,0,P|336:256|352:256,2,55.0000020980836,8|0|0,0:0|0:0|0:0,0:0:0:0:
232,200,47241,2,0,P|176:208|152:208,2,55.0000020980836,8|0|0,0:0|0:0|0:0,0:0:0:0:
240,128,47703,2,0,P|272:120|309:118,2,55.0000020980836,8|0|0,0:0|0:0|0:0,0:0:0:0:
85,58,48164,102,0,L|-11:50,1,55.0000020980836,4|0,0:0|0:0,0:0:0:0:
104,152,48472,1,0,0:0:0:0:
104,152,48626,2,0,P|168:136|240:176,1,110.000004196167,4|0,0:0|0:0,0:0:0:0:
216,280,49087,2,0,P|120:288|80:264,1,110.000004196167,4|0,0:0|0:0,0:0:0:0:
312,216,49549,2,0,P|336:296|304:352,1,110.000004196167,4|0,0:0|0:0,0:0:0:0:
208,168,50010,5,4,0:0:0:0:
184,80,50164,1,4,0:0:0:0:
256,24,50318,1,4,0:0:0:0:
336,72,50472,2,4,L|408:56,2,55.0000020980836
304,160,50934,2,4,P|272:240|328:344,1,165.000006294251
328,344,51549,1,0,0:0:0:0:
376,344,51703,1,0,0:0:0:0:
408,312,51857,70,0,P|464:224|432:136,1,175.999994628906,4|0,0:0|0:0,0:0:0:0:
200,120,52318,2,0,P|280:216|344:224,1,175.999994628906,4|0,0:0|0:0,0:0:0:0:
72,8,52780,2,0,L|24:192,1,175.999994628906,4|0,0:0|0:0,0:0:0:0:
144,344,53241,1,4,0:0:0:0:
184,248,53395,1,0,0:0:0:0:
144,144,53549,1,0,0:0:0:0:
192,48,53703,6,0,B|280:32|280:32|376:64,1,175.999994628906,4|0,0:0|0:0,0:0:0:0:
464,216,54164,2,0,P|368:200|336:112,1,175.999994628906,4|0,0:0|0:0,0:0:0:0:
136,312,54626,2,0,P|240:288|272:216,1,175.999994628906,4|0,0:0|0:0,0:0:0:0:
112,80,55087,1,4,0:0:0:0:
80,208,55241,1,0,0:0:0:0:
208,160,55395,1,0,0:0:0:0:
352,144,55549,102,0,P|472:168|528:224,1,175.999994628906,4|0,0:0|0:0,0:0:0:0:
240,96,56010,2,0,P|360:40|424:48,1,175.999994628906,4|0,0:0|0:0,0:0:0:0:
208,208,56472,2,0,P|120:168|24:184,1,175.999994628906,4|0,0:0|0:0,0:0:0:0:
240,296,56934,2,0,P|128:304|64:352,1,175.999994628906,4|0,0:0|0:0,0:0:0:0:
352,368,57395,1,4,0:0:0:0:
400,272,57549,1,0,0:0:0:0:
344,168,57703,1,0,0:0:0:0:
168,96,57857,2,0,P|144:176|168:232,2,87.9999973144532,4|0|0,0:0|0:0|0:0,0:0:0:0:
272,32,58318,2,4,P|384:16|496:48,2,175.999994628906
200,176,59241,6,0,B|120:192|120:192|64:136|80:56,1,175.999994628906,4|0,0:0|0:0,0:0:0:0:
320,160,59703,2,0,P|296:264|224:344,1,175.999994628906,4|0,0:0|0:0,0:0:0:0:
416,48,60164,2,0,L|464:232,1,175.999994628906,4|0,0:0|0:0,0:0:0:0:
376,304,60626,1,4,0:0:0:0:
248,272,60780,1,0,0:0:0:0:
152,352,60934,1,0,0:0:0:0:
88,256,61087,102,0,B|72:168|72:168|120:104|96:32,1,175.999994628906,4|0,0:0|0:0,0:0:0:0:
264,32,61549,2,0,B|280:96|336:104|336:104|376:208,1,175.999994628906,4|0,0:0|0:0,0:0:0:0:
152,336,62010,2,0,B|168:248|168:248|248:176,1,175.999994628906,4|0,0:0|0:0,0:0:0:0:
424,320,62472,1,4,0:0:0:0:
368,200,62626,1,0,0:0:0:0:
312,320,62780,1,0,0:0:0:0:
480,128,62934,6,0,P|400:72|288:96,1,175.999994628906,4|0,0:0|0:0,0:0:0:0:
232,136,63395,1,4,0:0:0:0:
136,373,63703,1,0,0:0:0:0:
196,290,63857,2,0,P|292:298|364:242,1,175.999994628906,4|0,0:0|0:0,0:0:0:0:
409,182,64318,1,4,0:0:0:0:
326,138,64472,1,0,0:0:0:0:
344,48,64626,1,0,0:0:0:0:
344,48,64780,102,0,P|256:80|176:48,1,175.999994628906,4|0,0:0|0:0,0:0:0:0:
48,0,65241,2,0,P|32:104|72:176,1,175.999994628906,4|0,0:0|0:0,0:0:0:0:
192,208,65703,2,0,P|208:304|176:384,2,175.999994628906,4|0|0,0:0|0:0|0:0,0:0:0:0:
152,80,66626,21,0,0:0:0:0:
80,152,74010,54,0,P|160:112|264:128,1,146.666666666667
304,248,74472,2,0,P|408:272|504:248,1,146.666666666667,8|0,0:0|0:0,0:0:0:0:
488,72,74934,2,0,P|392:72|320:104,1,146.666666666667
224,224,75395,2,0,P|128:256|32:232,1,146.666666666667,8|0,0:0|0:0,0:0:0:0:
72,72,75857,2,0,P|192:88|248:120,1,146.666666666667
304,240,76318,2,0,P|408:272|488:256,1,146.666666666667,8|0,0:0|0:0,0:0:0:0:
504,208,76780,1,0,0:0:0:0:
480,136,76934,1,0,0:0:0:0:
416,96,77087,1,0,0:0:0:0:
320,176,77241,1,8,0:0:0:0:
248,184,77395,1,0,0:0:0:0:
184,144,77549,1,0,0:0:0:0:
168,64,77703,6,0,P|112:96|96:208,1,146.666666666667
296,312,78164,2,0,P|288:232|232:176,1,146.666666666667,8|0,0:0|0:0,0:0:0:0:
48,296,78626,2,0,P|136:304|200:272,1,146.666666666667
336,80,79087,2,0,P|240:72|168:120,1,146.666666666667,8|0,0:0|0:0,0:0:0:0:
360,360,79549,2,0,B|392:288|392:288|360:184,1,146.666666666667
128,128,80010,2,0,B|176:168|176:168|280:144,1,146.666666666667,8|0,0:0|0:0,0:0:0:0:
408,112,80472,1,0,0:0:0:0:
408,112,80780,1,0,0:0:0:0:
336,96,80934,1,8,0:0:0:0:
280,152,81087,1,0,0:0:0:0:
208,160,81241,1,0,0:0:0:0:
144,120,81395,70,0,P|104:216|152:288,1,146.666666666667
360,304,81857,2,0,L|168:328,1,146.666666666667,8|0,0:0|0:0,0:0:0:0:
214,322,82318,1,0,0:0:0:0:
216,328,82780,2,0,L|192:176,1,146.666666666667,8|0,0:0|0:0,0:0:0:0:
336,72,83241,2,0,P|384:144|360:232,1,146.666666666667
128,184,83703,2,0,P|144:104|208:56,1,146.666666666667,8|0,0:0|0:0,0:0:0:0:
190,62,84164,1,0,0:0:0:0:
192,64,84626,2,0,L|352:96,1,146.666666666667,8|0,0:0|0:0,0:0:0:0:
184,248,85087,6,0,B|112:256|112:256|64:216|64:144,1,146.666666666667
208,72,85549,2,0,B|272:72|272:72|296:104|304:152,1,146.666666666667,8|0,0:0|0:0,0:0:0:0:
240,344,86010,2,0,P|176:296|168:216,1,146.666666666667
448,152,86472,2,0,P|488:216|472:296,1,146.666666666667,8|0,0:0|0:0,0:0:0:0:
216,72,86934,2,0,B|256:56|256:56|304:112|392:72,1,146.666666666667,8|0,0:0|0:0,0:0:0:0:
512,240,87395,2,0,B|464:208|464:208|408:248|344:216,1,146.666666666667,8|0,0:0|0:0,0:0:0:0:
144,320,87857,2,0,P|216:272|168:152,1,220,8|0,0:0|0:0,0:0:0:0:
184,160,88780,102,0,P|280:160|328:96,1,146.666666666667
408,24,89241,2,0,B|448:72|448:72|432:192,1,146.666666666667,8|0,0:0|0:0,0:0:0:0:
304,208,89703,2,0,B|280:256|280:256|320:360,1,146.666666666667
464,240,90164,2,0,P|464:144|392:88,1,146.666666666667,8|0,0:0|0:0,0:0:0:0:
248,56,90626,2,0,P|272:128|360:176,1,146.666666666667
64,216,91087,2,0,B|104:160|104:160|72:40,1,146.666666666667,8|0,0:0|0:0,0:0:0:0:
216,304,91549,1,0,0:0:0:0:
144,320,91703,1,0,0:0:0:0:
72,336,91857,1,0,0:0:0:0:
264,224,92010,1,8,0:0:0:0:
192,240,92164,1,0,0:0:0:0:
120,256,92318,1,0,0:0:0:0:
304,144,92472,6,0,L|136:168,1,146.666666666667
296,312,92934,2,0,L|464:280,1,146.666666666667,8|0,0:0|0:0,0:0:0:0:
192,128,93395,2,0,P|152:224|200:304,1,146.666666666667
416,176,93857,2,0,P|384:56|344:40,1,146.666666666667,8|0,0:0|0:0,0:0:0:0:
224,328,94318,2,0,B|304:336|304:336|400:296,1,146.666666666667
256,72,94780,2,0,P|240:160|304:240,1,146.666666666667,8|0,0:0|0:0,0:0:0:0:
448,104,95241,1,0,0:0:0:0:
448,104,95549,1,0,0:0:0:0:
408,168,95703,1,8,0:0:0:0:
328,176,95857,1,0,0:0:0:0:
360,248,96010,1,0,0:0:0:0:
392,320,96164,6,0,L|224:352,1,146.666666666667
64,248,96626,2,0,B|165:270|165:270|248:248,1,146.666666666667,8|0,0:0|0:0,0:0:0:0:
380,136,97087,2,0,B|281:118|281:118|210:140,1,146.666666666667
336,288,97549,2,0,L|496:248,1,146.666666666667,8|0,0:0|0:0,0:0:0:0:
176,152,98010,2,0,P|128:256|152:344,1,146.666666666667
368,176,98472,2,0,P|368:72|320:8,1,146.666666666667,8|0,0:0|0:0,0:0:0:0:
295,351,98934,2,0,P|368:362|439:346,1,146.666666666667
247,111,99395,2,0,P|176:95|104:103,1,146.666666666667,8|0,0:0|0:0,0:0:0:0:
176,368,99857,6,0,P|184:280|160:208,1,146.666666666667
64,72,100318,2,0,P|160:40|248:56,1,146.666666666667,8|0,0:0|0:0,0:0:0:0:
320,168,100780,2,0,P|408:192|488:176,1,146.666666666667
336,344,101241,2,0,P|256:320|176:320,1,146.666666666667,8|0,0:0|0:0,0:0:0:0:
48,168,101703,2,0,P|144:192|216:152,1,146.666666666667,8|0,0:0|0:0,0:0:0:0:
392,80,102164,2,0,P|296:104|224:72,1,146.666666666667,8|0,0:0|0:0,0:0:0:0:
112,16,102626,1,8,0:0:0:0:
112,16,103087,1,8,0:0:0:0:
128,48,103241,1,0,0:0:0:0:
144,80,103395,1,0,0:0:0:0:
160,112,103549,38,0,P|200:112|224:96,2,55.0000020980836,8|0|0,0:0|0:0|0:0,0:0:0:0:
210,190,104010,2,0,P|258:190|290:206,2,55.0000020980836,8|0|0,0:0|0:0|0:0,0:0:0:0:
304,128,104472,2,0,P|352:120|368:104,2,55.0000020980836,8|0|0,0:0|0:0|0:0,0:0:0:0:
360,200,104934,2,0,P|424:216|440:224,2,55.0000020980836,8|0|0,0:0|0:0|0:0,0:0:0:0:
352,312,105395,6,0,P|368:336|400:368,2,55.0000020980836,8|0|0,0:0|0:0|0:0,0:0:0:0:
264,272,105857,2,0,P|240:336|240:352,2,55.0000020980836,8|0|0,0:0|0:0|0:0,0:0:0:0:
256,176,106318,2,0,P|200:200|184:216,2,55.0000020980836,8|0|0,0:0|0:0|0:0,0:0:0:0:
328,104,106780,2,0,P|272:88|232:88,2,55.0000020980836,8|0|0,0:0|0:0|0:0,0:0:0:0:
432,128,107241,102,0,P|432:64|424:48,2,55.0000020980836,4|0|0,0:0|0:0|0:0,0:0:0:0:
336,216,107703,2,0,P|352:288|368:312,2,55.0000020980836,4|0|0,0:0|0:0|0:0,0:0:0:0:
256,120,108164,2,0,P|192:96|120:112,1,110.000004196167,4|0,0:0|0:0,0:0:0:0:
72,240,108626,2,0,P|136:240|184:216,1,110.000004196167,4|0,0:0|0:0,0:0:0:0:
272,176,109087,5,4,0:0:0:0:
368,160,109241,1,4,0:0:0:0:
456,208,109395,1,4,0:0:0:0:
488,296,109549,2,4,P|504:352|504:376,2,55.0000020980836
384,272,110010,2,0,P|304:272|256:312,1,110.000004196167,4|0,0:0|0:0,0:0:0:0:
248,312,110472,1,0,0:0:0:0:
208,320,110626,1,0,0:0:0:0:
168,312,110780,1,0,0:0:0:0:
128,288,110934,70,0,B|96:176|96:176|144:80,1,175.999994628906,4|0,0:0|0:0,0:0:0:0:
312,32,111395,2,0,B|288:144|288:144|224:200,1,175.999994628906,4|0,0:0|0:0,0:0:0:0:
40,176,111857,2,0,P|120:72|216:96,1,175.999994628906,4|0,0:0|0:0,0:0:0:0:
280,280,112318,1,4,0:0:0:0:
368,216,112472,1,0,0:0:0:0:
384,112,112626,1,0,0:0:0:0:
288,32,112780,6,0,P|280:160|384:224,1,175.999994628906,4|0,0:0|0:0,0:0:0:0:
424,352,113241,2,0,P|272:328|216:352,1,175.999994628906,4|0,0:0|0:0,0:0:0:0:
48,208,113703,2,0,B|88:240|88:240|248:208,1,175.999994628906,4|0,0:0|0:0,0:0:0:0:
448,96,114164,1,4,0:0:0:0:
312,88,114318,1,0,0:0:0:0:
400,24,114472,1,0,0:0:0:0:
216,56,114626,102,0,P|240:152|344:200,1,175.999994628906,4|0,0:0|0:0,0:0:0:0:
432,320,115087,2,0,P|480:216|448:120,1,175.999994628906,4|0,0:0|0:0,0:0:0:0:
240,232,115549,2,0,P|264:336|344:384,1,175.999994628906,4|0,0:0|0:0,0:0:0:0:
320,120,116010,2,0,P|192:112|136:168,1,175.999994628906,4|0,0:0|0:0,0:0:0:0:
112,336,116472,1,4,0:0:0:0:
208,296,116626,1,0,0:0:0:0:
296,344,116780,1,0,0:0:0:0:
392,296,116934,2,0,L|496:336,2,87.9999973144532,4|0|0,0:0|0:0|0:0,0:0:0:0:
280,240,117395,2,4,P|240:152|272:64,2,175.999994628906
496,48,118318,6,0,P|296:48|272:72,1,175.999994628906,4|0,0:0|0:0,0:0:0:0:
192,192,118780,2,0,P|336:208|392:152,1,175.999994628906,4|0,0:0|0:0,0:0:0:0:
80,80,119241,2,0,B|40:160|40:160|72:320,1,175.999994628906,4|0,0:0|0:0,0:0:0:0:
112,344,119703,1,4,0:0:0:0:
200,296,119857,1,0,0:0:0:0:
304,280,120010,1,0,0:0:0:0:
416,288,120164,102,0,B|464:256|464:256|496:184|440:128,1,175.999994628906,4|0,0:0|0:0,0:0:0:0:
248,48,120626,2,0,B|232:128|304:168|304:168|368:144,1,175.999994628906,4|0,0:0|0:0,0:0:0:0:
216,336,121087,2,0,B|200:288|200:288|168:256|168:256|136:272|136:272|80:328,1,175.999994628906,4|0,0:0|0:0,0:0:0:0:
32,376,121549,1,4,0:0:0:0:
0,280,121703,1,0,0:0:0:0:
48,192,121857,1,0,0:0:0:0:
32,72,122010,6,0,P|168:144|160:192,1,175.999994628906,4|0,0:0|0:0,0:0:0:0:
136,232,122472,1,4,0:0:0:0:
280,336,122780,1,0,0:0:0:0:
280,336,122934,2,0,P|392:344|432:280,1,175.999994628906,4|0,0:0|0:0,0:0:0:0:
456,208,123395,1,4,0:0:0:0:
376,88,123703,1,0,0:0:0:0:
376,88,123857,2,0,B|264:64|264:64|192:104,1,175.999994628906,4|0,0:0|0:0,0:0:0:0:
120,232,124318,2,0,P|280:232|296:192,1,175.999994628906,4|0,0:0|0:0,0:0:0:0:
40,120,124780,2,0,L|8:320,2,175.999994628906,4|0|0,0:0|0:0|0:0,0:0:0:0:
136,16,125703,102,2,P|176:80|216:96,2,87.9999973144532,6|2|2,0:0|0:0|0:0,0:0:0:0:
320,88,126164,2,2,P|272:176|240:200,2,87.9999973144532,6|2|2,0:0|0:0|0:0,0:0:0:0:
112,176,126626,2,2,P|160:272|184:288,2,87.9999973144532,6|2|2,0:0|0:0|0:0,0:0:0:0:
304,264,127087,2,2,P|264:352|232:376,2,87.9999973144532,6|2|2,0:0|0:0|0:0,0:0:0:0:
256,120,127549,5,6,0:0:0:0:
360,88,127703,1,6,0:0:0:0:
448,152,127857,1,6,0:0:0:0:
417,306,128010,1,6,0:0:0:0:
304,192,128164,1,6,0:0:0:0:
237,380,128318,1,6,0:0:0:0:
131,234,128472,5,6,0:0:0:0:
96,368,128934,1,0,0:0:0:0:
80,328,129087,1,0,0:0:0:0:
64,280,129241,1,0,0:0:0:0:
52,235,129395,54,0,B|76:171|76:171|124:139|124:139|180:163|180:163|212:243,1,263.99999194336,0|10,0:0|0:0,0:0:0:0:
208,234,130318,1,0,0:0:0:0:
296,282,130472,1,0,0:0:0:0:
392,258,130626,1,0,0:0:0:0:
456,186,130780,2,0,B|456:130|456:130|400:90|400:90|312:114,1,175.999994628906,10|0,0:0|0:0,0:0:0:0:
256,144,131241,5,0,0:0:0:0:
184,216,131395,1,0,0:0:0:0:
80,192,131549,1,0,0:0:0:0:
48,96,131703,2,0,P|128:104|152:120,2,87.9999973144532,10|0|0,0:0|0:0|0:0,0:0:0:0:
80,192,132164,1,0,0:0:0:0:
192,168,132318,1,0,0:0:0:0:
168,280,132472,1,0,0:0:0:0:
280,240,132626,2,0,B|320:272|320:272|328:352|400:368,1,175.999994628906,10|0,0:0|0:0,0:0:0:0:
448,120,133087,70,0,B|464:184|464:184|392:224|416:296,1,175.999994628906
312,96,133549,2,0,B|336:40|336:40|480:16,1,175.999994628906,10|0,0:0|0:0,0:0:0:0:
328,216,134010,2,0,B|216:240|192:136|192:136,1,175.999994628906
152,40,134472,1,10,0:0:0:0:
48,32,134626,1,0,0:0:0:0:
16,136,134780,1,0,0:0:0:0:
72,224,134934,6,0,P|176:224|232:144,1,175.999994628906
451,68,135395,2,0,P|334:60|288:96,1,175.999994628906,10|0,0:0|0:0,0:0:0:0:
256,288,135857,2,0,P|344:304|496:216,2,263.99999194336,0|10|0,0:0|0:0|0:0,0:0:0:0:
168,240,136934,5,0,0:0:0:0:
56,232,137087,1,0,0:0:0:0:
8,328,137241,2,0,B|104:368|104:368|256:344,1,175.999994628906,10|0,0:0|0:0,0:0:0:0:
280,320,137703,1,0,0:0:0:0:
384,288,137857,1,0,0:0:0:0:
480,336,138010,1,0,0:0:0:0:
496,240,138164,2,0,L|472:152,2,87.9999973144532,10|0|0,0:0|0:0|0:0,0:0:0:0:
384,288,138626,6,0,L|368:408,2,87.9999973144532
264,216,139087,2,0,L|232:112,2,87.9999973144532,10|0|0,0:0|0:0|0:0,0:0:0:0:
128,352,139549,1,0,0:0:0:0:
160,256,139703,1,0,0:0:0:0:
56,280,139857,1,0,0:0:0:0:
88,176,140010,2,0,L|56:64,2,87.9999973144532,10|0|0,0:0|0:0|0:0,0:0:0:0:
160,256,140472,70,0,B|240:240|240:240|264:104,1,175.999994628906
272,24,140934,2,0,P|360:0|448:80,1,175.999994628906,10|0,0:0|0:0,0:0:0:0:
480,136,141395,1,0,0:0:0:0:
392,184,141549,1,0,0:0:0:0:
440,272,141703,1,0,0:0:0:0:
352,320,141857,2,0,P|272:280|152:304,1,175.999994628906,10|0,0:0|0:0,0:0:0:0:
88,344,142318,5,0,0:0:0:0:
64,248,142472,1,0,0:0:0:0:
128,168,142626,1,0,0:0:0:0:
232,216,142780,1,10,0:0:0:0:
328,160,142934,1,0,0:0:0:0:
344,48,143087,1,0,0:0:0:0:
448,120,143241,2,0,P|456:200|432:248,1,87.9999973144532
336,368,143549,1,0,0:0:0:0:
464,328,143703,2,0,B|376:272|376:272|272:256|224:320,1,263.99999194336,10|0,0:0|0:0,0:0:0:0:
152,376,144318,5,0,0:0:0:0:
72,320,144472,1,0,0:0:0:0:
48,216,144626,2,0,B|120:184|120:184|160:80,1,175.999994628906
232,24,145087,1,0,0:0:0:0:
336,56,145241,1,0,0:0:0:0:
280,144,145395,1,0,0:0:0:0:
384,176,145549,2,0,B|432:208|432:208|456:336,1,175.999994628906
368,384,146010,6,0,P|296:328|240:320,1,87.9999973144532
136,296,146318,1,0,0:0:0:0:
136,296,146472,2,0,P|216:232|232:200,1,87.9999973144532,10|0,0:0|0:0,0:0:0:0:
232,128,146780,1,0,0:0:0:0:
336,72,146934,2,0,P|424:104|440:128,2,87.9999973144532
232,128,147395,2,0,P|128:152|48:88,1,175.999994628906,10|0,0:0|0:0,0:0:0:0:
152,40,147857,70,0,B|136:112|136:112|160:144|160:144|140:246,1,175.999994628906
296,368,148318,2,0,B|280:272|280:272|296:232|296:232|288:160,1,175.999994628906,10|0,0:0|0:0,0:0:0:0:
336,56,148780,2,0,P|472:80|488:144,1,175.999994628906
440,200,149241,1,10,0:0:0:0:
328,192,149395,1,0,0:0:0:0:
272,288,149549,1,0,0:0:0:0:
160,312,149703,6,0,L|48:336,2,87.9999973144532
208,208,150164,2,0,L|304:232,2,87.9999973144532,10|0|0,0:0|0:0|0:0,0:0:0:0:
128,136,150626,1,0,0:0:0:0:
88,32,150780,1,0,0:0:0:0:
24,120,150934,1,0,0:0:0:0:
192,64,151087,2,0,B|256:48|256:48|312:80|328:176,1,175.999994628906,10|0,0:0|0:0,0:0:0:0:
280,256,151549,6,0,P|384:256|432:176,1,175.999994628906
456,104,152010,1,10,0:0:0:0:
360,32,152318,1,0,0:0:0:0:
360,32,152472,2,0,B|272:24|272:24|216:120,1,175.999994628906
232,200,152934,2,0,B|272:288|272:288|376:304,1,175.999994628906,10|0,0:0|0:2,0:2:0:0:
448,232,153395,5,0,0:0:0:0:
416,128,153549,1,0,0:0:0:0:
352,208,153703,1,0,0:0:0:0:
376,304,153857,2,0,L|480:352,2,87.9999973144532,10|0|0,0:0|0:0|0:0,0:0:0:0:
269,263,154318,2,0,P|165:271|149:303,1,87.9999973144532
126,341,154626,1,0,0:0:0:0:
221,379,154780,2,0,P|294:362|309:322,1,87.9999973144532,10|0,0:0|0:0,0:0:0:0:
352,264,155087,1,0,0:0:0:0:
440,328,155241,70,0,P|464:256|456:232,1,87.9999973144532
416,80,155549,1,0,0:0:0:0:
504,144,155703,2,0,P|398:173|320:120,1,175.999994628906,10|0,0:0|0:0,0:0:0:0:
248,88,156164,1,0,0:0:0:0:
128,64,156318,1,0,0:0:0:0:
224,16,156472,1,0,0:0:0:0:
136,160,156626,2,0,P|232:232|328:208,1,175.999994628906,10|0,0:0|0:0,0:0:0:0:
384,192,157087,5,0,0:0:0:0:
384,192,158472,1,10,0:0:0:0:
352,296,158780,1,0,0:0:0:0:
352,296,158934,86,0,B|272:328|272:328|192:296,2,165.000006294251
432,224,160318,2,0,P|464:168|448:96,1,110.000004196167
384,56,160780,2,0,P|304:64|272:112,1,110.000004196167
224,160,161241,2,0,P|168:200|96:192,1,110.000004196167
64,144,161703,1,0,0:0:0:0:
136,48,162010,1,0,0:0:0:0:
136,48,162164,2,0,P|200:64|240:104,1,110.000004196167
288,168,162626,22,0,B|336:216|336:216|424:240|464:192,1,175.999994628906
480,120,163087,1,10,0:0:0:0:
392,72,163241,1,0,0:0:0:0:
288,72,163395,1,0,0:0:0:0:
208,136,163549,2,0,B|144:168|144:168|96:160|40:104,1,175.999994628906
104,40,164010,1,10,0:0:0:0:
200,24,164164,1,0,0:0:0:0:
288,72,164318,1,0,0:0:0:0:
320,168,164472,6,0,B|344:216|344:216|376:240|376:240|416:336,1,175.999994628906
336,376,164934,1,10,0:0:0:0:
240,336,165087,1,0,0:0:0:0:
136,352,165241,1,0,0:0:0:0:
48,304,165395,2,0,B|64:224|64:224|96:192|96:192|112:112,1,175.999994628906
80,56,165857,1,10,0:0:0:0:
184,24,166010,1,0,0:0:0:0:
256,112,166164,1,0,0:0:0:0:
368,72,166318,70,0,B|400:120|400:120|384:232,2,165.000006294251
264,32,167703,2,0,P|224:80|224:160,1,110.000004196167
160,224,168164,2,0,P|248:240|288:208,1,110.000004196167
368,176,168626,2,0,L|384:296,1,110.000004196167
336,360,169087,1,0,0:0:0:0:
472,288,169395,1,0,0:0:0:0:
472,288,169549,2,0,L|328:296,1,110.000004196167
248,304,170010,6,0,L|144:312,2,87.9999973144532,10|0|0,0:0|0:0|0:0,0:0:0:0:
304,208,170472,2,0,L|400:200,2,87.9999973144532,10|0|0,0:0|0:0|0:0,0:0:0:0:
200,144,170934,2,0,L|88:152,2,87.9999973144532,10|0|0,0:0|0:0|0:0,0:0:0:0:
280,32,171395,2,0,L|384:24,2,87.9999973144532,10|0|0,0:0|0:0|0:0,0:0:0:0:
208,112,171857,5,10,0:0:0:0:
96,80,172010,1,10,0:0:0:0:
56,192,172164,1,10,0:0:0:0:
168,232,172318,2,10,L|192:368,2,87.9999973144532
208,112,172780,1,10,0:0:0:0:
336,80,172934,1,10,0:0:0:0:
304,208,173087,1,10,0:0:0:0:
432,168,173241,2,0,P|440:264|320:336,1,175.999994628906,10|0,0:0|0:0,0:0:0:0:
288,360,173703,70,0,P|232:344|192:344,1,73.3333333333333
128,288,174164,2,0,P|184:264|200:248,1,73.3333333333333
232,152,174626,2,0,P|176:168|112:160,2,110
320,96,175857,1,0,0:0:0:0:
320,96,176010,2,0,L|336:176,1,73.3333333333333
296,248,176472,1,0,0:0:0:0:
296,248,177395,6,0,P|368:248|392:232,1,73.3333333333333
432,176,177857,2,0,P|440:112|432:96,1,73.3333333333333
360,48,178318,2,0,P|312:48|272:72,1,73.3333333333333
240,136,178780,2,0,P|184:152|152:144,1,73.3333333333333
80,112,179241,2,0,L|56:216,1,73.3333333333333
112,256,179703,2,0,L|192:232,1,73.3333333333333
232,160,180164,1,0,0:0:0:0:
80,112,180857,101,0,0:0:0:0:
80,112,181087,2,0,P|136:96|160:104,1,73.3333333333333
240,136,181549,2,0,P|288:136|320:120,1,73.3333333333333
400,64,182010,2,0,L|416:176,2,110
304,24,183241,1,0,0:0:0:0:
304,24,183395,2,0,P|256:56|216:64,1,73.3333333333333
160,80,183857,1,0,0:0:0:0:
160,80,184318,2,0,P|128:136|128:152,1,73.3333333333333
128,224,184780,1,0,0:0:0:0:
128,224,185472,1,0,0:0:0:0:
128,224,185703,2,0,L|152:336,2,110
136,368,192164,86,0,P|80:264|112:176,1,175.999994628906,4|0,0:0|0:0,0:0:0:0:
304,144,192626,2,0,P|288:240|184:288,1,175.999994628906,4|0,0:0|0:0,0:0:0:0:
264,24,193087,2,0,B|352:16|352:16|464:112,1,175.999994628906,4|0,0:0|0:0,0:0:0:0:
480,176,193549,1,4,0:0:0:0:
384,248,193703,1,0,0:0:0:0:
272,224,193857,1,0,0:0:0:0:
176,288,194010,6,0,B|120:304|120:304|48:240|80:168,1,175.999994628906,4|0,0:0|0:0,0:0:0:0:
192,16,194472,2,0,B|248:40|248:40|256:96|216:160,1,175.999994628906,4|0,0:0|0:0,0:0:0:0:
288,352,194934,2,0,B|208:368|208:368|176:304|200:248,1,175.999994628906,4|0,0:0|0:0,0:0:0:0:
304,120,195395,1,4,0:0:0:0:
408,176,195549,1,0,0:0:0:0:
329,273,195703,1,0,0:0:0:0:
410,382,195857,102,0,L|218:334,1,175.999994628906,4|0,0:0|0:0,0:0:0:0:
64,208,196318,2,0,L|256:160,1,175.999994628906,4|0,0:0|0:0,0:0:0:0:
432,296,196780,2,0,L|240:264,1,175.999994628906,4|0,0:0|0:0,0:0:0:0:
160,88,197241,2,0,L|352:48,1,175.999994628906,4|0,0:0|0:0,0:0:0:0:
448,240,197703,1,4,0:0:0:0:
328,216,197857,1,0,0:0:0:0:
272,320,198010,1,0,0:0:0:0:
144,336,198164,2,0,L|16:352,2,87.9999973144532,4|0|0,0:0|0:0|0:0,0:0:0:0:
200,240,198626,2,4,P|232:144|184:64,2,175.999994628906
64,304,199549,6,0,P|40:192|96:112,1,175.999994628906,4|0,0:0|0:0,0:0:0:0:
264,40,200010,2,0,P|288:152|240:232,1,175.999994628906,4|0,0:0|0:0,0:0:0:0:
192,368,200472,2,0,P|160:248|208:176,1,175.999994628906,4|0,0:0|0:0,0:0:0:0:
392,144,200934,1,4,0:0:0:0:
432,248,201087,1,0,0:0:0:0:
368,336,201241,1,0,0:0:0:0:
256,352,201395,102,0,P|160:304|48:336,1,175.999994628906,4|0,0:0|0:0,0:0:0:0:
40,176,201857,2,0,P|160:160|216:80,1,175.999994628906,4|0,0:0|0:0,0:0:0:0:
288,40,202318,2,0,P|384:24|456:104,1,175.999994628906,4|0,0:0|0:0,0:0:0:0:
472,176,202780,1,4,0:0:0:0:
384,272,202934,1,0,0:0:0:0:
368,152,203087,1,0,0:0:0:0:
496,288,203241,2,4,P|456:368|288:336,1,263.99999194336
144,200,204010,1,0,0:0:0:0:
144,200,204164,2,4,P|280:224|360:112,1,263.99999194336
310,64,204780,1,0,0:0:0:0:
384,16,204934,1,0,0:0:0:0:
384,16,205087,6,0,B|432:64|432:64|456:184,1,175.999994628906,4|0,0:0|0:0,0:0:0:0:
408,280,205549,2,0,B|352:272|352:272|320:280|320:280|288:264|288:264|176:240,1,175.999994628906,4|0,0:0|0:0,0:0:0:0:
112,232,206010,2,0,B|88:360|88:360|176:344,2,175.999994628906,4|0|0,0:0|0:0|0:0,0:0:0:0:
136,112,206934,101,6,0:0:0:0:
248,96,207087,1,2,0:0:0:0:
336,160,207241,1,2,0:0:0:0:
352,272,207395,2,2,L|464:264,2,87.9999973144532,6|2|2,0:0|0:0|0:0,0:0:0:0:
272,336,207857,1,6,0:0:0:0:
160,328,208010,1,2,0:0:0:0:
96,232,208164,1,2,0:0:0:0:
120,120,208318,2,2,L|224:80,2,87.9999973144532,6|2|2,0:0|0:0|0:0,0:0:0:0:
96,232,208780,6,6,L|216:280,1,87.9999973144532
320,323,209087,1,6,0:0:0:0:
450,173,209241,2,6,L|425:257,1,87.9999973144532
325,72,209549,1,6,0:0:0:0:
290,278,209703,2,6,L|322:190,1,87.9999973144532
173,60,210010,1,6,0:0:0:0:
213,210,210164,2,6,L|181:292,1,87.9999973144532
144,16,210472,1,6,0:0:0:0:
144,16,210626,102,4,B|125:73|125:73|97:101|97:101|125:141|125:141|99:163|99:163|74:254,1,263.99999194336
365,319,211549,2,4,B|343:240|343:240|354:208|354:208|309:188|309:188|318:150|318:150|305:91,1,263.99999194336
216,40,212318,1,0,0:0:0:0:
216,40,212472,6,0,B|168:104|168:104|56:120,1,175.999994628906,4|0,0:0|0:0,0:0:0:0:
96,272,212934,2,0,B|192:256|192:256|272:320,1,175.999994628906,4|0,0:0|0:0,0:0:0:0:
392,352,213395,2,0,B|456:304|456:304|480:200,1,175.999994628906,4|0,0:0|0:0,0:0:0:0:
360,40,213857,2,0,B|336:128|336:128|384:232,1,175.999994628906,4|0,0:0|0:0,0:0:0:0:
496,368,214318,38,0,P|416:304|312:312,1,175.999994628906,4|0,0:0|0:0,0:0:0:0:
128,312,214780,2,0,P|224:232|224:168,1,175.999994628906,4|0,0:0|0:0,0:0:0:0:
192,72,215241,1,4,0:0:0:0:
192,72,215549,1,0,0:0:0:0:
296,128,215703,2,0,L|408:136,2,87.9999973144532,4|0|0,0:0|0:0|0:0,0:0:0:0:
200,192,216164,6,0,P|104:208|24:128,1,175.999994628906,4|0,0:0|0:0,0:0:0:0:
64,24,216626,2,0,P|224:48|248:96,1,175.999994628906,4|0,0:0|0:0,0:0:0:0:
280,160,217087,2,0,P|400:216|480:168,1,175.999994628906,4|0,0:0|0:0,0:0:0:0:
488,112,217549,1,4,0:0:0:0:
400,56,217703,1,0,0:0:0:0:
288,80,217857,1,0,0:0:0:0:
176,48,218010,38,0,P|88:88|48:80,2,87.9999973144532,4|0|0,0:0|0:0|0:0,0:0:0:0:
200,160,218472,2,0,P|144:216|88:240,2,87.9999973144532,4|0|0,0:0|0:0|0:0,0:0:0:0:
296,232,218934,2,0,P|280:320|264:352,2,87.9999973144532,4|0|0,0:0|0:0|0:0,0:0:0:0:
432,256,219395,2,0,P|448:360|448:384,2,87.9999973144532,4|0|0,0:0|0:0|0:0,0:0:0:0:
400,136,219857,2,0,P|408:48|424:24,1,87.9999973144532,4|0,0:0|0:0,0:0:0:0:
304,216,220164,2,0,P|296:304|280:328,1,87.9999973144532,0|4,0:0|0:0,0:0:0:0:
208,88,220472,2,0,P|240:-8|248:-16,1,87.9999973144532
152,208,220780,2,0,P|56:224|8:208,2,87.9999973144532,4|0|0,0:0|0:0|0:0,0:0:0:0:
264,304,221241,2,0,P|352:296|384:304,2,87.9999973144532,4|0|0,0:0|0:0|0:0,0:0:0:0:
144,368,221703,6,2,P|120:288|128:264,1,87.9999973144532,6|2,0:0|0:0,0:0:0:0:
216,112,222010,1,2,0:0:0:0:
216,112,222164,2,2,P|200:216|176:240,1,87.9999973144532,6|2,0:0|0:0,0:0:0:0:
320,336,222472,1,2,0:0:0:0:
320,336,222626,2,2,P|320:240|328:224,1,87.9999973144532,6|2,0:0|0:0,0:0:0:0:
424,120,222934,1,2,0:0:0:0:
424,120,223087,2,2,P|432:224|416:248,1,87.9999973144532,6|2,0:0|0:0,0:0:0:0:
408,328,223395,1,2,0:0:0:0:
408,328,223549,102,2,P|304:304|280:312,1,87.9999973144532,6|2,0:0|0:0,0:0:0:0:
160,232,223857,1,2,0:0:0:0:
160,232,224010,2,2,P|248:200|256:184,1,87.9999973144532,6|2,0:0|0:0,0:0:0:0:
320,112,224318,1,2,0:0:0:0:
320,112,224472,2,2,P|416:112|464:192,1,175.999994628906,6|2,0:0|0:0,0:0:0:0:
440,264,224934,21,4,0:0:0:0:
368,344,225087,1,0,0:0:0:0:
272,296,225241,1,0,0:0:0:0:
224,368,225395,5,0,0:0:0:0:
