osu file format v14

[General]
AudioFilename: Dragon Screamer.mp3
AudioLeadIn: 0
PreviewTime: 77589
Countdown: 1
SampleSet: None
StackLeniency: 0.7
Mode: 3
LetterboxInBreaks: 0
SpecialStyle: 0
WidescreenStoryboard: 0

[Editor]
Bookmarks: 62650
DistanceSpacing: 0.8
BeatDivisor: 8
GridSize: 32
TimelineZoom: 2.2

[Metadata]
Title:Dragon Screamer
TitleUnicode:Dragon Screamer
Artist:DA PUMP
ArtistUnicode:DA PUMP
Creator:FelipeLink
Version:NO QUESTIOON(128kbps)
Source:
Tags:
BeatmapID:2115343
BeatmapSetID:580485

[Difficulty]
HPDrainRate:8
CircleSize:4
OverallDifficulty:8
ApproachRate:5
SliderMultiplier:1.4
SliderTickRate:1

[Events]
//Background and Video events
0,0,"mqdefault.jpg",0,0
//Break Periods
//Storyboard Layer 0 (Background)
//Storyboard Layer 1 (Fail)
//Storyboard Layer 2 (Pass)
//Storyboard Layer 3 (Foreground)
//Storyboard Sound Samples

[TimingPoints]
16176,483.870967741935,4,3,0,30,1,0

[HitObjects]
192,192,16176,5,0,0:0:0:0:
64,192,16176,1,0,0:0:0:0:
448,192,16176,1,0,0:0:0:0:
320,192,16296,1,0,0:0:0:0:
448,192,16417,1,0,0:0:0:0:
64,192,16417,1,0,0:0:0:0:
192,192,16538,1,0,0:0:0:0:
320,192,16538,1,0,0:0:0:0:
64,192,16659,1,0,0:0:0:0:
320,192,16659,1,0,0:0:0:0:
448,192,16659,1,0,0:0:0:0:
64,192,16780,1,0,0:0:0:0:
192,192,16780,1,0,0:0:0:0:
448,192,16901,1,0,0:0:0:0:
192,192,16901,1,0,0:0:0:0:
64,192,17022,1,0,0:0:0:0:
192,192,17143,1,0,0:0:0:0:
320,192,17143,1,0,0:0:0:0:
448,192,17264,1,0,0:0:0:0:
64,192,17385,1,0,0:0:0:0:
192,192,17385,1,0,0:0:0:0:
448,192,17506,1,0,0:0:0:0:
320,192,17627,1,0,0:0:0:0:
64,192,17627,1,0,0:0:0:0:
192,192,17748,1,0,0:0:0:0:
448,192,17869,1,0,0:0:0:0:
320,192,17869,1,0,0:0:0:0:
64,192,17990,1,0,0:0:0:0:
192,192,18111,1,0,0:0:0:0:
448,192,18111,1,0,0:0:0:0:
320,192,18111,1,0,0:0:0:0:
64,192,18232,1,0,0:0:0:0:
192,192,18353,1,0,0:0:0:0:
320,192,18353,1,0,0:0:0:0:
448,192,18474,1,0,0:0:0:0:
320,192,18474,1,0,0:0:0:0:
64,192,18595,1,0,0:0:0:0:
448,192,18595,1,0,0:0:0:0:
192,192,18716,1,0,0:0:0:0:
64,192,18716,1,0,0:0:0:0:
320,192,18837,1,0,0:0:0:0:
448,192,18837,1,0,0:0:0:0:
192,192,18958,1,0,0:0:0:0:
64,192,19079,1,0,0:0:0:0:
320,192,19079,1,0,0:0:0:0:
448,192,19200,1,0,0:0:0:0:
64,192,19321,1,0,0:0:0:0:
192,192,19321,1,0,0:0:0:0:
448,192,19442,1,0,0:0:0:0:
320,192,19563,1,0,0:0:0:0:
192,192,19563,1,0,0:0:0:0:
64,192,19684,1,0,0:0:0:0:
448,192,19805,1,0,0:0:0:0:
320,192,19805,1,0,0:0:0:0:
64,192,19925,1,0,0:0:0:0:
192,192,20046,1,0,0:0:0:0:
320,192,20046,1,0,0:0:0:0:
448,192,20046,1,0,0:0:0:0:
64,192,20167,1,0,0:0:0:0:
448,192,20288,1,0,0:0:0:0:
192,192,20288,1,0,0:0:0:0:
320,192,20409,1,0,0:0:0:0:
64,192,20409,1,0,0:0:0:0:
64,192,20530,1,0,0:0:0:0:
192,192,20530,1,0,0:0:0:0:
448,192,20530,1,0,0:0:0:0:
320,192,20651,1,0,0:0:0:0:
192,192,20651,1,0,0:0:0:0:
448,192,20772,1,0,0:0:0:0:
320,192,20772,1,0,0:0:0:0:
64,192,20893,1,0,0:0:0:0:
192,192,21014,1,0,0:0:0:0:
320,192,21014,1,0,0:0:0:0:
448,192,21135,1,0,0:0:0:0:
64,192,21256,1,0,0:0:0:0:
192,192,21256,1,0,0:0:0:0:
448,192,21377,1,0,0:0:0:0:
320,192,21498,1,0,0:0:0:0:
64,192,21498,1,0,0:0:0:0:
192,192,21619,1,0,0:0:0:0:
448,192,21740,1,0,0:0:0:0:
320,192,21740,1,0,0:0:0:0:
64,192,21861,1,0,0:0:0:0:
192,192,21982,1,0,0:0:0:0:
320,192,21982,1,0,0:0:0:0:
448,192,21982,1,0,0:0:0:0:
64,192,22103,1,0,0:0:0:0:
448,192,22224,1,0,0:0:0:0:
192,192,22224,1,0,0:0:0:0:
320,192,22345,1,0,0:0:0:0:
448,192,22345,1,0,0:0:0:0:
64,192,22466,1,0,0:0:0:0:
192,192,22466,1,0,0:0:0:0:
320,192,22466,1,0,0:0:0:0:
448,192,22587,1,0,0:0:0:0:
64,192,22587,1,0,0:0:0:0:
448,192,22708,1,0,0:0:0:0:
192,192,22708,1,0,0:0:0:0:
64,192,22829,1,0,0:0:0:0:
192,192,22950,1,0,0:0:0:0:
320,192,22950,1,0,0:0:0:0:
64,192,23030,1,0,0:0:0:0:
320,192,23111,1,0,0:0:0:0:
448,192,23111,1,0,0:0:0:0:
64,192,23192,1,0,0:0:0:0:
320,192,23272,1,0,0:0:0:0:
192,192,23272,1,0,0:0:0:0:
448,192,23353,1,0,0:0:0:0:
320,192,23434,1,0,0:0:0:0:
64,192,23434,1,0,0:0:0:0:
192,192,23555,1,0,0:0:0:0:
448,192,23675,1,0,0:0:0:0:
320,192,23675,1,0,0:0:0:0:
64,192,23796,1,0,0:0:0:0:
64,192,23917,1,0,0:0:0:0:
448,192,23917,1,0,0:0:0:0:
320,192,23978,1,0,0:0:0:0:
192,192,24038,1,0,0:0:0:0:
64,192,24038,1,0,0:0:0:0:
448,192,24099,1,0,0:0:0:0:
320,192,24159,1,0,0:0:0:0:
192,192,24159,1,0,0:0:0:0:
320,192,24280,1,0,0:0:0:0:
448,192,24280,1,0,0:0:0:0:
64,192,24401,1,0,0:0:0:0:
192,192,24401,1,0,0:0:0:0:
448,192,24401,1,0,0:0:0:0:
320,192,24522,1,0,0:0:0:0:
192,192,24522,1,0,0:0:0:0:
448,192,24643,1,0,0:0:0:0:
320,192,24643,1,0,0:0:0:0:
64,192,24764,1,0,0:0:0:0:
192,192,24885,1,0,0:0:0:0:
320,192,24885,1,0,0:0:0:0:
448,192,25006,1,0,0:0:0:0:
64,192,25127,1,0,0:0:0:0:
192,192,25127,1,0,0:0:0:0:
448,192,25248,1,0,0:0:0:0:
320,192,25369,1,0,0:0:0:0:
192,192,25369,1,0,0:0:0:0:
64,192,25490,1,0,0:0:0:0:
448,192,25611,1,0,0:0:0:0:
320,192,25611,1,0,0:0:0:0:
64,192,25732,1,0,0:0:0:0:
192,192,25853,1,0,0:0:0:0:
320,192,25853,1,0,0:0:0:0:
448,192,25853,1,0,0:0:0:0:
64,192,25974,1,0,0:0:0:0:
448,192,26095,1,0,0:0:0:0:
192,192,26095,1,0,0:0:0:0:
320,192,26216,1,0,0:0:0:0:
192,192,26216,1,0,0:0:0:0:
64,192,26337,1,0,0:0:0:0:
320,192,26337,1,0,0:0:0:0:
448,192,26337,1,0,0:0:0:0:
64,192,26458,1,0,0:0:0:0:
192,192,26458,1,0,0:0:0:0:
448,192,26579,1,0,0:0:0:0:
320,192,26579,1,0,0:0:0:0:
64,192,26700,1,0,0:0:0:0:
192,192,26821,1,0,0:0:0:0:
320,192,26821,1,0,0:0:0:0:
448,192,26942,1,0,0:0:0:0:
64,192,27063,1,0,0:0:0:0:
192,192,27063,1,0,0:0:0:0:
448,192,27184,1,0,0:0:0:0:
320,192,27305,1,0,0:0:0:0:
192,192,27305,1,0,0:0:0:0:
64,192,27425,1,0,0:0:0:0:
448,192,27546,1,0,0:0:0:0:
320,192,27546,1,0,0:0:0:0:
64,192,27667,1,0,0:0:0:0:
192,192,27788,1,0,0:0:0:0:
320,192,27788,1,0,0:0:0:0:
448,192,27788,1,0,0:0:0:0:
64,192,27909,1,0,0:0:0:0:
448,192,28030,1,0,0:0:0:0:
320,192,28030,1,0,0:0:0:0:
320,192,28151,1,0,0:0:0:0:
64,192,28151,1,0,0:0:0:0:
64,192,28272,1,0,0:0:0:0:
192,192,28272,1,0,0:0:0:0:
448,192,28272,1,0,0:0:0:0:
320,192,28393,1,0,0:0:0:0:
192,192,28393,1,0,0:0:0:0:
448,192,28514,1,0,0:0:0:0:
320,192,28514,1,0,0:0:0:0:
64,192,28635,1,0,0:0:0:0:
192,192,28756,1,0,0:0:0:0:
320,192,28756,1,0,0:0:0:0:
448,192,28877,1,0,0:0:0:0:
64,192,28998,1,0,0:0:0:0:
192,192,28998,1,0,0:0:0:0:
448,192,29119,1,0,0:0:0:0:
320,192,29240,1,0,0:0:0:0:
192,192,29240,1,0,0:0:0:0:
64,192,29361,1,0,0:0:0:0:
448,192,29482,1,0,0:0:0:0:
320,192,29482,1,0,0:0:0:0:
64,192,29603,1,0,0:0:0:0:
192,192,29724,1,0,0:0:0:0:
320,192,29724,1,0,0:0:0:0:
448,192,29724,1,0,0:0:0:0:
64,192,29845,1,0,0:0:0:0:
192,192,29966,1,0,0:0:0:0:
320,192,29966,1,0,0:0:0:0:
64,192,30087,1,0,0:0:0:0:
448,192,30087,1,0,0:0:0:0:
320,192,30208,1,0,0:0:0:0:
192,192,30208,1,0,0:0:0:0:
448,192,30208,1,0,0:0:0:0:
320,192,30329,1,0,0:0:0:0:
64,192,30329,1,0,0:0:0:0:
448,192,30450,1,0,0:0:0:0:
192,192,30450,1,0,0:0:0:0:
64,192,30571,1,0,0:0:0:0:
192,192,30692,1,0,0:0:0:0:
320,192,30692,1,0,0:0:0:0:
64,192,30772,1,0,0:0:0:0:
448,192,30853,1,0,0:0:0:0:
320,192,30853,1,0,0:0:0:0:
64,192,30934,1,0,0:0:0:0:
192,192,31014,1,0,0:0:0:0:
320,192,31014,1,0,0:0:0:0:
448,192,31095,1,0,0:0:0:0:
320,192,31175,1,0,0:0:0:0:
192,192,31175,1,0,0:0:0:0:
64,192,31296,1,0,0:0:0:0:
448,192,31417,1,0,0:0:0:0:
320,192,31417,1,0,0:0:0:0:
64,192,31538,1,0,0:0:0:0:
448,192,31659,1,0,0:0:0:0:
320,192,31659,1,0,0:0:0:0:
64,192,31720,1,0,0:0:0:0:
192,192,31780,1,0,0:0:0:0:
320,192,31780,1,0,0:0:0:0:
448,192,31841,1,0,0:0:0:0:
64,192,31901,1,0,0:0:0:0:
192,192,31901,1,0,0:0:0:0:
320,192,31982,1,0,0:0:0:0:
448,192,32063,1,0,0:0:0:0:
64,192,32143,1,0,0:0:0:0:
192,192,32143,1,0,0:0:0:0:
448,192,32224,1,0,0:0:0:0:
320,192,32305,1,0,0:0:0:0:
64,192,32385,1,0,0:0:0:0:
448,192,32385,1,0,0:0:0:0:
192,192,32466,1,0,0:0:0:0:
320,192,32546,1,0,0:0:0:0:
64,192,32627,1,0,0:0:0:0:
192,192,32627,1,0,0:0:0:0:
448,192,32708,1,0,0:0:0:0:
64,192,32788,1,0,0:0:0:0:
192,192,32869,1,0,0:0:0:0:
320,192,32869,1,0,0:0:0:0:
448,192,32950,1,0,0:0:0:0:
64,192,33030,1,0,0:0:0:0:
448,192,33111,1,0,0:0:0:0:
192,192,33111,1,0,0:0:0:0:
320,192,33192,1,0,0:0:0:0:
64,192,33272,1,0,0:0:0:0:
192,192,33353,1,0,0:0:0:0:
320,192,33353,1,0,0:0:0:0:
448,192,33434,1,0,0:0:0:0:
64,192,33514,1,0,0:0:0:0:
448,192,33595,1,0,0:0:0:0:
192,192,33595,1,0,0:0:0:0:
320,192,33675,1,0,0:0:0:0:
192,192,33756,1,0,0:0:0:0:
64,192,33837,1,0,0:0:0:0:
448,192,33837,1,0,0:0:0:0:
320,192,33917,1,0,0:0:0:0:
64,192,33998,1,0,0:0:0:0:
192,192,34079,1,0,0:0:0:0:
320,192,34079,1,0,0:0:0:0:
448,192,34159,1,0,0:0:0:0:
64,192,34240,1,0,0:0:0:0:
192,192,34321,1,0,0:0:0:0:
448,192,34321,1,0,0:0:0:0:
320,192,34401,1,0,0:0:0:0:
64,192,34482,1,0,0:0:0:0:
192,192,34563,1,0,0:0:0:0:
320,192,34563,1,0,0:0:0:0:
448,192,34643,1,0,0:0:0:0:
64,192,34724,1,0,0:0:0:0:
320,192,34805,1,0,0:0:0:0:
192,192,34885,1,0,0:0:0:0:
64,192,34966,1,0,0:0:0:0:
448,192,35046,1,0,0:0:0:0:
320,192,35046,128,0,35450:0:0:0:0:
64,192,35127,1,0,0:0:0:0:
192,192,35208,1,0,0:0:0:0:
64,192,35288,1,0,0:0:0:0:
192,192,35369,1,0,0:0:0:0:
64,192,35450,1,0,0:0:0:0:
448,192,35530,1,0,0:0:0:0:
320,192,35530,1,0,0:0:0:0:
64,192,35591,1,0,0:0:0:0:
192,192,35651,1,0,0:0:0:0:
320,192,35651,1,0,0:0:0:0:
448,192,35712,1,0,0:0:0:0:
64,192,35772,1,0,0:0:0:0:
192,192,35772,1,0,0:0:0:0:
320,192,35853,1,0,0:0:0:0:
448,192,35934,1,0,0:0:0:0:
64,192,36014,1,0,0:0:0:0:
320,192,36014,1,0,0:0:0:0:
192,192,36095,1,0,0:0:0:0:
448,192,36175,1,0,0:0:0:0:
320,192,36256,1,0,0:0:0:0:
192,192,36256,1,0,0:0:0:0:
64,192,36337,1,0,0:0:0:0:
448,192,36417,1,0,0:0:0:0:
320,192,36498,1,0,0:0:0:0:
64,192,36498,1,0,0:0:0:0:
192,192,36579,1,0,0:0:0:0:
448,192,36659,1,0,0:0:0:0:
64,192,36740,1,0,0:0:0:0:
192,192,36740,1,0,0:0:0:0:
320,192,36821,1,0,0:0:0:0:
64,192,36901,1,0,0:0:0:0:
448,192,36982,1,0,0:0:0:0:
320,192,36982,1,0,0:0:0:0:
192,192,37063,1,0,0:0:0:0:
448,192,37143,1,0,0:0:0:0:
320,192,37224,1,0,0:0:0:0:
64,192,37224,1,0,0:0:0:0:
192,192,37305,1,0,0:0:0:0:
448,192,37385,1,0,0:0:0:0:
320,192,37466,1,0,0:0:0:0:
192,192,37466,1,0,0:0:0:0:
64,192,37546,1,0,0:0:0:0:
448,192,37627,1,0,0:0:0:0:
320,192,37708,1,0,0:0:0:0:
64,192,37708,1,0,0:0:0:0:
192,192,37788,1,0,0:0:0:0:
448,192,37869,1,0,0:0:0:0:
64,192,37950,1,0,0:0:0:0:
192,192,37950,1,0,0:0:0:0:
320,192,38030,1,0,0:0:0:0:
64,192,38111,1,0,0:0:0:0:
192,192,38192,1,0,0:0:0:0:
448,192,38192,1,0,0:0:0:0:
320,192,38272,1,0,0:0:0:0:
64,192,38353,1,0,0:0:0:0:
192,192,38434,1,0,0:0:0:0:
320,192,38434,1,0,0:0:0:0:
448,192,38514,1,0,0:0:0:0:
64,192,38595,1,0,0:0:0:0:
320,192,38675,1,0,0:0:0:0:
192,192,38756,1,0,0:0:0:0:
448,192,38837,1,0,0:0:0:0:
64,192,38917,1,0,0:0:0:0:
192,192,38917,128,0,39321:0:0:0:0:
320,192,38998,1,0,0:0:0:0:
448,192,39079,1,0,0:0:0:0:
320,192,39159,1,0,0:0:0:0:
448,192,39240,1,0,0:0:0:0:
320,192,39321,1,0,0:0:0:0:
64,192,39401,1,0,0:0:0:0:
192,192,39401,1,0,0:0:0:0:
320,192,39462,1,0,0:0:0:0:
448,192,39522,1,0,0:0:0:0:
64,192,39522,1,0,0:0:0:0:
192,192,39583,1,0,0:0:0:0:
320,192,39643,1,0,0:0:0:0:
448,192,39643,1,0,0:0:0:0:
64,192,39724,1,0,0:0:0:0:
448,192,39805,1,0,0:0:0:0:
320,192,39885,1,0,0:0:0:0:
192,192,39885,1,0,0:0:0:0:
64,192,39966,1,0,0:0:0:0:
448,192,40046,1,0,0:0:0:0:
192,192,40127,1,0,0:0:0:0:
64,192,40127,1,0,0:0:0:0:
320,192,40208,1,0,0:0:0:0:
448,192,40288,1,0,0:0:0:0:
64,192,40369,1,0,0:0:0:0:
320,192,40369,1,0,0:0:0:0:
192,192,40450,1,0,0:0:0:0:
448,192,40530,1,0,0:0:0:0:
320,192,40611,1,0,0:0:0:0:
192,192,40611,1,0,0:0:0:0:
64,192,40692,1,0,0:0:0:0:
320,192,40772,1,0,0:0:0:0:
64,192,40853,1,0,0:0:0:0:
448,192,40853,1,0,0:0:0:0:
192,192,40934,1,0,0:0:0:0:
448,192,41014,1,0,0:0:0:0:
320,192,41095,1,0,0:0:0:0:
192,192,41095,1,0,0:0:0:0:
64,192,41175,1,0,0:0:0:0:
448,192,41256,1,0,0:0:0:0:
192,192,41337,1,0,0:0:0:0:
64,192,41337,1,0,0:0:0:0:
320,192,41417,1,0,0:0:0:0:
448,192,41498,1,0,0:0:0:0:
64,192,41579,1,0,0:0:0:0:
320,192,41579,1,0,0:0:0:0:
192,192,41659,1,0,0:0:0:0:
448,192,41740,1,0,0:0:0:0:
320,192,41821,1,0,0:0:0:0:
192,192,41821,1,0,0:0:0:0:
64,192,41901,1,0,0:0:0:0:
448,192,41982,1,0,0:0:0:0:
192,192,42063,1,0,0:0:0:0:
64,192,42063,1,0,0:0:0:0:
320,192,42143,1,0,0:0:0:0:
192,192,42224,1,0,0:0:0:0:
448,192,42305,1,0,0:0:0:0:
64,192,42305,1,0,0:0:0:0:
320,192,42385,1,0,0:0:0:0:
192,192,42466,1,0,0:0:0:0:
64,192,42546,1,0,0:0:0:0:
448,192,42627,1,0,0:0:0:0:
192,192,42708,1,0,0:0:0:0:
64,192,42788,1,0,0:0:0:0:
320,192,42788,128,0,43192:0:0:0:0:
192,192,42869,1,0,0:0:0:0:
64,192,42950,1,0,0:0:0:0:
192,192,43030,1,0,0:0:0:0:
64,192,43111,1,0,0:0:0:0:
192,192,43192,1,0,0:0:0:0:
448,192,43272,1,0,0:0:0:0:
320,192,43272,1,0,0:0:0:0:
192,192,43333,1,0,0:0:0:0:
64,192,43393,1,0,0:0:0:0:
448,192,43393,1,0,0:0:0:0:
320,192,43454,1,0,0:0:0:0:
192,192,43514,1,0,0:0:0:0:
64,192,43514,1,0,0:0:0:0:
448,192,43595,1,0,0:0:0:0:
192,192,43675,1,0,0:0:0:0:
64,192,43756,1,0,0:0:0:0:
320,192,43756,1,0,0:0:0:0:
448,192,43837,1,0,0:0:0:0:
192,192,43917,1,0,0:0:0:0:
320,192,43998,1,0,0:0:0:0:
448,192,43998,1,0,0:0:0:0:
64,192,44079,1,0,0:0:0:0:
320,192,44159,1,0,0:0:0:0:
192,192,44240,1,0,0:0:0:0:
448,192,44240,1,0,0:0:0:0:
64,192,44321,1,0,0:0:0:0:
320,192,44401,1,0,0:0:0:0:
192,192,44482,1,0,0:0:0:0:
64,192,44482,1,0,0:0:0:0:
448,192,44563,1,0,0:0:0:0:
64,192,44643,1,0,0:0:0:0:
320,192,44724,1,0,0:0:0:0:
192,192,44724,1,0,0:0:0:0:
448,192,44805,1,0,0:0:0:0:
192,192,44885,1,0,0:0:0:0:
64,192,44966,1,0,0:0:0:0:
448,192,44966,1,0,0:0:0:0:
320,192,45046,1,0,0:0:0:0:
64,192,45127,1,0,0:0:0:0:
192,192,45208,1,0,0:0:0:0:
448,192,45208,1,0,0:0:0:0:
320,192,45288,1,0,0:0:0:0:
64,192,45369,1,0,0:0:0:0:
448,192,45450,1,0,0:0:0:0:
192,192,45530,1,0,0:0:0:0:
320,192,45611,1,0,0:0:0:0:
64,192,45692,128,0,46055:0:0:0:0:
192,192,45692,1,0,0:0:0:0:
448,192,45692,1,0,0:0:0:0:
448,192,46175,1,0,0:0:0:0:
192,192,46175,1,0,0:0:0:0:
320,192,46256,1,0,0:0:0:0:
64,192,46337,1,0,0:0:0:0:
320,192,46417,1,0,0:0:0:0:
448,192,46417,1,0,0:0:0:0:
192,192,46498,1,0,0:0:0:0:
64,192,46579,1,0,0:0:0:0:
192,192,46659,1,0,0:0:0:0:
448,192,46659,1,0,0:0:0:0:
320,192,46740,1,0,0:0:0:0:
64,192,46821,1,0,0:0:0:0:
320,192,46901,1,0,0:0:0:0:
192,192,46901,1,0,0:0:0:0:
448,192,46982,1,0,0:0:0:0:
320,192,47063,1,0,0:0:0:0:
192,192,47143,1,0,0:0:0:0:
64,192,47143,1,0,0:0:0:0:
320,192,47204,1,0,0:0:0:0:
448,192,47264,1,0,0:0:0:0:
64,192,47325,1,0,0:0:0:0:
320,192,47385,1,0,0:0:0:0:
192,192,47446,1,0,0:0:0:0:
448,192,47506,1,0,0:0:0:0:
64,192,47567,1,0,0:0:0:0:
192,192,47627,1,0,0:0:0:0:
320,192,47688,1,0,0:0:0:0:
448,192,47748,1,0,0:0:0:0:
64,192,47809,1,0,0:0:0:0:
320,192,47869,1,0,0:0:0:0:
192,192,47930,1,0,0:0:0:0:
448,192,47990,1,0,0:0:0:0:
64,192,48050,1,0,0:0:0:0:
192,192,48111,1,0,0:0:0:0:
320,192,48111,1,0,0:0:0:0:
192,192,48353,1,0,0:0:0:0:
64,192,48353,1,0,0:0:0:0:
448,192,48434,1,0,0:0:0:0:
320,192,48514,1,0,0:0:0:0:
192,192,48595,1,0,0:0:0:0:
64,192,48595,1,0,0:0:0:0:
448,192,48675,1,0,0:0:0:0:
192,192,48756,1,0,0:0:0:0:
320,192,48837,1,0,0:0:0:0:
64,192,48837,1,0,0:0:0:0:
448,192,48917,1,0,0:0:0:0:
192,192,48998,1,0,0:0:0:0:
320,192,49079,1,0,0:0:0:0:
448,192,49079,1,0,0:0:0:0:
64,192,49159,1,0,0:0:0:0:
320,192,49240,1,0,0:0:0:0:
64,192,49321,1,0,0:0:0:0:
448,192,49401,1,0,0:0:0:0:
320,192,49482,1,0,0:0:0:0:
192,192,49563,1,0,0:0:0:0:
64,192,49563,1,0,0:0:0:0:
448,192,49643,1,0,0:0:0:0:
64,192,49724,1,0,0:0:0:0:
192,192,49805,1,0,0:0:0:0:
320,192,49805,1,0,0:0:0:0:
448,192,49885,1,0,0:0:0:0:
64,192,49966,1,0,0:0:0:0:
192,192,50046,1,0,0:0:0:0:
448,192,50046,1,0,0:0:0:0:
320,192,50127,1,0,0:0:0:0:
192,192,50208,1,0,0:0:0:0:
320,192,50288,1,0,0:0:0:0:
192,192,50369,1,0,0:0:0:0:
320,192,50450,1,0,0:0:0:0:
448,192,50530,1,0,0:0:0:0:
64,192,50530,1,0,0:0:0:0:
192,192,50611,1,0,0:0:0:0:
320,192,50692,1,0,0:0:0:0:
448,192,50772,1,0,0:0:0:0:
64,192,50772,1,0,0:0:0:0:
192,192,50853,1,0,0:0:0:0:
448,192,50934,1,0,0:0:0:0:
320,192,51014,1,0,0:0:0:0:
192,192,51014,1,0,0:0:0:0:
64,192,51095,1,0,0:0:0:0:
448,192,51175,1,0,0:0:0:0:
320,192,51256,1,0,0:0:0:0:
64,192,51256,1,0,0:0:0:0:
192,192,51337,1,0,0:0:0:0:
448,192,51417,1,0,0:0:0:0:
64,192,51498,1,0,0:0:0:0:
192,192,51498,1,0,0:0:0:0:
320,192,51579,1,0,0:0:0:0:
448,192,51659,1,0,0:0:0:0:
320,192,51740,1,0,0:0:0:0:
192,192,51740,1,0,0:0:0:0:
64,192,51821,1,0,0:0:0:0:
448,192,51901,1,0,0:0:0:0:
320,192,51982,1,0,0:0:0:0:
64,192,51982,1,0,0:0:0:0:
192,192,52063,1,0,0:0:0:0:
448,192,52143,1,0,0:0:0:0:
64,192,52224,1,0,0:0:0:0:
192,192,52224,1,0,0:0:0:0:
320,192,52305,1,0,0:0:0:0:
448,192,52385,1,0,0:0:0:0:
192,192,52466,1,0,0:0:0:0:
320,192,52466,1,0,0:0:0:0:
64,192,52546,1,0,0:0:0:0:
448,192,52627,1,0,0:0:0:0:
320,192,52708,1,0,0:0:0:0:
64,192,52708,1,0,0:0:0:0:
192,192,52788,1,0,0:0:0:0:
448,192,52869,1,0,0:0:0:0:
64,192,52950,1,0,0:0:0:0:
192,192,52950,1,0,0:0:0:0:
320,192,53030,1,0,0:0:0:0:
448,192,53111,1,0,0:0:0:0:
320,192,53192,1,0,0:0:0:0:
192,192,53192,1,0,0:0:0:0:
64,192,53272,1,0,0:0:0:0:
448,192,53353,1,0,0:0:0:0:
320,192,53434,1,0,0:0:0:0:
64,192,53434,1,0,0:0:0:0:
192,192,53514,1,0,0:0:0:0:
448,192,53595,1,0,0:0:0:0:
320,192,53675,1,0,0:0:0:0:
64,192,53675,128,0,54159:0:0:0:0:
320,192,54159,1,0,0:0:0:0:
448,192,54159,1,0,0:0:0:0:
192,192,54240,1,0,0:0:0:0:
64,192,54321,1,0,0:0:0:0:
320,192,54401,1,0,0:0:0:0:
192,192,54401,1,0,0:0:0:0:
448,192,54482,1,0,0:0:0:0:
64,192,54563,1,0,0:0:0:0:
192,192,54643,1,0,0:0:0:0:
320,192,54643,1,0,0:0:0:0:
448,192,54724,1,0,0:0:0:0:
64,192,54805,1,0,0:0:0:0:
192,192,54885,1,0,0:0:0:0:
448,192,54885,1,0,0:0:0:0:
320,192,54946,1,0,0:0:0:0:
64,192,55006,1,0,0:0:0:0:
448,192,55067,1,0,0:0:0:0:
192,192,55127,1,0,0:0:0:0:
320,192,55188,1,0,0:0:0:0:
448,192,55248,1,0,0:0:0:0:
64,192,55309,1,0,0:0:0:0:
320,192,55369,1,0,0:0:0:0:
192,192,55430,1,0,0:0:0:0:
448,192,55490,1,0,0:0:0:0:
64,192,55550,1,0,0:0:0:0:
320,192,55611,1,0,0:0:0:0:
192,192,55671,1,0,0:0:0:0:
64,192,55732,1,0,0:0:0:0:
320,192,55792,1,0,0:0:0:0:
192,192,55853,1,0,0:0:0:0:
64,192,55853,1,0,0:0:0:0:
320,192,56095,1,0,0:0:0:0:
448,192,56095,1,0,0:0:0:0:
192,192,56175,1,0,0:0:0:0:
64,192,56256,1,0,0:0:0:0:
320,192,56337,1,0,0:0:0:0:
192,192,56337,1,0,0:0:0:0:
448,192,56417,1,0,0:0:0:0:
64,192,56498,1,0,0:0:0:0:
192,192,56579,1,0,0:0:0:0:
448,192,56579,1,0,0:0:0:0:
320,192,56659,1,0,0:0:0:0:
64,192,56740,1,0,0:0:0:0:
448,192,56821,1,0,0:0:0:0:
320,192,56821,1,0,0:0:0:0:
192,192,56881,1,0,0:0:0:0:
64,192,56942,1,0,0:0:0:0:
320,192,57002,1,0,0:0:0:0:
192,192,57063,1,0,0:0:0:0:
448,192,57123,1,0,0:0:0:0:
64,192,57184,1,0,0:0:0:0:
320,192,57244,1,0,0:0:0:0:
192,192,57305,1,0,0:0:0:0:
64,192,57365,1,0,0:0:0:0:
448,192,57425,1,0,0:0:0:0:
320,192,57486,1,0,0:0:0:0:
192,192,57546,1,0,0:0:0:0:
64,192,57546,1,0,0:0:0:0:
64,192,57788,1,0,0:0:0:0:
448,192,57788,1,0,0:0:0:0:
192,192,57849,1,0,0:0:0:0:
320,192,57909,1,0,0:0:0:0:
64,192,57970,1,0,0:0:0:0:
192,192,58030,1,0,0:0:0:0:
448,192,58091,1,0,0:0:0:0:
64,192,58151,1,0,0:0:0:0:
192,192,58212,1,0,0:0:0:0:
320,192,58272,1,0,0:0:0:0:
448,192,58272,1,0,0:0:0:0:
448,192,58514,1,0,0:0:0:0:
64,192,58514,1,0,0:0:0:0:
192,192,58575,1,0,0:0:0:0:
320,192,58635,1,0,0:0:0:0:
448,192,58635,1,0,0:0:0:0:
192,192,58696,1,0,0:0:0:0:
64,192,58756,1,0,0:0:0:0:
448,192,58756,1,0,0:0:0:0:
320,192,58998,1,0,0:0:0:0:
192,192,58998,1,0,0:0:0:0:
448,192,59240,1,0,0:0:0:0:
64,192,59240,1,0,0:0:0:0:
320,192,59482,1,0,0:0:0:0:
448,192,59482,1,0,0:0:0:0:
192,192,59724,1,0,0:0:0:0:
320,192,59724,1,0,0:0:0:0:
192,192,59966,1,0,0:0:0:0:
64,192,59966,1,0,0:0:0:0:
320,192,60208,1,0,0:0:0:0:
192,192,60208,1,0,0:0:0:0:
448,192,60450,1,0,0:0:0:0:
64,192,60450,1,0,0:0:0:0:
192,192,60510,1,0,0:0:0:0:
320,192,60571,1,0,0:0:0:0:
448,192,60571,1,0,0:0:0:0:
192,192,60631,1,0,0:0:0:0:
64,192,60692,1,0,0:0:0:0:
448,192,60692,1,0,0:0:0:0:
320,192,60752,1,0,0:0:0:0:
192,192,60813,1,0,0:0:0:0:
64,192,60813,1,0,0:0:0:0:
448,192,60873,1,0,0:0:0:0:
320,192,60934,1,0,0:0:0:0:
192,192,60934,1,0,0:0:0:0:
64,192,60994,1,0,0:0:0:0:
448,192,61055,1,0,0:0:0:0:
192,192,61055,1,0,0:0:0:0:
320,192,61115,1,0,0:0:0:0:
448,192,61175,1,0,0:0:0:0:
64,192,61175,1,0,0:0:0:0:
192,192,61236,1,0,0:0:0:0:
320,192,61296,1,0,0:0:0:0:
448,192,61296,1,0,0:0:0:0:
192,192,61357,1,0,0:0:0:0:
64,192,61417,1,0,0:0:0:0:
448,192,61417,1,0,0:0:0:0:
320,192,61478,1,0,0:0:0:0:
192,192,61538,1,0,0:0:0:0:
64,192,61538,1,0,0:0:0:0:
448,192,61599,1,0,0:0:0:0:
320,192,61659,1,0,0:0:0:0:
192,192,61659,1,0,0:0:0:0:
64,192,61720,1,0,0:0:0:0:
192,192,61780,1,0,0:0:0:0:
448,192,61780,1,0,0:0:0:0:
320,192,61841,1,0,0:0:0:0:
64,192,61901,1,0,0:0:0:0:
448,192,61901,1,0,0:0:0:0:
192,192,61962,1,0,0:0:0:0:
320,192,62022,1,0,0:0:0:0:
448,192,62022,1,0,0:0:0:0:
64,192,62083,1,0,0:0:0:0:
192,192,62143,1,0,0:0:0:0:
448,192,62143,1,0,0:0:0:0:
64,192,62627,1,0,0:0:0:0:
448,192,62627,1,0,0:0:0:0:
192,192,62688,1,0,0:0:0:0:
320,192,62748,1,0,0:0:0:0:
64,192,62809,1,0,0:0:0:0:
448,192,62869,1,0,0:0:0:0:
192,192,62930,1,0,0:0:0:0:
64,192,62990,1,0,0:0:0:0:
320,192,63050,1,0,0:0:0:0:
192,192,63111,1,0,0:0:0:0:
64,192,63111,1,0,0:0:0:0:
448,192,63171,1,0,0:0:0:0:
192,192,63232,1,0,0:0:0:0:
320,192,63292,1,0,0:0:0:0:
64,192,63353,1,0,0:0:0:0:
448,192,63413,1,0,0:0:0:0:
192,192,63474,1,0,0:0:0:0:
320,192,63534,1,0,0:0:0:0:
448,192,63595,1,0,0:0:0:0:
64,192,63595,1,0,0:0:0:0:
192,192,63655,1,0,0:0:0:0:
320,192,63716,1,0,0:0:0:0:
64,192,63776,1,0,0:0:0:0:
448,192,63837,1,0,0:0:0:0:
192,192,63897,1,0,0:0:0:0:
320,192,63958,1,0,0:0:0:0:
64,192,64018,1,0,0:0:0:0:
320,192,64079,1,0,0:0:0:0:
448,192,64079,1,0,0:0:0:0:
192,192,64139,1,0,0:0:0:0:
64,192,64200,1,0,0:0:0:0:
448,192,64200,1,0,0:0:0:0:
320,192,64260,1,0,0:0:0:0:
192,192,64321,1,0,0:0:0:0:
64,192,64321,1,0,0:0:0:0:
320,192,64381,1,0,0:0:0:0:
448,192,64442,1,0,0:0:0:0:
192,192,64442,1,0,0:0:0:0:
64,192,64502,1,0,0:0:0:0:
320,192,64563,1,0,0:0:0:0:
448,192,64563,1,0,0:0:0:0:
192,192,64623,1,0,0:0:0:0:
64,192,64684,1,0,0:0:0:0:
448,192,64684,1,0,0:0:0:0:
320,192,64744,1,0,0:0:0:0:
192,192,64805,1,0,0:0:0:0:
64,192,64805,1,0,0:0:0:0:
320,192,64865,1,0,0:0:0:0:
448,192,64925,1,0,0:0:0:0:
64,192,64925,1,0,0:0:0:0:
192,192,64986,1,0,0:0:0:0:
320,192,65046,1,0,0:0:0:0:
448,192,65046,1,0,0:0:0:0:
192,192,65288,1,0,0:0:0:0:
320,192,65288,1,0,0:0:0:0:
448,192,65530,1,0,0:0:0:0:
320,192,65530,1,0,0:0:0:0:
192,192,65772,1,0,0:0:0:0:
64,192,65772,1,0,0:0:0:0:
448,192,65833,1,0,0:0:0:0:
320,192,65893,1,0,0:0:0:0:
64,192,65954,1,0,0:0:0:0:
320,192,66014,1,0,0:0:0:0:
192,192,66014,1,0,0:0:0:0:
448,192,66075,1,0,0:0:0:0:
64,192,66135,1,0,0:0:0:0:
192,192,66196,1,0,0:0:0:0:
448,192,66256,1,0,0:0:0:0:
320,192,66256,1,0,0:0:0:0:
64,192,66317,1,0,0:0:0:0:
320,192,66377,1,0,0:0:0:0:
192,192,66438,1,0,0:0:0:0:
448,192,66498,1,0,0:0:0:0:
64,192,66498,1,0,0:0:0:0:
320,192,66559,1,0,0:0:0:0:
192,192,66619,1,0,0:0:0:0:
448,192,66680,1,0,0:0:0:0:
64,192,66740,1,0,0:0:0:0:
320,192,66740,1,0,0:0:0:0:
192,192,66861,1,0,0:0:0:0:
320,192,66982,1,0,0:0:0:0:
448,192,66982,1,0,0:0:0:0:
192,192,67042,1,0,0:0:0:0:
64,192,67103,1,0,0:0:0:0:
448,192,67163,1,0,0:0:0:0:
192,192,67224,1,0,0:0:0:0:
448,192,67284,1,0,0:0:0:0:
64,192,67345,1,0,0:0:0:0:
192,192,67405,1,0,0:0:0:0:
448,192,67466,1,0,0:0:0:0:
320,192,67466,1,0,0:0:0:0:
64,192,67526,1,0,0:0:0:0:
192,192,67587,1,0,0:0:0:0:
448,192,67647,1,0,0:0:0:0:
320,192,67708,1,0,0:0:0:0:
64,192,67768,1,0,0:0:0:0:
448,192,67829,1,0,0:0:0:0:
192,192,67889,1,0,0:0:0:0:
320,192,67950,1,0,0:0:0:0:
64,192,67950,1,0,0:0:0:0:
448,192,68010,1,0,0:0:0:0:
192,192,68071,1,0,0:0:0:0:
320,192,68131,1,0,0:0:0:0:
64,192,68192,1,0,0:0:0:0:
448,192,68252,1,0,0:0:0:0:
192,192,68313,1,0,0:0:0:0:
64,192,68373,1,0,0:0:0:0:
448,192,68434,1,0,0:0:0:0:
320,192,68434,1,0,0:0:0:0:
192,192,68494,1,0,0:0:0:0:
64,192,68555,1,0,0:0:0:0:
448,192,68555,1,0,0:0:0:0:
320,192,68615,1,0,0:0:0:0:
192,192,68675,1,0,0:0:0:0:
64,192,68675,1,0,0:0:0:0:
448,192,68736,1,0,0:0:0:0:
320,192,68796,1,0,0:0:0:0:
192,192,68796,1,0,0:0:0:0:
64,192,68857,1,0,0:0:0:0:
192,192,68917,1,0,0:0:0:0:
448,192,68917,1,0,0:0:0:0:
320,192,68978,1,0,0:0:0:0:
64,192,69038,1,0,0:0:0:0:
448,192,69038,1,0,0:0:0:0:
192,192,69099,1,0,0:0:0:0:
320,192,69159,1,0,0:0:0:0:
448,192,69159,1,0,0:0:0:0:
64,192,69220,1,0,0:0:0:0:
192,192,69280,1,0,0:0:0:0:
320,192,69280,1,0,0:0:0:0:
448,192,69341,1,0,0:0:0:0:
320,192,69401,1,0,0:0:0:0:
64,192,69401,1,0,0:0:0:0:
192,192,69462,1,0,0:0:0:0:
448,192,69522,1,0,0:0:0:0:
320,192,69522,1,0,0:0:0:0:
192,192,69583,1,0,0:0:0:0:
64,192,69643,1,0,0:0:0:0:
448,192,69643,1,0,0:0:0:0:
192,192,69885,1,0,0:0:0:0:
448,192,69885,128,0,70127:0:0:0:0:
192,192,70369,1,0,0:0:0:0:
64,192,70369,1,0,0:0:0:0:
448,192,70430,1,0,0:0:0:0:
320,192,70490,1,0,0:0:0:0:
64,192,70550,1,0,0:0:0:0:
320,192,70611,1,0,0:0:0:0:
192,192,70611,1,0,0:0:0:0:
448,192,70671,1,0,0:0:0:0:
320,192,70732,1,0,0:0:0:0:
64,192,70732,1,0,0:0:0:0:
192,192,70792,1,0,0:0:0:0:
64,192,70853,1,0,0:0:0:0:
448,192,70853,1,0,0:0:0:0:
320,192,70913,1,0,0:0:0:0:
192,192,70974,1,0,0:0:0:0:
448,192,71034,1,0,0:0:0:0:
320,192,71095,1,0,0:0:0:0:
64,192,71095,1,0,0:0:0:0:
192,192,71155,1,0,0:0:0:0:
448,192,71216,1,0,0:0:0:0:
320,192,71276,1,0,0:0:0:0:
448,192,71337,1,0,0:0:0:0:
64,192,71337,1,0,0:0:0:0:
192,192,71397,1,0,0:0:0:0:
320,192,71458,1,0,0:0:0:0:
448,192,71518,1,0,0:0:0:0:
64,192,71579,1,0,0:0:0:0:
192,192,71639,1,0,0:0:0:0:
320,192,71700,1,0,0:0:0:0:
448,192,71760,1,0,0:0:0:0:
64,192,71821,1,0,0:0:0:0:
192,192,71821,1,0,0:0:0:0:
320,192,72063,1,0,0:0:0:0:
192,192,72063,1,0,0:0:0:0:
192,192,72305,1,0,0:0:0:0:
64,192,72305,1,0,0:0:0:0:
448,192,72365,1,0,0:0:0:0:
320,192,72425,1,0,0:0:0:0:
64,192,72486,1,0,0:0:0:0:
192,192,72546,1,0,0:0:0:0:
448,192,72546,1,0,0:0:0:0:
320,192,72607,1,0,0:0:0:0:
192,192,72667,1,0,0:0:0:0:
64,192,72667,1,0,0:0:0:0:
448,192,72728,1,0,0:0:0:0:
192,192,72788,1,0,0:0:0:0:
320,192,72788,1,0,0:0:0:0:
64,192,72849,1,0,0:0:0:0:
448,192,72909,1,0,0:0:0:0:
192,192,72970,1,0,0:0:0:0:
320,192,73030,1,0,0:0:0:0:
64,192,73030,1,0,0:0:0:0:
448,192,73091,1,0,0:0:0:0:
192,192,73151,1,0,0:0:0:0:
320,192,73212,1,0,0:0:0:0:
448,192,73272,1,0,0:0:0:0:
64,192,73272,1,0,0:0:0:0:
192,192,73333,1,0,0:0:0:0:
320,192,73393,1,0,0:0:0:0:
448,192,73393,1,0,0:0:0:0:
192,192,73454,1,0,0:0:0:0:
64,192,73514,1,0,0:0:0:0:
448,192,73514,1,0,0:0:0:0:
320,192,73575,1,0,0:0:0:0:
192,192,73635,1,0,0:0:0:0:
64,192,73635,1,0,0:0:0:0:
448,192,73696,1,0,0:0:0:0:
320,192,73756,1,0,0:0:0:0:
192,192,73756,1,0,0:0:0:0:
64,192,73817,1,0,0:0:0:0:
320,192,73877,1,0,0:0:0:0:
192,192,73938,1,0,0:0:0:0:
320,192,73998,1,0,0:0:0:0:
448,192,73998,1,0,0:0:0:0:
192,192,74240,1,0,0:0:0:0:
64,192,74240,1,0,0:0:0:0:
448,192,74321,1,0,0:0:0:0:
320,192,74401,1,0,0:0:0:0:
192,192,74482,1,0,0:0:0:0:
64,192,74482,1,0,0:0:0:0:
448,192,74563,1,0,0:0:0:0:
192,192,74643,1,0,0:0:0:0:
320,192,74724,1,0,0:0:0:0:
448,192,74966,1,0,0:0:0:0:
320,192,74966,1,0,0:0:0:0:
192,192,75046,1,0,0:0:0:0:
64,192,75127,1,0,0:0:0:0:
448,192,75208,1,0,0:0:0:0:
192,192,75288,1,0,0:0:0:0:
320,192,75369,1,0,0:0:0:0:
192,192,75450,1,0,0:0:0:0:
64,192,75450,1,0,0:0:0:0:
448,192,75530,1,0,0:0:0:0:
64,192,75611,1,0,0:0:0:0:
192,192,75692,1,0,0:0:0:0:
448,192,75772,1,0,0:0:0:0:
64,192,75853,1,0,0:0:0:0:
320,192,75934,1,0,0:0:0:0:
192,192,75934,1,0,0:0:0:0:
448,192,76014,1,0,0:0:0:0:
64,192,76095,1,0,0:0:0:0:
320,192,76175,1,0,0:0:0:0:
448,192,76175,1,0,0:0:0:0:
192,192,76256,1,0,0:0:0:0:
448,192,76337,1,0,0:0:0:0:
192,192,76417,1,0,0:0:0:0:
64,192,76417,1,0,0:0:0:0:
320,192,76498,1,0,0:0:0:0:
448,192,76579,1,0,0:0:0:0:
320,192,76659,1,0,0:0:0:0:
192,192,76659,1,0,0:0:0:0:
64,192,76740,1,0,0:0:0:0:
448,192,76821,1,0,0:0:0:0:
64,192,76901,1,0,0:0:0:0:
448,192,76982,1,0,0:0:0:0:
64,192,77063,1,0,0:0:0:0:
448,192,77143,1,0,0:0:0:0:
64,192,77224,1,0,0:0:0:0:
448,192,77305,1,0,0:0:0:0:
64,192,77385,1,0,0:0:0:0:
448,192,77627,1,0,0:0:0:0:
320,192,77627,1,0,0:0:0:0:
192,192,77688,1,0,0:0:0:0:
64,192,77748,1,0,0:0:0:0:
448,192,77809,1,0,0:0:0:0:
320,192,77869,1,0,0:0:0:0:
192,192,77869,1,0,0:0:0:0:
64,192,77930,1,0,0:0:0:0:
448,192,77990,1,0,0:0:0:0:
192,192,78050,1,0,0:0:0:0:
64,192,78111,1,0,0:0:0:0:
320,192,78111,1,0,0:0:0:0:
448,192,78171,1,0,0:0:0:0:
192,192,78232,1,0,0:0:0:0:
320,192,78292,1,0,0:0:0:0:
64,192,78353,1,0,0:0:0:0:
448,192,78595,1,0,0:0:0:0:
320,192,78595,1,0,0:0:0:0:
192,192,78655,1,0,0:0:0:0:
64,192,78716,1,0,0:0:0:0:
448,192,78776,1,0,0:0:0:0:
192,192,78837,1,0,0:0:0:0:
64,192,78897,1,0,0:0:0:0:
320,192,78958,1,0,0:0:0:0:
448,192,79018,1,0,0:0:0:0:
192,192,79079,1,0,0:0:0:0:
64,192,79079,1,0,0:0:0:0:
64,192,79563,1,0,0:0:0:0:
320,192,79563,1,0,0:0:0:0:
448,192,79623,1,0,0:0:0:0:
192,192,79684,1,0,0:0:0:0:
64,192,79744,1,0,0:0:0:0:
320,192,79805,1,0,0:0:0:0:
192,192,79805,1,0,0:0:0:0:
448,192,79865,1,0,0:0:0:0:
192,192,79925,1,0,0:0:0:0:
64,192,79986,1,0,0:0:0:0:
448,192,80046,1,0,0:0:0:0:
320,192,80046,1,0,0:0:0:0:
192,192,80107,1,0,0:0:0:0:
64,192,80167,1,0,0:0:0:0:
448,192,80228,1,0,0:0:0:0:
192,192,80288,1,0,0:0:0:0:
320,192,80349,1,0,0:0:0:0:
448,192,80409,1,0,0:0:0:0:
192,192,80530,1,0,0:0:0:0:
64,192,80530,1,0,0:0:0:0:
320,192,80591,1,0,0:0:0:0:
448,192,80651,1,0,0:0:0:0:
64,192,80712,1,0,0:0:0:0:
320,192,80772,1,0,0:0:0:0:
192,192,80833,1,0,0:0:0:0:
448,192,80893,1,0,0:0:0:0:
64,192,80954,1,0,0:0:0:0:
192,192,81014,1,0,0:0:0:0:
320,192,81014,1,0,0:0:0:0:
448,192,81498,1,0,0:0:0:0:
320,192,81498,1,0,0:0:0:0:
64,192,81559,1,0,0:0:0:0:
192,192,81619,1,0,0:0:0:0:
320,192,81680,1,0,0:0:0:0:
192,192,81982,1,0,0:0:0:0:
64,192,81982,1,0,0:0:0:0:
448,192,82042,1,0,0:0:0:0:
320,192,82103,1,0,0:0:0:0:
64,192,82163,1,0,0:0:0:0:
320,192,82224,1,0,0:0:0:0:
448,192,82224,1,0,0:0:0:0:
192,192,82284,1,0,0:0:0:0:
64,192,82345,1,0,0:0:0:0:
448,192,82345,1,0,0:0:0:0:
320,192,82405,1,0,0:0:0:0:
192,192,82466,1,0,0:0:0:0:
64,192,82466,1,0,0:0:0:0:
448,192,82526,1,0,0:0:0:0:
192,192,82587,1,0,0:0:0:0:
320,192,82587,1,0,0:0:0:0:
64,192,82647,1,0,0:0:0:0:
192,192,82708,1,0,0:0:0:0:
448,192,82708,1,0,0:0:0:0:
320,192,82768,1,0,0:0:0:0:
448,192,82829,1,0,0:0:0:0:
64,192,82829,1,0,0:0:0:0:
192,192,82889,1,0,0:0:0:0:
320,192,82950,1,0,0:0:0:0:
448,192,82950,1,0,0:0:0:0:
64,192,83010,1,0,0:0:0:0:
192,192,83071,1,0,0:0:0:0:
320,192,83071,1,0,0:0:0:0:
448,192,83131,1,0,0:0:0:0:
320,192,83192,1,0,0:0:0:0:
64,192,83192,1,0,0:0:0:0:
192,192,83252,1,0,0:0:0:0:
320,192,83313,1,0,0:0:0:0:
448,192,83313,1,0,0:0:0:0:
64,192,83373,1,0,0:0:0:0:
192,192,83434,1,0,0:0:0:0:
448,192,83434,1,0,0:0:0:0:
320,192,83494,1,0,0:0:0:0:
64,192,83555,1,0,0:0:0:0:
192,192,83555,1,0,0:0:0:0:
448,192,83615,1,0,0:0:0:0:
320,192,83675,1,0,0:0:0:0:
192,192,83675,1,0,0:0:0:0:
64,192,83736,1,0,0:0:0:0:
448,192,83796,1,0,0:0:0:0:
320,192,83796,1,0,0:0:0:0:
192,192,83857,1,0,0:0:0:0:
64,192,83917,1,0,0:0:0:0:
448,192,83917,1,0,0:0:0:0:
320,192,83978,1,0,0:0:0:0:
192,192,84038,1,0,0:0:0:0:
64,192,84038,1,0,0:0:0:0:
320,192,84099,1,0,0:0:0:0:
448,192,84159,1,0,0:0:0:0:
64,192,84159,1,0,0:0:0:0:
192,192,84220,1,0,0:0:0:0:
320,192,84280,1,0,0:0:0:0:
448,192,84280,1,0,0:0:0:0:
64,192,84341,1,0,0:0:0:0:
320,192,84401,1,0,0:0:0:0:
192,192,84401,1,0,0:0:0:0:
448,192,84462,1,0,0:0:0:0:
320,192,84522,1,0,0:0:0:0:
64,192,84522,1,0,0:0:0:0:
192,192,84583,1,0,0:0:0:0:
448,192,84643,1,0,0:0:0:0:
64,192,84643,1,0,0:0:0:0:
320,192,84704,1,0,0:0:0:0:
192,192,84764,1,0,0:0:0:0:
64,192,84764,1,0,0:0:0:0:
448,192,84825,1,0,0:0:0:0:
320,192,84885,1,0,0:0:0:0:
192,192,84885,1,0,0:0:0:0:
192,192,85369,1,0,0:0:0:0:
64,192,85369,1,0,0:0:0:0:
448,192,85369,1,0,0:0:0:0:
320,192,85853,1,0,0:0:0:0:
448,192,85853,1,0,0:0:0:0:
192,192,85853,1,0,0:0:0:0:
320,192,86337,1,0,0:0:0:0:
192,192,86337,1,0,0:0:0:0:
64,192,86337,1,0,0:0:0:0:
192,192,86821,1,0,0:0:0:0:
320,192,86821,1,0,0:0:0:0:
448,192,86821,1,0,0:0:0:0:
192,192,87063,1,0,0:0:0:0:
448,192,87063,1,0,0:0:0:0:
64,192,87063,1,0,0:0:0:0:
320,192,87184,1,0,0:0:0:0:
448,192,87184,1,0,0:0:0:0:
192,192,87305,1,0,0:0:0:0:
64,192,87305,1,0,0:0:0:0:
320,192,87305,1,0,0:0:0:0:
448,192,87425,1,0,0:0:0:0:
64,192,87425,1,0,0:0:0:0:
192,192,87546,1,0,0:0:0:0:
448,192,87546,1,0,0:0:0:0:
448,192,87788,1,0,0:0:0:0:
320,192,87788,1,0,0:0:0:0:
64,192,87788,1,0,0:0:0:0:
192,192,87909,1,0,0:0:0:0:
320,192,87909,1,0,0:0:0:0:
448,192,88030,1,0,0:0:0:0:
192,192,88030,1,0,0:0:0:0:
64,192,88030,1,0,0:0:0:0:
320,192,88272,1,0,0:0:0:0:
448,192,88272,1,0,0:0:0:0:
64,192,88272,1,0,0:0:0:0:
192,192,88756,1,0,0:0:0:0:
64,192,88756,1,0,0:0:0:0:
320,192,88837,1,0,0:0:0:0:
448,192,88917,1,0,0:0:0:0:
192,192,88917,1,0,0:0:0:0:
64,192,88998,1,0,0:0:0:0:
320,192,89079,1,0,0:0:0:0:
192,192,89079,1,0,0:0:0:0:
448,192,89159,1,0,0:0:0:0:
192,192,89240,1,0,0:0:0:0:
64,192,89240,1,0,0:0:0:0:
320,192,89482,1,0,0:0:0:0:
192,192,89482,1,0,0:0:0:0:
448,192,89724,1,0,0:0:0:0:
64,192,89724,1,0,0:0:0:0:
192,192,89784,1,0,0:0:0:0:
320,192,89845,1,0,0:0:0:0:
448,192,89845,1,0,0:0:0:0:
192,192,89905,1,0,0:0:0:0:
64,192,89966,1,0,0:0:0:0:
448,192,89966,1,0,0:0:0:0:
320,192,90208,1,0,0:0:0:0:
192,192,90208,1,0,0:0:0:0:
448,192,90208,1,0,0:0:0:0:
320,192,90692,1,0,0:0:0:0:
192,192,90692,1,0,0:0:0:0:
64,192,90692,1,0,0:0:0:0:
448,192,90934,1,0,0:0:0:0:
320,192,90934,1,0,0:0:0:0:
192,192,90934,1,0,0:0:0:0:
448,192,91055,1,0,0:0:0:0:
64,192,91055,1,0,0:0:0:0:
64,192,91175,1,0,0:0:0:0:
320,192,91175,1,0,0:0:0:0:
192,192,91175,1,0,0:0:0:0:
448,192,91296,1,0,0:0:0:0:
320,192,91296,1,0,0:0:0:0:
192,192,91417,1,0,0:0:0:0:
64,192,91417,1,0,0:0:0:0:
320,192,91659,1,0,0:0:0:0:
448,192,91659,1,0,0:0:0:0:
64,192,91659,1,0,0:0:0:0:
192,192,91780,1,0,0:0:0:0:
320,192,91780,1,0,0:0:0:0:
448,192,91901,1,0,0:0:0:0:
192,192,91901,1,0,0:0:0:0:
64,192,91901,1,0,0:0:0:0:
320,192,92143,1,0,0:0:0:0:
448,192,92143,1,0,0:0:0:0:
64,192,92143,1,0,0:0:0:0:
192,192,92385,1,0,0:0:0:0:
320,192,92385,1,0,0:0:0:0:
448,192,92385,1,0,0:0:0:0:
64,192,92627,128,0,92748:0:0:0:0:
192,192,92990,128,0,93111:0:0:0:0:
320,192,93353,128,0,93474:0:0:0:0:
448,192,93595,1,0,0:0:0:0:
64,192,93595,1,0,0:0:0:0:
320,192,93655,1,0,0:0:0:0:
192,192,93716,1,0,0:0:0:0:
64,192,93716,1,0,0:0:0:0:
448,192,93776,1,0,0:0:0:0:
320,192,93837,1,0,0:0:0:0:
192,192,93837,1,0,0:0:0:0:
64,192,93917,1,0,0:0:0:0:
448,192,93998,1,0,0:0:0:0:
64,192,94079,1,0,0:0:0:0:
320,192,94079,1,0,0:0:0:0:
192,192,94159,1,0,0:0:0:0:
448,192,94240,1,0,0:0:0:0:
320,192,94321,1,0,0:0:0:0:
192,192,94321,1,0,0:0:0:0:
64,192,94401,1,0,0:0:0:0:
448,192,94482,1,0,0:0:0:0:
320,192,94563,1,0,0:0:0:0:
64,192,94563,1,0,0:0:0:0:
192,192,94643,1,0,0:0:0:0:
448,192,94724,1,0,0:0:0:0:
64,192,94805,1,0,0:0:0:0:
192,192,94805,1,0,0:0:0:0:
320,192,94885,1,0,0:0:0:0:
448,192,94966,1,0,0:0:0:0:
192,192,95046,1,0,0:0:0:0:
320,192,95046,1,0,0:0:0:0:
64,192,95127,1,0,0:0:0:0:
192,192,95208,1,0,0:0:0:0:
448,192,95288,1,0,0:0:0:0:
320,192,95288,1,0,0:0:0:0:
64,192,95369,1,0,0:0:0:0:
320,192,95450,1,0,0:0:0:0:
192,192,95530,1,0,0:0:0:0:
448,192,95530,1,0,0:0:0:0:
64,192,95611,1,0,0:0:0:0:
320,192,95692,1,0,0:0:0:0:
192,192,95772,1,0,0:0:0:0:
64,192,95772,1,0,0:0:0:0:
448,192,95853,1,0,0:0:0:0:
320,192,95934,1,0,0:0:0:0:
448,192,96014,1,0,0:0:0:0:
64,192,96014,1,0,0:0:0:0:
192,192,96095,1,0,0:0:0:0:
320,192,96175,1,0,0:0:0:0:
64,192,96256,1,0,0:0:0:0:
192,192,96256,1,0,0:0:0:0:
448,192,96337,1,0,0:0:0:0:
64,192,96417,1,0,0:0:0:0:
192,192,96498,1,0,0:0:0:0:
320,192,96498,1,0,0:0:0:0:
448,192,96579,1,0,0:0:0:0:
64,192,96659,1,0,0:0:0:0:
320,192,96740,1,0,0:0:0:0:
192,192,96821,1,0,0:0:0:0:
64,192,96901,1,0,0:0:0:0:
320,192,96982,128,0,97385:0:0:0:0:
192,192,96982,1,0,0:0:0:0:
64,192,97063,1,0,0:0:0:0:
192,192,97143,1,0,0:0:0:0:
64,192,97224,1,0,0:0:0:0:
192,192,97305,1,0,0:0:0:0:
64,192,97385,1,0,0:0:0:0:
192,192,97466,1,0,0:0:0:0:
448,192,97466,1,0,0:0:0:0:
320,192,97526,1,0,0:0:0:0:
64,192,97587,1,0,0:0:0:0:
192,192,97587,1,0,0:0:0:0:
448,192,97647,1,0,0:0:0:0:
64,192,97708,1,0,0:0:0:0:
320,192,97708,1,0,0:0:0:0:
192,192,97788,1,0,0:0:0:0:
448,192,97869,1,0,0:0:0:0:
192,192,97950,1,0,0:0:0:0:
64,192,97950,1,0,0:0:0:0:
320,192,98030,1,0,0:0:0:0:
448,192,98111,1,0,0:0:0:0:
64,192,98192,1,0,0:0:0:0:
320,192,98192,1,0,0:0:0:0:
192,192,98272,1,0,0:0:0:0:
320,192,98353,1,0,0:0:0:0:
192,192,98434,1,0,0:0:0:0:
448,192,98434,1,0,0:0:0:0:
64,192,98514,1,0,0:0:0:0:
320,192,98595,1,0,0:0:0:0:
64,192,98675,1,0,0:0:0:0:
192,192,98675,1,0,0:0:0:0:
448,192,98756,1,0,0:0:0:0:
192,192,98837,1,0,0:0:0:0:
320,192,98917,1,0,0:0:0:0:
64,192,98917,1,0,0:0:0:0:
448,192,98998,1,0,0:0:0:0:
192,192,99079,1,0,0:0:0:0:
448,192,99159,1,0,0:0:0:0:
320,192,99159,1,0,0:0:0:0:
64,192,99240,1,0,0:0:0:0:
448,192,99321,1,0,0:0:0:0:
192,192,99401,1,0,0:0:0:0:
320,192,99401,1,0,0:0:0:0:
64,192,99482,1,0,0:0:0:0:
448,192,99563,1,0,0:0:0:0:
320,192,99643,1,0,0:0:0:0:
64,192,99643,1,0,0:0:0:0:
192,192,99724,1,0,0:0:0:0:
320,192,99805,1,0,0:0:0:0:
448,192,99885,1,0,0:0:0:0:
64,192,99885,1,0,0:0:0:0:
192,192,99966,1,0,0:0:0:0:
448,192,100046,1,0,0:0:0:0:
192,192,100127,1,0,0:0:0:0:
320,192,100127,1,0,0:0:0:0:
64,192,100208,1,0,0:0:0:0:
448,192,100288,1,0,0:0:0:0:
64,192,100369,1,0,0:0:0:0:
320,192,100369,1,0,0:0:0:0:
192,192,100450,1,0,0:0:0:0:
448,192,100530,1,0,0:0:0:0:
64,192,100611,1,0,0:0:0:0:
192,192,100692,1,0,0:0:0:0:
448,192,100772,1,0,0:0:0:0:
64,192,100853,1,0,0:0:0:0:
192,192,100853,128,0,101256:0:0:0:0:
320,192,100853,1,0,0:0:0:0:
448,192,100934,1,0,0:0:0:0:
320,192,101014,1,0,0:0:0:0:
448,192,101095,1,0,0:0:0:0:
320,192,101175,1,0,0:0:0:0:
448,192,101256,1,0,0:0:0:0:
64,192,101337,1,0,0:0:0:0:
320,192,101337,1,0,0:0:0:0:
192,192,101397,1,0,0:0:0:0:
320,192,101458,1,0,0:0:0:0:
448,192,101458,1,0,0:0:0:0:
192,192,101518,1,0,0:0:0:0:
64,192,101579,1,0,0:0:0:0:
448,192,101579,1,0,0:0:0:0:
320,192,101659,1,0,0:0:0:0:
192,192,101740,1,0,0:0:0:0:
64,192,101821,1,0,0:0:0:0:
448,192,101821,1,0,0:0:0:0:
320,192,101901,1,0,0:0:0:0:
64,192,101982,1,0,0:0:0:0:
448,192,102063,1,0,0:0:0:0:
192,192,102063,1,0,0:0:0:0:
320,192,102143,1,0,0:0:0:0:
64,192,102224,1,0,0:0:0:0:
192,192,102305,1,0,0:0:0:0:
320,192,102305,1,0,0:0:0:0:
448,192,102385,1,0,0:0:0:0:
64,192,102466,1,0,0:0:0:0:
320,192,102546,1,0,0:0:0:0:
448,192,102546,1,0,0:0:0:0:
192,192,102627,1,0,0:0:0:0:
64,192,102708,1,0,0:0:0:0:
448,192,102788,1,0,0:0:0:0:
192,192,102788,1,0,0:0:0:0:
320,192,102869,1,0,0:0:0:0:
64,192,102950,1,0,0:0:0:0:
192,192,103030,1,0,0:0:0:0:
320,192,103030,1,0,0:0:0:0:
448,192,103111,1,0,0:0:0:0:
192,192,103192,1,0,0:0:0:0:
64,192,103272,1,0,0:0:0:0:
448,192,103272,1,0,0:0:0:0:
320,192,103353,1,0,0:0:0:0:
64,192,103434,1,0,0:0:0:0:
448,192,103514,1,0,0:0:0:0:
192,192,103514,1,0,0:0:0:0:
320,192,103595,1,0,0:0:0:0:
64,192,103675,1,0,0:0:0:0:
192,192,103756,1,0,0:0:0:0:
320,192,103756,1,0,0:0:0:0:
448,192,103837,1,0,0:0:0:0:
64,192,103917,1,0,0:0:0:0:
320,192,103998,1,0,0:0:0:0:
448,192,103998,1,0,0:0:0:0:
192,192,104079,1,0,0:0:0:0:
64,192,104159,1,0,0:0:0:0:
448,192,104240,1,0,0:0:0:0:
192,192,104240,1,0,0:0:0:0:
320,192,104321,1,0,0:0:0:0:
64,192,104401,1,0,0:0:0:0:
448,192,104482,1,0,0:0:0:0:
320,192,104563,1,0,0:0:0:0:
192,192,104643,1,0,0:0:0:0:
448,192,104724,1,0,0:0:0:0:
320,192,104724,128,0,105127:0:0:0:0:
64,192,104724,1,0,0:0:0:0:
192,192,104805,1,0,0:0:0:0:
64,192,104885,1,0,0:0:0:0:
192,192,104966,1,0,0:0:0:0:
64,192,105046,1,0,0:0:0:0:
192,192,105127,1,0,0:0:0:0:
64,192,105208,1,0,0:0:0:0:
320,192,105208,1,0,0:0:0:0:
448,192,105268,1,0,0:0:0:0:
192,192,105329,1,0,0:0:0:0:
320,192,105329,1,0,0:0:0:0:
64,192,105389,1,0,0:0:0:0:
320,192,105450,1,0,0:0:0:0:
448,192,105450,1,0,0:0:0:0:
192,192,105530,1,0,0:0:0:0:
64,192,105611,1,0,0:0:0:0:
192,192,105692,1,0,0:0:0:0:
448,192,105692,1,0,0:0:0:0:
320,192,105772,1,0,0:0:0:0:
64,192,105853,1,0,0:0:0:0:
320,192,105934,1,0,0:0:0:0:
192,192,105934,1,0,0:0:0:0:
448,192,106014,1,0,0:0:0:0:
192,192,106095,1,0,0:0:0:0:
64,192,106175,1,0,0:0:0:0:
320,192,106175,1,0,0:0:0:0:
448,192,106256,1,0,0:0:0:0:
192,192,106337,1,0,0:0:0:0:
320,192,106417,1,0,0:0:0:0:
448,192,106417,1,0,0:0:0:0:
64,192,106498,1,0,0:0:0:0:
448,192,106579,1,0,0:0:0:0:
320,192,106659,1,0,0:0:0:0:
192,192,106659,1,0,0:0:0:0:
64,192,106740,1,0,0:0:0:0:
448,192,106821,1,0,0:0:0:0:
320,192,106901,1,0,0:0:0:0:
64,192,106901,1,0,0:0:0:0:
192,192,106982,1,0,0:0:0:0:
320,192,107063,1,0,0:0:0:0:
448,192,107143,1,0,0:0:0:0:
64,192,107143,1,0,0:0:0:0:
192,192,107224,1,0,0:0:0:0:
320,192,107305,1,0,0:0:0:0:
448,192,107385,1,0,0:0:0:0:
64,192,107466,1,0,0:0:0:0:
320,192,107546,1,0,0:0:0:0:
448,192,107627,1,0,0:0:0:0:
64,192,107627,128,0,108030:0:0:0:0:
192,192,108111,1,0,0:0:0:0:
448,192,108111,1,0,0:0:0:0:
64,192,108192,1,0,0:0:0:0:
320,192,108272,1,0,0:0:0:0:
448,192,108353,1,0,0:0:0:0:
192,192,108353,1,0,0:0:0:0:
64,192,108434,1,0,0:0:0:0:
448,192,108514,1,0,0:0:0:0:
192,192,108595,1,0,0:0:0:0:
320,192,108595,1,0,0:0:0:0:
64,192,108675,1,0,0:0:0:0:
448,192,108756,1,0,0:0:0:0:
64,192,108837,1,0,0:0:0:0:
192,192,108837,1,0,0:0:0:0:
320,192,108917,1,0,0:0:0:0:
448,192,108998,1,0,0:0:0:0:
192,192,109079,1,0,0:0:0:0:
320,192,109079,1,0,0:0:0:0:
64,192,109139,1,0,0:0:0:0:
448,192,109200,1,0,0:0:0:0:
192,192,109260,1,0,0:0:0:0:
320,192,109321,1,0,0:0:0:0:
448,192,109381,1,0,0:0:0:0:
64,192,109442,1,0,0:0:0:0:
320,192,109502,1,0,0:0:0:0:
192,192,109563,1,0,0:0:0:0:
448,192,109623,1,0,0:0:0:0:
64,192,109684,1,0,0:0:0:0:
320,192,109744,1,0,0:0:0:0:
192,192,109805,1,0,0:0:0:0:
64,192,109865,1,0,0:0:0:0:
448,192,109925,1,0,0:0:0:0:
192,192,109986,1,0,0:0:0:0:
320,192,110046,1,0,0:0:0:0:
448,192,110046,1,0,0:0:0:0:
192,192,110288,1,0,0:0:0:0:
64,192,110288,1,0,0:0:0:0:
448,192,110530,1,0,0:0:0:0:
320,192,110530,1,0,0:0:0:0:
192,192,110772,1,0,0:0:0:0:
320,192,110772,1,0,0:0:0:0:
64,192,111014,1,0,0:0:0:0:
448,192,111014,1,0,0:0:0:0:
192,192,111075,1,0,0:0:0:0:
320,192,111135,1,0,0:0:0:0:
64,192,111196,1,0,0:0:0:0:
448,192,111256,1,0,0:0:0:0:
192,192,111317,1,0,0:0:0:0:
320,192,111377,1,0,0:0:0:0:
64,192,111377,1,0,0:0:0:0:
448,192,111438,1,0,0:0:0:0:
192,192,111498,1,0,0:0:0:0:
320,192,111559,1,0,0:0:0:0:
64,192,111619,1,0,0:0:0:0:
448,192,111680,1,0,0:0:0:0:
192,192,111740,1,0,0:0:0:0:
320,192,111740,1,0,0:0:0:0:
64,192,111800,1,0,0:0:0:0:
448,192,111861,1,0,0:0:0:0:
192,192,111921,1,0,0:0:0:0:
64,192,111982,1,0,0:0:0:0:
448,192,111982,1,0,0:0:0:0:
320,192,112063,1,0,0:0:0:0:
192,192,112143,1,0,0:0:0:0:
320,192,112224,1,0,0:0:0:0:
192,192,112305,1,0,0:0:0:0:
320,192,112385,1,0,0:0:0:0:
448,192,112466,1,0,0:0:0:0:
64,192,112466,1,0,0:0:0:0:
448,192,112708,1,0,0:0:0:0:
64,192,112708,1,0,0:0:0:0:
192,192,112788,1,0,0:0:0:0:
320,192,112869,1,0,0:0:0:0:
448,192,112950,1,0,0:0:0:0:
64,192,112950,1,0,0:0:0:0:
192,192,113030,1,0,0:0:0:0:
448,192,113111,1,0,0:0:0:0:
192,192,113192,1,0,0:0:0:0:
320,192,113192,1,0,0:0:0:0:
64,192,113272,1,0,0:0:0:0:
320,192,113353,1,0,0:0:0:0:
448,192,113434,1,0,0:0:0:0:
64,192,113434,1,0,0:0:0:0:
192,192,113514,1,0,0:0:0:0:
448,192,113595,1,0,0:0:0:0:
192,192,113675,1,0,0:0:0:0:
320,192,113675,1,0,0:0:0:0:
64,192,113756,1,0,0:0:0:0:
320,192,113837,1,0,0:0:0:0:
64,192,113917,1,0,0:0:0:0:
448,192,113917,1,0,0:0:0:0:
192,192,113998,1,0,0:0:0:0:
448,192,114079,1,0,0:0:0:0:
320,192,114159,1,0,0:0:0:0:
192,192,114159,1,0,0:0:0:0:
64,192,114240,1,0,0:0:0:0:
448,192,114321,1,0,0:0:0:0:
320,192,114401,1,0,0:0:0:0:
64,192,114401,1,0,0:0:0:0:
192,192,114482,1,0,0:0:0:0:
448,192,114563,1,0,0:0:0:0:
64,192,114643,1,0,0:0:0:0:
192,192,114643,1,0,0:0:0:0:
320,192,114724,1,0,0:0:0:0:
64,192,114805,1,0,0:0:0:0:
320,192,114885,1,0,0:0:0:0:
448,192,114885,1,0,0:0:0:0:
192,192,114966,1,0,0:0:0:0:
448,192,115046,1,0,0:0:0:0:
64,192,115127,1,0,0:0:0:0:
192,192,115127,1,0,0:0:0:0:
320,192,115208,1,0,0:0:0:0:
448,192,115288,1,0,0:0:0:0:
192,192,115369,1,0,0:0:0:0:
320,192,115369,1,0,0:0:0:0:
64,192,115450,1,0,0:0:0:0:
192,192,115530,1,0,0:0:0:0:
320,192,115611,1,0,0:0:0:0:
448,192,115611,128,0,115974:0:0:0:0:
192,192,116095,1,0,0:0:0:0:
320,192,116095,1,0,0:0:0:0:
64,192,116175,1,0,0:0:0:0:
448,192,116256,1,0,0:0:0:0:
64,192,116337,1,0,0:0:0:0:
192,192,116337,1,0,0:0:0:0:
320,192,116417,1,0,0:0:0:0:
64,192,116498,1,0,0:0:0:0:
448,192,116579,1,0,0:0:0:0:
320,192,116579,1,0,0:0:0:0:
192,192,116659,1,0,0:0:0:0:
448,192,116740,1,0,0:0:0:0:
192,192,116821,1,0,0:0:0:0:
64,192,116821,1,0,0:0:0:0:
320,192,116881,1,0,0:0:0:0:
448,192,116942,1,0,0:0:0:0:
64,192,117002,1,0,0:0:0:0:
320,192,117063,1,0,0:0:0:0:
192,192,117123,1,0,0:0:0:0:
448,192,117184,1,0,0:0:0:0:
64,192,117244,1,0,0:0:0:0:
320,192,117305,1,0,0:0:0:0:
192,192,117365,1,0,0:0:0:0:
64,192,117425,1,0,0:0:0:0:
448,192,117486,1,0,0:0:0:0:
192,192,117546,1,0,0:0:0:0:
320,192,117607,1,0,0:0:0:0:
64,192,117667,1,0,0:0:0:0:
448,192,117728,1,0,0:0:0:0:
192,192,117788,1,0,0:0:0:0:
320,192,117788,1,0,0:0:0:0:
64,192,118030,1,0,0:0:0:0:
448,192,118030,1,0,0:0:0:0:
320,192,118111,1,0,0:0:0:0:
64,192,118192,1,0,0:0:0:0:
320,192,118272,1,0,0:0:0:0:
192,192,118272,1,0,0:0:0:0:
448,192,118353,1,0,0:0:0:0:
64,192,118434,1,0,0:0:0:0:
448,192,118514,1,0,0:0:0:0:
320,192,118514,1,0,0:0:0:0:
192,192,118595,1,0,0:0:0:0:
448,192,118675,1,0,0:0:0:0:
64,192,118756,1,0,0:0:0:0:
192,192,118756,1,0,0:0:0:0:
320,192,118817,1,0,0:0:0:0:
448,192,118877,1,0,0:0:0:0:
64,192,118938,1,0,0:0:0:0:
320,192,118998,1,0,0:0:0:0:
192,192,119059,1,0,0:0:0:0:
448,192,119119,1,0,0:0:0:0:
320,192,119119,1,0,0:0:0:0:
64,192,119180,1,0,0:0:0:0:
320,192,119240,1,0,0:0:0:0:
192,192,119240,1,0,0:0:0:0:
448,192,119321,1,0,0:0:0:0:
64,192,119401,1,0,0:0:0:0:
192,192,119482,1,0,0:0:0:0:
320,192,119482,1,0,0:0:0:0:
448,192,119563,1,0,0:0:0:0:
320,192,119643,1,0,0:0:0:0:
64,192,119724,1,0,0:0:0:0:
192,192,119724,1,0,0:0:0:0:
448,192,119784,1,0,0:0:0:0:
192,192,119845,1,0,0:0:0:0:
320,192,119905,1,0,0:0:0:0:
448,192,119966,1,0,0:0:0:0:
64,192,120026,1,0,0:0:0:0:
320,192,120087,1,0,0:0:0:0:
192,192,120147,1,0,0:0:0:0:
448,192,120208,1,0,0:0:0:0:
64,192,120208,1,0,0:0:0:0:
192,192,120450,1,0,0:0:0:0:
320,192,120450,1,0,0:0:0:0:
320,192,120692,1,0,0:0:0:0:
448,192,120692,1,0,0:0:0:0:
448,192,120934,1,0,0:0:0:0:
192,192,120934,1,0,0:0:0:0:
64,192,121175,1,0,0:0:0:0:
320,192,121175,1,0,0:0:0:0:
320,192,121417,1,0,0:0:0:0:
448,192,121417,1,0,0:0:0:0:
64,192,121659,1,0,0:0:0:0:
192,192,121659,1,0,0:0:0:0:
448,192,121901,1,0,0:0:0:0:
320,192,121901,1,0,0:0:0:0:
320,192,122143,1,0,0:0:0:0:
192,192,122143,1,0,0:0:0:0:
192,192,122385,1,0,0:0:0:0:
64,192,122385,1,0,0:0:0:0:
448,192,122446,1,0,0:0:0:0:
320,192,122506,1,0,0:0:0:0:
192,192,122506,1,0,0:0:0:0:
64,192,122567,1,0,0:0:0:0:
448,192,122627,1,0,0:0:0:0:
320,192,122627,1,0,0:0:0:0:
192,192,122688,1,0,0:0:0:0:
64,192,122748,1,0,0:0:0:0:
320,192,122748,1,0,0:0:0:0:
448,192,122809,1,0,0:0:0:0:
192,192,122869,1,0,0:0:0:0:
320,192,122869,1,0,0:0:0:0:
64,192,122930,1,0,0:0:0:0:
192,192,122990,1,0,0:0:0:0:
448,192,122990,1,0,0:0:0:0:
320,192,123050,1,0,0:0:0:0:
448,192,123111,1,0,0:0:0:0:
64,192,123111,1,0,0:0:0:0:
192,192,123171,1,0,0:0:0:0:
320,192,123232,1,0,0:0:0:0:
448,192,123232,1,0,0:0:0:0:
64,192,123292,1,0,0:0:0:0:
192,192,123353,1,0,0:0:0:0:
320,192,123353,1,0,0:0:0:0:
448,192,123413,1,0,0:0:0:0:
192,192,123474,1,0,0:0:0:0:
320,192,123534,1,0,0:0:0:0:
64,192,123534,1,0,0:0:0:0:
448,192,123595,1,0,0:0:0:0:
192,192,123655,1,0,0:0:0:0:
448,192,123716,1,0,0:0:0:0:
64,192,123716,1,0,0:0:0:0:
320,192,123776,1,0,0:0:0:0:
192,192,123837,1,0,0:0:0:0:
64,192,123837,1,0,0:0:0:0:
448,192,123897,1,0,0:0:0:0:
320,192,123958,1,0,0:0:0:0:
192,192,123958,1,0,0:0:0:0:
64,192,124018,1,0,0:0:0:0:
448,192,124079,128,0,124563:0:0:0:0:
320,192,124079,1,0,0:0:0:0:
64,192,124563,1,0,0:0:0:0:
320,192,124563,1,0,0:0:0:0:
192,192,124623,1,0,0:0:0:0:
320,192,124684,1,0,0:0:0:0:
64,192,124744,1,0,0:0:0:0:
448,192,124805,1,0,0:0:0:0:
192,192,124865,1,0,0:0:0:0:
64,192,124925,1,0,0:0:0:0:
320,192,124986,1,0,0:0:0:0:
192,192,125046,1,0,0:0:0:0:
64,192,125046,1,0,0:0:0:0:
448,192,125107,1,0,0:0:0:0:
192,192,125167,1,0,0:0:0:0:
320,192,125228,1,0,0:0:0:0:
64,192,125288,1,0,0:0:0:0:
448,192,125349,1,0,0:0:0:0:
192,192,125409,1,0,0:0:0:0:
320,192,125470,1,0,0:0:0:0:
448,192,125530,1,0,0:0:0:0:
64,192,125530,1,0,0:0:0:0:
192,192,125591,1,0,0:0:0:0:
320,192,125651,1,0,0:0:0:0:
64,192,125712,1,0,0:0:0:0:
448,192,125772,1,0,0:0:0:0:
192,192,125833,1,0,0:0:0:0:
320,192,125893,1,0,0:0:0:0:
64,192,125954,1,0,0:0:0:0:
320,192,126014,1,0,0:0:0:0:
448,192,126014,1,0,0:0:0:0:
192,192,126075,1,0,0:0:0:0:
64,192,126135,1,0,0:0:0:0:
448,192,126135,1,0,0:0:0:0:
320,192,126196,1,0,0:0:0:0:
192,192,126256,1,0,0:0:0:0:
64,192,126256,1,0,0:0:0:0:
320,192,126317,1,0,0:0:0:0:
192,192,126377,1,0,0:0:0:0:
448,192,126377,1,0,0:0:0:0:
64,192,126438,1,0,0:0:0:0:
320,192,126498,1,0,0:0:0:0:
448,192,126498,1,0,0:0:0:0:
192,192,126559,1,0,0:0:0:0:
64,192,126619,1,0,0:0:0:0:
448,192,126619,1,0,0:0:0:0:
320,192,126680,1,0,0:0:0:0:
192,192,126740,1,0,0:0:0:0:
64,192,126740,1,0,0:0:0:0:
320,192,126800,1,0,0:0:0:0:
64,192,126861,1,0,0:0:0:0:
448,192,126861,1,0,0:0:0:0:
192,192,126921,1,0,0:0:0:0:
320,192,126982,1,0,0:0:0:0:
448,192,126982,1,0,0:0:0:0:
192,192,127224,1,0,0:0:0:0:
320,192,127224,1,0,0:0:0:0:
448,192,127466,1,0,0:0:0:0:
320,192,127466,1,0,0:0:0:0:
192,192,127708,1,0,0:0:0:0:
64,192,127708,1,0,0:0:0:0:
448,192,127768,1,0,0:0:0:0:
320,192,127829,1,0,0:0:0:0:
64,192,127889,1,0,0:0:0:0:
320,192,127950,1,0,0:0:0:0:
192,192,127950,1,0,0:0:0:0:
448,192,128010,1,0,0:0:0:0:
64,192,128071,1,0,0:0:0:0:
192,192,128131,1,0,0:0:0:0:
448,192,128192,1,0,0:0:0:0:
320,192,128192,1,0,0:0:0:0:
64,192,128252,1,0,0:0:0:0:
320,192,128313,1,0,0:0:0:0:
192,192,128373,1,0,0:0:0:0:
64,192,128434,1,0,0:0:0:0:
448,192,128434,1,0,0:0:0:0:
320,192,128494,1,0,0:0:0:0:
192,192,128555,1,0,0:0:0:0:
448,192,128615,1,0,0:0:0:0:
64,192,128675,1,0,0:0:0:0:
192,192,128796,1,0,0:0:0:0:
320,192,128917,1,0,0:0:0:0:
448,192,128917,1,0,0:0:0:0:
192,192,128978,1,0,0:0:0:0:
64,192,129038,1,0,0:0:0:0:
448,192,129099,1,0,0:0:0:0:
192,192,129159,1,0,0:0:0:0:
448,192,129220,1,0,0:0:0:0:
64,192,129280,1,0,0:0:0:0:
192,192,129341,1,0,0:0:0:0:
448,192,129401,1,0,0:0:0:0:
320,192,129401,1,0,0:0:0:0:
64,192,129462,1,0,0:0:0:0:
192,192,129522,1,0,0:0:0:0:
448,192,129583,1,0,0:0:0:0:
320,192,129643,1,0,0:0:0:0:
64,192,129704,1,0,0:0:0:0:
448,192,129764,1,0,0:0:0:0:
192,192,129825,1,0,0:0:0:0:
64,192,129885,1,0,0:0:0:0:
320,192,129885,1,0,0:0:0:0:
448,192,129946,1,0,0:0:0:0:
192,192,130006,1,0,0:0:0:0:
320,192,130067,1,0,0:0:0:0:
64,192,130127,1,0,0:0:0:0:
448,192,130188,1,0,0:0:0:0:
192,192,130248,1,0,0:0:0:0:
64,192,130309,1,0,0:0:0:0:
448,192,130369,1,0,0:0:0:0:
320,192,130369,1,0,0:0:0:0:
192,192,130430,1,0,0:0:0:0:
448,192,130490,1,0,0:0:0:0:
64,192,130490,1,0,0:0:0:0:
320,192,130550,1,0,0:0:0:0:
192,192,130611,1,0,0:0:0:0:
64,192,130611,1,0,0:0:0:0:
448,192,130671,1,0,0:0:0:0:
320,192,130732,1,0,0:0:0:0:
192,192,130732,1,0,0:0:0:0:
64,192,130792,1,0,0:0:0:0:
192,192,130853,1,0,0:0:0:0:
448,192,130853,1,0,0:0:0:0:
320,192,130913,1,0,0:0:0:0:
448,192,130974,1,0,0:0:0:0:
64,192,130974,1,0,0:0:0:0:
192,192,131034,1,0,0:0:0:0:
320,192,131095,1,0,0:0:0:0:
448,192,131095,1,0,0:0:0:0:
64,192,131155,1,0,0:0:0:0:
192,192,131216,1,0,0:0:0:0:
320,192,131216,1,0,0:0:0:0:
448,192,131276,1,0,0:0:0:0:
320,192,131337,1,0,0:0:0:0:
64,192,131337,1,0,0:0:0:0:
192,192,131397,1,0,0:0:0:0:
320,192,131458,1,0,0:0:0:0:
448,192,131458,1,0,0:0:0:0:
192,192,131518,1,0,0:0:0:0:
64,192,131579,1,0,0:0:0:0:
448,192,131579,1,0,0:0:0:0:
192,192,131821,1,0,0:0:0:0:
448,192,131821,128,0,132063:0:0:0:0:
320,192,132305,1,0,0:0:0:0:
64,192,132305,1,0,0:0:0:0:
448,192,132365,1,0,0:0:0:0:
192,192,132425,1,0,0:0:0:0:
320,192,132486,1,0,0:0:0:0:
64,192,132546,1,0,0:0:0:0:
448,192,132546,1,0,0:0:0:0:
320,192,132607,1,0,0:0:0:0:
192,192,132667,1,0,0:0:0:0:
448,192,132667,1,0,0:0:0:0:
64,192,132728,1,0,0:0:0:0:
320,192,132788,1,0,0:0:0:0:
448,192,132788,1,0,0:0:0:0:
192,192,132849,1,0,0:0:0:0:
64,192,132909,1,0,0:0:0:0:
448,192,132970,1,0,0:0:0:0:
320,192,133030,1,0,0:0:0:0:
192,192,133030,1,0,0:0:0:0:
64,192,133091,1,0,0:0:0:0:
320,192,133151,1,0,0:0:0:0:
192,192,133212,1,0,0:0:0:0:
448,192,133272,1,0,0:0:0:0:
64,192,133272,1,0,0:0:0:0:
192,192,133333,1,0,0:0:0:0:
320,192,133393,1,0,0:0:0:0:
448,192,133454,1,0,0:0:0:0:
64,192,133514,1,0,0:0:0:0:
192,192,133575,1,0,0:0:0:0:
320,192,133635,1,0,0:0:0:0:
448,192,133696,1,0,0:0:0:0:
192,192,133756,1,0,0:0:0:0:
64,192,133756,1,0,0:0:0:0:
320,192,133998,1,0,0:0:0:0:
192,192,133998,1,0,0:0:0:0:
192,192,134240,1,0,0:0:0:0:
64,192,134240,1,0,0:0:0:0:
448,192,134300,1,0,0:0:0:0:
320,192,134361,1,0,0:0:0:0:
64,192,134421,1,0,0:0:0:0:
192,192,134482,1,0,0:0:0:0:
448,192,134482,1,0,0:0:0:0:
320,192,134542,1,0,0:0:0:0:
64,192,134603,1,0,0:0:0:0:
192,192,134603,1,0,0:0:0:0:
448,192,134663,1,0,0:0:0:0:
192,192,134724,1,0,0:0:0:0:
320,192,134724,1,0,0:0:0:0:
64,192,134784,1,0,0:0:0:0:
448,192,134845,1,0,0:0:0:0:
192,192,134905,1,0,0:0:0:0:
320,192,134966,1,0,0:0:0:0:
64,192,134966,1,0,0:0:0:0:
448,192,135026,1,0,0:0:0:0:
192,192,135087,1,0,0:0:0:0:
320,192,135147,1,0,0:0:0:0:
64,192,135208,1,0,0:0:0:0:
448,192,135208,1,0,0:0:0:0:
192,192,135268,1,0,0:0:0:0:
320,192,135329,1,0,0:0:0:0:
448,192,135329,1,0,0:0:0:0:
192,192,135389,1,0,0:0:0:0:
64,192,135450,1,0,0:0:0:0:
448,192,135450,1,0,0:0:0:0:
320,192,135510,1,0,0:0:0:0:
192,192,135571,1,0,0:0:0:0:
64,192,135571,1,0,0:0:0:0:
448,192,135631,1,0,0:0:0:0:
320,192,135692,1,0,0:0:0:0:
192,192,135692,1,0,0:0:0:0:
64,192,135752,1,0,0:0:0:0:
320,192,135813,1,0,0:0:0:0:
192,192,135873,1,0,0:0:0:0:
320,192,135934,1,0,0:0:0:0:
448,192,135934,1,0,0:0:0:0:
192,192,136175,1,0,0:0:0:0:
64,192,136175,1,0,0:0:0:0:
448,192,136256,1,0,0:0:0:0:
320,192,136337,1,0,0:0:0:0:
64,192,136417,1,0,0:0:0:0:
192,192,136417,1,0,0:0:0:0:
448,192,136498,1,0,0:0:0:0:
192,192,136579,1,0,0:0:0:0:
320,192,136659,1,0,0:0:0:0:
448,192,136901,1,0,0:0:0:0:
320,192,136901,1,0,0:0:0:0:
192,192,136982,1,0,0:0:0:0:
64,192,137063,1,0,0:0:0:0:
448,192,137143,1,0,0:0:0:0:
192,192,137224,1,0,0:0:0:0:
320,192,137305,1,0,0:0:0:0:
64,192,137385,1,0,0:0:0:0:
192,192,137385,1,0,0:0:0:0:
448,192,137466,1,0,0:0:0:0:
64,192,137546,1,0,0:0:0:0:
192,192,137627,1,0,0:0:0:0:
448,192,137708,1,0,0:0:0:0:
64,192,137788,1,0,0:0:0:0:
320,192,137869,1,0,0:0:0:0:
192,192,137869,1,0,0:0:0:0:
448,192,137950,1,0,0:0:0:0:
64,192,138030,1,0,0:0:0:0:
448,192,138111,1,0,0:0:0:0:
320,192,138111,1,0,0:0:0:0:
192,192,138192,1,0,0:0:0:0:
448,192,138272,1,0,0:0:0:0:
192,192,138353,1,0,0:0:0:0:
64,192,138353,1,0,0:0:0:0:
320,192,138434,1,0,0:0:0:0:
448,192,138514,1,0,0:0:0:0:
320,192,138595,1,0,0:0:0:0:
192,192,138595,1,0,0:0:0:0:
64,192,138675,1,0,0:0:0:0:
448,192,138756,1,0,0:0:0:0:
64,192,138837,1,0,0:0:0:0:
448,192,138917,1,0,0:0:0:0:
64,192,138998,1,0,0:0:0:0:
448,192,139079,1,0,0:0:0:0:
64,192,139159,1,0,0:0:0:0:
448,192,139240,1,0,0:0:0:0:
64,192,139321,1,0,0:0:0:0:
448,192,139563,1,0,0:0:0:0:
320,192,139563,1,0,0:0:0:0:
192,192,139623,1,0,0:0:0:0:
64,192,139684,1,0,0:0:0:0:
448,192,139744,1,0,0:0:0:0:
320,192,139805,1,0,0:0:0:0:
192,192,139805,1,0,0:0:0:0:
64,192,139865,1,0,0:0:0:0:
448,192,139925,1,0,0:0:0:0:
192,192,139986,1,0,0:0:0:0:
64,192,140046,1,0,0:0:0:0:
320,192,140046,1,0,0:0:0:0:
448,192,140107,1,0,0:0:0:0:
192,192,140167,1,0,0:0:0:0:
320,192,140228,1,0,0:0:0:0:
64,192,140288,1,0,0:0:0:0:
448,192,140530,1,0,0:0:0:0:
320,192,140530,1,0,0:0:0:0:
192,192,140591,1,0,0:0:0:0:
64,192,140651,1,0,0:0:0:0:
448,192,140712,1,0,0:0:0:0:
192,192,140772,1,0,0:0:0:0:
64,192,140833,1,0,0:0:0:0:
320,192,140893,1,0,0:0:0:0:
448,192,140954,1,0,0:0:0:0:
192,192,141014,1,0,0:0:0:0:
64,192,141014,1,0,0:0:0:0:
64,192,141498,1,0,0:0:0:0:
320,192,141498,1,0,0:0:0:0:
448,192,141559,1,0,0:0:0:0:
192,192,141619,1,0,0:0:0:0:
64,192,141680,1,0,0:0:0:0:
320,192,141740,1,0,0:0:0:0:
192,192,141740,1,0,0:0:0:0:
448,192,141800,1,0,0:0:0:0:
192,192,141861,1,0,0:0:0:0:
64,192,141921,1,0,0:0:0:0:
448,192,141982,1,0,0:0:0:0:
320,192,141982,1,0,0:0:0:0:
192,192,142042,1,0,0:0:0:0:
64,192,142103,1,0,0:0:0:0:
448,192,142163,1,0,0:0:0:0:
192,192,142224,1,0,0:0:0:0:
320,192,142284,1,0,0:0:0:0:
448,192,142345,1,0,0:0:0:0:
64,192,142466,1,0,0:0:0:0:
192,192,142466,1,0,0:0:0:0:
320,192,142526,1,0,0:0:0:0:
448,192,142587,1,0,0:0:0:0:
64,192,142647,1,0,0:0:0:0:
320,192,142708,1,0,0:0:0:0:
192,192,142768,1,0,0:0:0:0:
448,192,142829,1,0,0:0:0:0:
64,192,142889,1,0,0:0:0:0:
192,192,142950,1,0,0:0:0:0:
320,192,142950,1,0,0:0:0:0:
448,192,143434,1,0,0:0:0:0:
320,192,143434,1,0,0:0:0:0:
64,192,143494,1,0,0:0:0:0:
192,192,143555,1,0,0:0:0:0:
320,192,143615,1,0,0:0:0:0:
192,192,143917,1,0,0:0:0:0:
64,192,143917,1,0,0:0:0:0:
448,192,143978,1,0,0:0:0:0:
320,192,144038,1,0,0:0:0:0:
64,192,144099,1,0,0:0:0:0:
320,192,144159,1,0,0:0:0:0:
448,192,144159,1,0,0:0:0:0:
192,192,144220,1,0,0:0:0:0:
448,192,144280,1,0,0:0:0:0:
64,192,144280,1,0,0:0:0:0:
320,192,144341,1,0,0:0:0:0:
192,192,144401,1,0,0:0:0:0:
64,192,144401,1,0,0:0:0:0:
448,192,144462,1,0,0:0:0:0:
192,192,144522,1,0,0:0:0:0:
320,192,144522,1,0,0:0:0:0:
64,192,144583,1,0,0:0:0:0:
192,192,144643,1,0,0:0:0:0:
448,192,144643,1,0,0:0:0:0:
320,192,144704,1,0,0:0:0:0:
448,192,144764,1,0,0:0:0:0:
64,192,144764,1,0,0:0:0:0:
192,192,144825,1,0,0:0:0:0:
320,192,144885,1,0,0:0:0:0:
448,192,144885,1,0,0:0:0:0:
64,192,144946,1,0,0:0:0:0:
192,192,145006,1,0,0:0:0:0:
320,192,145006,1,0,0:0:0:0:
448,192,145067,1,0,0:0:0:0:
320,192,145127,1,0,0:0:0:0:
64,192,145127,1,0,0:0:0:0:
192,192,145188,1,0,0:0:0:0:
320,192,145248,1,0,0:0:0:0:
448,192,145248,1,0,0:0:0:0:
64,192,145309,1,0,0:0:0:0:
192,192,145369,1,0,0:0:0:0:
448,192,145369,1,0,0:0:0:0:
320,192,145430,1,0,0:0:0:0:
64,192,145490,1,0,0:0:0:0:
192,192,145490,1,0,0:0:0:0:
448,192,145550,1,0,0:0:0:0:
320,192,145611,1,0,0:0:0:0:
192,192,145611,1,0,0:0:0:0:
64,192,145671,1,0,0:0:0:0:
448,192,145732,1,0,0:0:0:0:
320,192,145732,1,0,0:0:0:0:
192,192,145792,1,0,0:0:0:0:
64,192,145853,1,0,0:0:0:0:
448,192,145853,1,0,0:0:0:0:
320,192,145913,1,0,0:0:0:0:
192,192,145974,1,0,0:0:0:0:
64,192,145974,1,0,0:0:0:0:
320,192,146034,1,0,0:0:0:0:
448,192,146095,1,0,0:0:0:0:
64,192,146095,1,0,0:0:0:0:
192,192,146155,1,0,0:0:0:0:
320,192,146216,1,0,0:0:0:0:
448,192,146216,1,0,0:0:0:0:
64,192,146276,1,0,0:0:0:0:
320,192,146337,1,0,0:0:0:0:
192,192,146337,1,0,0:0:0:0:
448,192,146397,1,0,0:0:0:0:
320,192,146458,1,0,0:0:0:0:
64,192,146458,1,0,0:0:0:0:
192,192,146518,1,0,0:0:0:0:
448,192,146579,1,0,0:0:0:0:
64,192,146579,1,0,0:0:0:0:
320,192,146639,5,0,0:0:0:0:
192,192,146700,1,0,0:0:0:0:
64,192,146700,1,0,0:0:0:0:
448,192,146760,1,0,0:0:0:0:
320,192,146821,1,0,0:0:0:0:
192,192,146821,1,0,0:0:0:0:
448,192,147788,5,0,0:0:0:0:
320,192,147788,128,0,148030:0:0:0:0:
192,192,148030,128,0,148272:0:0:0:0:
448,192,148272,128,0,148514:0:0:0:0:
64,192,148514,1,0,0:0:0:0:
320,192,148514,128,0,148756:0:0:0:0:
192,192,148756,128,0,148998:0:0:0:0:
448,192,148998,128,0,149240:0:0:0:0:
64,192,149240,1,0,0:0:0:0:
320,192,149240,128,0,149482:0:0:0:0:
192,192,149482,128,0,149724:0:0:0:0:
448,192,149724,128,0,149966:0:0:0:0:
320,192,149966,128,0,153111:0:0:0:0:
192,192,149966,128,0,153111:0:0:0:0:
64,192,153111,1,0,0:0:0:0:
448,192,153111,1,0,0:0:0:0:
448,192,153595,1,0,0:0:0:0:
320,192,153595,1,0,0:0:0:0:
192,192,153595,1,0,0:0:0:0:
192,192,153958,1,0,0:0:0:0:
448,192,153958,1,0,0:0:0:0:
320,192,154200,1,0,0:0:0:0:
64,192,154200,1,0,0:0:0:0:
192,192,154321,1,0,0:0:0:0:
448,192,154442,1,0,0:0:0:0:
320,192,154442,1,0,0:0:0:0:
192,192,154563,1,0,0:0:0:0:
64,192,154563,1,0,0:0:0:0:
320,192,154684,1,0,0:0:0:0:
192,192,154684,1,0,0:0:0:0:
448,192,154805,1,0,0:0:0:0:
320,192,154805,1,0,0:0:0:0:
192,192,154925,1,0,0:0:0:0:
448,192,154925,1,0,0:0:0:0:
64,192,155046,1,0,0:0:0:0:
320,192,155046,1,0,0:0:0:0:
448,192,155167,1,0,0:0:0:0:
192,192,155167,1,0,0:0:0:0:
64,192,155288,1,0,0:0:0:0:
448,192,155288,1,0,0:0:0:0:
320,192,155409,1,0,0:0:0:0:
192,192,155409,1,0,0:0:0:0:
448,192,155530,1,0,0:0:0:0:
320,192,155530,1,0,0:0:0:0:
64,192,155651,1,0,0:0:0:0:
192,192,155651,1,0,0:0:0:0:
320,192,155772,1,0,0:0:0:0:
448,192,155772,1,0,0:0:0:0:
192,192,155893,1,0,0:0:0:0:
320,192,155893,1,0,0:0:0:0:
448,192,156135,1,0,0:0:0:0:
64,192,156135,1,0,0:0:0:0:
192,192,156256,1,0,0:0:0:0:
320,192,156256,1,0,0:0:0:0:
320,192,156377,1,0,0:0:0:0:
448,192,156377,1,0,0:0:0:0:
448,192,156498,1,0,0:0:0:0:
64,192,156498,1,0,0:0:0:0:
320,192,156740,1,0,0:0:0:0:
192,192,156740,1,0,0:0:0:0:
192,192,156861,1,0,0:0:0:0:
64,192,156861,1,0,0:0:0:0:
448,192,156982,1,0,0:0:0:0:
320,192,157042,1,0,0:0:0:0:
192,192,157103,1,0,0:0:0:0:
64,192,157224,1,0,0:0:0:0:
448,192,157345,128,0,157587:0:0:0:0:
320,192,157345,128,0,157587:0:0:0:0:
192,192,157829,1,0,0:0:0:0:
64,192,157829,1,0,0:0:0:0:
320,192,157950,1,0,0:0:0:0:
192,192,157950,1,0,0:0:0:0:
448,192,158071,1,0,0:0:0:0:
320,192,158071,1,0,0:0:0:0:
64,192,158192,1,0,0:0:0:0:
192,192,158192,1,0,0:0:0:0:
320,192,158313,1,0,0:0:0:0:
448,192,158313,1,0,0:0:0:0:
192,192,158434,128,0,158675:0:0:0:0:
64,192,158434,128,0,158675:0:0:0:0:
448,192,158675,1,0,0:0:0:0:
192,192,158796,1,0,0:0:0:0:
320,192,158796,1,0,0:0:0:0:
448,192,158917,128,0,159159:0:0:0:0:
64,192,158917,128,0,159159:0:0:0:0:
320,192,159159,1,0,0:0:0:0:
64,192,159280,1,0,0:0:0:0:
192,192,159401,1,0,0:0:0:0:
320,192,159401,1,0,0:0:0:0:
448,192,159522,1,0,0:0:0:0:
64,192,159643,1,0,0:0:0:0:
448,192,159764,1,0,0:0:0:0:
192,192,159885,1,0,0:0:0:0:
320,192,159885,1,0,0:0:0:0:
64,192,160006,1,0,0:0:0:0:
192,192,160006,1,0,0:0:0:0:
320,192,160127,1,0,0:0:0:0:
64,192,160127,1,0,0:0:0:0:
448,192,160248,1,0,0:0:0:0:
192,192,160369,1,0,0:0:0:0:
320,192,160369,1,0,0:0:0:0:
64,192,160490,1,0,0:0:0:0:
448,192,160611,1,0,0:0:0:0:
192,192,160611,1,0,0:0:0:0:
320,192,160732,128,0,160974:0:0:0:0:
192,192,160732,128,0,160974:0:0:0:0:
448,192,161095,1,0,0:0:0:0:
320,192,161095,1,0,0:0:0:0:
64,192,161216,1,0,0:0:0:0:
192,192,161337,1,0,0:0:0:0:
448,192,161337,1,0,0:0:0:0:
320,192,161458,1,0,0:0:0:0:
64,192,161579,1,0,0:0:0:0:
192,192,161639,1,0,0:0:0:0:
448,192,161700,1,0,0:0:0:0:
192,192,161821,1,0,0:0:0:0:
64,192,161821,1,0,0:0:0:0:
320,192,161942,1,0,0:0:0:0:
448,192,162063,1,0,0:0:0:0:
192,192,162063,1,0,0:0:0:0:
64,192,162184,1,0,0:0:0:0:
448,192,162305,128,0,162546:0:0:0:0:
320,192,162305,128,0,162546:0:0:0:0:
192,192,162546,1,0,0:0:0:0:
320,192,162667,1,0,0:0:0:0:
64,192,162788,1,0,0:0:0:0:
448,192,162788,1,0,0:0:0:0:
192,192,163030,1,0,0:0:0:0:
448,192,163030,1,0,0:0:0:0:
320,192,163151,1,0,0:0:0:0:
64,192,163151,1,0,0:0:0:0:
448,192,163272,1,0,0:0:0:0:
192,192,163272,1,0,0:0:0:0:
320,192,163393,1,0,0:0:0:0:
64,192,163514,1,0,0:0:0:0:
448,192,163635,1,0,0:0:0:0:
320,192,163756,1,0,0:0:0:0:
192,192,163756,1,0,0:0:0:0:
64,192,163877,1,0,0:0:0:0:
448,192,163998,1,0,0:0:0:0:
192,192,164119,1,0,0:0:0:0:
64,192,164240,1,0,0:0:0:0:
448,192,164240,1,0,0:0:0:0:
320,192,164482,1,0,0:0:0:0:
448,192,164482,1,0,0:0:0:0:
320,192,164603,128,0,164845:0:0:0:0:
192,192,164603,128,0,164845:0:0:0:0:
448,192,164845,1,0,0:0:0:0:
64,192,164966,1,0,0:0:0:0:
192,192,165087,1,0,0:0:0:0:
320,192,165208,1,0,0:0:0:0:
448,192,165208,1,0,0:0:0:0:
192,192,165329,1,0,0:0:0:0:
448,192,165450,1,0,0:0:0:0:
192,192,165571,1,0,0:0:0:0:
320,192,165692,1,0,0:0:0:0:
448,192,165692,1,0,0:0:0:0:
64,192,165813,1,0,0:0:0:0:
320,192,165934,1,0,0:0:0:0:
192,192,166055,1,0,0:0:0:0:
320,192,166175,1,0,0:0:0:0:
448,192,166175,1,0,0:0:0:0:
64,192,166296,1,0,0:0:0:0:
448,192,166417,1,0,0:0:0:0:
64,192,166538,1,0,0:0:0:0:
320,192,166659,1,0,0:0:0:0:
448,192,166659,1,0,0:0:0:0:
192,192,166780,1,0,0:0:0:0:
448,192,166901,1,0,0:0:0:0:
64,192,167022,1,0,0:0:0:0:
192,192,167143,1,0,0:0:0:0:
320,192,167143,1,0,0:0:0:0:
448,192,167264,1,0,0:0:0:0:
64,192,167385,1,0,0:0:0:0:
320,192,167385,1,0,0:0:0:0:
192,192,167506,1,0,0:0:0:0:
448,192,167506,1,0,0:0:0:0:
320,192,167627,1,0,0:0:0:0:
448,192,167627,1,0,0:0:0:0:
64,192,167748,1,0,0:0:0:0:
192,192,167748,1,0,0:0:0:0:
320,192,167869,1,0,0:0:0:0:
448,192,167990,5,0,0:0:0:0:
192,192,168111,1,0,0:0:0:0:
64,192,168111,1,0,0:0:0:0:
448,192,168232,1,0,0:0:0:0:
320,192,168353,1,0,0:0:0:0:
192,192,168353,1,0,0:0:0:0:
448,192,168474,1,0,0:0:0:0:
64,192,168474,128,0,168837:0:0:0:0:
64,192,169079,5,0,0:0:0:0:
448,192,169079,1,0,0:0:0:0:
192,192,169139,1,0,0:0:0:0:
320,192,169200,1,0,0:0:0:0:
64,192,169260,1,0,0:0:0:0:
448,192,169321,1,0,0:0:0:0:
192,192,169381,1,0,0:0:0:0:
64,192,169442,1,0,0:0:0:0:
320,192,169502,1,0,0:0:0:0:
192,192,169563,1,0,0:0:0:0:
64,192,169563,1,0,0:0:0:0:
448,192,169623,1,0,0:0:0:0:
192,192,169684,1,0,0:0:0:0:
320,192,169744,1,0,0:0:0:0:
64,192,169805,1,0,0:0:0:0:
448,192,169865,1,0,0:0:0:0:
192,192,169925,1,0,0:0:0:0:
320,192,169986,1,0,0:0:0:0:
448,192,170046,1,0,0:0:0:0:
64,192,170046,1,0,0:0:0:0:
192,192,170107,1,0,0:0:0:0:
320,192,170167,1,0,0:0:0:0:
64,192,170228,1,0,0:0:0:0:
448,192,170288,1,0,0:0:0:0:
192,192,170349,1,0,0:0:0:0:
320,192,170409,1,0,0:0:0:0:
64,192,170470,1,0,0:0:0:0:
320,192,170530,1,0,0:0:0:0:
448,192,170530,1,0,0:0:0:0:
192,192,170591,1,0,0:0:0:0:
64,192,170651,1,0,0:0:0:0:
448,192,170651,1,0,0:0:0:0:
320,192,170712,1,0,0:0:0:0:
192,192,170772,1,0,0:0:0:0:
64,192,170772,1,0,0:0:0:0:
320,192,170833,1,0,0:0:0:0:
448,192,170893,1,0,0:0:0:0:
192,192,170893,1,0,0:0:0:0:
64,192,170954,1,0,0:0:0:0:
320,192,171014,1,0,0:0:0:0:
448,192,171014,1,0,0:0:0:0:
192,192,171075,1,0,0:0:0:0:
64,192,171135,1,0,0:0:0:0:
448,192,171135,1,0,0:0:0:0:
320,192,171196,1,0,0:0:0:0:
192,192,171256,1,0,0:0:0:0:
64,192,171256,1,0,0:0:0:0:
320,192,171317,1,0,0:0:0:0:
448,192,171377,1,0,0:0:0:0:
64,192,171377,1,0,0:0:0:0:
192,192,171438,1,0,0:0:0:0:
320,192,171498,1,0,0:0:0:0:
448,192,171498,1,0,0:0:0:0:
192,192,171740,1,0,0:0:0:0:
320,192,171740,1,0,0:0:0:0:
448,192,171982,1,0,0:0:0:0:
320,192,171982,1,0,0:0:0:0:
192,192,172224,1,0,0:0:0:0:
64,192,172224,1,0,0:0:0:0:
448,192,172284,1,0,0:0:0:0:
320,192,172345,1,0,0:0:0:0:
64,192,172405,1,0,0:0:0:0:
320,192,172466,1,0,0:0:0:0:
192,192,172466,1,0,0:0:0:0:
448,192,172526,1,0,0:0:0:0:
64,192,172587,1,0,0:0:0:0:
192,192,172647,1,0,0:0:0:0:
448,192,172708,1,0,0:0:0:0:
320,192,172708,1,0,0:0:0:0:
64,192,172768,1,0,0:0:0:0:
320,192,172829,1,0,0:0:0:0:
192,192,172889,1,0,0:0:0:0:
448,192,172950,1,0,0:0:0:0:
64,192,172950,1,0,0:0:0:0:
320,192,173010,1,0,0:0:0:0:
192,192,173071,1,0,0:0:0:0:
448,192,173131,1,0,0:0:0:0:
64,192,173192,1,0,0:0:0:0:
192,192,173313,1,0,0:0:0:0:
320,192,173434,1,0,0:0:0:0:
448,192,173434,1,0,0:0:0:0:
192,192,173494,1,0,0:0:0:0:
64,192,173555,1,0,0:0:0:0:
448,192,173615,1,0,0:0:0:0:
192,192,173675,1,0,0:0:0:0:
448,192,173736,1,0,0:0:0:0:
64,192,173796,1,0,0:0:0:0:
192,192,173857,1,0,0:0:0:0:
448,192,173917,1,0,0:0:0:0:
320,192,173917,1,0,0:0:0:0:
64,192,173978,1,0,0:0:0:0:
192,192,174038,1,0,0:0:0:0:
448,192,174099,1,0,0:0:0:0:
320,192,174159,1,0,0:0:0:0:
64,192,174220,1,0,0:0:0:0:
448,192,174280,1,0,0:0:0:0:
192,192,174341,1,0,0:0:0:0:
320,192,174401,1,0,0:0:0:0:
64,192,174401,1,0,0:0:0:0:
448,192,174462,1,0,0:0:0:0:
192,192,174522,1,0,0:0:0:0:
320,192,174583,1,0,0:0:0:0:
64,192,174643,1,0,0:0:0:0:
448,192,174704,1,0,0:0:0:0:
192,192,174764,1,0,0:0:0:0:
64,192,174825,1,0,0:0:0:0:
448,192,174885,1,0,0:0:0:0:
320,192,174885,1,0,0:0:0:0:
192,192,174946,1,0,0:0:0:0:
64,192,175006,1,0,0:0:0:0:
448,192,175006,1,0,0:0:0:0:
320,192,175067,1,0,0:0:0:0:
192,192,175127,1,0,0:0:0:0:
64,192,175127,1,0,0:0:0:0:
448,192,175188,1,0,0:0:0:0:
320,192,175248,1,0,0:0:0:0:
192,192,175248,1,0,0:0:0:0:
64,192,175309,1,0,0:0:0:0:
192,192,175369,1,0,0:0:0:0:
448,192,175369,1,0,0:0:0:0:
320,192,175430,1,0,0:0:0:0:
64,192,175490,1,0,0:0:0:0:
448,192,175490,1,0,0:0:0:0:
192,192,175550,1,0,0:0:0:0:
320,192,175611,1,0,0:0:0:0:
448,192,175611,1,0,0:0:0:0:
64,192,175671,1,0,0:0:0:0:
192,192,175732,1,0,0:0:0:0:
320,192,175732,1,0,0:0:0:0:
448,192,175792,1,0,0:0:0:0:
320,192,175853,1,0,0:0:0:0:
64,192,175853,1,0,0:0:0:0:
192,192,175913,1,0,0:0:0:0:
448,192,175974,1,0,0:0:0:0:
320,192,175974,1,0,0:0:0:0:
192,192,176034,1,0,0:0:0:0:
64,192,176095,1,0,0:0:0:0:
448,192,176095,1,0,0:0:0:0:
192,192,176337,1,0,0:0:0:0:
448,192,176337,128,0,176579:0:0:0:0:
192,192,176821,1,0,0:0:0:0:
64,192,176821,1,0,0:0:0:0:
448,192,176881,1,0,0:0:0:0:
320,192,176942,1,0,0:0:0:0:
64,192,177002,1,0,0:0:0:0:
320,192,177063,1,0,0:0:0:0:
192,192,177063,1,0,0:0:0:0:
448,192,177123,1,0,0:0:0:0:
320,192,177184,1,0,0:0:0:0:
64,192,177184,1,0,0:0:0:0:
192,192,177244,1,0,0:0:0:0:
320,192,177305,1,0,0:0:0:0:
448,192,177305,1,0,0:0:0:0:
64,192,177365,1,0,0:0:0:0:
320,192,177425,1,0,0:0:0:0:
192,192,177486,1,0,0:0:0:0:
320,192,177546,1,0,0:0:0:0:
64,192,177546,1,0,0:0:0:0:
448,192,177607,1,0,0:0:0:0:
192,192,177667,1,0,0:0:0:0:
320,192,177728,1,0,0:0:0:0:
448,192,177788,1,0,0:0:0:0:
64,192,177788,1,0,0:0:0:0:
192,192,177849,1,0,0:0:0:0:
320,192,177909,1,0,0:0:0:0:
448,192,177970,1,0,0:0:0:0:
64,192,178030,1,0,0:0:0:0:
192,192,178091,1,0,0:0:0:0:
320,192,178151,1,0,0:0:0:0:
448,192,178212,1,0,0:0:0:0:
64,192,178272,1,0,0:0:0:0:
192,192,178272,1,0,0:0:0:0:
320,192,178514,1,0,0:0:0:0:
192,192,178514,1,0,0:0:0:0:
192,192,178756,1,0,0:0:0:0:
64,192,178756,1,0,0:0:0:0:
448,192,178817,1,0,0:0:0:0:
320,192,178877,1,0,0:0:0:0:
64,192,178938,1,0,0:0:0:0:
192,192,178998,1,0,0:0:0:0:
448,192,178998,1,0,0:0:0:0:
320,192,179059,1,0,0:0:0:0:
192,192,179119,1,0,0:0:0:0:
64,192,179119,1,0,0:0:0:0:
448,192,179180,1,0,0:0:0:0:
192,192,179240,1,0,0:0:0:0:
320,192,179240,1,0,0:0:0:0:
64,192,179300,1,0,0:0:0:0:
448,192,179361,1,0,0:0:0:0:
192,192,179421,1,0,0:0:0:0:
320,192,179482,1,0,0:0:0:0:
64,192,179482,1,0,0:0:0:0:
448,192,179542,1,0,0:0:0:0:
192,192,179603,1,0,0:0:0:0:
320,192,179663,1,0,0:0:0:0:
448,192,179724,1,0,0:0:0:0:
64,192,179724,1,0,0:0:0:0:
192,192,179784,1,0,0:0:0:0:
320,192,179845,1,0,0:0:0:0:
448,192,179845,1,0,0:0:0:0:
192,192,179905,1,0,0:0:0:0:
64,192,179966,1,0,0:0:0:0:
448,192,179966,1,0,0:0:0:0:
320,192,180026,1,0,0:0:0:0:
192,192,180087,1,0,0:0:0:0:
64,192,180087,1,0,0:0:0:0:
448,192,180147,1,0,0:0:0:0:
320,192,180208,1,0,0:0:0:0:
192,192,180208,1,0,0:0:0:0:
64,192,180268,1,0,0:0:0:0:
320,192,180329,1,0,0:0:0:0:
192,192,180389,1,0,0:0:0:0:
320,192,180450,1,0,0:0:0:0:
448,192,180450,1,0,0:0:0:0:
192,192,180692,1,0,0:0:0:0:
64,192,180692,1,0,0:0:0:0:
448,192,180772,1,0,0:0:0:0:
320,192,180853,1,0,0:0:0:0:
192,192,180934,1,0,0:0:0:0:
64,192,180934,1,0,0:0:0:0:
448,192,181014,1,0,0:0:0:0:
192,192,181095,1,0,0:0:0:0:
320,192,181175,1,0,0:0:0:0:
448,192,181417,1,0,0:0:0:0:
320,192,181417,1,0,0:0:0:0:
192,192,181498,1,0,0:0:0:0:
64,192,181579,1,0,0:0:0:0:
448,192,181659,1,0,0:0:0:0:
192,192,181740,1,0,0:0:0:0:
320,192,181821,1,0,0:0:0:0:
192,192,181901,1,0,0:0:0:0:
64,192,181901,1,0,0:0:0:0:
448,192,181982,1,0,0:0:0:0:
64,192,182063,1,0,0:0:0:0:
192,192,182143,1,0,0:0:0:0:
448,192,182224,1,0,0:0:0:0:
64,192,182305,1,0,0:0:0:0:
320,192,182385,1,0,0:0:0:0:
192,192,182385,1,0,0:0:0:0:
448,192,182466,1,0,0:0:0:0:
64,192,182546,1,0,0:0:0:0:
320,192,182627,1,0,0:0:0:0:
448,192,182627,1,0,0:0:0:0:
192,192,182708,1,0,0:0:0:0:
448,192,182788,1,0,0:0:0:0:
192,192,182869,1,0,0:0:0:0:
64,192,182869,1,0,0:0:0:0:
320,192,182950,1,0,0:0:0:0:
448,192,183030,1,0,0:0:0:0:
320,192,183111,1,0,0:0:0:0:
192,192,183111,1,0,0:0:0:0:
64,192,183192,1,0,0:0:0:0:
448,192,183272,1,0,0:0:0:0:
64,192,183353,1,0,0:0:0:0:
448,192,183434,1,0,0:0:0:0:
64,192,183514,1,0,0:0:0:0:
448,192,183595,1,0,0:0:0:0:
64,192,183675,1,0,0:0:0:0:
448,192,183756,1,0,0:0:0:0:
64,192,183837,1,0,0:0:0:0:
448,192,184079,1,0,0:0:0:0:
320,192,184079,1,0,0:0:0:0:
192,192,184139,1,0,0:0:0:0:
64,192,184200,1,0,0:0:0:0:
448,192,184260,1,0,0:0:0:0:
320,192,184321,1,0,0:0:0:0:
192,192,184321,1,0,0:0:0:0:
64,192,184381,1,0,0:0:0:0:
448,192,184442,1,0,0:0:0:0:
192,192,184502,1,0,0:0:0:0:
64,192,184563,1,0,0:0:0:0:
320,192,184563,1,0,0:0:0:0:
448,192,184623,1,0,0:0:0:0:
192,192,184684,1,0,0:0:0:0:
320,192,184744,1,0,0:0:0:0:
64,192,184805,1,0,0:0:0:0:
448,192,185046,1,0,0:0:0:0:
320,192,185046,1,0,0:0:0:0:
192,192,185107,1,0,0:0:0:0:
64,192,185167,1,0,0:0:0:0:
448,192,185228,1,0,0:0:0:0:
192,192,185288,1,0,0:0:0:0:
64,192,185349,1,0,0:0:0:0:
320,192,185409,1,0,0:0:0:0:
448,192,185470,1,0,0:0:0:0:
192,192,185530,1,0,0:0:0:0:
64,192,185530,1,0,0:0:0:0:
64,192,186014,1,0,0:0:0:0:
320,192,186014,1,0,0:0:0:0:
448,192,186075,1,0,0:0:0:0:
192,192,186135,1,0,0:0:0:0:
64,192,186196,1,0,0:0:0:0:
320,192,186256,1,0,0:0:0:0:
192,192,186256,1,0,0:0:0:0:
448,192,186317,1,0,0:0:0:0:
192,192,186377,1,0,0:0:0:0:
64,192,186438,1,0,0:0:0:0:
448,192,186498,1,0,0:0:0:0:
320,192,186498,1,0,0:0:0:0:
192,192,186559,1,0,0:0:0:0:
64,192,186619,1,0,0:0:0:0:
448,192,186680,1,0,0:0:0:0:
192,192,186740,1,0,0:0:0:0:
320,192,186800,1,0,0:0:0:0:
448,192,186861,1,0,0:0:0:0:
192,192,186982,1,0,0:0:0:0:
64,192,186982,1,0,0:0:0:0:
320,192,187042,1,0,0:0:0:0:
448,192,187103,1,0,0:0:0:0:
64,192,187163,1,0,0:0:0:0:
320,192,187224,1,0,0:0:0:0:
192,192,187284,1,0,0:0:0:0:
448,192,187345,1,0,0:0:0:0:
64,192,187405,1,0,0:0:0:0:
192,192,187466,1,0,0:0:0:0:
320,192,187466,1,0,0:0:0:0:
448,192,187950,1,0,0:0:0:0:
320,192,187950,1,0,0:0:0:0:
64,192,188010,1,0,0:0:0:0:
192,192,188071,1,0,0:0:0:0:
320,192,188131,1,0,0:0:0:0:
192,192,188434,1,0,0:0:0:0:
64,192,188434,1,0,0:0:0:0:
448,192,188494,1,0,0:0:0:0:
320,192,188555,1,0,0:0:0:0:
64,192,188615,1,0,0:0:0:0:
320,192,188675,1,0,0:0:0:0:
448,192,188675,1,0,0:0:0:0:
192,192,188736,1,0,0:0:0:0:
64,192,188796,1,0,0:0:0:0:
448,192,188796,1,0,0:0:0:0:
320,192,188857,1,0,0:0:0:0:
192,192,188917,1,0,0:0:0:0:
64,192,188917,1,0,0:0:0:0:
448,192,188978,1,0,0:0:0:0:
192,192,189038,1,0,0:0:0:0:
320,192,189038,1,0,0:0:0:0:
64,192,189099,1,0,0:0:0:0:
192,192,189159,1,0,0:0:0:0:
448,192,189159,1,0,0:0:0:0:
320,192,189220,1,0,0:0:0:0:
448,192,189280,1,0,0:0:0:0:
64,192,189280,1,0,0:0:0:0:
192,192,189341,1,0,0:0:0:0:
320,192,189401,1,0,0:0:0:0:
448,192,189401,1,0,0:0:0:0:
64,192,189462,1,0,0:0:0:0:
192,192,189522,1,0,0:0:0:0:
320,192,189522,1,0,0:0:0:0:
448,192,189583,1,0,0:0:0:0:
320,192,189643,1,0,0:0:0:0:
64,192,189643,1,0,0:0:0:0:
192,192,189704,1,0,0:0:0:0:
320,192,189764,1,0,0:0:0:0:
448,192,189764,1,0,0:0:0:0:
64,192,189825,1,0,0:0:0:0:
192,192,189885,1,0,0:0:0:0:
448,192,189885,1,0,0:0:0:0:
320,192,189946,1,0,0:0:0:0:
64,192,190006,1,0,0:0:0:0:
192,192,190006,1,0,0:0:0:0:
448,192,190067,1,0,0:0:0:0:
320,192,190127,1,0,0:0:0:0:
192,192,190127,1,0,0:0:0:0:
64,192,190188,1,0,0:0:0:0:
448,192,190248,1,0,0:0:0:0:
320,192,190248,1,0,0:0:0:0:
192,192,190309,1,0,0:0:0:0:
64,192,190369,1,0,0:0:0:0:
448,192,190369,1,0,0:0:0:0:
320,192,190430,1,0,0:0:0:0:
192,192,190490,1,0,0:0:0:0:
64,192,190490,1,0,0:0:0:0:
320,192,190550,1,0,0:0:0:0:
448,192,190611,1,0,0:0:0:0:
64,192,190611,1,0,0:0:0:0:
192,192,190671,1,0,0:0:0:0:
320,192,190732,1,0,0:0:0:0:
448,192,190732,1,0,0:0:0:0:
64,192,190792,1,0,0:0:0:0:
320,192,190853,1,0,0:0:0:0:
192,192,190853,1,0,0:0:0:0:
448,192,190913,1,0,0:0:0:0:
320,192,190974,1,0,0:0:0:0:
64,192,190974,1,0,0:0:0:0:
192,192,191034,1,0,0:0:0:0:
448,192,191095,1,0,0:0:0:0:
64,192,191095,1,0,0:0:0:0:
320,192,191155,1,0,0:0:0:0:
192,192,191216,1,0,0:0:0:0:
64,192,191216,1,0,0:0:0:0:
448,192,191276,1,0,0:0:0:0:
320,192,191337,1,0,0:0:0:0:
192,192,191337,1,0,0:0:0:0:
64,192,192305,1,0,0:0:0:0:
448,192,192305,1,0,0:0:0:0:
192,192,192365,1,0,0:0:0:0:
320,192,192425,1,0,0:0:0:0:
64,192,192486,1,0,0:0:0:0:
448,192,192546,1,0,0:0:0:0:
192,192,192607,1,0,0:0:0:0:
64,192,192667,1,0,0:0:0:0:
320,192,192728,1,0,0:0:0:0:
192,192,192788,1,0,0:0:0:0:
64,192,192788,1,0,0:0:0:0:
448,192,192849,1,0,0:0:0:0:
192,192,192909,1,0,0:0:0:0:
320,192,192970,1,0,0:0:0:0:
64,192,193030,1,0,0:0:0:0:
448,192,193091,1,0,0:0:0:0:
192,192,193151,1,0,0:0:0:0:
320,192,193212,1,0,0:0:0:0:
448,192,193272,1,0,0:0:0:0:
64,192,193272,1,0,0:0:0:0:
192,192,193333,1,0,0:0:0:0:
320,192,193393,1,0,0:0:0:0:
64,192,193454,1,0,0:0:0:0:
448,192,193514,1,0,0:0:0:0:
192,192,193575,1,0,0:0:0:0:
320,192,193635,1,0,0:0:0:0:
64,192,193696,1,0,0:0:0:0:
320,192,193756,1,0,0:0:0:0:
448,192,193756,1,0,0:0:0:0:
192,192,193817,1,0,0:0:0:0:
64,192,193877,1,0,0:0:0:0:
448,192,193877,1,0,0:0:0:0:
320,192,193938,1,0,0:0:0:0:
192,192,193998,1,0,0:0:0:0:
64,192,193998,1,0,0:0:0:0:
320,192,194059,1,0,0:0:0:0:
192,192,194119,1,0,0:0:0:0:
448,192,194119,1,0,0:0:0:0:
64,192,194180,1,0,0:0:0:0:
320,192,194240,1,0,0:0:0:0:
448,192,194240,1,0,0:0:0:0:
192,192,194300,1,0,0:0:0:0:
64,192,194361,1,0,0:0:0:0:
448,192,194361,1,0,0:0:0:0:
320,192,194421,1,0,0:0:0:0:
192,192,194482,1,0,0:0:0:0:
64,192,194482,1,0,0:0:0:0:
320,192,194542,1,0,0:0:0:0:
64,192,194603,1,0,0:0:0:0:
448,192,194603,1,0,0:0:0:0:
192,192,194663,1,0,0:0:0:0:
320,192,194724,1,0,0:0:0:0:
448,192,194724,1,0,0:0:0:0:
192,192,194966,1,0,0:0:0:0:
320,192,194966,1,0,0:0:0:0:
448,192,195208,1,0,0:0:0:0:
320,192,195208,1,0,0:0:0:0:
192,192,195450,1,0,0:0:0:0:
64,192,195450,1,0,0:0:0:0:
448,192,195510,1,0,0:0:0:0:
320,192,195571,1,0,0:0:0:0:
64,192,195631,1,0,0:0:0:0:
320,192,195692,1,0,0:0:0:0:
192,192,195692,1,0,0:0:0:0:
448,192,195752,1,0,0:0:0:0:
64,192,195813,1,0,0:0:0:0:
192,192,195873,1,0,0:0:0:0:
448,192,195934,1,0,0:0:0:0:
320,192,195934,1,0,0:0:0:0:
64,192,195994,1,0,0:0:0:0:
320,192,196055,1,0,0:0:0:0:
192,192,196115,1,0,0:0:0:0:
64,192,196175,1,0,0:0:0:0:
448,192,196175,1,0,0:0:0:0:
320,192,196236,1,0,0:0:0:0:
192,192,196296,1,0,0:0:0:0:
448,192,196357,1,0,0:0:0:0:
64,192,196417,1,0,0:0:0:0:
192,192,196538,1,0,0:0:0:0:
320,192,196659,1,0,0:0:0:0:
448,192,196659,1,0,0:0:0:0:
192,192,196720,1,0,0:0:0:0:
64,192,196780,1,0,0:0:0:0:
448,192,196841,1,0,0:0:0:0:
192,192,196901,1,0,0:0:0:0:
448,192,196962,1,0,0:0:0:0:
64,192,197022,1,0,0:0:0:0:
192,192,197083,1,0,0:0:0:0:
448,192,197143,1,0,0:0:0:0:
320,192,197143,1,0,0:0:0:0:
64,192,197204,1,0,0:0:0:0:
192,192,197264,1,0,0:0:0:0:
448,192,197325,1,0,0:0:0:0:
320,192,197385,1,0,0:0:0:0:
64,192,197446,1,0,0:0:0:0:
448,192,197506,1,0,0:0:0:0:
192,192,197567,1,0,0:0:0:0:
64,192,197627,1,0,0:0:0:0:
320,192,197627,1,0,0:0:0:0:
448,192,197688,1,0,0:0:0:0:
192,192,197748,1,0,0:0:0:0:
320,192,197809,1,0,0:0:0:0:
64,192,197869,1,0,0:0:0:0:
448,192,197930,1,0,0:0:0:0:
192,192,197990,1,0,0:0:0:0:
64,192,198050,1,0,0:0:0:0:
448,192,198111,1,0,0:0:0:0:
320,192,198111,1,0,0:0:0:0:
192,192,198171,1,0,0:0:0:0:
448,192,198232,1,0,0:0:0:0:
64,192,198232,1,0,0:0:0:0:
320,192,198292,1,0,0:0:0:0:
192,192,198353,1,0,0:0:0:0:
64,192,198353,1,0,0:0:0:0:
448,192,198413,1,0,0:0:0:0:
320,192,198474,1,0,0:0:0:0:
192,192,198474,1,0,0:0:0:0:
64,192,198534,1,0,0:0:0:0:
192,192,198595,1,0,0:0:0:0:
448,192,198595,1,0,0:0:0:0:
320,192,198655,1,0,0:0:0:0:
448,192,198716,1,0,0:0:0:0:
64,192,198716,1,0,0:0:0:0:
192,192,198776,1,0,0:0:0:0:
320,192,198837,1,0,0:0:0:0:
448,192,198837,1,0,0:0:0:0:
64,192,198897,1,0,0:0:0:0:
192,192,198958,1,0,0:0:0:0:
320,192,198958,1,0,0:0:0:0:
448,192,199018,1,0,0:0:0:0:
320,192,199079,1,0,0:0:0:0:
64,192,199079,1,0,0:0:0:0:
192,192,199139,1,0,0:0:0:0:
320,192,199200,1,0,0:0:0:0:
448,192,199200,1,0,0:0:0:0:
192,192,199260,1,0,0:0:0:0:
64,192,199321,1,0,0:0:0:0:
448,192,199321,1,0,0:0:0:0:
192,192,199563,1,0,0:0:0:0:
448,192,199563,128,0,199805:0:0:0:0:
320,192,200046,1,0,0:0:0:0:
64,192,200046,1,0,0:0:0:0:
448,192,200107,1,0,0:0:0:0:
192,192,200167,1,0,0:0:0:0:
320,192,200228,1,0,0:0:0:0:
64,192,200288,1,0,0:0:0:0:
448,192,200288,1,0,0:0:0:0:
320,192,200349,1,0,0:0:0:0:
192,192,200409,1,0,0:0:0:0:
448,192,200409,1,0,0:0:0:0:
64,192,200470,1,0,0:0:0:0:
320,192,200530,1,0,0:0:0:0:
448,192,200530,1,0,0:0:0:0:
192,192,200591,1,0,0:0:0:0:
64,192,200651,1,0,0:0:0:0:
448,192,200712,1,0,0:0:0:0:
320,192,200772,1,0,0:0:0:0:
192,192,200772,1,0,0:0:0:0:
64,192,200833,1,0,0:0:0:0:
320,192,200893,1,0,0:0:0:0:
192,192,200954,1,0,0:0:0:0:
448,192,201014,1,0,0:0:0:0:
64,192,201014,1,0,0:0:0:0:
192,192,201075,1,0,0:0:0:0:
320,192,201135,1,0,0:0:0:0:
448,192,201196,1,0,0:0:0:0:
64,192,201256,1,0,0:0:0:0:
192,192,201317,1,0,0:0:0:0:
320,192,201377,1,0,0:0:0:0:
448,192,201438,1,0,0:0:0:0:
192,192,201498,1,0,0:0:0:0:
64,192,201498,1,0,0:0:0:0:
320,192,201740,1,0,0:0:0:0:
192,192,201740,1,0,0:0:0:0:
192,192,201982,1,0,0:0:0:0:
64,192,201982,1,0,0:0:0:0:
448,192,202042,1,0,0:0:0:0:
320,192,202103,1,0,0:0:0:0:
64,192,202163,1,0,0:0:0:0:
192,192,202224,1,0,0:0:0:0:
448,192,202224,1,0,0:0:0:0:
320,192,202284,1,0,0:0:0:0:
64,192,202345,1,0,0:0:0:0:
192,192,202345,1,0,0:0:0:0:
448,192,202405,1,0,0:0:0:0:
192,192,202466,1,0,0:0:0:0:
320,192,202466,1,0,0:0:0:0:
64,192,202526,1,0,0:0:0:0:
448,192,202587,1,0,0:0:0:0:
192,192,202647,1,0,0:0:0:0:
320,192,202708,1,0,0:0:0:0:
64,192,202708,1,0,0:0:0:0:
448,192,202768,1,0,0:0:0:0:
192,192,202829,1,0,0:0:0:0:
320,192,202889,1,0,0:0:0:0:
64,192,202950,1,0,0:0:0:0:
448,192,202950,1,0,0:0:0:0:
192,192,203010,1,0,0:0:0:0:
320,192,203071,1,0,0:0:0:0:
448,192,203071,1,0,0:0:0:0:
192,192,203131,1,0,0:0:0:0:
64,192,203192,1,0,0:0:0:0:
448,192,203192,1,0,0:0:0:0:
320,192,203252,1,0,0:0:0:0:
192,192,203313,1,0,0:0:0:0:
64,192,203313,1,0,0:0:0:0:
448,192,203373,1,0,0:0:0:0:
320,192,203434,1,0,0:0:0:0:
192,192,203434,1,0,0:0:0:0:
64,192,203494,1,0,0:0:0:0:
320,192,203555,1,0,0:0:0:0:
192,192,203615,1,0,0:0:0:0:
320,192,203675,1,0,0:0:0:0:
448,192,203675,1,0,0:0:0:0:
192,192,203917,1,0,0:0:0:0:
64,192,203917,1,0,0:0:0:0:
448,192,203998,1,0,0:0:0:0:
320,192,204079,1,0,0:0:0:0:
64,192,204159,1,0,0:0:0:0:
192,192,204159,1,0,0:0:0:0:
448,192,204240,1,0,0:0:0:0:
192,192,204321,1,0,0:0:0:0:
320,192,204401,1,0,0:0:0:0:
448,192,204643,1,0,0:0:0:0:
320,192,204643,1,0,0:0:0:0:
192,192,204724,1,0,0:0:0:0:
64,192,204805,1,0,0:0:0:0:
448,192,204885,1,0,0:0:0:0:
192,192,204966,1,0,0:0:0:0:
320,192,205046,1,0,0:0:0:0:
64,192,205127,1,0,0:0:0:0:
192,192,205127,1,0,0:0:0:0:
448,192,205208,1,0,0:0:0:0:
64,192,205288,1,0,0:0:0:0:
192,192,205369,1,0,0:0:0:0:
448,192,205450,1,0,0:0:0:0:
64,192,205530,1,0,0:0:0:0:
320,192,205611,1,0,0:0:0:0:
192,192,205611,1,0,0:0:0:0:
448,192,205692,1,0,0:0:0:0:
64,192,205772,1,0,0:0:0:0:
448,192,205853,1,0,0:0:0:0:
320,192,205853,1,0,0:0:0:0:
192,192,205934,1,0,0:0:0:0:
448,192,206014,1,0,0:0:0:0:
192,192,206095,1,0,0:0:0:0:
64,192,206095,1,0,0:0:0:0:
320,192,206175,1,0,0:0:0:0:
448,192,206256,1,0,0:0:0:0:
320,192,206337,1,0,0:0:0:0:
192,192,206337,1,0,0:0:0:0:
64,192,206417,1,0,0:0:0:0:
448,192,206498,1,0,0:0:0:0:
64,192,206579,1,0,0:0:0:0:
448,192,206659,1,0,0:0:0:0:
64,192,206740,1,0,0:0:0:0:
448,192,206821,1,0,0:0:0:0:
64,192,206901,1,0,0:0:0:0:
448,192,206982,1,0,0:0:0:0:
64,192,207063,1,0,0:0:0:0:
448,192,207305,1,0,0:0:0:0:
320,192,207305,1,0,0:0:0:0:
192,192,207365,1,0,0:0:0:0:
64,192,207425,1,0,0:0:0:0:
448,192,207486,1,0,0:0:0:0:
320,192,207546,1,0,0:0:0:0:
192,192,207546,1,0,0:0:0:0:
64,192,207607,1,0,0:0:0:0:
448,192,207667,1,0,0:0:0:0:
192,192,207728,1,0,0:0:0:0:
64,192,207788,1,0,0:0:0:0:
320,192,207788,1,0,0:0:0:0:
448,192,207849,1,0,0:0:0:0:
192,192,207909,1,0,0:0:0:0:
320,192,207970,1,0,0:0:0:0:
64,192,208030,1,0,0:0:0:0:
448,192,208272,1,0,0:0:0:0:
320,192,208272,1,0,0:0:0:0:
192,192,208333,1,0,0:0:0:0:
64,192,208393,1,0,0:0:0:0:
448,192,208454,1,0,0:0:0:0:
192,192,208514,1,0,0:0:0:0:
64,192,208575,1,0,0:0:0:0:
320,192,208635,1,0,0:0:0:0:
448,192,208696,1,0,0:0:0:0:
192,192,208756,1,0,0:0:0:0:
64,192,208756,1,0,0:0:0:0:
64,192,209240,1,0,0:0:0:0:
320,192,209240,1,0,0:0:0:0:
448,192,209300,1,0,0:0:0:0:
192,192,209361,1,0,0:0:0:0:
64,192,209421,1,0,0:0:0:0:
320,192,209482,1,0,0:0:0:0:
192,192,209482,1,0,0:0:0:0:
448,192,209542,1,0,0:0:0:0:
192,192,209603,1,0,0:0:0:0:
64,192,209663,1,0,0:0:0:0:
448,192,209724,1,0,0:0:0:0:
320,192,209724,1,0,0:0:0:0:
192,192,209784,1,0,0:0:0:0:
64,192,209845,1,0,0:0:0:0:
448,192,209905,1,0,0:0:0:0:
192,192,209966,1,0,0:0:0:0:
320,192,210026,1,0,0:0:0:0:
448,192,210087,1,0,0:0:0:0:
64,192,210208,1,0,0:0:0:0:
192,192,210208,1,0,0:0:0:0:
320,192,210268,1,0,0:0:0:0:
448,192,210329,1,0,0:0:0:0:
64,192,210389,1,0,0:0:0:0:
320,192,210450,1,0,0:0:0:0:
192,192,210510,1,0,0:0:0:0:
448,192,210571,1,0,0:0:0:0:
64,192,210631,1,0,0:0:0:0:
192,192,210692,1,0,0:0:0:0:
320,192,210692,1,0,0:0:0:0:
448,192,211175,1,0,0:0:0:0:
320,192,211175,1,0,0:0:0:0:
64,192,211236,1,0,0:0:0:0:
192,192,211296,1,0,0:0:0:0:
320,192,211357,1,0,0:0:0:0:
192,192,211659,1,0,0:0:0:0:
64,192,211659,1,0,0:0:0:0:
448,192,211720,1,0,0:0:0:0:
320,192,211780,1,0,0:0:0:0:
64,192,211841,1,0,0:0:0:0:
320,192,211901,1,0,0:0:0:0:
448,192,211901,1,0,0:0:0:0:
192,192,211962,1,0,0:0:0:0:
448,192,212022,1,0,0:0:0:0:
64,192,212022,1,0,0:0:0:0:
320,192,212083,1,0,0:0:0:0:
192,192,212143,1,0,0:0:0:0:
64,192,212143,1,0,0:0:0:0:
448,192,212204,1,0,0:0:0:0:
192,192,212264,1,0,0:0:0:0:
320,192,212264,1,0,0:0:0:0:
64,192,212325,1,0,0:0:0:0:
192,192,212385,1,0,0:0:0:0:
448,192,212385,1,0,0:0:0:0:
320,192,212446,1,0,0:0:0:0:
448,192,212506,1,0,0:0:0:0:
64,192,212506,1,0,0:0:0:0:
192,192,212567,1,0,0:0:0:0:
320,192,212627,1,0,0:0:0:0:
448,192,212627,1,0,0:0:0:0:
64,192,212688,1,0,0:0:0:0:
192,192,212748,1,0,0:0:0:0:
320,192,212748,1,0,0:0:0:0:
448,192,212809,1,0,0:0:0:0:
320,192,212869,1,0,0:0:0:0:
64,192,212869,1,0,0:0:0:0:
192,192,212930,1,0,0:0:0:0:
320,192,212990,1,0,0:0:0:0:
448,192,212990,1,0,0:0:0:0:
64,192,213050,1,0,0:0:0:0:
192,192,213111,1,0,0:0:0:0:
448,192,213111,1,0,0:0:0:0:
320,192,213171,1,0,0:0:0:0:
64,192,213232,1,0,0:0:0:0:
192,192,213232,1,0,0:0:0:0:
448,192,213292,1,0,0:0:0:0:
320,192,213353,1,0,0:0:0:0:
192,192,213353,1,0,0:0:0:0:
64,192,213413,1,0,0:0:0:0:
448,192,213474,1,0,0:0:0:0:
320,192,213474,1,0,0:0:0:0:
192,192,213534,1,0,0:0:0:0:
64,192,213595,1,0,0:0:0:0:
448,192,213595,1,0,0:0:0:0:
320,192,213655,1,0,0:0:0:0:
192,192,213716,1,0,0:0:0:0:
64,192,213716,1,0,0:0:0:0:
320,192,213776,1,0,0:0:0:0:
448,192,213837,1,0,0:0:0:0:
64,192,213837,1,0,0:0:0:0:
192,192,213897,1,0,0:0:0:0:
320,192,213958,1,0,0:0:0:0:
448,192,213958,1,0,0:0:0:0:
64,192,214018,1,0,0:0:0:0:
320,192,214079,1,0,0:0:0:0:
192,192,214079,1,0,0:0:0:0:
448,192,214139,1,0,0:0:0:0:
320,192,214200,1,0,0:0:0:0:
64,192,214200,1,0,0:0:0:0:
192,192,214260,1,0,0:0:0:0:
448,192,214321,1,0,0:0:0:0:
64,192,214321,1,0,0:0:0:0:
320,192,214381,1,0,0:0:0:0:
192,192,214442,1,0,0:0:0:0:
64,192,214442,1,0,0:0:0:0:
448,192,214502,1,0,0:0:0:0:
320,192,214563,1,0,0:0:0:0:
192,192,214563,1,0,0:0:0:0:
448,192,215046,1,0,0:0:0:0:
320,192,215046,1,0,0:0:0:0:
192,192,215107,1,0,0:0:0:0:
64,192,215167,1,0,0:0:0:0:
448,192,215228,1,0,0:0:0:0:
320,192,215288,1,0,0:0:0:0:
192,192,215288,1,0,0:0:0:0:
64,192,215349,1,0,0:0:0:0:
448,192,215409,1,0,0:0:0:0:
192,192,215470,1,0,0:0:0:0:
64,192,215530,1,0,0:0:0:0:
320,192,215530,1,0,0:0:0:0:
448,192,215591,1,0,0:0:0:0:
192,192,215651,1,0,0:0:0:0:
320,192,215712,1,0,0:0:0:0:
64,192,215772,1,0,0:0:0:0:
448,192,216014,1,0,0:0:0:0:
320,192,216014,1,0,0:0:0:0:
192,192,216075,1,0,0:0:0:0:
64,192,216135,1,0,0:0:0:0:
448,192,216196,1,0,0:0:0:0:
192,192,216256,1,0,0:0:0:0:
64,192,216317,1,0,0:0:0:0:
320,192,216377,1,0,0:0:0:0:
448,192,216438,1,0,0:0:0:0:
192,192,216498,1,0,0:0:0:0:
64,192,216498,1,0,0:0:0:0:
64,192,216982,1,0,0:0:0:0:
320,192,216982,1,0,0:0:0:0:
448,192,217042,1,0,0:0:0:0:
192,192,217103,1,0,0:0:0:0:
64,192,217163,1,0,0:0:0:0:
192,192,217224,1,0,0:0:0:0:
320,192,217224,1,0,0:0:0:0:
448,192,217284,1,0,0:0:0:0:
192,192,217345,1,0,0:0:0:0:
64,192,217405,1,0,0:0:0:0:
448,192,217466,1,0,0:0:0:0:
320,192,217466,1,0,0:0:0:0:
192,192,217526,1,0,0:0:0:0:
64,192,217587,1,0,0:0:0:0:
448,192,217647,1,0,0:0:0:0:
192,192,217708,1,0,0:0:0:0:
320,192,217768,1,0,0:0:0:0:
448,192,217829,1,0,0:0:0:0:
64,192,217950,1,0,0:0:0:0:
192,192,217950,1,0,0:0:0:0:
320,192,218010,1,0,0:0:0:0:
448,192,218071,1,0,0:0:0:0:
64,192,218131,1,0,0:0:0:0:
320,192,218192,1,0,0:0:0:0:
192,192,218252,1,0,0:0:0:0:
448,192,218313,1,0,0:0:0:0:
64,192,218373,1,0,0:0:0:0:
192,192,218434,1,0,0:0:0:0:
320,192,218434,1,0,0:0:0:0:
448,192,218917,1,0,0:0:0:0:
320,192,218917,1,0,0:0:0:0:
64,192,218978,1,0,0:0:0:0:
192,192,219038,1,0,0:0:0:0:
320,192,219099,1,0,0:0:0:0:
192,192,219401,1,0,0:0:0:0:
64,192,219401,1,0,0:0:0:0:
448,192,219462,1,0,0:0:0:0:
320,192,219522,1,0,0:0:0:0:
64,192,219583,1,0,0:0:0:0:
448,192,219643,1,0,0:0:0:0:
320,192,219643,1,0,0:0:0:0:
192,192,219704,1,0,0:0:0:0:
448,192,219764,1,0,0:0:0:0:
64,192,219764,1,0,0:0:0:0:
320,192,219825,1,0,0:0:0:0:
192,192,219885,1,0,0:0:0:0:
64,192,219885,1,0,0:0:0:0:
448,192,219946,1,0,0:0:0:0:
192,192,220006,1,0,0:0:0:0:
320,192,220006,1,0,0:0:0:0:
64,192,220067,1,0,0:0:0:0:
192,192,220127,1,0,0:0:0:0:
448,192,220127,1,0,0:0:0:0:
320,192,220188,1,0,0:0:0:0:
448,192,220248,1,0,0:0:0:0:
64,192,220248,1,0,0:0:0:0:
192,192,220309,1,0,0:0:0:0:
320,192,220369,1,0,0:0:0:0:
448,192,220369,1,0,0:0:0:0:
64,192,220430,1,0,0:0:0:0:
192,192,220490,1,0,0:0:0:0:
320,192,220490,1,0,0:0:0:0:
448,192,220550,1,0,0:0:0:0:
320,192,220611,1,0,0:0:0:0:
64,192,220611,1,0,0:0:0:0:
192,192,220671,1,0,0:0:0:0:
320,192,220732,1,0,0:0:0:0:
448,192,220732,1,0,0:0:0:0:
64,192,220792,1,0,0:0:0:0:
192,192,220853,1,0,0:0:0:0:
448,192,220853,1,0,0:0:0:0:
320,192,220913,1,0,0:0:0:0:
192,192,220974,1,0,0:0:0:0:
64,192,220974,1,0,0:0:0:0:
448,192,221034,1,0,0:0:0:0:
320,192,221095,1,0,0:0:0:0:
192,192,221095,1,0,0:0:0:0:
64,192,221155,1,0,0:0:0:0:
448,192,221216,1,0,0:0:0:0:
320,192,221216,1,0,0:0:0:0:
192,192,221276,1,0,0:0:0:0:
64,192,221337,1,0,0:0:0:0:
448,192,221337,1,0,0:0:0:0:
320,192,221397,1,0,0:0:0:0:
192,192,221458,1,0,0:0:0:0:
64,192,221458,1,0,0:0:0:0:
320,192,221518,1,0,0:0:0:0:
64,192,221579,1,0,0:0:0:0:
448,192,221579,1,0,0:0:0:0:
192,192,221639,1,0,0:0:0:0:
320,192,221700,1,0,0:0:0:0:
448,192,221700,1,0,0:0:0:0:
64,192,221760,1,0,0:0:0:0:
320,192,221821,1,0,0:0:0:0:
192,192,221821,1,0,0:0:0:0:
448,192,221881,1,0,0:0:0:0:
320,192,221942,1,0,0:0:0:0:
64,192,221942,1,0,0:0:0:0:
192,192,222002,1,0,0:0:0:0:
448,192,222063,1,0,0:0:0:0:
64,192,222063,1,0,0:0:0:0:
320,192,222123,1,0,0:0:0:0:
192,192,222184,1,0,0:0:0:0:
64,192,222184,1,0,0:0:0:0:
448,192,222244,1,0,0:0:0:0:
320,192,222305,1,0,0:0:0:0:
192,192,222305,1,0,0:0:0:0:
64,192,222365,1,0,0:0:0:0:
448,192,222425,1,0,0:0:0:0:
320,192,222425,1,0,0:0:0:0:
192,192,222486,1,0,0:0:0:0:
64,192,222546,1,0,0:0:0:0:
448,192,222546,1,0,0:0:0:0:
192,192,222607,1,0,0:0:0:0:
320,192,222667,1,0,0:0:0:0:
448,192,222667,1,0,0:0:0:0:
64,192,222728,1,0,0:0:0:0:
192,192,222788,1,0,0:0:0:0:
320,192,222788,1,0,0:0:0:0:
64,192,223272,1,0,0:0:0:0:
448,192,223272,128,0,223514:0:0:0:0:
320,192,223514,128,0,223756:0:0:0:0:
192,192,223756,128,0,223998:0:0:0:0:
448,192,223998,128,0,224240:0:0:0:0:
64,192,223998,1,0,0:0:0:0:
320,192,224240,128,0,224482:0:0:0:0:
192,192,224482,128,0,224724:0:0:0:0:
448,192,224724,128,0,224966:0:0:0:0:
64,192,224724,1,0,0:0:0:0:
320,192,224966,128,0,225208:0:0:0:0:
192,192,225208,128,0,225450:0:0:0:0:
320,192,225450,1,0,0:0:0:0:
448,192,225450,128,0,227627:0:0:0:0:
64,192,225450,128,0,227627:0:0:0:0:
320,192,227627,1,0,0:0:0:0:
