osu file format v14

[General]
AudioFilename: audio2.mp3
AudioLeadIn: 0
PreviewTime: 35327
Countdown: 0
SampleSet: Soft
StackLeniency: 0.7
Mode: 0
LetterboxInBreaks: 0
WidescreenStoryboard: 1

[Editor]
DistanceSpacing: 0.8
BeatDivisor: 4
GridSize: 8
TimelineZoom: 1.4

[Metadata]
Title:Opium and Purple haze
TitleUnicode:Opium and Purple haze
Artist:D.watt
ArtistUnicode:D.watt
Creator:amanatu2
Version:Insane
Source:SOUND VOLTEX III GRAVITY WARS
Tags:
BeatmapID:1175876
BeatmapSetID:555294

[Difficulty]
HPDrainRate:5
CircleSize:4
OverallDifficulty:7
ApproachRate:9
SliderMultiplier:1.4
SliderTickRate:1

[Events]
//Background and Video events
0,0,"jac222.jpg",0,0
//Break Periods
//Storyboard Layer 0 (Background)
//Storyboard Layer 1 (Fail)
//Storyboard Layer 2 (Pass)
//Storyboard Layer 3 (Foreground)
//Storyboard Sound Samples

[TimingPoints]
600,363.636363636364,4,2,0,65,1,0
6236,-100,4,2,0,65,0,0
11872,-66.6666666666667,4,2,0,65,0,0
12600,-83.3333333333333,4,2,0,65,0,0
16236,-71.4285714285714,4,2,0,65,0,0
17327,-62.5,4,2,0,65,0,0
18781,-100,4,2,0,65,0,0
22054,-100,4,2,0,65,0,0
27509,-76.9230769230769,4,2,0,65,0,0
28236,-100,4,2,0,65,0,0
30418,-83.3333333333333,4,2,0,65,0,0
32600,-66.6666666666667,4,2,0,65,0,0
34054,-133.333333333333,4,2,0,65,0,0
34418,-100,4,2,0,65,0,0
34781,-80,4,2,0,65,0,0
35145,-50,4,2,0,65,0,0
35509,-62.5,4,2,0,65,0,0
38418,-66.6666666666667,4,2,0,65,0,0
39145,-71.4285714285714,4,2,0,65,0,0
39872,-76.9230769230769,4,2,0,65,0,0
40600,-100,4,2,0,65,0,0
41327,-66.6666666666667,4,2,0,65,0,0
42054,-71.4285714285714,4,2,0,65,0,0
43509,-71.4285714285714,4,2,0,65,0,0
44236,-100,4,2,0,65,0,0
44600,-83.3333333333333,4,2,0,65,0,0
45690,-66.6666666666667,4,2,0,65,0,0
48600,-100,4,2,0,65,0,0
48963,-71.4285714285714,4,2,0,65,0,0
54418,-76.9230769230769,4,2,0,65,0,0
56236,-83.3333333333333,4,2,0,65,0,0
56509,-100,4,2,0,65,0,0
57327,-71.4285714285714,4,2,0,65,0,0
58418,-58.8235294117647,4,2,0,65,0,0
68963,-100,4,2,0,65,0,0
71145,-90.9090909090909,4,2,0,65,0,0
71872,-83.3333333333333,4,2,0,65,0,0
72600,-76.9230769230769,4,2,0,65,0,0
73327,-71.4285714285714,4,2,0,65,0,0
74054,-66.6666666666667,4,2,0,65,0,0
74781,-62.5,4,2,0,65,0,0
75509,-58.8235294117647,4,2,0,65,0,0
76236,-66.6666666666667,4,2,0,65,0,0
76600,-62.5,4,2,0,65,0,0
76963,-58.8235294117647,4,2,0,65,0,0
77327,-55.5555555555556,4,2,0,65,0,0
77690,-50,4,2,0,65,0,0
78054,-47.61905,4,2,0,65,0,0
78418,-45.45454,4,2,0,65,0,0
78781,-43.47826,4,2,0,65,0,0
80600,-66.6666666666667,4,2,0,65,0,0
82054,-62.5,4,2,0,65,0,0
85690,-66.6666666666667,4,2,0,65,0,0
86418,-62.5,4,2,0,65,0,0
87872,-58.8235294117647,4,2,0,65,0,0
88600,-62.5,4,2,0,65,0,0
90054,-71.4285714285714,4,2,0,65,0,0
90418,-52.6315789473684,4,2,0,65,0,0
90781,-55.5555555555556,4,2,0,65,0,0
90872,-58.8235294117647,4,2,0,65,0,0
90963,-62.5,4,2,0,65,0,0
91054,-66.6666666666667,4,2,0,65,0,0
91145,-71.4285714285714,4,2,0,65,0,0
91236,-76.9230769230769,4,2,0,65,0,0
91327,-83.3333333333333,4,2,0,65,0,0
91418,-90.9090909090909,4,2,0,65,0,0
91509,-100,4,2,0,65,0,0
91600,-111.111111111111,4,2,0,65,0,0
91690,-125,4,2,0,65,0,0
91781,-142.857142857143,4,2,0,65,0,0
91872,-166.666666666667,4,2,0,65,0,0
91963,-200,4,2,0,65,0,0
92054,-250,4,2,0,65,0,0
92145,-333.33334,4,2,0,65,0,0
92963,-100,4,2,0,65,0,0
93327,-45.45454,4,2,0,65,0,0
93690,-100,4,2,0,65,0,0
94054,-66.6666666666667,4,2,0,65,0,0
94418,-80,4,2,0,65,0,0
94781,-66.6666666666667,4,2,0,65,0,0
95145,-71.4285714285714,4,2,0,65,0,0
95872,-62.5,4,2,0,65,0,0
97327,-50,4,2,0,65,0,0
98054,-66.6666666666667,4,2,0,65,0,0
100236,-71.4285714285714,4,2,0,65,0,0
103872,-50,4,2,0,65,0,0
104236,-44.44444,4,2,0,65,0,0
104600,-40,4,2,0,65,0,0
104963,-333.33334,4,2,0,65,0,0
107509,-100,4,2,0,70,0,0
107872,-100,4,2,0,50,0,0
914529,-100,4,2,0,65,0,0

[HitObjects]
152,316,600,5,0,0:0:0:0:
152,316,1327,1,0,0:0:0:0:
200,304,1690,1,0,0:0:0:0:
248,292,2054,1,0,0:0:0:0:
248,292,2781,5,0,0:0:0:0:
200,280,3144,1,0,0:0:0:0:
156,270,3508,1,0,0:0:0:0:
156,270,3872,1,0,0:0:0:0:
192,152,4054,1,0,0:0:0:0:
280,240,4236,1,0,0:0:0:0:
280,240,4600,1,0,0:0:0:0:
360,140,4963,5,0,0:0:0:0:
124,120,5690,1,0,0:0:0:0:
140,204,6236,5,0,0:0:0:0:
192,268,6418,1,0,0:0:0:0:
256,216,6600,1,0,0:0:0:0:
308,280,6781,1,0,0:0:0:0:
312,284,7509,5,0,0:0:0:0:
312,284,7872,1,0,0:0:0:0:
408,160,8236,1,0,0:0:0:0:
272,92,8600,1,0,0:0:0:0:
176,215,8964,1,0,0:0:0:0:
232,360,9327,1,0,0:0:0:0:
272,92,10054,5,0,0:0:0:0:
272,92,11872,6,0,P|216:96|160:124,1,105.000004005432
276,84,12145,1,0,0:0:0:0:
280,76,12236,1,0,0:0:0:0:
244,188,12418,1,0,0:0:0:0:
172,116,12599,2,0,P|148:72|144:16,1,83.9999974365235
96,160,12963,1,0,0:0:0:0:
416,224,13327,1,0,0:0:0:0:
416,224,13690,6,0,P|340:236|300:340,1,167.999994873047
297,310,14418,2,0,P|257:239|178:225,1,167.999994873047
177,225,15145,1,0,0:0:0:0:
177,225,15509,1,0,0:0:0:0:
320,148,15690,1,0,0:0:0:0:
208,316,15872,1,0,0:0:0:0:
416,140,16236,2,0,P|376:76|236:108,1,195.999994018555
416,140,16963,5,0,0:0:0:0:
320,148,17327,6,0,B|320:192|320:192|341:227|341:227|337:269|337:269|368:312,1,168
285,323,17690,2,0,B|261:289|261:289|265:247|265:247|244:212|244:212|244:168,1,168
248,129,18054,1,0,0:0:0:0:
178,265,18236,1,0,0:0:0:0:
248,129,18418,1,0,0:0:0:0:
88,102,18600,1,0,0:0:0:0:
33,233,18781,2,0,L|10:283,4,35
32,235,19509,5,0,0:0:0:0:
116,306,19690,1,0,0:0:0:0:
224,309,19872,1,0,0:0:0:0:
112,191,20236,5,0,0:0:0:0:
150,225,20326,1,0,0:0:0:0:
202,231,20417,1,0,0:0:0:0:
362,200,20600,5,0,0:0:0:0:
316,98,20781,1,0,0:0:0:0:
228,313,20963,1,0,0:0:0:0:
228,313,21327,1,0,0:0:0:0:
116,306,21509,1,0,0:0:0:0:
366,204,21690,1,0,0:0:0:0:
366,204,22054,6,0,P|407:221|365:188,1,140
251,198,22600,1,0,0:0:0:0:
114,226,22781,1,0,0:0:0:0:
204,326,23145,1,0,0:0:0:0:
204,326,23236,1,0,0:0:0:0:
204,326,23327,1,0,0:0:0:0:
251,198,23509,1,0,0:0:0:0:
296,72,23691,1,0,0:0:0:0:
204,326,23872,6,0,P|166:298|144:252,1,87.5
132,225,24145,1,0,0:0:0:0:
130,185,24236,1,0,0:0:0:0:
144,149,24327,1,0,0:0:0:0:
173,122,24418,1,0,0:0:0:0:
208,115,24509,1,0,0:0:0:0:
226,80,24600,1,0,0:0:0:0:
256,62,24690,1,0,0:0:0:0:
294,58,24781,1,0,0:0:0:0:
333,70,24872,1,0,0:0:0:0:
357,94,24963,6,0,L|368:138,1,35
378,170,25145,2,0,L|378:196,5,17.5
379,199,25418,1,0,0:0:0:0:
385,188,25509,1,0,0:0:0:0:
389,179,25600,1,0,0:0:0:0:
394,166,25690,1,0,0:0:0:0:
398,157,25781,1,0,0:0:0:0:
403,144,25872,1,0,0:0:0:0:
408,134,25963,1,0,0:0:0:0:
420,130,26054,5,0,0:0:0:0:
420,130,26145,1,0,0:0:0:0:
420,130,26236,1,0,0:0:0:0:
275,194,26418,1,0,0:0:0:0:
349,84,26600,1,0,0:0:0:0:
455,287,26781,1,0,0:0:0:0:
455,287,27145,1,0,0:0:0:0:
455,287,27327,1,0,0:0:0:0:
455,287,27509,6,0,B|347:306|347:306|307:290,1,136.499993751526
291,227,27872,2,0,B|266:217|266:217|158:236,1,136.499993751526
212,308,28236,2,0,L|206:154,2,140
212,308,29054,1,0,0:0:0:0:
212,308,29145,1,0,0:0:0:0:
291,227,29327,6,0,L|290:208,1,17.5
359,124,29509,2,0,L|358:105,1,17.5
512,221,29690,6,0,L|368:226,1,140
291,227,30236,1,0,0:0:0:0:
203,230,30418,2,0,L|196:311,1,62.9999980773926
140,159,30600,2,0,L|147:78,1,62.9999980773926
202,38,30781,1,0,0:0:0:0:
209,56,30872,1,0,0:0:0:0:
216,73,30963,1,0,0:0:0:0:
223,91,31054,1,0,0:0:0:0:
230,108,31145,6,0,L|253:164,1,41.9999987182618
328,152,31327,2,0,L|305:96,1,41.9999987182618
276,218,31509,2,0,L|299:274,1,41.9999987182618
374,262,31691,2,0,L|351:206,1,41.9999987182618
330,336,31872,1,0,0:0:0:0:
330,336,31963,1,0,0:0:0:0:
330,336,32054,1,0,0:0:0:0:
429,199,32236,1,0,0:0:0:0:
429,199,32418,1,0,0:0:0:0:
437,75,32600,6,0,P|365:52|286:77,1,157.500006008148
362,98,32963,6,0,P|290:75|211:100,1,157.500006008148
290,121,33327,6,0,P|218:98|139:123,1,157.500006008148
214,145,33690,6,0,P|142:122|63:147,1,157.500006008148
142,217,34054,6,0,P|146:254|173:304,1,78.7500030040742
142,217,34418,6,0,P|184:248|257:252,1,105
142,217,34781,6,0,P|211:202|265:141,1,131.25
142,217,35145,6,0,P|198:137|192:72,1,140
186,19,35418,1,0,0:0:0:0:
128,85,35509,6,0,P|182:108|244:85,1,112
257,86,35781,1,0,0:0:0:0:
290,63,35872,1,0,0:0:0:0:
315,38,35963,1,0,0:0:0:0:
340,60,36054,1,0,0:0:0:0:
374,82,36145,1,0,0:0:0:0:
405,92,36236,6,0,L|394:152,1,56
337,203,36418,2,0,L|354:264,1,56
311,348,36600,2,0,L|290:285,1,56
337,203,36781,2,0,L|400:200,1,56
441,275,36963,2,0,L|480:271,3,28
441,275,37145,2,0,B|443:229|443:229|439:207|439:207|443:149,1,112
447,86,37418,2,0,P|475:78|503:62,2,56
360,84,37690,6,0,B|328:64|328:64|256:92|256:92|184:56,1,168
164,128,38054,2,0,B|256:172|256:172|332:140,1,168
360,84,38418,2,0,B|412:120|384:192|384:192|424:224|415:292,1,210.000008010865
404,360,38963,1,0,0:0:0:0:
192,280,39145,6,0,B|224:268|224:268|288:272|360:260,1,146.999995513916
300,340,39509,2,0,P|256:260|288:192,1,146.999995513916
356,152,39872,2,0,B|249:165|249:165|212:156,1,136.499993751526
132,32,40236,2,0,B|112:55|112:55|100:116,1,90.9999958343508
88,200,40509,1,0,0:0:0:0:
88,200,40600,6,0,L|80:248,1,35
100,212,40781,2,0,L|92:260,1,35
164,312,40963,2,0,L|172:360,1,35
180,320,41145,2,0,L|188:368,1,35
284,316,41327,2,0,B|328:320|364:280|428:300,2,105.000004005432
180,320,41872,1,0,0:0:0:0:
424,216,42054,6,0,P|464:256|452:352,1,146.999995513916
424,216,42418,2,0,P|464:176|452:80,1,146.999995513916
389,140,42781,1,0,0:0:0:0:
389,140,43145,1,0,0:0:0:0:
272,156,43509,6,0,B|208:128|208:128|104:144,1,146.999995513916
63,203,43872,2,0,B|48:128|48:128|76:64,1,146.999995513916
132,140,44236,6,0,L|148:216,1,70
165,288,44509,1,0,0:0:0:0:
165,288,44600,2,0,P|206:280|260:287,1,83.9999974365235
319,327,44872,1,0,0:0:0:0:
388,283,44963,2,0,L|405:237,3,41.9999987182618
431,169,45327,1,0,0:0:0:0:
320,109,45509,1,0,0:0:0:0:
320,109,45600,1,0,0:0:0:0:
320,109,45690,6,0,B|351:179|351:179|337:258,1,157.500006008148
271,188,46054,6,0,B|240:118|240:118|254:39,1,157.500006008148
172,153,46418,6,0,B|203:223|203:223|189:302,1,157.500006008148
10,257,46781,1,0,0:0:0:0:
10,257,47145,5,0,0:0:0:0:
27,244,47236,1,0,0:0:0:0:
49,224,47327,2,0,P|89:180|101:117,1,105.000004005432
257,52,47781,5,0,0:0:0:0:
257,52,47872,1,0,0:0:0:0:
257,52,47963,1,0,0:0:0:0:
257,52,48236,1,0,0:0:0:0:
257,52,48327,1,0,0:0:0:0:
257,52,48418,1,0,0:0:0:0:
146,248,48600,6,0,L|152:264,3,17.5
197,328,48781,1,0,0:0:0:0:
275,323,48872,1,0,0:0:0:0:
320,258,48963,2,0,B|357:204|318:146|318:146,1,97.9999970092774
290,185,49236,1,0,0:0:0:0:
256,207,49327,1,0,0:0:0:0:
379,320,49509,1,0,0:0:0:0:
416,149,49690,5,0,0:0:0:0:
395,113,49781,1,0,0:0:0:0:
370,89,49872,2,0,L|337:69,5,24.4999992523194
318,70,50145,1,0,0:0:0:0:
282,74,50236,1,0,0:0:0:0:
251,96,50327,1,0,0:0:0:0:
229,125,50418,1,0,0:0:0:0:
225,307,50599,5,0,0:0:0:0:
265,309,50690,1,0,0:0:0:0:
306,311,50781,1,0,0:0:0:0:
225,307,51145,5,0,0:0:0:0:
265,309,51236,1,0,0:0:0:0:
306,311,51327,1,0,0:0:0:0:
448,240,51509,5,0,0:0:0:0:
464,200,51600,1,0,0:0:0:0:
464,160,51690,1,0,0:0:0:0:
456,120,51781,1,0,0:0:0:0:
440,88,51872,5,0,0:0:0:0:
416,112,51963,1,0,0:0:0:0:
384,120,52054,1,0,0:0:0:0:
352,120,52145,1,0,0:0:0:0:
320,108,52236,5,0,0:0:0:0:
308,84,52327,1,0,0:0:0:0:
296,64,52418,1,0,0:0:0:0:
280,44,52509,1,0,0:0:0:0:
264,32,52600,5,0,0:0:0:0:
260,48,52690,1,0,0:0:0:0:
257,66,52781,2,0,L|249:101,3,24.4999992523194
248,110,53054,1,0,0:0:0:0:
245,130,53145,1,0,0:0:0:0:
223,238,53327,1,0,0:0:0:0:
95,261,53509,5,0,0:0:0:0:
87,298,53600,1,0,0:0:0:0:
79,339,53690,1,0,0:0:0:0:
95,261,54054,5,0,0:0:0:0:
87,298,54145,1,0,0:0:0:0:
79,339,54235,1,0,0:0:0:0:
104,191,54418,6,0,L|120:242,3,45.4999979171754
206,153,54781,2,0,L|257:137,3,45.4999979171754
170,54,55145,2,0,L|154:3,3,45.4999979171754
67,89,55508,2,0,L|16:105,3,45.4999979171754
101,112,55872,5,0,0:0:0:0:
136,139,55963,1,0,0:0:0:0:
185,144,56054,1,0,0:0:0:0:
231,129,56145,1,0,0:0:0:0:
269,99,56236,2,0,L|303:150,2,41.9999987182618
245,59,56509,2,0,L|234:42,3,17.5
199,23,56690,5,0,0:0:0:0:
172,56,56781,1,0,0:0:0:0:
165,103,56872,1,0,0:0:0:0:
185,144,56963,1,0,0:0:0:0:
211,169,57054,2,0,L|230:183,3,17.5
262,208,57236,1,0,0:0:0:0:
262,208,57327,6,0,B|335:216|335:216|388:258,1,97.9999970092774
385,309,57600,1,0,0:0:0:0:
298,293,57690,2,0,B|258:295|258:295|198:326|198:326|155:330,1,146.999995513916
164,244,58054,5,0,0:0:0:0:
180,220,58145,1,0,0:0:0:0:
177,176,58236,1,0,0:0:0:0:
151,115,58327,1,0,0:0:0:0:
180,44,58418,2,0,P|185:102|105:183,1,178.500003404617
25,214,58781,5,0,0:0:0:0:
87,75,58963,1,0,0:0:0:0:
87,75,59054,1,0,0:0:0:0:
87,75,59145,1,0,0:0:0:0:
196,227,59327,1,0,0:0:0:0:
324,160,59509,1,0,0:0:0:0:
324,160,59600,1,0,0:0:0:0:
324,160,59690,1,0,0:0:0:0:
116,165,59872,1,0,0:0:0:0:
401,230,60054,1,0,0:0:0:0:
252,86,60236,5,0,0:0:0:0:
309,330,60419,1,0,0:0:0:0:
309,330,60509,1,0,0:0:0:0:
309,330,60600,1,0,0:0:0:0:
469,248,60781,1,0,0:0:0:0:
186,323,60963,1,0,0:0:0:0:
186,323,61054,1,0,0:0:0:0:
186,323,61145,1,0,0:0:0:0:
133,144,61327,1,0,0:0:0:0:
288,219,61509,1,0,0:0:0:0:
71,208,61690,5,0,0:0:0:0:
129,48,61872,1,0,0:0:0:0:
129,48,61963,1,0,0:0:0:0:
129,48,62054,1,0,0:0:0:0:
288,219,62236,1,0,0:0:0:0:
175,178,62419,1,0,0:0:0:0:
175,178,62509,1,0,0:0:0:0:
175,178,62600,1,0,0:0:0:0:
330,116,62781,1,0,0:0:0:0:
307,329,62963,1,0,0:0:0:0:
330,116,63145,5,0,0:0:0:0:
439,220,63327,1,0,0:0:0:0:
439,220,63418,1,0,0:0:0:0:
439,220,63509,1,0,0:0:0:0:
185,243,63690,1,0,0:0:0:0:
226,62,63872,1,0,0:0:0:0:
226,62,63963,1,0,0:0:0:0:
226,62,64054,1,0,0:0:0:0:
338,256,64236,1,0,0:0:0:0:
102,154,64418,1,0,0:0:0:0:
68,325,64600,5,0,0:0:0:0:
254,210,64781,1,0,0:0:0:0:
254,210,64872,1,0,0:0:0:0:
254,210,64963,1,0,0:0:0:0:
444,325,65145,1,0,0:0:0:0:
474,162,65327,1,0,0:0:0:0:
474,162,65418,1,0,0:0:0:0:
474,162,65509,1,0,0:0:0:0:
482,344,65690,1,0,0:0:0:0:
361,128,65872,1,0,0:0:0:0:
173,160,66054,5,0,0:0:0:0:
304,291,66236,1,0,0:0:0:0:
304,291,66327,1,0,0:0:0:0:
304,291,66418,1,0,0:0:0:0:
361,128,66600,1,0,0:0:0:0:
102,216,66781,1,0,0:0:0:0:
102,216,66872,1,0,0:0:0:0:
102,216,66963,1,0,0:0:0:0:
183,68,67145,1,0,0:0:0:0:
128,352,67327,1,0,0:0:0:0:
200,156,67509,5,0,0:0:0:0:
296,296,67690,1,0,0:0:0:0:
296,296,67781,1,0,0:0:0:0:
296,296,67872,1,0,0:0:0:0:
280,96,68054,1,0,0:0:0:0:
212,344,68236,1,0,0:0:0:0:
212,344,68327,1,0,0:0:0:0:
212,344,68418,1,0,0:0:0:0:
404,304,68600,1,0,0:0:0:0:
116,276,68781,1,0,0:0:0:0:
165,135,68963,6,0,L|274:154,2,105
347,249,69690,2,0,L|238:230,2,105
360,340,70418,6,0,L|296:348,2,35
448,328,70690,2,0,L|440:264,2,35
428,210,70963,2,0,L|430:145,1,35
357,102,71145,6,0,P|333:100|299:91,2,38.5000011749268
241,58,71418,2,0,P|225:55|201:58,2,38.5000011749268
113,72,71690,2,0,P|91:72|67:66,1,38.5000011749268
152,151,71872,6,0,B|156:174|156:174|156:206,2,41.9999987182618
228,245,72145,2,0,B|228:263|228:263|232:286,2,41.9999987182618
348,250,72418,2,0,L|275:257,1,41.9999987182618
428,285,72600,6,0,L|462:325,2,45.4999979171754
432,194,72872,2,0,L|398:154,2,45.4999979171754
343,93,73145,2,0,L|310:80,3,22.7499989585877
252,65,73327,6,0,P|250:93|246:128,2,48.9999985046387
189,171,73600,2,0,P|186:195|185:219,2,48.9999985046387
104,260,73872,2,0,L|171:266,1,48.9999985046387
263,310,74054,6,0,L|265:241,2,52.5000020027161
351,264,74327,2,0,L|352:211,2,52.5000020027161
439,219,74600,2,0,L|440:166,1,52.5000020027161
427,77,74781,6,0,P|398:84|377:100,2,56
292,126,75054,2,0,P|264:119|242:103,2,56
162,70,75327,2,0,B|131:70|131:70|95:82,1,56
118,162,75509,6,0,B|87:160|87:160|58:149,2,59.5000011348725
186,220,75781,2,0,B|221:220|221:220|259:234,2,59.5000011348725
332,258,76054,2,0,L|342:322,1,59.5000011348725
424,104,76236,6,0,P|392:96|328:96,1,52.5000020027161
324,337,76418,2,0,P|300:321|276:297,1,52.5000020027161
400,64,76600,6,0,P|372:60|335:66,1,56
277,346,76781,2,0,P|254:330|237:305,1,56
351,28,76963,6,0,P|320:43|299:72,1,59.5000011348725
221,344,77145,2,0,P|208:322|218:265,1,59.5000011348725
283,18,77327,6,0,P|268:52|289:108,1,62.9999980773926
167,312,77509,2,0,P|174:273|225:245,1,62.9999980773926
389,162,77690,6,0,L|292:183,1,70
123,222,77872,2,0,L|220:201,1,70
409,202,78054,6,0,L|327:198,1,73.4999977569581
103,182,78236,2,0,L|185:186,1,73.4999977569581
440,246,78418,6,0,L|351:227,1,77.0000088119517
72,138,78600,2,0,L|161:157,1,77.0000088119517
458,301,78781,6,0,L|377:266,1,80.5000015354157
54,83,78963,2,0,L|135:118,1,80.5000015354157
239,161,79145,1,0,0:0:0:0:
299,56,79236,6,0,L|425:56,1,80.5000015354157
416,145,79418,2,0,L|542:145,1,80.5000015354157
365,229,79600,6,0,L|239:229,1,80.5000015354157
247,318,79782,2,0,L|121:318,1,80.5000015354157
69,225,79963,6,0,B|43:193|43:193|37:151,1,80.5000015354157
86,91,80145,2,0,B|126:84|126:84|162:99,1,80.5000015354157
197,170,80327,2,0,B|186:209|186:209|151:229,1,80.5000015354157
118,161,80509,1,0,0:0:0:0:
163,99,80600,6,0,P|208:74|299:62,1,105.000004005432
295,60,80872,2,0,L|329:61,1,26.2500010013581
356,69,80963,1,0,0:0:0:0:
386,81,81054,1,0,0:0:0:0:
419,108,81145,1,0,0:0:0:0:
419,108,81509,5,0,0:0:0:0:
398,145,81600,1,0,0:0:0:0:
406,185,81690,1,0,0:0:0:0:
454,285,81872,1,0,0:0:0:0:
454,285,81963,1,0,0:0:0:0:
454,285,82054,6,0,B|351:289|373:273|276:279,1,168
234,348,82418,2,0,B|259:309|259:309|243:166,1,168
294,86,82781,2,0,P|309:122|324:58,1,168
332,95,83145,1,0,0:0:0:0:
332,95,83327,1,0,0:0:0:0:
227,173,83509,6,0,B|250:83|200:49|200:49|186:96,1,168
227,173,83872,1,0,0:0:0:0:
270,285,84054,1,0,0:0:0:0:
394,196,84236,2,0,L|225:173,1,168
108,295,84600,2,0,B|160:271|160:271|306:289,1,168
357,324,84963,1,0,0:0:0:0:
366,287,85054,1,0,0:0:0:0:
360,249,85145,1,0,0:0:0:0:
346,216,85236,1,0,0:0:0:0:
322,185,85327,2,0,P|318:128|368:75,1,112
496,112,85690,2,0,P|452:141|393:156,1,105.000004005432
231,188,86054,2,0,P|245:241|272:287,1,105.000004005432
307,148,86418,6,0,P|197:112|156:144,1,168
104,200,86781,1,0,0:0:0:0:
145,358,86963,2,0,P|171:310|160:240,1,112
37,282,87418,1,0,0:0:0:0:
37,282,87509,2,0,L|92:295,1,56
289,342,87690,1,0,0:0:0:0:
289,342,87781,1,0,0:0:0:0:
289,342,87872,6,0,P|348:325|376:256,1,119.000002269745
356,197,88145,1,0,0:0:0:0:
284,161,88236,2,0,P|300:250|398:271,1,178.500003404617
356,197,88600,6,0,P|399:116|477:126,1,168
401,66,88963,2,0,B|346:58|346:58|222:74,1,168
180,160,89327,6,0,P|165:194|163:326,1,168
260,358,89690,2,0,P|314:312|280:214,1,168
238,283,90054,6,0,B|293:287|293:287|372:340,1,146.999995513916
383,246,90418,2,0,L|487:208,1,66.4999982242585
395,144,90600,2,0,L|291:182,1,66.4999982242585
491,60,90781,6,0,P|472:45|446:38,1,31.4999990386963
437,32,90872,2,0,P|418:28|399:27,1,29.7500005674362
380,29,90963,2,0,P|358:34|339:44,1,28
334,49,91054,2,0,P|317:63|310:76,1,26.2500010013581
304,81,91145,2,0,P|294:96|291:113,1,24.4999992523194
289,120,91236,2,0,P|285:135|285:157,1,22.7499989585877
287,162,91327,2,0,P|289:176|296:188,1,20.9999993591309
300,199,91418,2,0,P|306:212|313:220,1,19.2500005874634
319,234,91509,6,0,P|322:246|323:256,1,17.5
323,270,91600,2,0,P|324:285|322:296,1,15.7499995193482
321,306,91690,2,0,P|318:317|312:329,1,14
308,338,91781,2,0,P|299:348|292:350,1,12.2499996261597
284,358,91872,2,0,P|277:363|268:367,1,10.4999996795654
255,369,91963,2,0,L|242:373,1,8.75
224,373,92054,2,0,L|217:373,1,7
194,371,92145,2,0,L|188:369,1,5.24999983978272
169,358,92236,5,0,0:0:0:0:
147,341,92327,1,0,0:0:0:0:
134,314,92418,1,0,0:0:0:0:
127,289,92509,1,0,0:0:0:0:
134,262,92600,1,0,0:0:0:0:
148,245,92690,1,0,0:0:0:0:
168,236,92781,1,0,0:0:0:0:
184,234,92872,1,0,0:0:0:0:
203,239,92963,6,0,L|203:265,7,17.5
203,239,93327,2,0,B|202:62,1,154.000017623903
211,94,93690,6,0,P|250:115|241:72,1,105
236,101,94054,2,0,P|311:116|391:97,1,157.500006008148
471,61,94418,2,0,P|476:129|430:175,1,131.25
405,250,94781,2,0,B|385:217|385:217|389:98,1,157.500006008148
394,16,95145,6,0,B|372:85|372:85|302:118,1,146.999995513916
304,116,95509,1,0,0:0:0:0:
304,116,95690,1,0,0:0:0:0:
79,89,95872,6,0,P|145:52|247:87,1,168
162,138,96236,2,0,P|136:221|171:292,1,168
319,249,96600,6,0,B|236:239|236:239|164:295,1,168
114,345,96963,1,0,0:0:0:0:
397,260,97145,1,0,0:0:0:0:
318,177,97327,6,0,B|214:166|214:166|105:249,1,210
59,304,97690,1,0,0:0:0:0:
416,189,97872,1,0,0:0:0:0:
320,69,98054,6,0,L|334:8,3,52.5000020027161
239,144,98418,2,0,L|225:205,3,52.5000020027161
162,230,98781,2,0,B|224:229|224:229|283:250|283:250|237:252,1,157.500006008148
147,249,99145,6,0,B|93:247|93:247|34:227,2,105.000004005432
165,278,99600,1,0,0:0:0:0:
188,305,99690,1,0,0:0:0:0:
214,323,99781,1,0,0:0:0:0:
252,331,99872,1,0,0:0:0:0:
291,324,99963,1,0,0:0:0:0:
320,308,100054,1,0,0:0:0:0:
342,273,100145,1,0,0:0:0:0:
356,242,100236,2,0,L|368:187,3,48.9999985046387
372,160,100600,6,0,L|367:110,1,48.9999985046387
357,76,100781,2,0,L|318:32,1,48.9999985046387
300,62,100963,6,0,B|283:83|283:83|258:100,3,48.9999985046387
228,103,101327,2,0,B|209:115|209:115|192:136,3,48.9999985046387
191,173,101690,2,0,B|174:194|174:194|149:211,3,48.9999985046387
121,220,102054,2,0,P|195:294|276:247,1,195.999994018555
285,234,102509,1,0,0:0:0:0:
295,201,102600,1,0,0:0:0:0:
304,172,102690,1,0,0:0:0:0:
313,140,102781,2,0,B|330:95|330:95|372:64,1,97.9999970092774
438,121,103054,5,0,0:0:0:0:
438,121,103145,2,0,B|424:171|424:171|430:218,1,97.9999970092774
438,251,103418,1,0,0:0:0:0:
424,302,103509,1,0,0:0:0:0:
370,321,103600,1,0,0:0:0:0:
307,301,103690,1,0,0:0:0:0:
279,242,103781,1,0,0:0:0:0:
321,177,103872,6,0,B|206:189|145:148|145:148|124:106,1,210
200,33,104236,6,0,B|226:84|226:84|200:139|186:275,1,236.250029289726
112,320,104600,6,0,B|186:298|229:248|229:248|288:220|369:237,1,262.5
494,185,104963,6,0,L|469:185,1,20.9999993591309
256,192,105327,12,0,107872,0:0:0:0:
