osu file format v14

[General]
AudioFilename: audio.mp3
AudioLeadIn: 0
PreviewTime: 83102
Countdown: 0
SampleSet: Soft
StackLeniency: 0.7
Mode: 1
LetterboxInBreaks: 0
WidescreenStoryboard: 1

[Editor]
DistanceSpacing: 1
BeatDivisor: 4
GridSize: 32
TimelineZoom: 1

[Metadata]
Title:Opium and Purple haze
TitleUnicode:Opium and Purple haze
Artist:D.watt (OTAKU-ELITE Recordings)
ArtistUnicode:D.watt (OTAKU-ELITE Recordings)
Creator:Cynplytholowazy
Version:NOVICE
Source:東方地霊殿 ~ Subterranean Animism.
Tags:touhou 少女さとり ~ 3rd eye SOUND VOLTEX III GRAVITY WARS SDVX 3 SDVX3 Electronic Instrumental cut short version 方Project Satori Shoujo Maiden Third Komeiji 古明地さとり SA
BeatmapID:2581014
BeatmapSetID:1241481

[Difficulty]
HPDrainRate:8
CircleSize:10
OverallDifficulty:4
ApproachRate:10
SliderMultiplier:1.4
SliderTickRate:1

[Events]
//Background and Video events
0,0,"03134e.jpg",0,0
//Break Periods
//Storyboard Layer 0 (Background)
//Storyboard Layer 1 (Fail)
//Storyboard Layer 2 (Pass)
//Storyboard Layer 3 (Foreground)
//Storyboard Layer 4 (Overlay)
//Storyboard Sound Samples

[TimingPoints]
1466,363.6363636,4,2,0,90,1,0
1466,-100,4,2,0,90,0,0
1829,-111.111111111111,4,2,0,90,0,0
12738,-90.9090909090909,4,2,0,90,0,0
13465,-100,4,2,0,90,0,0
24738,-90.9090909090909,4,2,0,90,0,0
25102,-100,4,2,0,90,0,0
27647,-90.9090909090909,4,2,0,90,0,0
28011,-100,4,2,0,90,0,0
30556,-90.9090909090909,4,2,0,90,0,0
30920,-100,4,2,0,90,0,0
33465,-90.9090909090909,4,2,0,90,0,0
34920,-100,4,2,0,90,0,0
36011,-90.9090909090909,4,2,0,90,0,0
36738,-100,4,2,0,90,0,0
38829,-90.9090909090909,4,2,0,90,0,0
39193,-100,4,2,0,90,0,0
41738,-90.9090909090909,4,2,0,90,0,0
42102,-100,4,2,0,90,0,0
44647,-90.9090909090909,4,2,0,90,0,0
45011,-100,4,2,0,90,0,0
47556,-90.9090909090909,4,2,0,90,0,0
47920,-100,4,2,0,90,0,0
50465,-90.9090909090909,4,2,0,90,0,0
50829,-100,4,2,0,90,0,0
53375,-90.9090909090909,4,2,0,90,0,0
53739,-100,4,2,0,90,0,0
56284,-90.9090909090909,4,2,0,90,0,0
56648,-100,4,2,0,90,0,0
59193,-90.9090909090909,4,2,0,90,0,0
59556,-111.111111111111,4,2,0,90,0,0
70829,-90.9090909090908,4,2,0,90,0,0
71647,-100,4,2,0,90,0,0
73829,-90.9090909090909,4,2,0,90,0,0
74556,-100,4,2,0,90,0,0
76738,-90.9090909090909,4,2,0,90,0,0
77284,-100,4,2,0,90,0,0
78193,-90.9090909090909,4,2,0,90,0,0
78739,-100,4,2,0,90,0,0
79647,-90.9090909090909,4,2,0,90,0,0
81465,-100,4,2,0,90,0,0
82556,-90.9090909090909,4,2,0,90,0,0
82920,-100,4,2,0,90,0,0
83102,-86.9565217391304,4,2,0,90,0,0
83284,-86.9565217391304,4,2,0,90,0,1
83465,-95.2380952380952,4,2,0,90,0,1
85375,-86.9565217391304,4,2,0,90,0,1
85738,-95.2380952380952,4,2,0,90,0,1
88284,-86.9565217391304,4,2,0,90,0,1
88647,-95.2380952380952,4,2,0,90,0,1
91193,-86.9565217391304,4,2,0,90,0,1
91556,-95.2380952380952,4,2,0,90,0,1
94193,-86.9565217391304,4,2,0,90,0,0
94556,-86.9565217391304,4,2,0,90,0,1
94738,-95.2380952380952,4,2,0,90,0,1
97011,-86.9565217391304,4,2,0,90,0,1
97374,-95.2380952380952,4,2,0,90,0,1
99920,-86.9565217391304,4,2,0,90,0,1
100283,-95.2380952380952,4,2,0,90,0,1
102829,-86.9565217391304,4,2,0,90,0,1
103192,-95.2380952380952,4,2,0,90,0,1
104738,-95.2380952380952,4,2,0,90,0,0
105738,-86.9565217391304,4,2,0,90,0,0
106193,-86.9565217391304,4,2,0,90,0,1
107647,-86.9565217391304,4,2,0,40,0,1
108738,-86.9565217391304,4,2,0,40,0,0

[HitObjects]
256,192,1466,5,6,0:0:0:0:
256,192,2193,1,0,0:0:0:0:
256,192,2556,1,2,0:0:0:0:
256,192,2920,1,0,0:0:0:0:
256,192,3647,1,0,0:0:0:0:
256,192,4011,1,0,0:0:0:0:
256,192,4375,1,2,0:0:0:0:
256,192,4738,1,2,0:0:0:0:
256,192,5102,1,0,0:0:0:0:
256,192,5466,1,0,0:0:0:0:
256,192,5829,1,2,0:0:0:0:
256,192,6556,1,2,0:0:0:0:
256,192,7284,1,2,0:0:0:0:
256,192,7647,1,2,0:0:0:0:
256,192,8375,1,2,0:0:0:0:
256,192,8738,1,0,0:0:0:0:
256,192,9102,1,2,0:0:0:0:
256,192,9466,1,2,0:0:0:0:
256,192,10193,1,0,0:0:0:0:
256,192,10920,1,2,0:0:0:0:
256,192,12738,1,4,0:0:0:0:
256,192,13102,1,6,0:0:0:0:
256,192,13829,1,0,0:0:0:0:
256,192,14193,1,2,0:0:0:0:
256,192,14556,1,0,0:0:0:0:
256,192,15284,1,0,0:0:0:0:
256,192,15647,1,2,0:0:0:0:
256,192,16011,1,0,0:0:0:0:
256,192,16375,1,2,0:0:0:0:
256,192,16738,1,0,0:0:0:0:
256,192,17102,1,2,0:0:0:0:
256,192,17466,1,0,0:0:0:0:
256,192,18193,1,0,0:0:0:0:
256,192,18920,1,2,0:0:0:0:
256,192,19466,1,2,0:0:0:0:
256,192,20011,1,2,0:0:0:0:
256,192,20556,1,2,0:0:0:0:
256,192,20738,1,2,0:0:0:0:
256,192,21102,1,2,0:0:0:0:
256,192,21829,1,2,0:0:0:0:
256,192,22193,1,2,0:0:0:0:
256,192,22375,1,2,0:0:0:0:
256,192,22920,1,2,0:0:0:0:
256,192,23466,1,2,0:0:0:0:
256,192,23647,1,2,0:0:0:0:
256,192,24011,1,2,0:0:0:0:
256,192,24738,1,6,0:0:0:0:
256,192,25284,1,2,0:0:0:0:
256,192,25466,1,0,0:0:0:0:
256,192,25829,1,2,0:0:0:0:
256,192,26193,1,0,0:0:0:0:
256,192,26920,1,2,0:0:0:0:
256,192,27102,1,2,0:0:0:0:
256,192,27647,1,6,0:0:0:0:
256,192,28193,1,2,0:0:0:0:
256,192,28375,1,0,0:0:0:0:
256,192,28738,1,2,0:0:0:0:
256,192,29102,1,0,0:0:0:0:
256,192,29284,1,2,0:0:0:0:
256,192,29466,1,2,0:0:0:0:
256,192,29829,1,2,0:0:0:0:
256,192,30556,1,6,0:0:0:0:
256,192,31102,1,2,0:0:0:0:
256,192,31284,1,0,0:0:0:0:
256,192,31647,1,2,0:0:0:0:
256,192,32011,1,0,0:0:0:0:
256,192,32193,1,2,0:0:0:0:
256,192,32375,1,2,0:0:0:0:
256,192,32738,1,2,0:0:0:0:
256,192,32920,1,2,0:0:0:0:
256,192,33102,1,0,0:0:0:0:
256,192,33466,1,6,0:0:0:0:
256,192,33829,1,2,0:0:0:0:
256,192,34193,1,2,0:0:0:0:
256,192,34556,1,2,0:0:0:0:
256,192,36011,1,4,0:0:0:0:
256,192,36375,1,6,0:0:0:0:
256,192,37102,1,0,0:0:0:0:
256,192,37465,1,2,0:0:0:0:
256,192,37829,1,0,0:0:0:0:
256,192,38193,1,2,0:0:0:0:
256,192,38556,1,0,0:0:0:0:
256,192,38920,1,4,0:0:0:0:
256,192,39284,1,2,0:0:0:0:
256,192,40011,1,0,0:0:0:0:
256,192,40374,1,2,0:0:0:0:
256,192,40738,1,0,0:0:0:0:
256,192,41102,1,2,0:0:0:0:
256,192,41465,1,0,0:0:0:0:
256,192,41829,1,4,0:0:0:0:
256,192,42193,1,2,0:0:0:0:
256,192,42920,1,2,0:0:0:0:
256,192,43283,1,2,0:0:0:0:
256,192,43647,1,0,0:0:0:0:
256,192,44011,1,2,0:0:0:0:
256,192,44374,1,2,0:0:0:0:
256,192,44738,1,4,0:0:0:0:
256,192,45102,1,2,0:0:0:0:
256,192,45829,1,2,0:0:0:0:
256,192,46556,1,2,0:0:0:0:
256,192,46920,1,2,0:0:0:0:
256,192,47284,1,2,0:0:0:0:
256,192,47647,1,4,0:0:0:0:
256,192,48011,1,2,0:0:0:0:
256,192,48556,1,2,0:0:0:0:
256,192,49102,1,2,0:0:0:0:
256,192,50193,1,2,0:0:0:0:
256,192,50556,1,4,0:0:0:0:
256,192,50920,1,2,0:0:0:0:
256,192,51466,1,2,0:0:0:0:
256,192,52011,1,2,0:0:0:0:
256,192,53102,1,2,0:0:0:0:
256,192,53466,1,4,0:0:0:0:
256,192,53829,1,2,0:0:0:0:
256,192,54375,1,2,0:0:0:0:
256,192,54920,1,2,0:0:0:0:
256,192,55284,1,0,0:0:0:0:
256,192,56011,1,2,0:0:0:0:
256,192,56375,1,4,0:0:0:0:
256,192,56738,1,2,0:0:0:0:
256,192,56920,1,2,0:0:0:0:
256,192,57284,1,2,0:0:0:0:
256,192,57829,1,2,0:0:0:0:
256,192,58011,1,0,0:0:0:0:
256,192,58375,1,2,0:0:0:0:
256,192,58920,1,2,0:0:0:0:
256,192,59284,1,4,0:0:0:0:
256,192,59647,1,2,0:0:0:0:
256,192,60193,1,2,0:0:0:0:
256,192,60375,1,0,0:0:0:0:
256,192,61102,1,2,0:0:0:0:
256,192,61647,1,2,0:0:0:0:
256,192,61829,1,0,0:0:0:0:
256,192,62556,1,2,0:0:0:0:
256,192,63102,1,2,0:0:0:0:
256,192,63284,1,0,0:0:0:0:
256,192,64011,1,2,0:0:0:0:
256,192,64556,1,2,0:0:0:0:
256,192,64738,1,0,0:0:0:0:
256,192,65466,1,2,0:0:0:0:
256,192,66011,1,2,0:0:0:0:
256,192,66193,1,0,0:0:0:0:
256,192,66556,1,2,0:0:0:0:
256,192,67284,1,2,0:0:0:0:
256,192,67647,1,0,0:0:0:0:
256,192,68193,1,0,0:0:0:0:
256,192,68375,1,2,0:0:0:0:
256,192,68920,1,2,0:0:0:0:
256,192,69102,1,0,0:0:0:0:
256,192,69466,1,2,0:0:0:0:
256,192,69829,1,0,0:0:0:0:
256,192,70556,1,2,0:0:0:0:
256,192,70920,1,4,0:0:0:0:
256,192,71284,1,6,0:0:0:0:
256,192,72011,1,2,0:0:0:0:
256,192,72375,1,2,0:0:0:0:
256,192,72738,1,2,0:0:0:0:
256,192,73466,1,2,0:0:0:0:
256,192,74193,1,4,0:0:0:0:
256,192,74920,1,0,0:0:0:0:
256,192,75284,1,0,0:0:0:0:
256,192,75647,1,0,0:0:0:0:
256,192,76375,1,0,0:0:0:0:
256,192,76920,1,4,0:0:0:0:
256,192,77102,1,6,0:0:0:0:
256,192,77466,1,2,0:0:0:0:
256,192,77829,1,2,0:0:0:0:
256,192,78375,1,4,0:0:0:0:
256,192,78556,1,6,0:0:0:0:
256,192,78920,1,2,0:0:0:0:
256,192,79284,1,2,0:0:0:0:
256,192,79829,1,4,0:0:0:0:
256,192,80011,1,6,0:0:0:0:
256,192,80375,1,6,0:0:0:0:
256,192,80738,1,6,0:0:0:0:
256,192,81102,1,6,0:0:0:0:
256,192,82556,1,4,0:0:0:0:
256,192,83102,1,4,0:0:0:0:
256,192,83284,1,6,0:0:0:0:
256,192,83647,1,0,0:0:0:0:
256,192,84193,1,0,0:0:0:0:
256,192,84375,1,0,0:0:0:0:
256,192,85102,1,0,0:0:0:0:
256,192,85466,1,4,0:0:0:0:
256,192,85829,1,0,0:0:0:0:
256,192,86375,1,0,0:0:0:0:
256,192,86556,1,0,0:0:0:0:
256,192,87102,1,0,0:0:0:0:
256,192,87284,1,0,0:0:0:0:
256,192,88011,1,0,0:0:0:0:
256,192,88375,1,4,0:0:0:0:
256,192,88738,1,0,0:0:0:0:
256,192,89284,1,0,0:0:0:0:
256,192,89465,1,0,0:0:0:0:
256,192,90011,1,0,0:0:0:0:
256,192,90193,1,0,0:0:0:0:
256,192,90920,1,0,0:0:0:0:
256,192,91284,1,4,0:0:0:0:
256,192,91647,1,2,0:0:0:0:
256,192,91829,1,2,0:0:0:0:
256,192,92011,1,2,0:0:0:0:
256,192,92193,1,2,0:0:0:0:
256,192,92375,1,2,0:0:0:0:
256,192,92738,1,2,0:0:0:0:
256,192,92920,1,2,0:0:0:0:
256,192,93102,1,2,0:0:0:0:
256,192,93284,1,2,0:0:0:0:
256,192,93466,1,2,0:0:0:0:
256,192,94193,1,4,0:0:0:0:
256,192,94556,1,6,0:0:0:0:
256,192,94920,1,2,0:0:0:0:
256,192,95284,1,0,0:0:0:0:
256,192,95647,1,2,0:0:0:0:
256,192,96011,1,0,0:0:0:0:
256,192,96375,1,2,0:0:0:0:
256,192,96738,1,0,0:0:0:0:
256,192,97102,1,4,0:0:0:0:
256,192,97466,1,2,0:0:0:0:
256,192,97829,1,2,0:0:0:0:
256,192,98193,1,0,0:0:0:0:
256,192,98556,1,2,0:0:0:0:
256,192,98920,1,0,0:0:0:0:
256,192,99647,1,0,0:0:0:0:
256,192,100011,1,4,0:0:0:0:
256,192,100375,1,2,0:0:0:0:
256,192,100738,1,2,0:0:0:0:
256,192,101102,1,0,0:0:0:0:
256,192,101466,1,2,0:0:0:0:
256,192,101829,1,0,0:0:0:0:
256,192,102193,1,2,0:0:0:0:
256,192,102556,1,0,0:0:0:0:
256,192,102920,1,4,0:0:0:0:
256,192,103284,1,2,0:0:0:0:
256,192,103466,1,2,0:0:0:0:
256,192,103829,1,2,0:0:0:0:
256,192,104011,1,2,0:0:0:0:
256,192,104375,1,2,0:0:0:0:
256,192,104556,1,2,0:0:0:0:
256,192,105829,1,6,0:0:0:0:
256,192,106193,1,4,0:0:0:0:
256,192,106375,12,6,108738,0:0:0:0:
