osu file format v14

[General]
AudioFilename: audio.mp3
AudioLeadIn: 0
PreviewTime: 83102
Countdown: 0
SampleSet: Soft
StackLeniency: 0.7
Mode: 1
LetterboxInBreaks: 0
WidescreenStoryboard: 0

[Editor]
DistanceSpacing: 1
BeatDivisor: 4
GridSize: 32
TimelineZoom: 1

[Metadata]
Title:Opium and Purple haze
TitleUnicode:Opium and Purple haze
Artist:D.watt (OTAKU-ELITE Recordings)
ArtistUnicode:D.watt (OTAKU-ELITE Recordings)
Creator:Cynplytholowazy
Version:GRAVITY
Source:東方地霊殿 ~ Subterranean Animism.
Tags:touhou 少女さとり ~ 3rd eye SOUND VOLTEX III GRAVITY WARS SDVX 3 SDVX3 Electronic Instrumental cut short version 方Project Satori Shoujo Maiden Third Komeiji 古明地さとり SA
BeatmapID:2581015
BeatmapSetID:1241481

[Difficulty]
HPDrainRate:8
CircleSize:10
OverallDifficulty:6
ApproachRate:10
SliderMultiplier:1.4
SliderTickRate:1

[Events]
//Background and Video events
0,0,"03134e.jpg",0,0
//Break Periods
//Storyboard Layer 0 (Background)
//Storyboard Layer 1 (Fail)
//Storyboard Layer 2 (Pass)
//Storyboard Layer 3 (Foreground)
//Storyboard Layer 4 (Overlay)
//Storyboard Sound Samples

[TimingPoints]
1466,363.6363636,4,2,0,90,1,0
1466,-66.6666666666667,4,2,0,90,0,0
1827,-200,4,2,0,90,0,0
12373,-66.6666666666667,4,2,0,90,0,0
13100,-50,4,2,0,90,0,0
13464,-200,4,2,0,90,0,0
13827,-205.47931131554,4,2,0,90,0,0
14191,-211.267754413912,4,2,0,90,0,0
14554,-217.391304347826,4,2,0,90,0,0
14918,-223.880429939978,4,2,0,90,0,0
15282,-230.76940828416,4,2,0,90,0,0
15645,-238.095238095238,4,2,0,90,0,0
16009,-245.901437785707,4,2,0,90,0,0
16373,-254.237503591105,4,2,0,90,0,0
16554,-258.620466706494,4,2,0,90,0,0
16736,-263.157894736842,4,2,0,90,0,0
17100,-272.727024793614,4,2,0,90,0,0
17464,-283.019134923712,4,2,0,90,0,0
17827,-294.117647058824,4,2,0,90,0,0
18191,-306.122136610065,4,2,0,90,0,0
18554,-319.149275690719,4,2,0,90,0,0
18918,-333.333333333333,4,2,0,90,0,0
19282,-319.587859496393,4,2,0,90,0,0
19464,-313.131154984265,4,2,0,90,0,0
19645,-306.931118518382,4,2,0,90,0,0
20009,-295.237814059225,4,2,0,90,0,0
20373,-284.403591448553,4,2,0,90,0,0
20554,-279.278901875358,4,2,0,90,0,0
20736,-274.336380296064,4,2,0,90,0,0
21100,-264.95751406262,4,2,0,90,0,0
21191,-262.711975725413,4,2,0,90,0,0
21282,-260.504179789565,4,2,0,90,0,0
21464,-256.198071853311,4,2,0,90,0,0
21645,-252.032643267956,4,2,0,90,0,0
21827,-247.999880960057,4,2,0,90,0,0
22191,-240.310096148069,4,2,0,90,0,0
22373,-236.641022667844,4,2,0,90,0,0
22554,-233.082846967126,4,2,0,90,0,0
22918,-226.277620011993,4,2,0,90,0,0
23282,-219.858015693465,4,2,0,90,0,0
23464,-216.783368379978,4,2,0,90,0,0
23645,-213.793073959576,4,2,0,90,0,0
24009,-208.053761091866,4,2,0,90,0,0
24100,-206.66665288889,4,2,0,90,0,0
24191,-205.297918073813,4,2,0,90,0,0
24373,-202.61453799833,4,2,0,90,0,0
24554,-200,4,2,0,90,0,0
24736,-50,4,2,0,90,0,0
25100,-200,4,2,0,90,0,0
25282,-206.328082283639,4,2,0,90,0,0
25464,-213.070149085183,4,2,0,90,0,0
25827,-227.968029763506,4,2,0,90,0,0
26191,-245.105848960874,4,2,0,90,0,0
26373,-254.678442997871,4,2,0,90,0,0
26554,-265.02984236025,4,2,0,90,0,0
26918,-288.479568434566,4,2,0,90,0,0
27009,-295.004395565494,4,2,0,90,0,0
27100,-301.832120974314,4,2,0,90,0,0
27282,-316.481735839025,4,2,0,90,0,0
27464,-332.624842418981,4,2,0,90,0,0
27645,-50,4,2,0,90,0,0
28009,-200,4,2,0,90,0,0
28191,-206.328082283639,4,2,0,90,0,0
28373,-213.070149085183,4,2,0,90,0,0
28736,-227.968029763506,4,2,0,90,0,0
29100,-245.105848960874,4,2,0,90,0,0
29282,-254.678442997871,4,2,0,90,0,0
29464,-265.02984236025,4,2,0,90,0,0
29827,-288.479568434566,4,2,0,90,0,0
29918,-295.004395565494,4,2,0,90,0,0
30009,-301.832120974314,4,2,0,90,0,0
30191,-316.481735839025,4,2,0,90,0,0
30373,-332.624842418981,4,2,0,90,0,0
30554,-50,4,2,0,90,0,0
30918,-200,4,2,0,90,0,0
31100,-206.328082283639,4,2,0,90,0,0
31282,-213.070149085183,4,2,0,90,0,0
31464,-220.267228201254,4,2,0,90,0,0
31645,-227.968029763506,4,2,0,90,0,0
31738,-232.00510411229,4,2,0,90,0,0
31829,-236.211172788473,4,2,0,90,0,0
31920,-240.572562699224,4,2,0,90,0,0
32009,-245.105848960874,4,2,0,90,0,0
32191,-254.678442997871,4,2,0,90,0,0
32284,-259.74025974026,4,2,0,90,0,0
32373,-265.02984236025,4,2,0,90,0,0
32554,-276.257593630605,4,2,0,90,0,0
32736,-288.479568434566,4,2,0,90,0,0
32827,-295.004395565494,4,2,0,90,0,0
32918,-301.832120974314,4,2,0,90,0,0
33100,-316.481735839025,4,2,0,90,0,0
33282,-332.624842418981,4,2,0,90,0,0
33464,-50,4,2,0,90,0,0
33827,-333.333333333333,4,2,0,90,0,0
34191,-273.069602711035,4,2,0,90,0,0
34554,-231.259857451424,4,2,0,90,0,0
34918,-200.553125520185,4,2,0,90,0,0
36009,-66.6666666666667,4,2,0,90,0,0
36373,-50,4,2,0,90,0,0
36645,-200,4,2,0,90,0,0
36738,-203.873598369011,4,2,0,90,0,0
36918,-212.121019283922,4,2,0,90,0,0
37102,-221.067757267603,4,2,0,90,0,0
37282,-230.76940828416,4,2,0,90,0,0
37465,-241.429261226461,4,2,0,90,0,0
37645,-253.012109159544,4,2,0,90,0,0
37827,-265.82312129509,4,2,0,90,0,0
37920,-272.739669984999,4,2,0,90,0,0
38009,-279.999888000045,4,2,0,90,0,0
38191,-295.774856179476,4,2,0,90,0,0
38554,-333.333333333333,4,2,0,90,0,0
38918,-50,4,2,0,90,0,0
39282,-200,4,2,0,90,0,0
39554,-210.487763293881,4,2,0,90,0,0
39647,-216.146114773587,4,2,0,90,0,0
39827,-222.136822954731,4,2,0,90,0,0
40011,-230.627306273063,4,2,0,90,0,0
40191,-239.834034847885,4,2,0,90,0,0
40375,-249.781441238916,4,2,0,90,0,0
40554,-260.595147197169,4,2,0,90,0,0
40736,-272.384563422022,4,2,0,90,0,0
40829,-278.706800445931,4,2,0,90,0,0
40918,-285.291239561907,4,2,0,90,0,0
41100,-299.481896319368,4,2,0,90,0,0
41464,-332.566213933194,4,2,0,90,0,0
41827,-50,4,2,0,90,0,0
42168,-200,4,2,0,90,0,0
42375,-206.868018204386,4,2,0,90,0,0
42440,-210.487763293881,4,2,0,90,0,0
42556,-216.146114773587,4,2,0,90,0,0
42713,-222.136822954731,4,2,0,90,0,0
43077,-239.834034847885,4,2,0,90,0,0
43284,-249.781441238916,4,2,0,90,0,0
43440,-260.595147197169,4,2,0,90,0,0
43622,-272.384563422022,4,2,0,90,0,0
43804,-285.291239561907,4,2,0,90,0,0
43986,-299.481896319368,4,2,0,90,0,0
44350,-332.566213933194,4,2,0,90,0,0
44713,-50,4,2,0,90,0,0
45077,-200,4,2,0,90,0,0
45349,-210.487763293881,4,2,0,90,0,0
45465,-216.146114773587,4,2,0,90,0,0
45622,-222.136822954731,4,2,0,90,0,0
45784,-230.627306273063,4,2,0,90,0,0
45986,-239.834034847885,4,2,0,90,0,0
46148,-249.781441238916,4,2,0,90,0,0
46349,-260.595147197169,4,2,0,90,0,0
46531,-272.384563422022,4,2,0,90,0,0
46647,-278.706800445931,4,2,0,90,0,0
46713,-285.291239561907,4,2,0,90,0,0
46895,-299.481896319368,4,2,0,90,0,0
47259,-332.566213933194,4,2,0,90,0,0
47375,-341.997264021888,4,2,0,90,0,0
47464,-351.988736360436,4,2,0,90,0,0
47622,-50,4,2,0,90,0,0
48009,-200,4,2,0,90,0,0
48100,-203.114971198297,4,2,0,90,0,0
48191,-206.328082283639,4,2,0,90,0,0
48375,-213.060615745179,4,2,0,90,0,0
48554,-220.267228201254,4,2,0,90,0,0
48645,-224.051478067601,4,2,0,90,0,0
48736,-227.968029763506,4,2,0,90,0,0
49100,-245.105848960874,4,2,0,90,0,0
49191,-249.80078387486,4,2,0,90,0,0
49282,-254.678442997871,4,2,0,90,0,0
49464,-265.041081367612,4,2,0,90,0,0
49556,-270.526173407277,4,2,0,90,0,0
49645,-276.257593630605,4,2,0,90,0,0
49827,-288.479568434566,4,2,0,90,0,0
50191,-316.481735839025,4,2,0,90,0,0
50373,-332.624842418981,4,2,0,90,0,0
50554,-50,4,2,0,90,0,0
50895,-200,4,2,0,90,0,0
50986,-203.114971198297,4,2,0,90,0,0
51077,-206.328082283639,4,2,0,90,0,0
51238,-213.060615745179,4,2,0,90,0,0
51440,-220.267228201254,4,2,0,90,0,0
51531,-224.051478067601,4,2,0,90,0,0
51622,-227.968029763506,4,2,0,90,0,0
51986,-245.105848960874,4,2,0,90,0,0
52077,-249.80078387486,4,2,0,90,0,0
52168,-254.678442997871,4,2,0,90,0,0
52350,-265.041081367612,4,2,0,90,0,0
52419,-270.526173407277,4,2,0,90,0,0
52531,-276.257593630605,4,2,0,90,0,0
52713,-288.479568434566,4,2,0,90,0,0
53077,-316.481735839025,4,2,0,90,0,0
53259,-332.624842418981,4,2,0,90,0,0
53464,-50,4,2,0,90,0,0
53804,-200,4,2,0,90,0,0
53895,-203.114971198297,4,2,0,90,0,0
53986,-206.328082283639,4,2,0,90,0,0
54147,-213.060615745179,4,2,0,90,0,0
54349,-220.267228201254,4,2,0,90,0,0
54440,-224.051478067601,4,2,0,90,0,0
54531,-227.968029763506,4,2,0,90,0,0
54895,-245.105848960874,4,2,0,90,0,0
54986,-249.80078387486,4,2,0,90,0,0
55077,-254.678442997871,4,2,0,90,0,0
55259,-265.041081367612,4,2,0,90,0,0
55328,-270.526173407277,4,2,0,90,0,0
55440,-276.257593630605,4,2,0,90,0,0
55622,-288.479568434566,4,2,0,90,0,0
55986,-316.481735839025,4,2,0,90,0,0
56168,-332.624842418981,4,2,0,90,0,0
56373,-50,4,2,0,90,0,0
56736,-166.666666666667,4,2,0,90,0,0
56827,-170.47943932722,4,2,0,90,0,0
56918,-174.470438601236,4,2,0,90,0,0
57011,-178.667143112382,4,2,0,90,0,0
57100,-183.04089499676,4,2,0,90,0,0
57282,-192.496857488802,4,2,0,90,0,0
57373,-197.601122374375,4,2,0,90,0,0
57464,-202.983038737283,4,2,0,90,0,0
57556,-208.681135225376,4,2,0,90,0,0
57645,-214.677500724537,4,2,0,90,0,0
57827,-227.801848839805,4,2,0,90,0,0
57918,-234.985043202,4,2,0,90,0,0
58009,-242.635408755741,4,2,0,90,0,0
58102,-250.815149235014,4,2,0,90,0,0
58191,-259.53532794884,4,2,0,90,0,0
58373,-278.966484966496,4,2,0,90,0,0
58554,-301.54178313718,4,2,0,90,0,0
58645,-314.256892439293,4,2,0,90,0,0
58736,-328.092600855666,4,2,0,90,0,0
58829,-343.170899107756,4,2,0,90,0,0
58918,-359.77046644241,4,2,0,90,0,0
59009,-378.018953870347,4,2,0,90,0,0
59100,-398.219163899043,4,2,0,90,0,0
59193,-420.698359276399,4,2,0,90,0,0
59282,-50,4,2,0,90,0,0
59645,-400,4,2,0,90,0,0
65464,-392.156862745098,4,2,0,90,0,0
66009,-370.37037037037,4,2,0,90,0,0
66191,-363.636363636364,4,2,0,90,0,0
66554,-350.877192982456,4,2,0,90,0,0
66918,-338.983050847458,4,2,0,90,0,0
67100,-333.333333333333,4,2,0,90,0,0
67282,-327.868852459016,4,2,0,90,0,0
67645,-317.460317460317,4,2,0,90,0,0
67827,-312.5,4,2,0,90,0,0
68191,-303.030303030303,4,2,0,90,0,0
68373,-298.507462686567,4,2,0,90,0,0
68918,-285.714285714286,4,2,0,90,0,0
69100,-281.69014084507,4,2,0,90,0,0
69464,-273.972602739726,4,2,0,90,0,0
69827,-266.666666666667,4,2,0,90,0,0
69920,-264.900662251656,4,2,0,90,0,0
70009,-263.157894736842,4,2,0,90,0,0
70191,-259.74025974026,4,2,0,90,0,0
70554,-253.164556962025,4,2,0,90,0,0
70645,-251.572327044025,4,2,0,90,0,0
70736,-250,4,2,0,90,0,0
70918,-50,4,2,0,90,0,0
71282,-40,4,2,0,90,0,0
71647,-206.451612903226,4,2,0,90,0,0
71829,-209.836285729874,4,2,0,90,0,0
71920,-211.570359838868,4,2,0,90,0,0
72011,-213.333333333333,4,2,0,90,0,0
72375,-220.689655172414,4,2,0,90,0,0
72465,-222.608571765664,4,2,0,90,0,0
72556,-224.561655648175,4,2,0,90,0,0
72738,-228.571428571429,4,2,0,90,0,0
72920,-232.72700191767,4,2,0,90,0,0
73102,-237.037037037037,4,2,0,90,0,0
73466,-246.153846153846,4,2,0,90,0,0
73829,-256,4,2,0,90,0,0
73920,-258.585691419351,4,2,0,90,0,0
74011,-261.224830987534,4,2,0,90,0,0
74102,-263.917699904462,4,2,0,90,0,0
74191,-50,4,2,0,90,0,0
74556,-278.260869565217,4,2,0,90,0,0
74738,-284.44484898823,4,2,0,90,0,0
74829,-287.640656280921,4,2,0,90,0,0
74920,-290.909090909091,4,2,0,90,0,0
75284,-304.761904761905,4,2,0,90,0,0
75375,-308.43349711152,4,2,0,90,0,0
75465,-312.195609280951,4,2,0,90,0,0
75647,-320,4,2,0,90,0,0
75829,-328.204589612981,4,2,0,90,0,0
76011,-336.842105263158,4,2,0,90,0,0
76375,-355.555555555556,4,2,0,90,0,0
76556,-365.713616980815,4,2,0,90,0,0
76738,-376.470588235294,4,2,0,90,0,0
76918,-66.6666666666667,4,2,0,90,0,0
77100,-50,4,2,0,90,0,0
77284,-400,4,2,0,90,0,0
77375,-391.083300743058,4,2,0,90,0,0
77464,-382.608163327773,4,2,0,90,0,0
77645,-366.6670333337,4,2,0,90,0,0
77827,-351.999887360036,4,2,0,90,0,0
77920,-345.065562456867,4,2,0,90,0,0
78009,-338.46101775228,4,2,0,90,0,0
78191,-325.92611906733,4,2,0,90,0,0
78373,-66.6666666666667,4,2,0,90,0,0
78554,-50,4,2,0,90,0,0
78736,-293.333411555576,4,2,0,90,0,0
78829,-288.517022504328,4,2,0,90,0,0
78918,-283.870747971034,4,2,0,90,0,0
79100,-275.000275000275,4,2,0,90,0,0
79282,-266.666666666667,4,2,0,90,0,0
79375,-262.67402153927,4,2,0,90,0,0
79464,-258.823285813378,4,2,0,90,0,0
79645,-251.428743836853,4,2,0,90,0,0
79827,-66.6666666666667,4,2,0,90,0,0
80009,-50,4,2,0,90,0,0
80191,-231.579044875387,4,2,0,90,0,0
80373,-44.4444444444445,4,2,0,90,0,0
80554,-220.00022000022,4,2,0,90,0,0
80736,-40,4,2,0,90,0,0
80918,-209.523689795987,4,2,0,90,0,0
81100,-36.3636363636364,4,2,0,90,0,0
81282,-200,4,2,0,90,0,0
81464,-192.307692307692,4,2,0,90,0,0
82191,-50,4,2,0,90,0,0
82918,-200,4,2,0,90,0,0
83100,-50,4,2,0,90,0,0
83284,-40,4,2,0,90,0,1
83645,-200,4,2,0,90,0,1
83918,-205.714332734705,4,2,0,90,0,1
84011,-207.684319833853,4,2,0,90,0,1
84191,-211.764805536379,4,2,0,90,0,1
84373,-215.999982720001,4,2,0,90,0,1
84645,-222.68044910193,4,2,0,90,0,1
84738,-225.022502250225,4,2,0,90,0,1
84918,-229.787331824397,4,2,0,90,0,1
85100,-234.782567863901,4,2,0,90,0,1
85464,-50,4,2,0,90,0,1
85645,-251.162884153631,4,2,0,90,0,1
85827,-257.14278367349,4,2,0,90,0,1
86100,-266.666666666667,4,2,0,90,0,1
86193,-269.978401727862,4,2,0,90,0,1
86373,-276.923162130204,4,2,0,90,0,1
86554,-284.21040664825,4,2,0,90,0,1
86827,-295.890378532561,4,2,0,90,0,1
86920,-300.0300030003,4,2,0,90,0,1
87100,-308.571499102057,4,2,0,90,0,1
87282,-317.646871972428,4,2,0,90,0,1
87554,-332.307610508896,4,2,0,90,0,1
87647,-337.495781302734,4,2,0,90,0,1
87827,-348.387141727373,4,2,0,90,0,1
88009,-359.99971200023,4,2,0,90,0,1
88373,-50,4,2,0,90,0,1
88554,-400,4,2,0,90,0,1
88736,-200,4,2,0,90,0,1
89009,-207.792207792208,4,2,0,90,0,1
89102,-210.526315789474,4,2,0,90,0,1
89282,-216.216216216216,4,2,0,90,0,1
89463,-222.222222222222,4,2,0,90,0,1
89736,-231.884057971014,4,2,0,90,0,1
89829,-235.294117647059,4,2,0,90,0,1
90009,-242.424242424242,4,2,0,90,0,1
90191,-250,4,2,0,90,0,1
90463,-262.295081967213,4,2,0,90,0,1
90556,-266.666666666667,4,2,0,90,0,1
90736,-275.862068965517,4,2,0,90,0,1
90918,-285.714285714286,4,2,0,90,0,1
91282,-50,4,2,0,90,0,1
91463,-320,4,2,0,90,0,1
91645,-333.333333333333,4,2,0,90,0,1
91736,-302.732157723454,4,2,0,90,0,1
91827,-277.277138499931,4,2,0,90,0,1
91918,-255.770829336914,4,2,0,90,0,1
92009,-237.360550676478,4,2,0,90,0,1
92100,-221.422640464988,4,2,0,90,0,1
92191,-207.490834092404,4,2,0,90,0,1
92282,-195.208033200982,4,2,0,90,0,1
92373,-184.298164943172,4,2,0,90,0,1
92464,-174.543220392234,4,2,0,90,0,1
92554,-165.769027383386,4,2,0,90,0,1
92645,-157.834759633445,4,2,0,90,0,1
92736,-150.625321020215,4,2,0,90,0,1
92827,-144.045725875222,4,2,0,90,0,1
92918,-138.01689050706,4,2,0,90,0,1
93009,-132.472439109043,4,2,0,90,0,1
93100,-127.356249816925,4,2,0,90,0,1
93191,-122.620698619168,4,2,0,90,0,1
93282,-118.224550983155,4,2,0,90,0,1
93373,-114.132711233969,4,2,0,90,0,1
93464,-110.314639414538,4,2,0,90,0,1
93554,-106.743749886585,4,2,0,90,0,1
93645,-103.39679139077,4,2,0,90,0,1
93736,-100.253340190662,4,2,0,90,0,1
94193,-50,4,2,0,90,0,0
94556,-40,4,2,0,90,0,1
94918,-200,4,2,0,90,0,1
95100,-203.385142308584,4,2,0,90,0,1
95282,-206.886849444302,4,2,0,90,0,1
95465,-210.50415745711,4,2,0,90,0,1
95556,-212.370586673746,4,2,0,90,0,1
95645,-214.264440887655,4,2,0,90,0,1
96009,-222.188153372038,4,2,0,90,0,1
96373,-230.719892207666,4,2,0,90,0,1
96554,-235.23655387858,4,2,0,90,0,1
96736,-239.933586383289,4,2,0,90,0,1
96920,-244.828008324152,4,2,0,90,0,1
97011,-247.356378702616,4,2,0,90,0,1
97100,-50,4,2,0,90,0,1
97464,-260.759592693516,4,2,0,90,0,1
97827,-272.589491129938,4,2,0,90,0,1
98009,-278.916687585418,4,2,0,90,0,1
98191,-285.544590643275,4,2,0,90,0,1
98364,-292.525961679099,4,2,0,90,0,1
98465,-296.142740801066,4,2,0,90,0,1
98554,-299.792543559857,4,2,0,90,0,1
98918,-315.536048415851,4,2,0,90,0,1
99282,-333.025839474885,4,2,0,90,0,1
99464,-342.517365630438,4,2,0,90,0,1
99645,-352.567040622774,4,2,0,90,0,1
99829,-368.901595499401,4,2,0,90,0,1
99920,-377.643504531722,4,2,0,90,0,1
100009,-50,4,2,0,90,0,1
100373,-200,4,2,0,90,0,1
100556,-204.373594931535,4,2,0,90,0,1
100736,-208.955411004846,4,2,0,90,0,1
100918,-213.740523279549,4,2,0,90,0,1
101100,-218.749931640646,4,2,0,90,0,1
101284,-224.014336917563,4,2,0,90,0,1
101375,-226.731663076749,4,2,0,90,0,1
101464,-229.508347218588,4,2,0,90,0,1
101827,-241.379143876453,4,2,0,90,0,1
102191,-254.545547107472,4,2,0,90,0,1
102373,-261.682145165553,4,2,0,90,0,1
102554,-269.23045858024,4,2,0,90,0,1
102738,-277.238702522872,4,2,0,90,0,1
102829,-281.412691712396,4,2,0,90,0,1
102918,-50,4,2,0,90,0,1
103282,-304.321363359708,4,2,0,90,0,1
103373,-294.094292512065,4,2,0,90,0,1
103464,-284.533067010383,4,2,0,90,0,1
103645,-267.160379047146,4,2,0,90,0,1
103827,-251.787692617585,4,2,0,90,0,1
103918,-244.745917026239,4,2,0,90,0,1
104009,-238.087868708826,4,2,0,90,0,1
104191,-225.801425710202,4,2,0,90,0,1
104373,-214.721291763291,4,2,0,90,0,1
104464,-209.579018625287,4,2,0,90,0,1
104554,-204.677704252998,4,2,0,90,0,1
104645,-200,4,2,0,90,0,1
104738,-195.541650371529,4,2,0,90,0,0
105827,-50,4,2,0,90,0,0
106193,-33.3333333333333,4,2,0,90,0,1
106373,-20,4,2,0,90,0,1
107645,-200,4,2,0,40,0,1
108738,-100,4,2,0,40,0,0

[HitObjects]
256,192,1466,5,6,0:0:0:0:
256,192,2193,1,0,0:0:0:0:
256,192,2556,1,2,0:0:0:0:
256,192,2920,1,0,0:0:0:0:
256,192,3647,1,0,0:0:0:0:
256,192,4011,1,0,0:0:0:0:
256,192,4375,1,2,0:0:0:0:
256,192,4738,1,2,0:0:0:0:
256,192,4920,1,2,0:0:0:0:
256,192,5102,1,0,0:0:0:0:
256,192,5466,1,0,0:0:0:0:
256,192,5829,1,2,0:0:0:0:
256,192,6556,1,2,0:0:0:0:
256,192,7102,1,0,0:0:0:0:
256,192,7284,1,2,0:0:0:0:
256,192,7466,1,0,0:0:0:0:
256,192,7647,1,2,0:0:0:0:
256,192,8375,1,2,0:0:0:0:
256,192,8738,1,0,0:0:0:0:
256,192,9102,1,2,0:0:0:0:
256,192,9466,1,2,0:0:0:0:
256,192,9829,1,2,0:0:0:0:
256,192,10193,1,0,0:0:0:0:
256,192,10920,1,2,0:0:0:0:
256,192,12738,1,4,0:0:0:0:
256,192,13102,1,6,0:0:0:0:
256,192,13466,1,2,0:0:0:0:
256,192,13829,1,0,0:0:0:0:
256,192,14193,1,2,0:0:0:0:
256,192,14556,1,0,0:0:0:0:
256,192,14920,1,2,0:0:0:0:
256,192,15284,1,0,0:0:0:0:
256,192,15647,1,2,0:0:0:0:
256,192,16011,1,0,0:0:0:0:
256,192,16375,1,2,0:0:0:0:
256,192,16556,1,0,0:0:0:0:
256,192,16738,1,0,0:0:0:0:
256,192,17102,1,2,0:0:0:0:
256,192,17466,1,0,0:0:0:0:
256,192,17829,1,2,0:0:0:0:
256,192,18193,1,0,0:0:0:0:
256,192,18556,1,0,0:0:0:0:
256,192,18920,1,2,0:0:0:0:
256,192,19284,1,0,0:0:0:0:
256,192,19466,1,2,0:0:0:0:
256,192,19647,1,0,0:0:0:0:
256,192,20011,1,2,0:0:0:0:
256,192,20375,1,0,0:0:0:0:
256,192,20556,1,2,0:0:0:0:
256,192,20738,1,2,0:0:0:0:
256,192,21102,1,2,0:0:0:0:
256,192,21193,1,2,0:0:0:0:
256,192,21284,1,2,0:0:0:0:
256,192,21466,1,0,0:0:0:0:
256,192,21647,1,2,0:0:0:0:
256,192,21829,1,2,0:0:0:0:
256,192,22193,1,2,0:0:0:0:
256,192,22375,1,2,0:0:0:0:
256,192,22556,1,0,0:0:0:0:
256,192,22920,1,2,0:0:0:0:
256,192,23284,1,0,0:0:0:0:
256,192,23466,1,2,0:0:0:0:
256,192,23647,1,2,0:0:0:0:
256,192,24011,1,2,0:0:0:0:
256,192,24102,1,2,0:0:0:0:
256,192,24193,1,2,0:0:0:0:
256,192,24375,1,0,0:0:0:0:
256,192,24556,1,2,0:0:0:0:
256,192,24738,1,6,0:0:0:0:
256,192,25102,1,2,0:0:0:0:
256,192,25284,1,2,0:0:0:0:
256,192,25466,1,0,0:0:0:0:
256,192,25829,1,2,0:0:0:0:
256,192,26193,1,0,0:0:0:0:
256,192,26375,1,2,0:0:0:0:
256,192,26556,1,2,0:0:0:0:
256,192,26920,1,2,0:0:0:0:
256,192,27011,1,2,0:0:0:0:
256,192,27102,1,2,0:0:0:0:
256,192,27284,1,0,0:0:0:0:
256,192,27466,1,2,0:0:0:0:
256,192,27647,1,6,0:0:0:0:
256,192,28011,1,2,0:0:0:0:
256,192,28193,1,2,0:0:0:0:
256,192,28375,1,0,0:0:0:0:
256,192,28738,1,2,0:0:0:0:
256,192,29102,1,0,0:0:0:0:
256,192,29284,1,2,0:0:0:0:
256,192,29466,1,2,0:0:0:0:
256,192,29829,1,2,0:0:0:0:
256,192,29920,1,2,0:0:0:0:
256,192,30011,1,2,0:0:0:0:
256,192,30193,1,0,0:0:0:0:
256,192,30375,1,2,0:0:0:0:
256,192,30556,1,6,0:0:0:0:
256,192,30920,1,0,0:0:0:0:
256,192,31102,1,2,0:0:0:0:
256,192,31284,1,0,0:0:0:0:
256,192,31466,1,0,0:0:0:0:
256,192,31647,1,2,0:0:0:0:
256,192,31738,1,2,0:0:0:0:
256,192,31829,1,2,0:0:0:0:
256,192,31920,1,2,0:0:0:0:
256,192,32011,1,0,0:0:0:0:
256,192,32193,1,2,0:0:0:0:
256,192,32284,1,2,0:0:0:0:
256,192,32375,1,2,0:0:0:0:
256,192,32556,1,0,0:0:0:0:
256,192,32738,1,2,0:0:0:0:
256,192,32829,1,2,0:0:0:0:
256,192,32920,1,2,0:0:0:0:
256,192,33102,1,0,0:0:0:0:
256,192,33284,1,2,0:0:0:0:
256,192,33466,1,6,0:0:0:0:
256,192,33829,1,2,0:0:0:0:
256,192,34193,1,2,0:0:0:0:
256,192,34556,1,2,0:0:0:0:
256,192,34920,1,0,0:0:0:0:
256,192,36011,1,4,0:0:0:0:
256,192,36375,1,6,0:0:0:0:
256,192,36647,1,2,0:0:0:0:
256,192,36738,1,0,0:0:0:0:
256,192,36920,1,2,0:0:0:0:
256,192,37102,1,0,0:0:0:0:
256,192,37465,1,2,0:0:0:0:
256,192,37647,1,0,0:0:0:0:
256,192,37829,1,2,0:0:0:0:
256,192,37920,1,2,0:0:0:0:
256,192,38011,1,2,0:0:0:0:
256,192,38193,1,2,0:0:0:0:
256,192,38556,1,0,0:0:0:0:
256,192,38920,1,4,0:0:0:0:
256,192,39284,1,2,0:0:0:0:
256,192,39556,1,2,0:0:0:0:
256,192,39647,1,0,0:0:0:0:
256,192,39829,1,2,0:0:0:0:
256,192,40011,1,0,0:0:0:0:
256,192,40375,1,2,0:0:0:0:
256,192,40556,1,0,0:0:0:0:
256,192,40738,1,2,0:0:0:0:
256,192,40829,1,2,0:0:0:0:
256,192,40920,1,2,0:0:0:0:
256,192,41102,1,2,0:0:0:0:
256,192,41466,1,0,0:0:0:0:
256,192,41829,1,4,0:0:0:0:
256,192,42193,1,2,0:0:0:0:
256,192,42375,1,0,0:0:0:0:
256,192,42466,1,2,0:0:0:0:
256,192,42556,1,0,0:0:0:0:
256,192,42738,1,2,0:0:0:0:
256,192,43102,1,0,0:0:0:0:
256,192,43284,1,2,0:0:0:0:
256,192,43466,1,0,0:0:0:0:
256,192,43647,1,2,0:0:0:0:
256,192,43829,1,2,0:0:0:0:
256,192,44011,1,2,0:0:0:0:
256,192,44375,1,0,0:0:0:0:
256,192,44738,1,4,0:0:0:0:
256,192,45102,1,2,0:0:0:0:
256,192,45375,1,2,0:0:0:0:
256,192,45465,1,0,0:0:0:0:
256,192,45647,1,2,0:0:0:0:
256,192,45829,1,0,0:0:0:0:
256,192,46193,1,2,0:0:0:0:
256,192,46375,1,0,0:0:0:0:
256,192,46556,1,2,0:0:0:0:
256,192,46647,1,2,0:0:0:0:
256,192,46738,1,2,0:0:0:0:
256,192,46920,1,2,0:0:0:0:
256,192,47284,1,2,0:0:0:0:
256,192,47375,1,2,0:0:0:0:
256,192,47466,1,2,0:0:0:0:
256,192,47647,1,4,0:0:0:0:
256,192,48011,1,2,0:0:0:0:
256,192,48102,1,2,0:0:0:0:
256,192,48193,1,2,0:0:0:0:
256,192,48375,1,0,0:0:0:0:
256,192,48556,1,2,0:0:0:0:
256,192,48647,1,2,0:0:0:0:
256,192,48738,1,2,0:0:0:0:
256,192,49102,1,2,0:0:0:0:
256,192,49193,1,2,0:0:0:0:
256,192,49284,1,2,0:0:0:0:
256,192,49465,1,0,0:0:0:0:
256,192,49556,1,0,0:0:0:0:
256,192,49647,1,2,0:0:0:0:
256,192,49829,1,0,0:0:0:0:
256,192,50193,1,2,0:0:0:0:
256,192,50375,1,2,0:0:0:0:
256,192,50556,1,4,0:0:0:0:
256,192,50920,1,2,0:0:0:0:
256,192,51011,1,2,0:0:0:0:
256,192,51102,1,2,0:0:0:0:
256,192,51284,1,0,0:0:0:0:
256,192,51466,1,2,0:0:0:0:
256,192,51556,1,2,0:0:0:0:
256,192,51647,1,2,0:0:0:0:
256,192,52011,1,2,0:0:0:0:
256,192,52102,1,2,0:0:0:0:
256,192,52193,1,2,0:0:0:0:
256,192,52375,1,0,0:0:0:0:
256,192,52465,1,0,0:0:0:0:
256,192,52556,1,2,0:0:0:0:
256,192,52738,1,0,0:0:0:0:
256,192,53102,1,2,0:0:0:0:
256,192,53284,1,2,0:0:0:0:
256,192,53466,1,4,0:0:0:0:
256,192,53829,1,2,0:0:0:0:
256,192,53920,1,2,0:0:0:0:
256,192,54011,1,2,0:0:0:0:
256,192,54193,1,0,0:0:0:0:
256,192,54375,1,2,0:0:0:0:
256,192,54466,1,2,0:0:0:0:
256,192,54556,1,2,0:0:0:0:
256,192,54920,1,2,0:0:0:0:
256,192,55011,1,2,0:0:0:0:
256,192,55102,1,2,0:0:0:0:
256,192,55284,1,0,0:0:0:0:
256,192,55375,1,0,0:0:0:0:
256,192,55466,1,2,0:0:0:0:
256,192,55647,1,0,0:0:0:0:
256,192,56011,1,2,0:0:0:0:
256,192,56193,1,2,0:0:0:0:
256,192,56375,1,4,0:0:0:0:
256,192,56738,1,2,0:0:0:0:
256,192,56829,1,2,0:0:0:0:
256,192,56920,1,2,0:0:0:0:
256,192,57011,1,2,0:0:0:0:
256,192,57102,1,0,0:0:0:0:
256,192,57284,1,2,0:0:0:0:
256,192,57375,1,2,0:0:0:0:
256,192,57466,1,0,0:0:0:0:
256,192,57556,1,0,0:0:0:0:
256,192,57647,1,0,0:0:0:0:
256,192,57829,1,2,0:0:0:0:
256,192,57920,1,0,0:0:0:0:
256,192,58011,1,0,0:0:0:0:
256,192,58102,1,0,0:0:0:0:
256,192,58193,1,0,0:0:0:0:
256,192,58375,1,2,0:0:0:0:
256,192,58556,1,0,0:0:0:0:
256,192,58647,1,0,0:0:0:0:
256,192,58738,1,0,0:0:0:0:
256,192,58829,1,0,0:0:0:0:
256,192,58920,1,2,0:0:0:0:
256,192,59011,1,2,0:0:0:0:
256,192,59102,1,2,0:0:0:0:
256,192,59193,1,2,0:0:0:0:
256,192,59284,1,4,0:0:0:0:
256,192,59647,1,2,0:0:0:0:
256,192,59920,1,2,0:0:0:0:
256,192,60011,1,0,0:0:0:0:
256,192,60193,1,2,0:0:0:0:
256,192,60375,1,0,0:0:0:0:
256,192,60647,1,2,0:0:0:0:
256,192,60738,1,0,0:0:0:0:
256,192,60920,1,2,0:0:0:0:
256,192,61102,1,2,0:0:0:0:
256,192,61375,1,2,0:0:0:0:
256,192,61465,1,0,0:0:0:0:
256,192,61647,1,2,0:0:0:0:
256,192,61829,1,0,0:0:0:0:
256,192,62011,1,0,0:0:0:0:
256,192,62102,1,2,0:0:0:0:
256,192,62193,1,2,0:0:0:0:
256,192,62375,1,2,0:0:0:0:
256,192,62556,1,2,0:0:0:0:
256,192,62829,1,2,0:0:0:0:
256,192,62920,1,0,0:0:0:0:
256,192,63102,1,2,0:0:0:0:
256,192,63284,1,0,0:0:0:0:
256,192,63556,1,2,0:0:0:0:
256,192,63647,1,0,0:0:0:0:
256,192,63829,1,2,0:0:0:0:
256,192,64011,1,2,0:0:0:0:
256,192,64284,1,2,0:0:0:0:
256,192,64375,1,0,0:0:0:0:
256,192,64556,1,2,0:0:0:0:
256,192,64738,1,0,0:0:0:0:
256,192,65011,1,2,0:0:0:0:
256,192,65102,1,0,0:0:0:0:
256,192,65284,1,2,0:0:0:0:
256,192,65466,1,2,0:0:0:0:
256,192,66011,1,2,0:0:0:0:
256,192,66193,1,0,0:0:0:0:
256,192,66556,1,2,0:0:0:0:
256,192,66920,1,0,0:0:0:0:
256,192,67102,1,2,0:0:0:0:
256,192,67284,1,2,0:0:0:0:
256,192,67647,1,0,0:0:0:0:
256,192,67738,1,0,0:0:0:0:
256,192,67829,1,2,0:0:0:0:
256,192,68193,1,2,0:0:0:0:
256,192,68375,1,2,0:0:0:0:
256,192,68920,1,2,0:0:0:0:
256,192,69102,1,0,0:0:0:0:
256,192,69466,1,2,0:0:0:0:
256,192,69829,1,0,0:0:0:0:
256,192,69920,1,0,0:0:0:0:
256,192,70011,1,0,0:0:0:0:
256,192,70193,1,0,0:0:0:0:
256,192,70556,1,2,0:0:0:0:
256,192,70647,1,2,0:0:0:0:
256,192,70738,1,2,0:0:0:0:
256,192,70920,1,4,0:0:0:0:
256,192,71284,1,6,0:0:0:0:
256,192,71647,1,2,0:0:0:0:
256,192,71829,1,2,0:0:0:0:
256,192,71920,1,2,0:0:0:0:
256,192,72011,1,2,0:0:0:0:
256,192,72375,1,2,0:0:0:0:
256,192,72465,1,2,0:0:0:0:
256,192,72556,1,2,0:0:0:0:
256,192,72738,1,0,0:0:0:0:
256,192,72920,1,2,0:0:0:0:
256,192,73102,1,0,0:0:0:0:
256,192,73466,1,2,0:0:0:0:
256,192,73829,1,2,0:0:0:0:
256,192,73920,1,2,0:0:0:0:
256,192,74011,1,2,0:0:0:0:
256,192,74102,1,2,0:0:0:0:
256,192,74193,1,4,0:0:0:0:
256,192,74556,1,0,0:0:0:0:
256,192,74738,1,0,0:0:0:0:
256,192,74829,1,0,0:0:0:0:
256,192,74920,1,0,0:0:0:0:
256,192,75284,1,0,0:0:0:0:
256,192,75375,1,0,0:0:0:0:
256,192,75465,1,0,0:0:0:0:
256,192,75647,1,0,0:0:0:0:
256,192,75829,1,2,0:0:0:0:
256,192,76011,1,0,0:0:0:0:
256,192,76375,1,0,0:0:0:0:
256,192,76556,1,2,0:0:0:0:
256,192,76738,1,0,0:0:0:0:
256,192,76920,1,4,0:0:0:0:
256,192,77102,1,6,0:0:0:0:
256,192,77284,1,0,0:0:0:0:
256,192,77375,1,0,0:0:0:0:
256,192,77466,1,2,0:0:0:0:
256,192,77647,1,0,0:0:0:0:
256,192,77829,1,2,0:0:0:0:
256,192,77920,1,2,0:0:0:0:
256,192,78011,1,0,0:0:0:0:
256,192,78193,1,2,0:0:0:0:
256,192,78375,1,4,0:0:0:0:
256,192,78556,1,6,0:0:0:0:
256,192,78738,1,0,0:0:0:0:
256,192,78829,1,0,0:0:0:0:
256,192,78920,1,2,0:0:0:0:
256,192,79102,1,0,0:0:0:0:
256,192,79284,1,2,0:0:0:0:
256,192,79375,1,2,0:0:0:0:
256,192,79466,1,0,0:0:0:0:
256,192,79647,1,2,0:0:0:0:
256,192,79829,1,4,0:0:0:0:
256,192,80011,1,6,0:0:0:0:
256,192,80193,1,2,0:0:0:0:
256,192,80375,1,6,0:0:0:0:
256,192,80556,1,2,0:0:0:0:
256,192,80738,1,6,0:0:0:0:
256,192,80920,1,2,0:0:0:0:
256,192,81102,1,6,0:0:0:0:
256,192,81284,1,2,0:0:0:0:
256,192,82556,1,4,0:0:0:0:
256,192,83102,1,4,0:0:0:0:
256,192,83284,1,6,0:0:0:0:
256,192,83647,1,0,0:0:0:0:
256,192,83920,1,0,0:0:0:0:
256,192,84011,1,2,0:0:0:0:
256,192,84193,1,0,0:0:0:0:
256,192,84375,1,0,0:0:0:0:
256,192,84647,1,0,0:0:0:0:
256,192,84738,1,2,0:0:0:0:
256,192,84920,1,0,0:0:0:0:
256,192,85102,1,0,0:0:0:0:
256,192,85466,1,4,0:0:0:0:
256,192,85647,1,0,0:0:0:0:
256,192,85829,1,0,0:0:0:0:
256,192,86102,1,0,0:0:0:0:
256,192,86193,1,2,0:0:0:0:
256,192,86375,1,0,0:0:0:0:
256,192,86556,1,0,0:0:0:0:
256,192,86829,1,0,0:0:0:0:
256,192,86920,1,2,0:0:0:0:
256,192,87102,1,0,0:0:0:0:
256,192,87284,1,0,0:0:0:0:
256,192,87556,1,0,0:0:0:0:
256,192,87647,1,2,0:0:0:0:
256,192,87829,1,0,0:0:0:0:
256,192,88011,1,0,0:0:0:0:
256,192,88375,1,4,0:0:0:0:
256,192,88556,1,0,0:0:0:0:
256,192,88738,1,0,0:0:0:0:
256,192,89011,1,0,0:0:0:0:
256,192,89102,1,2,0:0:0:0:
256,192,89284,1,0,0:0:0:0:
256,192,89465,1,0,0:0:0:0:
256,192,89738,1,0,0:0:0:0:
256,192,89829,1,2,0:0:0:0:
256,192,90011,1,0,0:0:0:0:
256,192,90193,1,0,0:0:0:0:
256,192,90465,1,0,0:0:0:0:
256,192,90556,1,2,0:0:0:0:
256,192,90738,1,0,0:0:0:0:
256,192,90920,1,0,0:0:0:0:
256,192,91284,1,4,0:0:0:0:
256,192,91465,1,0,0:0:0:0:
256,192,91647,1,2,0:0:0:0:
256,192,91738,1,2,0:0:0:0:
256,192,91829,1,2,0:0:0:0:
256,192,91920,1,2,0:0:0:0:
256,192,92011,1,2,0:0:0:0:
256,192,92102,1,2,0:0:0:0:
256,192,92193,1,2,0:0:0:0:
256,192,92284,1,2,0:0:0:0:
256,192,92375,1,2,0:0:0:0:
256,192,92466,1,2,0:0:0:0:
256,192,92556,1,2,0:0:0:0:
256,192,92647,1,2,0:0:0:0:
256,192,92738,1,2,0:0:0:0:
256,192,92829,1,2,0:0:0:0:
256,192,92920,1,2,0:0:0:0:
256,192,93011,1,2,0:0:0:0:
256,192,93102,1,2,0:0:0:0:
256,192,93193,1,2,0:0:0:0:
256,192,93284,1,2,0:0:0:0:
256,192,93375,1,2,0:0:0:0:
256,192,93466,1,2,0:0:0:0:
256,192,93556,1,2,0:0:0:0:
256,192,93647,1,2,0:0:0:0:
256,192,93738,1,2,0:0:0:0:
256,192,94193,1,4,0:0:0:0:
256,192,94556,1,6,0:0:0:0:
256,192,94920,1,2,0:0:0:0:
256,192,95102,1,2,0:0:0:0:
256,192,95284,1,0,0:0:0:0:
256,192,95465,1,0,0:0:0:0:
256,192,95556,1,0,0:0:0:0:
256,192,95647,1,2,0:0:0:0:
256,192,96011,1,0,0:0:0:0:
256,192,96375,1,2,0:0:0:0:
256,192,96556,1,2,0:0:0:0:
256,192,96738,1,0,0:0:0:0:
256,192,96920,1,2,0:0:0:0:
256,192,97011,1,2,0:0:0:0:
256,192,97102,1,4,0:0:0:0:
256,192,97466,1,2,0:0:0:0:
256,192,97829,1,2,0:0:0:0:
256,192,98011,1,2,0:0:0:0:
256,192,98193,1,0,0:0:0:0:
256,192,98375,1,0,0:0:0:0:
256,192,98465,1,0,0:0:0:0:
256,192,98556,1,2,0:0:0:0:
256,192,98920,1,0,0:0:0:0:
256,192,99284,1,2,0:0:0:0:
256,192,99466,1,2,0:0:0:0:
256,192,99647,1,0,0:0:0:0:
256,192,99829,1,2,0:0:0:0:
256,192,99920,1,2,0:0:0:0:
256,192,100011,1,4,0:0:0:0:
256,192,100375,1,2,0:0:0:0:
256,192,100556,1,0,0:0:0:0:
256,192,100738,1,2,0:0:0:0:
256,192,100920,1,2,0:0:0:0:
256,192,101102,1,0,0:0:0:0:
256,192,101284,1,0,0:0:0:0:
256,192,101375,1,0,0:0:0:0:
256,192,101466,1,2,0:0:0:0:
256,192,101829,1,0,0:0:0:0:
256,192,102193,1,2,0:0:0:0:
256,192,102375,1,2,0:0:0:0:
256,192,102556,1,0,0:0:0:0:
256,192,102738,1,2,0:0:0:0:
256,192,102829,1,2,0:0:0:0:
256,192,102920,1,4,0:0:0:0:
256,192,103284,1,2,0:0:0:0:
256,192,103375,1,2,0:0:0:0:
256,192,103466,1,2,0:0:0:0:
256,192,103647,1,2,0:0:0:0:
256,192,103829,1,2,0:0:0:0:
256,192,103920,1,2,0:0:0:0:
256,192,104011,1,2,0:0:0:0:
256,192,104193,1,2,0:0:0:0:
256,192,104375,1,2,0:0:0:0:
256,192,104466,1,2,0:0:0:0:
256,192,104556,1,2,0:0:0:0:
256,192,104647,1,2,0:0:0:0:
256,192,105829,1,6,0:0:0:0:
256,192,106193,1,4,0:0:0:0:
256,192,106375,12,6,108738,0:0:0:0:
