osu file format v14

[General]
AudioFilename: audio.mp3
AudioLeadIn: 0
PreviewTime: 83102
Countdown: 0
SampleSet: Soft
StackLeniency: 0.7
Mode: 1
LetterboxInBreaks: 0
WidescreenStoryboard: 1

[Editor]
DistanceSpacing: 1
BeatDivisor: 4
GridSize: 32
TimelineZoom: 1

[Metadata]
Title:Opium and Purple haze
TitleUnicode:Opium and Purple haze
Artist:D.watt (OTAKU-ELITE Recordings)
ArtistUnicode:D.watt (OTAKU-ELITE Recordings)
Creator:Cynplytholowazy
Version:EXHAUST
Source:東方地霊殿 ~ Subterranean Animism.
Tags:touhou 少女さとり ~ 3rd eye SOUND VOLTEX III GRAVITY WARS SDVX 3 SDVX3 Electronic Instrumental cut short version 方Project Satori Shoujo Maiden Third Komeiji 古明地さとり SA
BeatmapID:2984000
BeatmapSetID:1241481

[Difficulty]
HPDrainRate:7.8
CircleSize:10
OverallDifficulty:5.5
ApproachRate:10
SliderMultiplier:1.4
SliderTickRate:1

[Events]
//Background and Video events
0,0,"03134e.jpg",0,0
//Break Periods
//Storyboard Layer 0 (Background)
//Storyboard Layer 1 (Fail)
//Storyboard Layer 2 (Pass)
//Storyboard Layer 3 (Foreground)
//Storyboard Layer 4 (Overlay)
//Storyboard Sound Samples

[TimingPoints]
1466,363.6363636,4,2,0,90,1,0
1466,-76.83174228,4,2,0,90,0,0
1827,-156.9168196,4,2,0,90,0,0
12373,-76.83174228,4,2,0,90,0,0
13100,-63.72803137,4,2,0,90,0,0
13464,-156.9168196,4,2,0,90,0,0
13827,-159.6979223,4,2,0,90,0,0
14191,-162.607881,4,2,0,90,0,0
14554,-165.6560911,4,2,0,90,0,0
14918,-168.8536628,4,2,0,90,0,0
15282,-172.2129688,4,2,0,90,0,0
15645,-175.7470165,4,2,0,90,0,0
16009,-179.4711701,4,2,0,90,0,0
16373,-183.4027106,4,2,0,90,0,0
16554,-185.4517258,4,2,0,90,0,0
16736,-187.5601892,4,2,0,90,0,0
17100,-191.9655571,4,2,0,90,0,0
17464,-196.6438052,4,2,0,90,0,0
17827,-201.6223647,4,2,0,90,0,0
18191,-206.9338693,4,2,0,90,0,0
18554,-212.6160331,4,2,0,90,0,0
18918,-218.7112811,4,2,0,90,0,0
19282,-212.8059063,4,2,0,90,0,0
19464,-210.0013477,4,2,0,90,0,0
19645,-207.2891637,4,2,0,90,0,0
20009,-202.1211627,4,2,0,90,0,0
20373,-197.2685261,4,2,0,90,0,0
20554,-194.950693,4,2,0,90,0,0
20736,-192.7011084,4,2,0,90,0,0
21100,-188.3929108,4,2,0,90,0,0
21191,-187.3535454,4,2,0,90,0,0
21282,-186.3286135,4,2,0,90,0,0
21464,-184.3207832,4,2,0,90,0,0
21645,-182.3672781,4,2,0,90,0,0
21827,-180.4651958,4,2,0,90,0,0
22191,-176.8079591,4,2,0,90,0,0
22373,-175.0485517,4,2,0,90,0,0
22554,-173.3331798,4,2,0,90,0,0
22918,-170.026667,4,2,0,90,0,0
23282,-166.8754683,4,2,0,90,0,0
23464,-165.3548258,4,2,0,90,0,0
23645,-163.8686442,4,2,0,90,0,0
24009,-160.9956424,4,2,0,90,0,0
24100,-160.2971363,4,2,0,90,0,0
24191,-159.6062723,4,2,0,90,0,0
24373,-158.2471482,4,2,0,90,0,0
24554,-156.9168196,4,2,0,90,0,0
24736,-63.72803137,4,2,0,90,0,0
25100,-156.9168196,4,2,0,90,0,0
25282,-160.1263934,4,2,0,90,0,0
25464,-163.5082598,4,2,0,90,0,0
25827,-170.8512123,4,2,0,90,0,0
26191,-179.0935267,4,2,0,90,0,0
26373,-183.609404,4,2,0,90,0,0
26554,-188.4263371,4,2,0,90,0,0
26918,-199.1016177,4,2,0,90,0,0
27009,-202.0172787,4,2,0,90,0,0
27100,-205.0442269,4,2,0,90,0,0
27282,-211.459219,4,2,0,90,0,0
27464,-218.4090064,4,2,0,90,0,0
27645,-63.72803137,4,2,0,90,0,0
28009,-156.9168196,4,2,0,90,0,0
28191,-160.1263934,4,2,0,90,0,0
28373,-163.5082598,4,2,0,90,0,0
28736,-170.8512123,4,2,0,90,0,0
29100,-179.0935267,4,2,0,90,0,0
29282,-183.609404,4,2,0,90,0,0
29464,-188.4263371,4,2,0,90,0,0
29827,-199.1016177,4,2,0,90,0,0
29918,-202.0172787,4,2,0,90,0,0
30009,-205.0442269,4,2,0,90,0,0
30191,-211.459219,4,2,0,90,0,0
30373,-218.4090064,4,2,0,90,0,0
30554,-63.72803137,4,2,0,90,0,0
30918,-156.9168196,4,2,0,90,0,0
31100,-160.1263934,4,2,0,90,0,0
31282,-163.5082598,4,2,0,90,0,0
31464,-167.0772915,4,2,0,90,0,0
31645,-170.8512123,4,2,0,90,0,0
32009,-179.0935267,4,2,0,90,0,0
32191,-183.609404,4,2,0,90,0,0
32373,-188.4263371,4,2,0,90,0,0
32554,-193.5772188,4,2,0,90,0,0
32736,-199.1016177,4,2,0,90,0,0
32827,-202.0172787,4,2,0,90,0,0
32918,-205.0442269,4,2,0,90,0,0
33100,-211.459219,4,2,0,90,0,0
33282,-218.4090064,4,2,0,90,0,0
33464,-63.72803137,4,2,0,90,0,0
33827,-218.7112811,4,2,0,90,0,0
34191,-192.1222583,4,2,0,90,0,0
34554,-172.4507807,4,2,0,90,0,0
34918,-157.198766,4,2,0,90,0,0
36009,-76.83174228,4,2,0,90,0,0
36373,-63.72803137,4,2,0,90,0,0
36645,-156.9168196,4,2,0,90,0,0
36918,-163.0344597,4,2,0,90,0,0
37282,-172.2129688,4,2,0,90,0,0
37645,-182.8276384,4,2,0,90,0,0
37827,-188.79274,4,2,0,90,0,0
38009,-195.2776803,4,2,0,90,0,0
38191,-202.3600666,4,2,0,90,0,0
38554,-218.7112811,4,2,0,90,0,0
38918,-63.72803137,4,2,0,90,0,0
39282,-156.9168196,4,2,0,90,0,0
39554,-162.2174068,4,2,0,90,0,0
39827,-167.9977099,4,2,0,90,0,0
40191,-176.58021,4,2,0,90,0,0
40554,-186.3709035,4,2,0,90,0,0
40736,-191.8088403,4,2,0,90,0,0
40918,-197.6685076,4,2,0,90,0,0
41100,-204.0050289,4,2,0,90,0,0
41464,-218.3839827,4,2,0,90,0,0
41827,-63.72803137,4,2,0,90,0,0
42168,-156.9168196,4,2,0,90,0,0
42440,-162.2174068,4,2,0,90,0,0
42713,-167.9977099,4,2,0,90,0,0
43077,-176.58021,4,2,0,90,0,0
43440,-186.3709035,4,2,0,90,0,0
43622,-191.8088403,4,2,0,90,0,0
43804,-197.6685076,4,2,0,90,0,0
43986,-204.0050289,4,2,0,90,0,0
44350,-218.3839827,4,2,0,90,0,0
44713,-63.72803137,4,2,0,90,0,0
45077,-156.9168196,4,2,0,90,0,0
45349,-162.2174068,4,2,0,90,0,0
45622,-167.9977099,4,2,0,90,0,0
45986,-176.58021,4,2,0,90,0,0
46349,-186.3709035,4,2,0,90,0,0
46531,-191.8088403,4,2,0,90,0,0
46713,-197.6685076,4,2,0,90,0,0
46895,-204.0050289,4,2,0,90,0,0
47259,-218.3839827,4,2,0,90,0,0
47464,-226.5915437,4,2,0,90,0,0
47622,-63.72803137,4,2,0,90,0,0
48009,-156.9168196,4,2,0,90,0,0
48100,-158.5010918,4,2,0,90,0,0
48191,-160.1263934,4,2,0,90,0,0
48554,-167.0772915,4,2,0,90,0,0
48645,-168.9375061,4,2,0,90,0,0
48736,-170.8512123,4,2,0,90,0,0
49100,-179.0935267,4,2,0,90,0,0
49191,-181.3159325,4,2,0,90,0,0
49282,-183.609404,4,2,0,90,0,0
49464,-188.4315309,4,2,0,90,0,0
49645,-193.5772188,4,2,0,90,0,0
49827,-199.1016177,4,2,0,90,0,0
50191,-211.459219,4,2,0,90,0,0
50373,-218.4090064,4,2,0,90,0,0
50554,-63.72803137,4,2,0,90,0,0
50895,-156.9168196,4,2,0,90,0,0
50986,-158.5010918,4,2,0,90,0,0
51077,-160.1263934,4,2,0,90,0,0
51440,-167.0772915,4,2,0,90,0,0
51531,-168.9375061,4,2,0,90,0,0
51622,-170.8512123,4,2,0,90,0,0
51986,-179.0935267,4,2,0,90,0,0
52077,-181.3159325,4,2,0,90,0,0
52168,-183.609404,4,2,0,90,0,0
52350,-188.4315309,4,2,0,90,0,0
52531,-193.5772188,4,2,0,90,0,0
52713,-199.1016177,4,2,0,90,0,0
53077,-211.459219,4,2,0,90,0,0
53259,-218.4090064,4,2,0,90,0,0
53464,-63.72803137,4,2,0,90,0,0
53804,-156.9168196,4,2,0,90,0,0
53895,-158.5010918,4,2,0,90,0,0
53986,-160.1263934,4,2,0,90,0,0
54349,-167.0772915,4,2,0,90,0,0
54440,-168.9375061,4,2,0,90,0,0
54531,-170.8512123,4,2,0,90,0,0
54895,-179.0935267,4,2,0,90,0,0
54986,-181.3159325,4,2,0,90,0,0
55077,-183.609404,4,2,0,90,0,0
55259,-188.4315309,4,2,0,90,0,0
55440,-193.5772188,4,2,0,90,0,0
55622,-199.1016177,4,2,0,90,0,0
55986,-211.459219,4,2,0,90,0,0
56168,-218.4090064,4,2,0,90,0,0
56373,-63.72803137,4,2,0,90,0,0
56736,-139.3803938,4,2,0,90,0,0
56827,-141.4447412,4,2,0,90,0,0
56918,-143.5883498,4,2,0,90,0,0
57100,-148.1345235,4,2,0,90,0,0
57282,-153.0648142,4,2,0,90,0,0
57373,-155.6908589,4,2,0,90,0,0
57464,-158.4341643,4,2,0,90,0,0
57645,-164.3089593,4,2,0,90,0,0
57827,-170.7702479,4,2,0,90,0,0
57918,-174.2513467,4,2,0,90,0,0
58009,-177.9181347,4,2,0,90,0,0
58191,-185.8778813,4,2,0,90,0,0
58373,-194.8089115,4,2,0,90,0,0
58554,-204.9160021,4,2,0,90,0,0
58645,-210.4917736,4,2,0,90,0,0
58736,-216.4699833,4,2,0,90,0,0
58918,-229.8352201,4,2,0,90,0,0
59009,-237.3470424,4,2,0,90,0,0
59100,-245.5157748,4,2,0,90,0,0
59282,-63.72803137,4,2,0,90,0,0
59645,-246.2288827,4,2,0,90,0,0
65464,-243.0798069,4,2,0,90,0,0
66009,-234.2143786,4,2,0,90,0,0
66191,-231.4375105,4,2,0,90,0,0
66554,-226.1261773,4,2,0,90,0,0
66918,-221.1137192,4,2,0,90,0,0
67100,-218.7112811,4,2,0,90,0,0
67282,-216.3740153,4,2,0,90,0,0
67645,-211.8839888,4,2,0,90,0,0
67827,-209.726116,4,2,0,90,0,0
68191,-205.5729363,4,2,0,90,0,0
68373,-203.5733275,4,2,0,90,0,0
68918,-197.8589824,4,2,0,90,0,0
69100,-196.0431041,4,2,0,90,0,0
69464,-192.5349773,4,2,0,90,0,0
69827,-189.1819406,4,2,0,90,0,0
70009,-187.5601892,4,2,0,90,0,0
70191,-185.9732693,4,2,0,90,0,0
70554,-182.8992345,4,2,0,90,0,0
70645,-182.150708,4,2,0,90,0,0
70736,-181.4099091,4,2,0,90,0,0
70918,-63.72803137,4,2,0,90,0,0
71282,-55.12378046,4,2,0,90,0,0
71645,-160.1887019,4,2,0,90,0,0
72009,-163.6395089,4,2,0,90,0,0
72373,-167.2854945,4,2,0,90,0,0
72736,-171.1450185,4,2,0,90,0,0
73100,-175.2389073,4,2,0,90,0,0
73464,-179.5908917,4,2,0,90,0,0
73827,-184.2281443,4,2,0,90,0,0
74191,-63.72803137,4,2,0,90,0,0
74554,-194.4884834,4,2,0,90,0,0
74918,-200.1899359,4,2,0,90,0,0
75282,-206.3357313,4,2,0,90,0,0
75645,-212.9842485,4,2,0,90,0,0
76009,-220.2049831,4,2,0,90,0,0
76373,-228.081392,4,2,0,90,0,0
76736,-236.7146759,4,2,0,90,0,0
76918,-76.83174228,4,2,0,90,0,0
77100,-63.72803137,4,2,0,90,0,0
77282,-246.2288827,4,2,0,90,0,0
77464,-239.2160146,4,2,0,90,0,0
77645,-232.6894602,4,2,0,90,0,0
77827,-226.5962096,4,2,0,90,0,0
78009,-220.892325,4,2,0,90,0,0
78191,-215.539791,4,2,0,90,0,0
78373,-76.83174228,4,2,0,90,0,0
78554,-63.72803137,4,2,0,90,0,0
78736,-201.2727575,4,2,0,90,0,0
78918,-197.0282125,4,2,0,90,0,0
79100,-193.0040993,4,2,0,90,0,0
79282,-189.1819406,4,2,0,90,0,0
79464,-185.5462473,4,2,0,90,0,0
79645,-182.0831264,4,2,0,90,0,0
79827,-76.83174228,4,2,0,90,0,0
80009,-63.72803137,4,2,0,90,0,0
80191,-172.6054554,4,2,0,90,0,0
80373,-59.03116622,4,2,0,90,0,0
80554,-166.9456183,4,2,0,90,0,0
80736,-55.12378046,4,2,0,90,0,0
80918,-161.7340779,4,2,0,90,0,0
81100,-51.81240469,4,2,0,90,0,0
81282,-156.9168196,4,2,0,90,0,0
81464,-152.9670272,4,2,0,90,0,0
82191,-63.72803137,4,2,0,90,0,0
82918,-156.9168196,4,2,0,90,0,0
83100,-63.72803137,4,2,0,90,0,0
83284,-55.12378046,4,2,0,90,0,1
83645,-156.9168196,4,2,0,90,0,1
83918,-159.8166262,4,2,0,90,0,1
84191,-162.8564484,4,2,0,90,0,1
84373,-164.9661792,4,2,0,90,0,1
84645,-168.2648325,4,2,0,90,0,1
84918,-171.7362413,4,2,0,90,0,1
85100,-174.1537384,4,2,0,90,0,1
85464,-63.72803137,4,2,0,90,0,1
85645,-181.9579562,4,2,0,90,0,1
85827,-184.7622837,4,2,0,90,0,1
86100,-189.1819406,4,2,0,90,0,1
86373,-193.8802332,4,2,0,90,0,1
86554,-197.1814175,4,2,0,90,0,1
86827,-202.4114371,4,2,0,90,0,1
87100,-208.0085932,4,2,0,90,0,1
87282,-211.9649138,4,2,0,90,0,1
87554,-218.2735877,4,2,0,90,0,1
87827,-225.0817984,4,2,0,90,0,1
88009,-229.9304026,4,2,0,90,0,1
88373,-63.72803137,4,2,0,90,0,1
88554,-246.2288827,4,2,0,90,0,1
88736,-156.9168196,4,2,0,90,0,1
89009,-160.864057,4,2,0,90,0,1
89282,-165.0735043,4,2,0,90,0,1
89463,-168.0396878,4,2,0,90,0,1
89736,-172.7531916,4,2,0,90,0,1
90009,-177.8174716,4,2,0,90,0,1
90191,-181.4099091,4,2,0,90,0,1
90463,-187.1602411,4,2,0,90,0,1
90736,-193.3970267,4,2,0,90,0,1
90918,-197.8589824,4,2,0,90,0,1
91282,-63.72803137,4,2,0,90,0,1
91463,-212.9842485,4,2,0,90,0,1
91645,-218.7112811,4,2,0,90,0,1
91736,-205.4414453,4,2,0,90,0,1
91827,-194.0412847,4,2,0,90,0,1
91918,-184.120929,4,2,0,90,0,1
92009,-175.3943307,4,2,0,90,0,1
92100,-167.6464327,4,2,0,90,0,1
92191,-160.7123663,4,2,0,90,0,1
92282,-154.4626551,4,2,0,90,0,1
92373,-148.7951094,4,2,0,90,0,1
92464,-143.6272813,4,2,0,90,0,1
92554,-138.8919909,4,2,0,90,0,1
92645,-134.5338977,4,2,0,90,0,1
92736,-130.5069652,4,2,0,90,0,1
92827,-126.7725554,4,2,0,90,0,1
92918,-123.2979782,4,2,0,90,0,1
93009,-120.0553716,4,2,0,90,0,1
93100,-117.020829,4,2,0,90,0,1
93191,-114.1738014,4,2,0,90,0,1
93282,-111.4961799,4,2,0,90,0,1
93373,-108.9724179,4,2,0,90,0,1
93464,-106.5887937,4,2,0,90,0,1
93554,-104.3332164,4,2,0,90,0,1
93645,-102.1949864,4,2,0,90,0,1
93736,-100.1645982,4,2,0,90,0,1
94193,-63.72803137,4,2,0,90,0,0
94556,-55.12378046,4,2,0,90,0,1
94918,-156.9168196,4,2,0,90,0,1
95100,-158.6380984,4,2,0,90,0,1
95282,-160.40813,4,2,0,90,0,1
95645,-164.1033951,4,2,0,90,0,1
96009,-168.022942,4,2,0,90,0,1
96373,-172.1889493,4,2,0,90,0,1
96554,-174.3725528,4,2,0,90,0,1
96736,-176.6278488,4,2,0,90,0,1
97100,-63.72803137,4,2,0,90,0,1
97464,-186.4473397,4,2,0,90,0,1
97827,-191.9026274,4,2,0,90,0,1
98009,-194.7863072,4,2,0,90,0,1
98191,-197.7825898,4,2,0,90,0,1
98554,-204.142551,4,2,0,90,0,1
98918,-211.0482904,4,2,0,90,0,1
99282,-218.5801178,4,2,0,90,0,1
99464,-222.6094962,4,2,0,90,0,1
99645,-226.833457,4,2,0,90,0,1
100009,-63.72803137,4,2,0,90,0,1
100373,-156.9168196,4,2,0,90,0,1
100736,-161.4488122,4,2,0,90,0,1
100918,-163.8424616,4,2,0,90,0,1
101100,-166.3283012,4,2,0,90,0,1
101464,-171.6006844,4,2,0,90,0,1
101827,-177.3188201,4,2,0,90,0,1
102191,-183.5471214,4,2,0,90,0,1
102373,-186.8758407,4,2,0,90,0,1
102554,-190.3622039,4,2,0,90,0,1
102918,-63.72803137,4,2,0,90,0,1
103282,-206.1418108,4,2,0,90,0,1
103373,-201.6119581,4,2,0,90,0,1
103464,-197.326896,4,2,0,90,0,1
103645,-189.4095329,4,2,0,90,0,1
103827,-182.2520507,4,2,0,90,0,1
103918,-178.9225364,4,2,0,90,0,1
104009,-175.7434808,4,2,0,90,0,1
104191,-169.7940009,4,2,0,90,0,1
104373,-164.3307443,4,2,0,90,0,1
104464,-161.7618375,4,2,0,90,0,1
104554,-159.292691,4,2,0,90,0,1
104645,-156.9168196,4,2,0,90,0,1
104738,-154.6341921,4,2,0,90,0,0
105827,-63.72803137,4,2,0,90,0,0
106193,-48.96335682,4,2,0,90,0,1
106373,-35.1293001,4,2,0,90,0,1
107645,-156.9168196,4,2,0,40,0,1
108738,-100,4,2,0,40,0,0

[HitObjects]
256,192,1466,5,6,0:0:0:0:
256,192,2193,1,0,0:0:0:0:
256,192,2556,1,2,0:0:0:0:
256,192,2920,1,0,0:0:0:0:
256,192,3647,1,0,0:0:0:0:
256,192,4011,1,0,0:0:0:0:
256,192,4375,1,2,0:0:0:0:
256,192,4738,1,2,0:0:0:0:
256,192,4920,1,2,0:0:0:0:
256,192,5102,1,0,0:0:0:0:
256,192,5466,1,0,0:0:0:0:
256,192,5829,1,2,0:0:0:0:
256,192,6556,1,2,0:0:0:0:
256,192,7102,1,0,0:0:0:0:
256,192,7284,1,2,0:0:0:0:
256,192,7466,1,0,0:0:0:0:
256,192,7647,1,2,0:0:0:0:
256,192,8375,1,2,0:0:0:0:
256,192,8738,1,0,0:0:0:0:
256,192,9102,1,2,0:0:0:0:
256,192,9466,1,2,0:0:0:0:
256,192,9829,1,2,0:0:0:0:
256,192,10193,1,0,0:0:0:0:
256,192,10920,1,2,0:0:0:0:
256,192,12738,1,4,0:0:0:0:
256,192,13102,1,6,0:0:0:0:
256,192,13466,1,2,0:0:0:0:
256,192,13829,1,0,0:0:0:0:
256,192,14193,1,2,0:0:0:0:
256,192,14556,1,0,0:0:0:0:
256,192,14920,1,2,0:0:0:0:
256,192,15284,1,0,0:0:0:0:
256,192,15647,1,2,0:0:0:0:
256,192,16011,1,0,0:0:0:0:
256,192,16375,1,2,0:0:0:0:
256,192,16556,1,0,0:0:0:0:
256,192,16738,1,0,0:0:0:0:
256,192,17102,1,2,0:0:0:0:
256,192,17466,1,0,0:0:0:0:
256,192,17829,1,2,0:0:0:0:
256,192,18193,1,0,0:0:0:0:
256,192,18556,1,0,0:0:0:0:
256,192,18920,1,2,0:0:0:0:
256,192,19284,1,0,0:0:0:0:
256,192,19466,1,2,0:0:0:0:
256,192,19647,1,0,0:0:0:0:
256,192,20011,1,2,0:0:0:0:
256,192,20375,1,0,0:0:0:0:
256,192,20556,1,2,0:0:0:0:
256,192,20738,1,2,0:0:0:0:
256,192,21102,1,2,0:0:0:0:
256,192,21193,1,2,0:0:0:0:
256,192,21284,1,2,0:0:0:0:
256,192,21466,1,0,0:0:0:0:
256,192,21647,1,2,0:0:0:0:
256,192,21829,1,2,0:0:0:0:
256,192,22193,1,2,0:0:0:0:
256,192,22375,1,2,0:0:0:0:
256,192,22556,1,0,0:0:0:0:
256,192,22920,1,2,0:0:0:0:
256,192,23284,1,0,0:0:0:0:
256,192,23466,1,2,0:0:0:0:
256,192,23647,1,2,0:0:0:0:
256,192,24011,1,2,0:0:0:0:
256,192,24102,1,2,0:0:0:0:
256,192,24193,1,2,0:0:0:0:
256,192,24375,1,0,0:0:0:0:
256,192,24556,1,2,0:0:0:0:
256,192,24738,1,6,0:0:0:0:
256,192,25102,1,2,0:0:0:0:
256,192,25284,1,2,0:0:0:0:
256,192,25466,1,0,0:0:0:0:
256,192,25829,1,2,0:0:0:0:
256,192,26193,1,0,0:0:0:0:
256,192,26375,1,2,0:0:0:0:
256,192,26556,1,2,0:0:0:0:
256,192,26920,1,2,0:0:0:0:
256,192,27011,1,2,0:0:0:0:
256,192,27102,1,2,0:0:0:0:
256,192,27284,1,0,0:0:0:0:
256,192,27466,1,2,0:0:0:0:
256,192,27647,1,6,0:0:0:0:
256,192,28011,1,2,0:0:0:0:
256,192,28193,1,2,0:0:0:0:
256,192,28375,1,0,0:0:0:0:
256,192,28738,1,2,0:0:0:0:
256,192,29102,1,0,0:0:0:0:
256,192,29284,1,2,0:0:0:0:
256,192,29466,1,2,0:0:0:0:
256,192,29829,1,2,0:0:0:0:
256,192,29920,1,2,0:0:0:0:
256,192,30011,1,2,0:0:0:0:
256,192,30193,1,0,0:0:0:0:
256,192,30375,1,2,0:0:0:0:
256,192,30556,1,6,0:0:0:0:
256,192,30920,1,0,0:0:0:0:
256,192,31102,1,2,0:0:0:0:
256,192,31284,1,0,0:0:0:0:
256,192,31466,1,0,0:0:0:0:
256,192,31647,1,2,0:0:0:0:
256,192,32011,1,0,0:0:0:0:
256,192,32193,1,2,0:0:0:0:
256,192,32375,1,2,0:0:0:0:
256,192,32556,1,0,0:0:0:0:
256,192,32738,1,2,0:0:0:0:
256,192,32829,1,2,0:0:0:0:
256,192,32920,1,2,0:0:0:0:
256,192,33102,1,0,0:0:0:0:
256,192,33284,1,2,0:0:0:0:
256,192,33466,1,6,0:0:0:0:
256,192,33829,1,2,0:0:0:0:
256,192,34193,1,2,0:0:0:0:
256,192,34556,1,2,0:0:0:0:
256,192,34920,1,0,0:0:0:0:
256,192,36011,1,4,0:0:0:0:
256,192,36375,1,6,0:0:0:0:
256,192,36647,1,2,0:0:0:0:
256,192,36920,1,2,0:0:0:0:
256,192,37284,1,0,0:0:0:0:
256,192,37647,1,0,0:0:0:0:
256,192,37829,1,2,0:0:0:0:
256,192,38011,1,2,0:0:0:0:
256,192,38193,1,2,0:0:0:0:
256,192,38556,1,0,0:0:0:0:
256,192,38920,1,4,0:0:0:0:
256,192,39284,1,2,0:0:0:0:
256,192,39556,1,2,0:0:0:0:
256,192,39829,1,2,0:0:0:0:
256,192,40193,1,0,0:0:0:0:
256,192,40556,1,0,0:0:0:0:
256,192,40738,1,2,0:0:0:0:
256,192,40920,1,2,0:0:0:0:
256,192,41102,1,2,0:0:0:0:
256,192,41466,1,0,0:0:0:0:
256,192,41829,1,4,0:0:0:0:
256,192,42193,1,2,0:0:0:0:
256,192,42466,1,2,0:0:0:0:
256,192,42738,1,2,0:0:0:0:
256,192,43102,1,0,0:0:0:0:
256,192,43466,1,0,0:0:0:0:
256,192,43647,1,2,0:0:0:0:
256,192,43829,1,2,0:0:0:0:
256,192,44011,1,2,0:0:0:0:
256,192,44375,1,0,0:0:0:0:
256,192,44738,1,4,0:0:0:0:
256,192,45102,1,2,0:0:0:0:
256,192,45375,1,2,0:0:0:0:
256,192,45647,1,2,0:0:0:0:
256,192,46011,1,0,0:0:0:0:
256,192,46375,1,0,0:0:0:0:
256,192,46556,1,2,0:0:0:0:
256,192,46738,1,2,0:0:0:0:
256,192,46920,1,2,0:0:0:0:
256,192,47284,1,2,0:0:0:0:
256,192,47466,1,2,0:0:0:0:
256,192,47647,1,4,0:0:0:0:
256,192,48011,1,2,0:0:0:0:
256,192,48102,1,2,0:0:0:0:
256,192,48193,1,2,0:0:0:0:
256,192,48556,1,2,0:0:0:0:
256,192,48647,1,2,0:0:0:0:
256,192,48738,1,2,0:0:0:0:
256,192,49102,1,2,0:0:0:0:
256,192,49193,1,2,0:0:0:0:
256,192,49284,1,2,0:0:0:0:
256,192,49647,1,2,0:0:0:0:
256,192,49829,1,0,0:0:0:0:
256,192,50193,1,2,0:0:0:0:
256,192,50375,1,2,0:0:0:0:
256,192,50556,1,4,0:0:0:0:
256,192,50920,1,2,0:0:0:0:
256,192,51011,1,2,0:0:0:0:
256,192,51102,1,2,0:0:0:0:
256,192,51466,1,2,0:0:0:0:
256,192,51556,1,2,0:0:0:0:
256,192,51647,1,2,0:0:0:0:
256,192,52011,1,2,0:0:0:0:
256,192,52102,1,2,0:0:0:0:
256,192,52193,1,2,0:0:0:0:
256,192,52556,1,2,0:0:0:0:
256,192,52738,1,0,0:0:0:0:
256,192,53102,1,2,0:0:0:0:
256,192,53284,1,2,0:0:0:0:
256,192,53466,1,4,0:0:0:0:
256,192,53829,1,2,0:0:0:0:
256,192,53920,1,2,0:0:0:0:
256,192,54011,1,2,0:0:0:0:
256,192,54375,1,2,0:0:0:0:
256,192,54466,1,2,0:0:0:0:
256,192,54556,1,2,0:0:0:0:
256,192,54920,1,2,0:0:0:0:
256,192,55011,1,2,0:0:0:0:
256,192,55102,1,2,0:0:0:0:
256,192,55284,1,0,0:0:0:0:
256,192,55466,1,2,0:0:0:0:
256,192,55647,1,0,0:0:0:0:
256,192,56011,1,2,0:0:0:0:
256,192,56193,1,2,0:0:0:0:
256,192,56375,1,4,0:0:0:0:
256,192,56738,1,2,0:0:0:0:
256,192,56829,1,2,0:0:0:0:
256,192,56920,1,2,0:0:0:0:
256,192,57102,1,0,0:0:0:0:
256,192,57284,1,2,0:0:0:0:
256,192,57375,1,2,0:0:0:0:
256,192,57466,1,2,0:0:0:0:
256,192,57647,1,0,0:0:0:0:
256,192,57829,1,2,0:0:0:0:
256,192,57920,1,0,0:0:0:0:
256,192,58011,1,0,0:0:0:0:
256,192,58193,1,0,0:0:0:0:
256,192,58375,1,2,0:0:0:0:
256,192,58556,1,0,0:0:0:0:
256,192,58647,1,0,0:0:0:0:
256,192,58738,1,0,0:0:0:0:
256,192,58920,1,2,0:0:0:0:
256,192,59011,1,2,0:0:0:0:
256,192,59102,1,2,0:0:0:0:
256,192,59284,1,4,0:0:0:0:
256,192,59647,1,2,0:0:0:0:
256,192,59920,1,2,0:0:0:0:
256,192,60193,1,2,0:0:0:0:
256,192,60375,1,0,0:0:0:0:
256,192,60647,1,2,0:0:0:0:
256,192,60920,1,2,0:0:0:0:
256,192,61102,1,2,0:0:0:0:
256,192,61375,1,2,0:0:0:0:
256,192,61647,1,2,0:0:0:0:
256,192,61829,1,0,0:0:0:0:
256,192,62102,1,2,0:0:0:0:
256,192,62375,1,2,0:0:0:0:
256,192,62556,1,2,0:0:0:0:
256,192,62829,1,2,0:0:0:0:
256,192,63102,1,2,0:0:0:0:
256,192,63284,1,0,0:0:0:0:
256,192,63556,1,2,0:0:0:0:
256,192,63829,1,2,0:0:0:0:
256,192,64011,1,2,0:0:0:0:
256,192,64284,1,2,0:0:0:0:
256,192,64556,1,2,0:0:0:0:
256,192,64738,1,0,0:0:0:0:
256,192,65011,1,2,0:0:0:0:
256,192,65284,1,2,0:0:0:0:
256,192,65466,1,2,0:0:0:0:
256,192,66011,1,2,0:0:0:0:
256,192,66193,1,0,0:0:0:0:
256,192,66556,1,2,0:0:0:0:
256,192,67102,1,2,0:0:0:0:
256,192,67284,1,2,0:0:0:0:
256,192,67647,1,0,0:0:0:0:
256,192,67829,1,2,0:0:0:0:
256,192,68193,1,2,0:0:0:0:
256,192,68375,1,2,0:0:0:0:
256,192,68920,1,2,0:0:0:0:
256,192,69102,1,0,0:0:0:0:
256,192,69466,1,2,0:0:0:0:
256,192,69829,1,0,0:0:0:0:
256,192,70011,1,0,0:0:0:0:
256,192,70193,1,0,0:0:0:0:
256,192,70556,1,2,0:0:0:0:
256,192,70647,1,2,0:0:0:0:
256,192,70738,1,2,0:0:0:0:
256,192,70920,1,4,0:0:0:0:
256,192,71284,1,6,0:0:0:0:
256,192,71647,1,2,0:0:0:0:
256,192,72011,1,2,0:0:0:0:
256,192,72375,1,2,0:0:0:0:
256,192,72738,1,2,0:0:0:0:
256,192,73102,1,2,0:0:0:0:
256,192,73466,1,2,0:0:0:0:
256,192,73829,1,2,0:0:0:0:
256,192,74193,1,4,0:0:0:0:
256,192,74556,1,0,0:0:0:0:
256,192,74920,1,0,0:0:0:0:
256,192,75284,1,0,0:0:0:0:
256,192,75647,1,0,0:0:0:0:
256,192,76011,1,0,0:0:0:0:
256,192,76375,1,0,0:0:0:0:
256,192,76738,1,0,0:0:0:0:
256,192,76920,1,4,0:0:0:0:
256,192,77102,1,6,0:0:0:0:
256,192,77284,1,0,0:0:0:0:
256,192,77466,1,2,0:0:0:0:
256,192,77647,1,0,0:0:0:0:
256,192,77829,1,2,0:0:0:0:
256,192,78011,1,0,0:0:0:0:
256,192,78193,1,2,0:0:0:0:
256,192,78375,1,4,0:0:0:0:
256,192,78556,1,6,0:0:0:0:
256,192,78738,1,0,0:0:0:0:
256,192,78920,1,2,0:0:0:0:
256,192,79102,1,0,0:0:0:0:
256,192,79284,1,2,0:0:0:0:
256,192,79466,1,0,0:0:0:0:
256,192,79647,1,2,0:0:0:0:
256,192,79829,1,4,0:0:0:0:
256,192,80011,1,6,0:0:0:0:
256,192,80193,1,2,0:0:0:0:
256,192,80375,1,6,0:0:0:0:
256,192,80556,1,2,0:0:0:0:
256,192,80738,1,6,0:0:0:0:
256,192,80920,1,2,0:0:0:0:
256,192,81102,1,6,0:0:0:0:
256,192,81284,1,2,0:0:0:0:
256,192,82556,1,4,0:0:0:0:
256,192,83102,1,4,0:0:0:0:
256,192,83284,1,6,0:0:0:0:
256,192,83647,1,0,0:0:0:0:
256,192,83920,1,0,0:0:0:0:
256,192,84193,1,0,0:0:0:0:
256,192,84375,1,0,0:0:0:0:
256,192,84647,1,0,0:0:0:0:
256,192,84920,1,0,0:0:0:0:
256,192,85102,1,0,0:0:0:0:
256,192,85466,1,4,0:0:0:0:
256,192,85647,1,0,0:0:0:0:
256,192,85829,1,0,0:0:0:0:
256,192,86102,1,0,0:0:0:0:
256,192,86375,1,0,0:0:0:0:
256,192,86556,1,0,0:0:0:0:
256,192,86829,1,0,0:0:0:0:
256,192,87102,1,0,0:0:0:0:
256,192,87284,1,0,0:0:0:0:
256,192,87556,1,0,0:0:0:0:
256,192,87829,1,0,0:0:0:0:
256,192,88011,1,0,0:0:0:0:
256,192,88375,1,4,0:0:0:0:
256,192,88556,1,0,0:0:0:0:
256,192,88738,1,0,0:0:0:0:
256,192,89011,1,0,0:0:0:0:
256,192,89284,1,0,0:0:0:0:
256,192,89465,1,0,0:0:0:0:
256,192,89738,1,0,0:0:0:0:
256,192,90011,1,0,0:0:0:0:
256,192,90193,1,0,0:0:0:0:
256,192,90465,1,0,0:0:0:0:
256,192,90738,1,0,0:0:0:0:
256,192,90920,1,0,0:0:0:0:
256,192,91284,1,4,0:0:0:0:
256,192,91465,1,0,0:0:0:0:
256,192,91647,1,2,0:0:0:0:
256,192,91738,1,2,0:0:0:0:
256,192,91829,1,2,0:0:0:0:
256,192,92011,1,2,0:0:0:0:
256,192,92193,1,2,0:0:0:0:
256,192,92375,1,2,0:0:0:0:
256,192,92465,1,2,0:0:0:0:
256,192,92556,1,2,0:0:0:0:
256,192,92738,1,2,0:0:0:0:
256,192,92920,1,2,0:0:0:0:
256,192,93102,1,2,0:0:0:0:
256,192,93193,1,2,0:0:0:0:
256,192,93284,1,2,0:0:0:0:
256,192,93466,1,2,0:0:0:0:
256,192,93647,1,2,0:0:0:0:
256,192,93738,1,2,0:0:0:0:
256,192,94193,1,4,0:0:0:0:
256,192,94556,1,6,0:0:0:0:
256,192,94920,1,2,0:0:0:0:
256,192,95102,1,2,0:0:0:0:
256,192,95284,1,0,0:0:0:0:
256,192,95647,1,2,0:0:0:0:
256,192,96011,1,0,0:0:0:0:
256,192,96375,1,2,0:0:0:0:
256,192,96556,1,2,0:0:0:0:
256,192,96738,1,0,0:0:0:0:
256,192,97102,1,4,0:0:0:0:
256,192,97466,1,2,0:0:0:0:
256,192,97829,1,2,0:0:0:0:
256,192,98011,1,2,0:0:0:0:
256,192,98193,1,0,0:0:0:0:
256,192,98556,1,2,0:0:0:0:
256,192,98920,1,0,0:0:0:0:
256,192,99284,1,2,0:0:0:0:
256,192,99466,1,2,0:0:0:0:
256,192,99647,1,0,0:0:0:0:
256,192,100011,1,4,0:0:0:0:
256,192,100375,1,2,0:0:0:0:
256,192,100738,1,2,0:0:0:0:
256,192,100920,1,2,0:0:0:0:
256,192,101102,1,0,0:0:0:0:
256,192,101466,1,2,0:0:0:0:
256,192,101829,1,0,0:0:0:0:
256,192,102193,1,2,0:0:0:0:
256,192,102375,1,2,0:0:0:0:
256,192,102556,1,0,0:0:0:0:
256,192,102920,1,4,0:0:0:0:
256,192,103284,1,2,0:0:0:0:
256,192,103375,1,2,0:0:0:0:
256,192,103466,1,2,0:0:0:0:
256,192,103647,1,2,0:0:0:0:
256,192,103829,1,2,0:0:0:0:
256,192,103920,1,2,0:0:0:0:
256,192,104011,1,2,0:0:0:0:
256,192,104193,1,2,0:0:0:0:
256,192,104375,1,2,0:0:0:0:
256,192,104556,1,2,0:0:0:0:
256,192,104647,1,2,0:0:0:0:
256,192,105829,1,6,0:0:0:0:
256,192,106193,1,4,0:0:0:0:
256,192,106375,12,6,108738,0:0:0:0:
