osu file format v14

[General]
AudioFilename: audio.mp3
AudioLeadIn: 0
PreviewTime: 83102
Countdown: 0
SampleSet: Soft
StackLeniency: 0.7
Mode: 1
LetterboxInBreaks: 0
WidescreenStoryboard: 1

[Editor]
DistanceSpacing: 1
BeatDivisor: 4
GridSize: 32
TimelineZoom: 1

[Metadata]
Title:Opium and Purple haze
TitleUnicode:Opium and Purple haze
Artist:D.watt (OTAKU-ELITE Recordings)
ArtistUnicode:D.watt (OTAKU-ELITE Recordings)
Creator:Cynplytholowazy
Version:ADVANCED
Source:東方地霊殿 ~ Subterranean Animism.
Tags:touhou 少女さとり ~ 3rd eye SOUND VOLTEX III GRAVITY WARS SDVX 3 SDVX3 Electronic Instrumental cut short version 方Project Satori Shoujo Maiden Third Komeiji 古明地さとり SA
BeatmapID:2581016
BeatmapSetID:1241481

[Difficulty]
HPDrainRate:7
CircleSize:10
OverallDifficulty:5
ApproachRate:10
SliderMultiplier:1.4
SliderTickRate:1

[Events]
//Background and Video events
0,0,"03134e.jpg",0,0
//Break Periods
//Storyboard Layer 0 (Background)
//Storyboard Layer 1 (Fail)
//Storyboard Layer 2 (Pass)
//Storyboard Layer 3 (Foreground)
//Storyboard Layer 4 (Overlay)
//Storyboard Sound Samples

[TimingPoints]
1466,363.6363636,4,2,0,90,1,0
1466,-85.02830004,4,2,0,90,0,0
1827,-131.9507911,4,2,0,90,0,0
12373,-85.02830004,4,2,0,90,0,0
13100,-75.78582833,4,2,0,90,0,0
13464,-131.9507911,4,2,0,90,0,0
13827,-133.385076,4,2,0,90,0,0
14191,-134.8755679,4,2,0,90,0,0
14554,-136.4259125,4,2,0,90,0,0
14918,-138.0404775,4,2,0,90,0,0
15282,-139.7240915,4,2,0,90,0,0
15645,-141.4817047,4,2,0,90,0,0
16009,-143.3192171,4,2,0,90,0,0
16373,-145.2432125,4,2,0,90,0,0
16554,-146.2396559,4,2,0,90,0,0
16736,-147.2605985,4,2,0,90,0,0
17100,-149.3795923,4,2,0,90,0,0
17464,-151.6094666,4,2,0,90,0,0
17827,-153.9601882,4,2,0,90,0,0
18191,-156.4436336,4,2,0,90,0,0
18554,-159.0733932,4,2,0,90,0,0
18918,-161.8644583,4,2,0,90,0,0
19282,-159.1607985,4,2,0,90,0,0
19464,-157.8666932,4,2,0,90,0,0
19645,-156.6088746,4,2,0,90,0,0
20009,-154.1944678,4,2,0,90,0,0
20373,-151.9056861,4,2,0,90,0,0
20554,-150.80483,4,2,0,90,0,0
20736,-149.7315642,4,2,0,90,0,0
21100,-147.6625949,4,2,0,90,0,0
21191,-147.160735,4,2,0,90,0,0
21282,-146.6647946,4,2,0,90,0,0
21464,-145.6902011,4,2,0,90,0,0
21645,-144.7380502,4,2,0,90,0,0
21827,-143.8071863,4,2,0,90,0,0
22191,-142.0066907,4,2,0,90,0,0
22373,-141.1354179,4,2,0,90,0,0
22554,-140.2827031,4,2,0,90,0,0
22918,-138.6298141,4,2,0,90,0,0
23282,-137.0430203,4,2,0,90,0,0
23464,-136.273178,4,2,0,90,0,0
23645,-135.5181464,4,2,0,90,0,0
24009,-134.0510526,4,2,0,90,0,0
24100,-133.6928441,4,2,0,90,0,0
24191,-133.3379636,4,2,0,90,0,0
24373,-132.6380845,4,2,0,90,0,0
24554,-131.9507911,4,2,0,90,0,0
24736,-75.78582833,4,2,0,90,0,0
25100,-131.9507911,4,2,0,90,0,0
25282,-133.6051924,4,2,0,90,0,0
25464,-135.3346624,4,2,0,90,0,0
25827,-139.0431437,4,2,0,90,0,0
26191,-143.133559,4,2,0,90,0,0
26373,-145.3439218,4,2,0,90,0,0
26554,-147.6787172,4,2,0,90,0,0
26918,-152.7727949,4,2,0,90,0,0
27009,-154.1456931,4,2,0,90,0,0
27100,-155.5629543,4,2,0,90,0,0
27282,-158.5402216,4,2,0,90,0,0
27464,-161.726755,4,2,0,90,0,0
27645,-75.78582833,4,2,0,90,0,0
28009,-131.9507911,4,2,0,90,0,0
28191,-133.6051924,4,2,0,90,0,0
28373,-135.3346624,4,2,0,90,0,0
28736,-139.0431437,4,2,0,90,0,0
29100,-143.133559,4,2,0,90,0,0
29282,-145.3439218,4,2,0,90,0,0
29464,-147.6787172,4,2,0,90,0,0
29827,-152.7727949,4,2,0,90,0,0
29918,-154.1456931,4,2,0,90,0,0
30009,-155.5629543,4,2,0,90,0,0
30191,-158.5402216,4,2,0,90,0,0
30373,-161.726755,4,2,0,90,0,0
30554,-75.78582833,4,2,0,90,0,0
30918,-131.9507911,4,2,0,90,0,0
31100,-133.6051924,4,2,0,90,0,0
31282,-135.3346624,4,2,0,90,0,0
31464,-137.1449924,4,2,0,90,0,0
31645,-139.0431437,4,2,0,90,0,0
32009,-143.133559,4,2,0,90,0,0
32191,-145.3439218,4,2,0,90,0,0
32373,-147.6787172,4,2,0,90,0,0
32554,-150.1501221,4,2,0,90,0,0
32736,-152.7727949,4,2,0,90,0,0
32827,-154.1456931,4,2,0,90,0,0
32918,-155.5629543,4,2,0,90,0,0
33100,-158.5402216,4,2,0,90,0,0
33282,-161.726755,4,2,0,90,0,0
33464,-75.78582833,4,2,0,90,0,0
33827,-161.8644583,4,2,0,90,0,0
34191,-149.4546196,4,2,0,90,0,0
34554,-139.8427969,4,2,0,90,0,0
34918,-132.0966408,4,2,0,90,0,0
36009,-85.02830004,4,2,0,90,0,0
36373,-75.78582833,4,2,0,90,0,0
36645,-131.9507911,4,2,0,90,0,0
36918,-135.0931978,4,2,0,90,0,0
37282,-139.7240915,4,2,0,90,0,0
37645,-144.9627846,4,2,0,90,0,0
37827,-147.8553696,4,2,0,90,0,0
38009,-150.9604365,4,2,0,90,0,0
38191,-154.3065995,4,2,0,90,0,0
38554,-161.8644583,4,2,0,90,0,0
38918,-75.78582833,4,2,0,90,0,0
39282,-131.9507911,4,2,0,90,0,0
39554,-134.6761651,4,2,0,90,0,0
39827,-137.6094384,4,2,0,90,0,0
40191,-141.894096,4,2,0,90,0,0
40554,-146.6852785,4,2,0,90,0,0
40736,-149.3045341,4,2,0,90,0,0
40918,-152.0951531,4,2,0,90,0,0
41100,-155.0772995,4,2,0,90,0,0
41464,-161.715352,4,2,0,90,0,0
41827,-75.78582833,4,2,0,90,0,0
42168,-131.9507911,4,2,0,90,0,0
42440,-134.6761651,4,2,0,90,0,0
42713,-137.6094384,4,2,0,90,0,0
43077,-141.894096,4,2,0,90,0,0
43440,-146.6852785,4,2,0,90,0,0
43622,-149.3045341,4,2,0,90,0,0
43804,-152.0951531,4,2,0,90,0,0
43986,-155.0772995,4,2,0,90,0,0
44350,-161.715352,4,2,0,90,0,0
44713,-75.78582833,4,2,0,90,0,0
45077,-131.9507911,4,2,0,90,0,0
45349,-134.6761651,4,2,0,90,0,0
45622,-137.6094384,4,2,0,90,0,0
45986,-141.894096,4,2,0,90,0,0
46349,-146.6852785,4,2,0,90,0,0
46531,-149.3045341,4,2,0,90,0,0
46713,-152.0951531,4,2,0,90,0,0
46895,-155.0772995,4,2,0,90,0,0
47259,-161.715352,4,2,0,90,0,0
47464,-165.4289474,4,2,0,90,0,0
47622,-75.78582833,4,2,0,90,0,0
48009,-131.9507911,4,2,0,90,0,0
48100,-132.7690275,4,2,0,90,0,0
48191,-133.6051924,4,2,0,90,0,0
48554,-137.1449924,4,2,0,90,0,0
48645,-138.0826539,4,2,0,90,0,0
48736,-139.0431437,4,2,0,90,0,0
49100,-143.133559,4,2,0,90,0,0
49191,-144.2239941,4,2,0,90,0,0
49282,-145.3439218,4,2,0,90,0,0
49464,-147.6812222,4,2,0,90,0,0
49645,-150.1501221,4,2,0,90,0,0
49827,-152.7727949,4,2,0,90,0,0
50191,-158.5402216,4,2,0,90,0,0
50373,-161.726755,4,2,0,90,0,0
50554,-75.78582833,4,2,0,90,0,0
50895,-131.9507911,4,2,0,90,0,0
50986,-132.7690275,4,2,0,90,0,0
51077,-133.6051924,4,2,0,90,0,0
51440,-137.1449924,4,2,0,90,0,0
51531,-138.0826539,4,2,0,90,0,0
51622,-139.0431437,4,2,0,90,0,0
51986,-143.133559,4,2,0,90,0,0
52077,-144.2239941,4,2,0,90,0,0
52168,-145.3439218,4,2,0,90,0,0
52350,-147.6812222,4,2,0,90,0,0
52531,-150.1501221,4,2,0,90,0,0
52713,-152.7727949,4,2,0,90,0,0
53077,-158.5402216,4,2,0,90,0,0
53259,-161.726755,4,2,0,90,0,0
53464,-75.78582833,4,2,0,90,0,0
53804,-131.9507911,4,2,0,90,0,0
53895,-132.7690275,4,2,0,90,0,0
53986,-133.6051924,4,2,0,90,0,0
54349,-137.1449924,4,2,0,90,0,0
54440,-138.0826539,4,2,0,90,0,0
54531,-139.0431437,4,2,0,90,0,0
54895,-143.133559,4,2,0,90,0,0
54986,-144.2239941,4,2,0,90,0,0
55077,-145.3439218,4,2,0,90,0,0
55259,-147.6812222,4,2,0,90,0,0
55440,-150.1501221,4,2,0,90,0,0
55622,-152.7727949,4,2,0,90,0,0
55986,-158.5402216,4,2,0,90,0,0
56168,-161.726755,4,2,0,90,0,0
56373,-75.78582833,4,2,0,90,0,0
56736,-122.6703205,4,2,0,90,0,0
56827,-123.785223,4,2,0,90,0,0
56918,-124.9363291,4,2,0,90,0,0
57100,-127.3559537,4,2,0,90,0,0
57282,-129.9479575,4,2,0,90,0,0
57373,-131.3154308,4,2,0,90,0,0
57464,-132.734525,4,2,0,90,0,0
57645,-135.7421152,4,2,0,90,0,0
57827,-139.0025917,4,2,0,90,0,0
57918,-140.7395273,4,2,0,90,0,0
58009,-142.5547431,4,2,0,90,0,0
58191,-146.4463638,4,2,0,90,0,0
58373,-150.7373278,4,2,0,90,0,0
58554,-155.5030815,4,2,0,90,0,0
58645,-158.0934674,4,2,0,90,0,0
58736,-160.8416703,4,2,0,90,0,0
58918,-166.882272,4,2,0,90,0,0
59009,-170.2179792,4,2,0,90,0,0
59100,-173.799636,4,2,0,90,0,0
59282,-75.78582833,4,2,0,90,0,0
59645,-174.1101127,4,2,0,90,0,0
65464,-172.7364253,4,2,0,90,0,0
66009,-168.8318947,4,2,0,90,0,0
66191,-167.5972632,4,2,0,90,0,0
66554,-165.2197863,4,2,0,90,0,0
66918,-162.9563144,4,2,0,90,0,0
67100,-161.8644583,4,2,0,90,0,0
67282,-160.7977858,4,2,0,90,0,0
67645,-158.7361265,4,2,0,90,0,0
67827,-157.7393361,4,2,0,90,0,0
68191,-155.8096758,4,2,0,90,0,0
68373,-154.8752702,4,2,0,90,0,0
68918,-152.1853272,4,2,0,90,0,0
69100,-151.3242948,4,2,0,90,0,0
69464,-149.6521133,4,2,0,90,0,0
69827,-148.042869,4,2,0,90,0,0
70009,-147.2605985,4,2,0,90,0,0
70191,-146.4926071,4,2,0,90,0,0
70554,-144.9977162,4,2,0,90,0,0
70645,-144.6322515,4,2,0,90,0,0
70736,-144.2699906,4,2,0,90,0,0
70918,-75.78582833,4,2,0,90,0,0
71282,-69.31448432,4,2,0,90,0,0
71645,-133.6371829,4,2,0,90,0,0
72009,-135.4015038,4,2,0,90,0,0
72373,-137.2501382,4,2,0,90,0,0
72736,-139.1902379,4,2,0,90,0,0
73100,-141.2298455,4,2,0,90,0,0
73464,-143.3780437,4,2,0,90,0,0
73827,-145.6451362,4,2,0,90,0,0
74191,-75.78582833,4,2,0,90,0,0
74554,-150.5847025,4,2,0,90,0,0
74918,-153.2861503,4,2,0,90,0,0
75282,-156.1652036,4,2,0,90,0,0
75645,-159.2428682,4,2,0,90,0,0
76009,-162.5438526,4,2,0,90,0,0
76373,-166.0974586,4,2,0,90,0,0
76736,-169.9387506,4,2,0,90,0,0
76918,-85.02830004,4,2,0,90,0,0
77100,-75.78582833,4,2,0,90,0,0
77282,-174.1101127,4,2,0,90,0,0
77464,-171.0415773,4,2,0,90,0,0
77645,-168.1545975,4,2,0,90,0,0
77827,-165.4310437,4,2,0,90,0,0
78009,-162.855887,4,2,0,90,0,0
78191,-160.4159938,4,2,0,90,0,0
78373,-85.02830004,4,2,0,90,0,0
78554,-75.78582833,4,2,0,90,0,0
78736,-153.7958488,4,2,0,90,0,0
78918,-151.7917811,4,2,0,90,0,0
79100,-149.8763994,4,2,0,90,0,0
79282,-148.042869,4,2,0,90,0,0
79464,-146.2855196,4,2,0,90,0,0
79645,-144.5992266,4,2,0,90,0,0
79827,-85.02830004,4,2,0,90,0,0
80009,-75.78582833,4,2,0,90,0,0
80191,-139.91997,4,2,0,90,0,0
80373,-72.29811808,4,2,0,90,0,0
80554,-137.0784693,4,2,0,90,0,0
80736,-69.31448432,4,2,0,90,0,0
80918,-134.4290884,4,2,0,90,0,0
81100,-66.72167224,4,2,0,90,0,0
81282,-131.9507911,4,2,0,90,0,0
81464,-129.8968629,4,2,0,90,0,0
82191,-75.78582833,4,2,0,90,0,0
82918,-131.9507911,4,2,0,90,0,0
83100,-75.78582833,4,2,0,90,0,0
83284,-69.31448432,4,2,0,90,0,1
83645,-131.9507911,4,2,0,90,0,1
83918,-133.4460799,4,2,0,90,0,1
84191,-135.0024076,4,2,0,90,0,1
84373,-136.075985,4,2,0,90,0,1
84645,-137.744046,4,2,0,90,0,1
84918,-139.4859398,4,2,0,90,0,1
85100,-140.6910074,4,2,0,90,0,1
85464,-75.78582833,4,2,0,90,0,1
85645,-144.5380478,4,2,0,90,0,1
85827,-145.9048527,4,2,0,90,0,1
86100,-148.042869,4,2,0,90,0,1
86373,-150.2947163,4,2,0,90,0,1
86554,-151.8644041,4,2,0,90,0,1
86827,-154.330704,4,2,0,90,0,1
87100,-156.9431352,4,2,0,90,0,1
87282,-158.7734323,4,2,0,90,0,1
87554,-161.6650404,4,2,0,90,0,1
87827,-164.7497814,4,2,0,90,0,1
88009,-166.9247988,4,2,0,90,0,1
88373,-75.78582833,4,2,0,90,0,1
88554,-174.1101127,4,2,0,90,0,1
88736,-131.9507911,4,2,0,90,0,1
89009,-133.9836186,4,2,0,90,0,1
89282,-136.1304578,4,2,0,90,0,1
89463,-137.6305972,4,2,0,90,0,1
89736,-139.9936564,4,2,0,90,0,1
90009,-142.5051038,4,2,0,90,0,1
90191,-144.2699906,4,2,0,90,0,1
90463,-147.0672796,4,2,0,90,0,1
90736,-150.0640958,4,2,0,90,0,1
90918,-152.1853272,4,2,0,90,0,1
91282,-75.78582833,4,2,0,90,0,1
91463,-159.2428682,4,2,0,90,0,1
91645,-161.8644583,4,2,0,90,0,1
91736,-155.7483386,4,2,0,90,0,1
91827,-150.3715323,4,2,0,90,0,1
91918,-145.5929697,4,2,0,90,0,1
92009,-141.3069154,4,2,0,90,0,1
92100,-137.4322986,4,2,0,90,0,1
92191,-133.9058549,4,2,0,90,0,1
92282,-130.6769755,4,2,0,90,0,1
92373,-127.7051479,4,2,0,90,0,1
92464,-124.9571737,4,2,0,90,0,1
92554,-122.4056194,4,2,0,90,0,1
92645,-120.0275831,4,2,0,90,0,1
92736,-117.8037714,4,2,0,90,0,1
92827,-115.7177953,4,2,0,90,0,1
92918,-113.7556288,4,2,0,90,0,1
93009,-111.9051859,4,2,0,90,0,1
93100,-110.1559867,4,2,0,90,0,1
93191,-108.4989448,4,2,0,90,0,1
93282,-106.9259381,4,2,0,90,0,1
93373,-105.4299629,4,2,0,90,0,1
93464,-104.0047705,4,2,0,90,0,1
93554,-102.6448069,4,2,0,90,0,1
93645,-101.3451162,4,2,0,90,0,1
93736,-100.1012592,4,2,0,90,0,1
94193,-75.78582833,4,2,0,90,0,0
94556,-69.31448432,4,2,0,90,0,1
94918,-131.9507911,4,2,0,90,0,1
95100,-132.8396398,4,2,0,90,0,1
95282,-133.749804,4,2,0,90,0,1
95645,-135.6375825,4,2,0,90,0,1
96009,-137.6221568,4,2,0,90,0,1
96373,-139.7120986,4,2,0,90,0,1
96554,-140.7997629,4,2,0,90,0,1
96736,-141.9176523,4,2,0,90,0,1
97100,-75.78582833,4,2,0,90,0,1
97463,-146.7222971,4,2,0,90,0,1
97827,-149.3494555,4,2,0,90,0,1
98009,-150.7265642,4,2,0,90,0,1
98191,-152.1491656,4,2,0,90,0,1
98554,-155.1416231,4,2,0,90,0,1
98918,-158.3505561,4,2,0,90,0,1
99282,-161.8047149,4,2,0,90,0,1
99464,-163.6338083,4,2,0,90,0,1
99645,-165.5376113,4,2,0,90,0,1
100009,-75.78582833,4,2,0,90,0,1
100373,-131.9507911,4,2,0,90,0,1
100736,-134.2831279,4,2,0,90,0,1
100918,-135.5048211,4,2,0,90,0,1
101100,-136.7663228,4,2,0,90,0,1
101464,-139.4181752,4,2,0,90,0,1
101827,-142.2590477,4,2,0,90,0,1
102191,-145.3135798,4,2,0,90,0,1
102373,-146.9297151,4,2,0,90,0,1
102554,-148.6105619,4,2,0,90,0,1
102918,-75.78582833,4,2,0,90,0,1
103282,-156.074868,4,2,0,90,0,1
103373,-153.9552979,4,2,0,90,0,1
103464,-151.9333445,4,2,0,90,0,1
103645,-148.1524441,4,2,0,90,0,1
103827,-144.6817653,4,2,0,90,0,1
103918,-143.0494466,4,2,0,90,0,1
104009,-141.479953,4,2,0,90,0,1
104191,-138.5130435,4,2,0,90,0,1
104373,-135.7531903,4,2,0,90,0,1
104464,-134.4432867,4,2,0,90,0,1
104554,-133.1766894,4,2,0,90,0,1
104645,-131.9507911,4,2,0,90,0,1
104738,-130.7662623,4,2,0,90,0,0
105827,-75.78582833,4,2,0,90,0,0
106193,-64.4394015,4,2,0,90,0,1
106373,-52.53055609,4,2,0,90,0,1
107645,-131.9507911,4,2,0,40,0,1
108738,-100,4,2,0,40,0,0

[HitObjects]
256,192,1466,5,6,0:0:0:0:
256,192,2193,1,0,0:0:0:0:
256,192,2556,1,2,0:0:0:0:
256,192,2920,1,0,0:0:0:0:
256,192,3647,1,0,0:0:0:0:
256,192,4011,1,0,0:0:0:0:
256,192,4375,1,2,0:0:0:0:
256,192,4738,1,2,0:0:0:0:
256,192,4920,1,2,0:0:0:0:
256,192,5102,1,0,0:0:0:0:
256,192,5466,1,0,0:0:0:0:
256,192,5829,1,2,0:0:0:0:
256,192,6556,1,2,0:0:0:0:
256,192,7102,1,0,0:0:0:0:
256,192,7284,1,2,0:0:0:0:
256,192,7466,1,0,0:0:0:0:
256,192,7647,1,2,0:0:0:0:
256,192,8375,1,2,0:0:0:0:
256,192,8738,1,0,0:0:0:0:
256,192,9102,1,2,0:0:0:0:
256,192,9466,1,2,0:0:0:0:
256,192,9829,1,2,0:0:0:0:
256,192,10193,1,0,0:0:0:0:
256,192,10920,1,2,0:0:0:0:
256,192,12738,1,4,0:0:0:0:
256,192,13102,1,6,0:0:0:0:
256,192,13466,1,2,0:0:0:0:
256,192,13829,1,0,0:0:0:0:
256,192,14193,1,2,0:0:0:0:
256,192,14556,1,0,0:0:0:0:
256,192,14920,1,2,0:0:0:0:
256,192,15284,1,0,0:0:0:0:
256,192,15647,1,2,0:0:0:0:
256,192,16011,1,0,0:0:0:0:
256,192,16375,1,2,0:0:0:0:
256,192,16556,1,0,0:0:0:0:
256,192,16738,1,0,0:0:0:0:
256,192,17102,1,2,0:0:0:0:
256,192,17466,1,0,0:0:0:0:
256,192,17829,1,2,0:0:0:0:
256,192,18193,1,0,0:0:0:0:
256,192,18920,1,2,0:0:0:0:
256,192,19284,1,0,0:0:0:0:
256,192,19466,1,2,0:0:0:0:
256,192,19647,1,0,0:0:0:0:
256,192,20011,1,2,0:0:0:0:
256,192,20375,1,0,0:0:0:0:
256,192,20556,1,2,0:0:0:0:
256,192,20738,1,2,0:0:0:0:
256,192,21102,1,2,0:0:0:0:
256,192,21284,1,2,0:0:0:0:
256,192,21466,1,0,0:0:0:0:
256,192,21647,1,2,0:0:0:0:
256,192,21829,1,2,0:0:0:0:
256,192,22193,1,2,0:0:0:0:
256,192,22375,1,2,0:0:0:0:
256,192,22556,1,0,0:0:0:0:
256,192,22920,1,2,0:0:0:0:
256,192,23466,1,2,0:0:0:0:
256,192,23647,1,2,0:0:0:0:
256,192,24011,1,2,0:0:0:0:
256,192,24193,1,2,0:0:0:0:
256,192,24375,1,0,0:0:0:0:
256,192,24738,1,6,0:0:0:0:
256,192,25102,1,2,0:0:0:0:
256,192,25284,1,2,0:0:0:0:
256,192,25466,1,0,0:0:0:0:
256,192,25829,1,2,0:0:0:0:
256,192,26193,1,0,0:0:0:0:
256,192,26375,1,2,0:0:0:0:
256,192,26556,1,2,0:0:0:0:
256,192,26920,1,2,0:0:0:0:
256,192,27102,1,2,0:0:0:0:
256,192,27284,1,0,0:0:0:0:
256,192,27647,1,6,0:0:0:0:
256,192,28011,1,2,0:0:0:0:
256,192,28193,1,2,0:0:0:0:
256,192,28375,1,0,0:0:0:0:
256,192,28738,1,2,0:0:0:0:
256,192,29102,1,0,0:0:0:0:
256,192,29284,1,2,0:0:0:0:
256,192,29466,1,2,0:0:0:0:
256,192,29829,1,2,0:0:0:0:
256,192,30011,1,2,0:0:0:0:
256,192,30193,1,0,0:0:0:0:
256,192,30556,1,6,0:0:0:0:
256,192,31284,1,0,0:0:0:0:
256,192,31466,1,0,0:0:0:0:
256,192,31647,1,2,0:0:0:0:
256,192,32011,1,0,0:0:0:0:
256,192,32193,1,2,0:0:0:0:
256,192,32375,1,2,0:0:0:0:
256,192,32738,1,2,0:0:0:0:
256,192,32920,1,2,0:0:0:0:
256,192,33102,1,0,0:0:0:0:
256,192,33466,1,6,0:0:0:0:
256,192,33829,1,2,0:0:0:0:
256,192,34193,1,2,0:0:0:0:
256,192,34556,1,2,0:0:0:0:
256,192,34920,1,0,0:0:0:0:
256,192,36011,1,4,0:0:0:0:
256,192,36375,1,6,0:0:0:0:
256,192,36647,1,2,0:0:0:0:
256,192,36920,1,2,0:0:0:0:
256,192,37284,1,0,0:0:0:0:
256,192,37829,1,2,0:0:0:0:
256,192,38011,1,2,0:0:0:0:
256,192,38193,1,2,0:0:0:0:
256,192,38556,1,0,0:0:0:0:
256,192,38920,1,4,0:0:0:0:
256,192,39284,1,2,0:0:0:0:
256,192,39556,1,2,0:0:0:0:
256,192,39829,1,2,0:0:0:0:
256,192,40193,1,0,0:0:0:0:
256,192,40738,1,2,0:0:0:0:
256,192,40920,1,2,0:0:0:0:
256,192,41102,1,2,0:0:0:0:
256,192,41466,1,0,0:0:0:0:
256,192,41829,1,4,0:0:0:0:
256,192,42193,1,2,0:0:0:0:
256,192,42466,1,2,0:0:0:0:
256,192,42738,1,2,0:0:0:0:
256,192,43102,1,0,0:0:0:0:
256,192,43647,1,2,0:0:0:0:
256,192,43829,1,2,0:0:0:0:
256,192,44011,1,2,0:0:0:0:
256,192,44375,1,0,0:0:0:0:
256,192,44738,1,4,0:0:0:0:
256,192,45102,1,2,0:0:0:0:
256,192,45375,1,2,0:0:0:0:
256,192,45647,1,2,0:0:0:0:
256,192,46011,1,0,0:0:0:0:
256,192,46556,1,2,0:0:0:0:
256,192,46738,1,2,0:0:0:0:
256,192,46920,1,2,0:0:0:0:
256,192,47284,1,2,0:0:0:0:
256,192,47466,1,2,0:0:0:0:
256,192,47647,1,4,0:0:0:0:
256,192,48011,1,2,0:0:0:0:
256,192,48193,1,2,0:0:0:0:
256,192,48556,1,2,0:0:0:0:
256,192,48738,1,2,0:0:0:0:
256,192,49102,1,2,0:0:0:0:
256,192,49284,1,2,0:0:0:0:
256,192,49647,1,2,0:0:0:0:
256,192,50193,1,2,0:0:0:0:
256,192,50556,1,4,0:0:0:0:
256,192,50920,1,2,0:0:0:0:
256,192,51102,1,2,0:0:0:0:
256,192,51466,1,2,0:0:0:0:
256,192,51647,1,2,0:0:0:0:
256,192,52011,1,2,0:0:0:0:
256,192,52193,1,2,0:0:0:0:
256,192,52556,1,2,0:0:0:0:
256,192,53102,1,2,0:0:0:0:
256,192,53466,1,4,0:0:0:0:
256,192,53829,1,2,0:0:0:0:
256,192,54011,1,2,0:0:0:0:
256,192,54375,1,2,0:0:0:0:
256,192,54556,1,2,0:0:0:0:
256,192,54920,1,2,0:0:0:0:
256,192,55102,1,2,0:0:0:0:
256,192,55284,1,0,0:0:0:0:
256,192,55466,1,2,0:0:0:0:
256,192,56011,1,2,0:0:0:0:
256,192,56375,1,4,0:0:0:0:
256,192,56738,1,2,0:0:0:0:
256,192,56920,1,2,0:0:0:0:
256,192,57284,1,2,0:0:0:0:
256,192,57466,1,2,0:0:0:0:
256,192,57829,1,2,0:0:0:0:
256,192,58011,1,0,0:0:0:0:
256,192,58375,1,2,0:0:0:0:
256,192,58556,1,0,0:0:0:0:
256,192,58920,1,2,0:0:0:0:
256,192,59102,1,2,0:0:0:0:
256,192,59284,1,4,0:0:0:0:
256,192,59647,1,2,0:0:0:0:
256,192,59920,1,2,0:0:0:0:
256,192,60193,1,2,0:0:0:0:
256,192,60375,1,0,0:0:0:0:
256,192,61102,1,2,0:0:0:0:
256,192,61375,1,2,0:0:0:0:
256,192,61647,1,2,0:0:0:0:
256,192,61829,1,0,0:0:0:0:
256,192,62556,1,2,0:0:0:0:
256,192,62829,1,2,0:0:0:0:
256,192,63102,1,2,0:0:0:0:
256,192,63284,1,0,0:0:0:0:
256,192,64011,1,2,0:0:0:0:
256,192,64284,1,2,0:0:0:0:
256,192,64556,1,2,0:0:0:0:
256,192,64738,1,0,0:0:0:0:
256,192,65466,1,2,0:0:0:0:
256,192,66011,1,2,0:0:0:0:
256,192,66193,1,0,0:0:0:0:
256,192,66556,1,2,0:0:0:0:
256,192,67102,1,2,0:0:0:0:
256,192,67284,1,2,0:0:0:0:
256,192,67647,1,0,0:0:0:0:
256,192,67829,1,2,0:0:0:0:
256,192,68193,1,2,0:0:0:0:
256,192,68375,1,2,0:0:0:0:
256,192,68920,1,2,0:0:0:0:
256,192,69102,1,0,0:0:0:0:
256,192,69466,1,2,0:0:0:0:
256,192,69829,1,0,0:0:0:0:
256,192,70011,1,0,0:0:0:0:
256,192,70193,1,0,0:0:0:0:
256,192,70556,1,2,0:0:0:0:
256,192,70738,1,2,0:0:0:0:
256,192,70920,1,4,0:0:0:0:
256,192,71284,1,6,0:0:0:0:
256,192,71647,1,2,0:0:0:0:
256,192,72011,1,2,0:0:0:0:
256,192,72375,1,2,0:0:0:0:
256,192,72738,1,2,0:0:0:0:
256,192,73102,1,2,0:0:0:0:
256,192,73466,1,2,0:0:0:0:
256,192,74193,1,4,0:0:0:0:
256,192,74556,1,0,0:0:0:0:
256,192,74920,1,0,0:0:0:0:
256,192,75284,1,0,0:0:0:0:
256,192,75647,1,0,0:0:0:0:
256,192,76011,1,0,0:0:0:0:
256,192,76375,1,0,0:0:0:0:
256,192,76920,1,4,0:0:0:0:
256,192,77102,1,6,0:0:0:0:
256,192,77466,1,2,0:0:0:0:
256,192,77647,1,0,0:0:0:0:
256,192,77829,1,2,0:0:0:0:
256,192,78011,1,0,0:0:0:0:
256,192,78375,1,4,0:0:0:0:
256,192,78556,1,6,0:0:0:0:
256,192,78920,1,2,0:0:0:0:
256,192,79102,1,0,0:0:0:0:
256,192,79284,1,2,0:0:0:0:
256,192,79466,1,0,0:0:0:0:
256,192,79829,1,4,0:0:0:0:
256,192,80011,1,6,0:0:0:0:
256,192,80375,1,6,0:0:0:0:
256,192,80738,1,6,0:0:0:0:
256,192,81102,1,6,0:0:0:0:
256,192,82556,1,4,0:0:0:0:
256,192,83102,1,4,0:0:0:0:
256,192,83284,1,6,0:0:0:0:
256,192,83647,1,0,0:0:0:0:
256,192,83920,1,0,0:0:0:0:
256,192,84193,1,0,0:0:0:0:
256,192,84375,1,0,0:0:0:0:
256,192,84920,1,0,0:0:0:0:
256,192,85102,1,0,0:0:0:0:
256,192,85466,1,4,0:0:0:0:
256,192,85829,1,0,0:0:0:0:
256,192,86102,1,0,0:0:0:0:
256,192,86375,1,0,0:0:0:0:
256,192,86556,1,0,0:0:0:0:
256,192,87102,1,0,0:0:0:0:
256,192,87284,1,0,0:0:0:0:
256,192,87556,1,0,0:0:0:0:
256,192,87829,1,0,0:0:0:0:
256,192,88011,1,0,0:0:0:0:
256,192,88375,1,4,0:0:0:0:
256,192,88738,1,0,0:0:0:0:
256,192,89011,1,0,0:0:0:0:
256,192,89284,1,0,0:0:0:0:
256,192,89465,1,0,0:0:0:0:
256,192,90011,1,0,0:0:0:0:
256,192,90193,1,0,0:0:0:0:
256,192,90465,1,0,0:0:0:0:
256,192,90738,1,0,0:0:0:0:
256,192,90920,1,0,0:0:0:0:
256,192,91284,1,4,0:0:0:0:
256,192,91647,1,2,0:0:0:0:
256,192,91738,1,2,0:0:0:0:
256,192,91829,1,2,0:0:0:0:
256,192,92011,1,2,0:0:0:0:
256,192,92193,1,2,0:0:0:0:
256,192,92375,1,2,0:0:0:0:
256,192,92738,1,2,0:0:0:0:
256,192,92829,1,2,0:0:0:0:
256,192,92920,1,2,0:0:0:0:
256,192,93102,1,2,0:0:0:0:
256,192,93284,1,2,0:0:0:0:
256,192,93466,1,2,0:0:0:0:
256,192,93647,1,2,0:0:0:0:
256,192,93738,1,2,0:0:0:0:
256,192,94193,1,4,0:0:0:0:
256,192,94556,1,6,0:0:0:0:
256,192,94920,1,2,0:0:0:0:
256,192,95102,1,2,0:0:0:0:
256,192,95284,1,0,0:0:0:0:
256,192,95647,1,2,0:0:0:0:
256,192,96011,1,0,0:0:0:0:
256,192,96375,1,2,0:0:0:0:
256,192,96556,1,2,0:0:0:0:
256,192,96738,1,0,0:0:0:0:
256,192,97102,1,4,0:0:0:0:
256,192,97466,1,2,0:0:0:0:
256,192,97829,1,2,0:0:0:0:
256,192,98011,1,2,0:0:0:0:
256,192,98193,1,0,0:0:0:0:
256,192,98556,1,2,0:0:0:0:
256,192,98920,1,0,0:0:0:0:
256,192,99466,1,2,0:0:0:0:
256,192,99647,1,0,0:0:0:0:
256,192,100011,1,4,0:0:0:0:
256,192,100375,1,2,0:0:0:0:
256,192,100738,1,2,0:0:0:0:
256,192,100920,1,2,0:0:0:0:
256,192,101102,1,0,0:0:0:0:
256,192,101466,1,2,0:0:0:0:
256,192,101829,1,0,0:0:0:0:
256,192,102193,1,2,0:0:0:0:
256,192,102375,1,2,0:0:0:0:
256,192,102556,1,0,0:0:0:0:
256,192,102920,1,4,0:0:0:0:
256,192,103284,1,2,0:0:0:0:
256,192,103466,1,2,0:0:0:0:
256,192,103647,1,2,0:0:0:0:
256,192,103829,1,2,0:0:0:0:
256,192,104011,1,2,0:0:0:0:
256,192,104193,1,2,0:0:0:0:
256,192,104375,1,2,0:0:0:0:
256,192,104556,1,2,0:0:0:0:
256,192,105829,1,6,0:0:0:0:
256,192,106193,1,4,0:0:0:0:
256,192,106375,12,6,108738,0:0:0:0:
