osu file format v14

[General]
AudioFilename: audio.mp3
AudioLeadIn: 0
PreviewTime: 79072
Countdown: 0
SampleSet: Soft
StackLeniency: 0.5
Mode: 0
LetterboxInBreaks: 0
WidescreenStoryboard: 1

[Editor]
Bookmarks: 52364,79072
DistanceSpacing: 1.4
BeatDivisor: 8
GridSize: 4
TimelineZoom: 1

[Metadata]
Title:Crying out
TitleUnicode:외침
Artist:D.O. (EXO)
ArtistUnicode:디오 (EXO)
Creator:DoAcre
Version:Struggling
Source:카트
Tags:kyungsoo cart kateu ost bossandy Pop KPop K-Pop Korean 디오 외침 카트 movie OST soundtrack
BeatmapID:1719590
BeatmapSetID:677551

[Difficulty]
HPDrainRate:4
CircleSize:4
OverallDifficulty:5
ApproachRate:5
SliderMultiplier:1.5
SliderTickRate:1

[Events]
//Background and Video events
0,0,"o4msemn.png",0,0
Video,0,"output.flv"
//Break Periods
//Storyboard Layer 0 (Background)
//Storyboard Layer 1 (Fail)
//Storyboard Layer 2 (Pass)
//Storyboard Layer 3 (Foreground)
//Storyboard Layer 4 (Overlay)
//Storyboard Sound Samples

[TimingPoints]
1235,810.810810810811,4,2,1,30,1,0
7316,-100,4,2,1,30,0,0
9140,-100,4,2,1,5,0,0
9343,-100,4,2,1,30,0,0
22113,-100,4,2,1,5,0,0
22316,-100,4,2,1,30,0,0
53126,-100,4,2,1,50,0,0
79072,-90.9090909090909,4,2,1,50,0,1
91212,810.810810810811,4,2,1,50,1,1
91212,-90.9090909090909,4,2,1,50,0,1
92045,810.810810810811,4,2,1,50,1,1
92045,-90.9090909090909,4,2,1,50,0,1
99332,810.810810810811,4,2,1,50,1,9
99332,-90.9090909090909,4,2,1,50,0,1
101764,810.810810810811,4,2,1,50,1,1
104601,-100,4,2,1,50,0,0
105414,-100,4,2,1,5,0,0
107947,-100,4,2,1,30,0,0

[Colours]
Combo1 : 0,128,64
Combo2 : 97,60,247

[HitObjects]
106,62,1235,5,2,0:0:0:0:
283,143,2045,2,0,L|283:237,1,75
284,315,2856,1,2,0:0:0:0:
440,67,4072,1,0,0:0:0:0:
433,164,4478,5,2,0:0:0:0:
337,180,4883,2,0,L|235:188,1,75,0|2,0:0|0:0,0:0:0:0:
166,167,5694,2,0,L|64:171,1,75,0|2,0:0|0:0,0:0:0:0:
171,41,7316,6,0,L|272:41,1,75,0|2,0:0|0:0,0:0:0:0:
422,123,8532,2,0,P|418:210|402:239,1,112.5
360,245,9343,2,0,P|357:285|366:321,1,75,2|0,0:0|0:0,0:0:0:0:
430,382,10153,1,0,0:0:0:0:
442,285,10559,1,0,0:0:0:0:
413,191,10964,6,0,P|371:170|314:186,1,75,2|0,0:0|0:0,0:0:0:0:
247,214,11775,1,2,0:0:0:0:
146,183,12180,1,0,0:0:0:0:
50,161,12586,1,2,0:0:0:0:
190,25,13397,6,0,L|266:25,1,75,0|2,0:0|0:0,0:0:0:0:
362,25,14207,1,0,0:0:0:0:
491,168,15018,2,0,P|503:207|492:256,1,75,2|0,0:0|0:0,0:0:0:0:
479,336,15829,1,0,0:0:0:0:
207,223,17045,1,0,0:0:0:0:
262,303,17451,6,0,P|228:318|190:316,1,75,2|0,0:0|0:0,0:0:0:0:
105,362,18262,2,0,P|97:295|106:268,1,75,2|0,0:0|0:0,0:0:0:0:
119,193,19072,1,0,0:0:0:0:
397,104,20289,1,0,0:0:0:0:
312,152,20694,6,0,L|315:241,1,75,2|0,0:0|0:0,0:0:0:0:
323,324,21505,2,0,B|371:307|397:343|449:322,1,112.5,2|0,0:0|0:0,0:0:0:0:
463,287,22316,2,0,P|466:250|449:191,1,75,2|0,0:0|0:0,0:0:0:0:
420,123,23126,1,2,0:0:0:0:
337,71,23532,1,0,0:0:0:0:
244,41,23937,6,0,L|144:35,2,75,2|0|2,0:0|0:0|0:0,0:0:0:0:
337,71,25153,1,0,0:0:0:0:
421,21,25559,1,2,0:0:0:0:
498,199,26370,2,0,L|501:290,1,75,2|0,0:0|0:0,0:0:0:0:
503,371,27180,5,0,3:0:0:0:
327,286,27991,2,0,P|264:267|225:281,1,75,2|0,0:0|0:0,0:0:0:0:
201,347,28802,2,0,P|135:348|108:335,2,75,0|0|2,3:0|0:0|0:0,0:0:0:0:
291,311,30018,1,0,0:0:0:0:
368,252,30424,6,0,P|375:206|356:162,1,75,0|0,3:0|0:0,0:0:0:0:
330,88,31235,1,2,0:0:0:0:
248,34,31640,1,0,0:0:0:0:
160,54,32045,1,0,3:0:0:0:
104,125,32451,1,0,0:0:0:0:
155,207,32856,1,2,0:0:0:0:
221,135,33262,1,0,0:0:0:0:
306,176,33667,5,0,3:0:0:0:
248,362,34478,2,0,P|288:369|342:358,2,75,2|0|0,0:0|0:0|3:0,0:0:0:0:
150,353,35694,1,0,0:0:0:0:
52,360,36099,2,0,P|43:310|57:275,1,75,2|0,0:0|0:0,0:0:0:0:
76,193,36910,6,0,P|92:152|85:96,1,75,0|0,3:0|0:0,0:0:0:0:
68,26,37721,1,2,0:0:0:0:
155,68,38126,1,0,0:0:0:0:
250,46,38532,2,0,P|293:44|333:51,1,75,0|0,3:0|0:0,0:0:0:0:
373,133,39343,2,0,P|416:135|456:128,1,75,2|0,0:0|0:0,0:0:0:0:
503,50,40153,6,0,L|498:194,1,112.5,0|0,3:0|0:0,0:0:0:0:
461,193,40964,2,0,P|460:249|466:272,1,75,2|0,0:0|0:0,0:0:0:0:
485,362,41775,2,0,L|335:364,1,150,0|2,3:0|0:0,0:0:0:0:
237,366,42991,1,0,0:0:0:0:
141,347,43397,6,0,L|52:344,2,75,0|0|2,3:0|0:0|0:0,0:0:0:0:
238,338,44613,1,0,0:0:0:0:
313,277,45018,2,0,L|392:280,1,75,0|0,3:0|0:0,0:0:0:0:
484,267,45829,1,2,0:0:0:0:
507,172,46235,2,0,L|509:108,1,37.5
495,87,46640,6,0,P|427:71|390:71,1,75,0|0,3:0|0:0,0:0:0:0:
345,130,47451,2,0,P|290:126|252:104,1,75,2|0,0:0|0:0,0:0:0:0:
326,37,48262,2,0,P|381:41|419:63,1,75,0|0,3:0|0:0,0:0:0:0:
414,144,49072,1,2,0:0:0:0:
365,229,49478,1,0,0:0:0:0:
408,316,49883,6,0,P|454:320|481:306,1,75,0|0,3:0|0:0,0:0:0:0:
487,210,50694,1,2,0:0:0:0:
398,175,51099,1,0,0:0:0:0:
301,187,51505,2,0,P|229:187|195:172,1,75,0|0,3:0|0:0,0:0:0:0:
179,174,52113,1,0,1:0:0:0:
179,174,52316,1,2,1:2:0:0:
96,122,52721,1,4,3:0:0:0:
11,73,53126,6,0,L|17:-28,2,75,4|0|2,3:2|0:0|0:3,0:0:0:0:
41,166,54343,1,0,3:0:0:0:
6,260,54748,2,0,P|20:299|74:327,1,75,0|0,3:0|0:0,0:0:0:0:
148,299,55559,1,2,1:3:0:0:
235,356,55964,1,0,0:0:0:0:
308,280,56370,5,0,3:0:0:0:
365,367,56775,2,0,P|410:320|405:280,1,75,0|2,0:0|0:3,0:0:0:0:
429,210,57586,1,0,3:0:0:0:
508,141,57991,2,0,P|454:108|385:123,1,112.5,0|0,3:0|0:0,0:0:0:0:
363,134,58802,2,0,P|326:144|271:137,1,75,2|0,1:3|0:0,0:0:0:0:
193,100,59613,6,0,L|198:234,1,112.5,0|0,3:0|0:0,0:0:0:0:
214,261,60424,2,0,P|219:324|209:349,1,75,2|0,0:3|3:0,0:0:0:0:
123,364,61235,2,0,P|74:361|28:320,1,112.5,0|0,3:0|0:0,0:0:0:0:
33,271,62045,2,0,P|43:223|35:179,1,75,2|0,1:3|0:0,0:0:0:0:
5,106,62856,6,0,P|55:72|152:97,1,150,0|2,3:0|0:3,0:0:0:0:
221,139,64072,1,0,3:0:0:0:
281,215,64478,2,0,P|366:228|390:208,1,112.5,0|0,3:0|0:0,0:0:0:0:
421,186,65289,1,2,0:3:0:0:
445,91,65694,1,4,3:0:0:0:
359,43,66099,6,0,B|278:37|301:84|211:67,1,150,4|2,3:2|0:3,0:0:0:0:
117,53,67316,1,0,3:0:0:0:
31,99,67721,2,0,P|4:179|30:219,1,112.5,0|0,3:0|0:0,0:0:0:0:
43,238,68532,1,2,1:3:0:0:
118,300,68937,1,0,0:0:0:0:
205,255,69343,5,0,3:0:0:0:
301,240,69748,2,0,L|360:253,1,37.5
386,254,70153,2,0,P|437:253|466:231,1,75,2|0,0:3|3:0,0:0:0:0:
504,157,70964,2,0,P|508:118|466:47,1,112.5,0|0,3:0|0:0,0:0:0:0:
434,28,71775,1,2,1:3:0:0:
339,2,72180,1,0,0:0:0:0:
262,62,72586,6,0,P|256:130|291:171,1,112.5,4|0,3:2|0:0,0:0:0:0:
309,202,73397,2,0,P|321:266|301:295,1,75,0|4,1:0|3:2,0:0:0:0:
244,335,74207,2,0,P|207:326|163:329,1,75,4|2,3:2|0:3,0:0:0:0:
77,358,75018,2,0,P|72:321|87:273,1,75,4|2,1:2|0:3,0:0:0:0:
136,204,75829,6,0,P|135:150|126:100,1,75,4|2,3:2|0:0,0:0:0:0:
103,36,76640,1,2,0:0:0:0:
198,55,77045,1,2,0:0:0:0:
280,3,77451,2,0,B|337:-12|386:30|386:30|441:71|500:40,1,225,2|4,0:0|3:0,0:0:0:0:
402,120,79072,6,0,P|376:202|402:242,1,123.75000377655,4|0,3:2|0:0,0:0:0:0:
434,269,79883,2,0,P|442:331|430:350,1,82.5000025177003,0|2,1:0|3:0,0:0:0:0:
324,305,80694,2,0,P|266:315|241:336,1,82.5000025177003,0|2,3:0|0:3,0:0:0:0:
141,372,81505,2,0,P|111:319|116:285,1,82.5000025177003,0|2,1:0|0:3,0:0:0:0:
147,253,82113,1,0,0:0:0:0:
147,253,82316,6,0,P|158:201|139:163,1,82.5000025177003,0|2,3:0|0:3,0:0:0:0:
100,69,83126,2,0,P|156:46|199:65,1,82.5000025177003,0|2,1:0|3:0,0:0:0:0:
219,88,83735,1,0,0:0:0:0:
219,88,83937,2,0,P|256:92|308:84,1,82.5000025177003,0|2,3:0|0:3,0:0:0:0:
410,48,84748,2,0,L|402:143,1,82.5000025177003,0|2,1:0|0:3,0:0:0:0:
391,245,85559,6,0,P|325:273|279:243,1,123.75000377655,4|0,3:2|0:0,0:0:0:0:
250,202,86370,1,0,1:0:0:0:
146,151,86775,1,2,3:0:0:0:
57,225,87180,2,0,P|48:263|58:311,1,82.5000025177003,0|2,3:0|0:3,0:0:0:0:
141,382,87991,2,0,L|233:380,1,82.5000025177003,0|2,1:0|0:3,0:0:0:0:
331,339,88802,6,0,P|337:301|333:250,1,82.5000025177003,0|2,3:0|0:3,0:0:0:0:
239,190,89613,2,0,L|242:103,1,82.5000025177003,0|2,1:0|3:0,0:0:0:0:
308,12,90424,1,0,1:0:0:0:
308,12,90626,2,0,P|255:29|216:21,1,82.5000025177003,0|0,1:0|0:0,0:0:0:0:
181,6,91212,2,0,P|120:4|94:15,1,82.5000025177003,0|6,1:0|3:3,0:0:0:0:
1,97,92045,6,0,L|5:235,1,123.75000377655,4|0,3:2|0:0,0:0:0:0:
47,259,92856,2,0,L|54:345,1,82.5000025177003,0|2,1:0|3:0,0:0:0:0:
162,302,93666,2,0,L|169:388,1,82.5000025177003,0|2,3:0|0:3,0:0:0:0:
248,299,94478,1,0,1:0:0:0:
238,183,94883,1,2,3:0:0:0:
261,69,95289,6,0,P|304:26|356:69,1,123.75000377655,4|0,3:2|0:0,0:0:0:0:
390,95,96099,2,0,L|494:107,1,82.5000025177003,0|2,1:0|3:0,0:0:0:0:
502,215,96910,2,0,L|501:321,1,82.5000025177003,0|2,3:0|0:3,0:0:0:0:
465,342,97518,1,0,3:0:0:0:
465,342,97721,2,0,P|396:358|372:346,1,82.5000025177003,0|2,1:0|0:3,0:0:0:0:
302,277,98531,6,0,P|261:267|215:277,1,82.5000025177003,4|2,3:2|0:3,0:0:0:0:
133,348,99332,2,0,P|61:351|43:338,1,82.5000025177003,0|2,1:0|3:0,0:0:0:0:
1,244,100142,2,0,L|0:153,1,82.5000025177003,0|2,3:0|0:3,0:0:0:0:
37,117,100751,1,0,0:0:0:0:
37,117,100953,2,0,P|79:102|127:115,1,82.5000025177003,0|2,1:0|0:3,0:0:0:0:
214,170,101764,5,4,3:2:0:0:
318,121,102169,1,8,3:0:0:0:
302,235,102575,1,0,3:0:0:0:
302,235,102778,1,4,3:0:0:0:
405,374,103386,5,0,3:0:0:0:
424,260,103791,1,0,3:0:0:0:
440,145,104196,1,0,1:0:0:0:
450,40,104602,2,0,P|397:36|346:40,1,103.125,0|4,1:0|3:0,0:0:0:0:
256,192,105413,12,0,107946,0:0:0:0:
