osu file format v14

[General]
AudioFilename: audio.mp3
AudioLeadIn: 0
PreviewTime: 79072
Countdown: 0
SampleSet: Soft
StackLeniency: 0.5
Mode: 0
LetterboxInBreaks: 0
WidescreenStoryboard: 1

[Editor]
DistanceSpacing: 1.4
BeatDivisor: 8
GridSize: 4
TimelineZoom: 1

[Metadata]
Title:Crying out
TitleUnicode:외침
Artist:D.O. (EXO)
ArtistUnicode:디오 (EXO)
Creator:DoAcre
Version:Relaxing
Source:카트
Tags:kyungsoo cart kateu ost bossandy Pop KPop K-Pop Korean 디오 외침 카트 movie OST soundtrack
BeatmapID:1432895
BeatmapSetID:677551

[Difficulty]
HPDrainRate:2
CircleSize:3
OverallDifficulty:3
ApproachRate:4
SliderMultiplier:1.2
SliderTickRate:1

[Events]
//Background and Video events
0,0,"o4msemn.png",0,0
Video,0,"output.flv"
//Break Periods
//Storyboard Layer 0 (Background)
//Storyboard Layer 1 (Fail)
//Storyboard Layer 2 (Pass)
//Storyboard Layer 3 (Foreground)
//Storyboard Layer 4 (Overlay)
//Storyboard Sound Samples

[TimingPoints]
1235,810.810810810811,4,2,1,30,1,0
53126,-100,4,2,1,50,0,0
79072,-100,4,2,1,50,0,1
91212,810.810810810811,4,2,1,50,1,1
92045,810.810810810811,4,2,1,50,1,1
99332,810.810810810811,4,2,1,50,1,9
101764,810.810810810811,4,2,1,50,1,1
104601,-100,4,2,1,50,0,0
105160,-100,4,2,1,50,0,0
105414,-100,4,2,1,5,0,0
107947,-100,4,2,1,30,0,0

[Colours]
Combo1 : 0,128,64
Combo2 : 97,60,247

[HitObjects]
77,72,1235,5,2,0:0:0:0:
30,257,2045,2,0,P|55:262|112:253,1,60,0|0,0:0|0:0,0:0:0:0:
184,247,2856,1,2,0:0:0:0:
468,205,4072,1,0,0:0:0:0:
396,141,4478,6,0,P|337:133|316:135,1,60,2|0,0:0|0:0,0:0:0:0:
240,140,5289,1,2,0:0:0:0:
154,183,5694,1,0,0:0:0:0:
179,275,6099,1,2,0:0:0:0:
464,317,7316,6,0,P|471:282|457:248,1,60,0|2,0:0|0:0,0:0:0:0:
401,77,8532,2,0,P|335:60|264:89,1,120,0|2,0:0|0:0,0:0:0:0:
111,152,10153,1,0,0:0:0:0:
53,229,10559,1,0,0:0:0:0:
103,310,10964,6,0,L|179:301,1,60,2|0,0:0|0:0,0:0:0:0:
257,287,11775,1,2,0:0:0:0:
342,331,12180,1,0,0:0:0:0:
435,310,12586,2,0,L|506:320,1,60,2|0,0:0|0:0,0:0:0:0:
507,223,13397,2,0,L|447:214,1,60,0|2,0:0|0:0,0:0:0:0:
352,205,14207,5,0,0:0:0:0:
504,87,15018,2,0,L|444:78,1,60,2|0,0:0|0:0,0:0:0:0:
349,65,15828,1,0,0:0:0:0:
61,47,17045,1,0,0:0:0:0:
22,135,17451,6,0,L|29:214,1,60,2|0,0:0|0:0,0:0:0:0:
116,230,18262,2,0,L|123:309,1,60,2|0,0:0|0:0,0:0:0:0:
133,384,19072,1,0,0:0:0:0:
232,113,20289,6,0,P|266:107|297:111,1,60,0|2,0:0|0:0,0:0:0:0:
427,242,21505,2,0,B|381:290|317:285,1,120,2|2,0:0|0:0,0:0:0:0:
150,191,23126,1,2,0:0:0:0:
91,119,23532,1,0,0:0:0:0:
135,34,23937,6,0,L|206:15,1,60,2|0,0:0|0:0,0:0:0:0:
268,78,24748,2,0,L|325:93,1,60,2|0,0:0|0:0,0:0:0:0:
417,122,25559,1,2,0:0:0:0:
464,308,26370,1,2,0:0:0:0:
386,363,26775,1,0,0:0:0:0:
314,299,27180,6,0,P|281:297|241:303,1,60,0|0,3:0|0:0,0:0:0:0:
175,354,27991,2,0,P|135:357|106:348,1,60,2|0,0:0|0:0,0:0:0:0:
22,330,28802,2,0,P|14:306|21:262,1,60,0|0,3:0|0:0,0:0:0:0:
71,191,29613,1,2,0:0:0:0:
106,102,30018,1,0,0:0:0:0:
197,128,30424,6,0,L|275:133,1,60,0|0,3:0|0:0,0:0:0:0:
320,204,31235,2,0,L|379:200,1,60,2|0,0:0|0:0,0:0:0:0:
430,118,32045,2,0,L|507:100,2,60,0|0|2,3:0|0:0|0:0,0:0:0:0:
352,61,33262,1,0,0:0:0:0:
309,147,33667,6,0,L|322:217,1,60,0|0,3:0|0:0,0:0:0:0:
337,300,34478,2,0,P|254:329|216:297,1,120,2|0,0:0|3:0,0:0:0:0:
217,221,35694,1,0,0:0:0:0:
138,165,36099,2,0,P|94:167|73:178,1,60,2|0,0:0|0:0,0:0:0:0:
24,250,36910,6,0,P|30:302|45:325,1,60,0|0,3:0|0:0,0:0:0:0:
117,354,37721,2,0,P|161:352|182:341,1,60,2|0,0:0|0:0,0:0:0:0:
265,312,38532,1,0,3:0:0:0:
280,120,39343,1,2,0:0:0:0:
223,42,39748,1,0,0:0:0:0:
129,20,40153,6,0,P|96:18|68:30,1,60,0|0,3:0|0:0,0:0:0:0:
34,116,40964,2,0,L|43:180,1,60,2|0,0:0|0:0,0:0:0:0:
83,262,41775,2,0,P|136:269|186:213,1,120,0|2,3:0|0:0,0:0:0:0:
202,135,42991,1,0,0:0:0:0:
230,43,43397,6,0,P|258:37|297:42,1,60,0|0,3:0|0:0,0:0:0:0:
363,100,44207,1,2,0:0:0:0:
360,196,44613,1,0,0:0:0:0:
301,272,45018,2,0,P|301:309|309:345,1,60,0|0,3:0|0:0,0:0:0:0:
385,383,45829,1,2,0:0:0:0:
462,326,46235,6,0,P|466:296|466:266,1,60,0|0,0:0|3:0,0:0:0:0:
461,76,47451,2,0,L|387:70,1,60,2|0,0:0|0:0,0:0:0:0:
310,101,48262,2,0,L|250:105,1,60,0|0,3:0|0:0,0:0:0:0:
167,153,49072,1,2,0:0:0:0:
73,130,49478,1,0,0:0:0:0:
22,48,49883,6,0,P|45:35|93:36,1,60,0|0,3:0|0:0,0:0:0:0:
173,41,50694,1,2,0:0:0:0:
249,98,51099,1,0,0:0:0:0:
332,51,51505,1,0,3:0:0:0:
415,97,51910,1,0,0:0:0:0:
449,186,52316,2,0,P|454:222|449:264,1,60,2|4,1:2|3:0,0:0:0:0:
384,312,53126,6,0,L|255:321,1,120,4|2,3:2|0:3,0:0:0:0:
188,379,54343,1,0,3:0:0:0:
108,314,54748,2,0,P|95:257|118:202,1,120,0|2,3:0|1:3,0:0:0:0:
183,132,55964,1,0,0:0:0:0:
271,168,56370,5,0,3:0:0:0:
336,238,56775,2,0,P|370:242|411:221,1,60,0|2,0:0|0:3,0:0:0:0:
430,145,57586,1,0,3:0:0:0:
377,64,57991,2,0,P|343:60|302:81,1,60,0|0,3:0|0:0,0:0:0:0:
227,98,58802,1,2,1:3:0:0:
139,59,59207,1,0,0:0:0:0:
49,93,59613,5,0,3:0:0:0:
141,261,60424,1,2,0:3:0:0:
81,337,60829,1,0,3:0:0:0:
164,379,61235,2,0,P|200:382|242:362,1,60,0|0,3:0|0:0,0:0:0:0:
303,323,62045,1,2,1:3:0:0:
389,365,62451,1,0,0:0:0:0:
484,374,62856,6,0,P|497:324|467:255,1,120,0|2,3:0|0:3,0:0:0:0:
410,188,64072,1,0,3:0:0:0:
315,164,64478,2,0,P|281:161|230:173,1,60,0|0,3:0|0:0,0:0:0:0:
178,221,65289,1,2,0:3:0:0:
82,212,65694,1,4,3:0:0:0:
50,121,66099,6,0,P|45:91|121:45,1,120,4|2,3:2|0:3,0:0:0:0:
201,57,67316,1,0,3:0:0:0:
261,131,67721,2,0,B|324:161|323:111|386:135,1,120,0|2,3:0|1:3,0:0:0:0:
459,82,68937,1,0,0:0:0:0:
491,172,69343,6,0,P|495:222|494:247,1,60,0|0,3:0|0:0,0:0:0:0:
484,327,70153,1,2,0:3:0:0:
400,375,70559,1,0,3:0:0:0:
310,339,70964,2,0,P|263:338|234:343,1,60,0|0,3:0|0:0,0:0:0:0:
155,357,71775,1,2,1:3:0:0:
59,345,72180,1,0,0:0:0:0:
11,261,72586,5,4,3:2:0:0:
28,69,73397,1,0,1:0:0:0:
120,77,73802,1,4,3:2:0:0:
205,119,74207,2,0,P|210:168|207:188,1,60,4|2,3:2|0:3,0:0:0:0:
168,265,75018,2,0,P|170:326|179:349,1,60,4|2,1:2|0:3,0:0:0:0:
246,381,75829,5,4,3:2:0:0:
339,360,76235,1,2,0:0:0:0:
434,363,76640,2,0,P|440:320|426:278,1,60,2|2,0:0|0:0,0:0:0:0:
369,235,77451,2,0,P|348:175|378:112,1,120,2|2,0:0|0:0,0:0:0:0:
411,39,78667,1,4,3:0:0:0:
323,0,79072,6,0,L|252:1,1,60,4|2,3:2|0:3,0:0:0:0:
176,43,79883,1,0,1:0:0:0:
79,40,80289,1,2,3:0:0:0:
18,114,80694,2,0,P|18:159|26:191,1,60,0|2,3:0|0:3,0:0:0:0:
49,265,81505,1,0,1:0:0:0:
134,307,81910,1,2,0:3:0:0:
206,243,82316,5,0,3:0:0:0:
353,365,83126,1,0,1:0:0:0:
440,330,83532,1,2,3:0:0:0:
472,239,83937,2,0,P|475:196|468:166,1,60,0|2,3:0|0:3,0:0:0:0:
445,87,84748,1,0,1:0:0:0:
354,56,85153,1,2,0:3:0:0:
273,107,85559,6,0,L|283:241,1,120,4|0,3:2|1:0,0:0:0:0:
257,319,86775,1,2,3:0:0:0:
167,316,87180,2,0,P|138:317|99:326,1,60,0|2,3:0|0:3,0:0:0:0:
22,367,87991,1,0,1:0:0:0:
0,273,88397,1,2,0:3:0:0:
58,197,88802,6,0,P|64:164|40:124,1,60,0|2,3:0|0:3,0:0:0:0:
16,51,89613,2,0,P|48:32|82:37,1,60,0|2,1:0|3:0,0:0:0:0:
165,42,90424,2,0,L|214:38,1,30,0|0,1:0|1:0,0:0:0:0:
336,68,91212,2,0,P|380:69|399:64,1,60,0|6,1:0|3:3,0:0:0:0:
483,32,92045,6,0,P|490:77|487:107,1,60,4|2,3:2|0:3,0:0:0:0:
417,154,92856,2,0,P|413:189|419:229,1,60,0|2,1:0|3:0,0:0:0:0:
434,308,93666,1,0,3:0:0:0:
364,373,94072,1,2,0:3:0:0:
289,311,94478,2,0,L|221:320,1,60,0|2,1:0|3:0,0:0:0:0:
134,302,95288,5,4,3:2:0:0:
110,111,96099,1,0,1:0:0:0:
200,77,96505,1,2,3:0:0:0:
288,39,96910,2,0,P|357:42|364:46,1,60,0|2,3:0|0:3,0:0:0:0:
432,81,97721,1,0,1:0:0:0:
457,173,98126,1,2,0:3:0:0:
400,250,98532,6,0,L|322:249,1,60,4|2,3:2|0:3,0:0:0:0:
249,217,99332,1,0,1:0:0:0:
154,231,99737,1,2,3:0:0:0:
61,206,100142,2,0,P|43:146|63:91,1,120,0|0,3:0|1:0,0:0:0:0:
247,44,101764,5,4,3:2:0:0:
205,130,102169,2,0,P|195:176|213:226,1,90,8|4,3:0|3:0,0:0:0:0:
272,344,103386,1,0,3:0:0:0:
363,316,103791,1,0,3:0:0:0:
404,229,104196,1,0,1:0:0:0:
417,133,104602,2,0,P|416:80|407:49,1,82.5,0|4,1:0|3:0,0:0:0:0:
256,192,105413,12,0,107946,0:0:0:0:
