osu file format v14

[General]
AudioFilename: audio.mp3
AudioLeadIn: 0
PreviewTime: 15009
Countdown: 0
SampleSet: Drum
StackLeniency: 0.7
Mode: 0
LetterboxInBreaks: 0
EpilepsyWarning: 1
WidescreenStoryboard: 1

[Editor]
Bookmarks: 15609,30729
DistanceSpacing: 3.2
BeatDivisor: 4
GridSize: 4
TimelineZoom: 1.8

[Metadata]
Title:Not worthy of life
TitleUnicode:Не достоин жизни
Artist:D.K. Inc
ArtistUnicode:D.K. Inc
Creator:AndroxiumSans
Version:Normal
Source:
Tags:animebit13 лучший инстаграмм в мире D.K. Inc d k dk danya kashin даня кашин даниил daniil ne dostoin zhizni не достоин жизни
BeatmapID:1754492
BeatmapSetID:838012

[Difficulty]
HPDrainRate:4
CircleSize:3.5
OverallDifficulty:5
ApproachRate:4
SliderMultiplier:0.999999999999999
SliderTickRate:1

[Events]
//Background and Video events
0,0,"normal.jpg",0,0
//Break Periods
//Storyboard Layer 0 (Background)
//Storyboard Layer 1 (Fail)
//Storyboard Layer 2 (Pass)
//Storyboard Layer 3 (Foreground)
//Storyboard Layer 4 (Overlay)
//Storyboard Sound Samples

[TimingPoints]
249,480,4,2,1,50,1,0
46089,-100,4,1,1,50,0,0
46329,-100,4,3,1,60,0,1
53049,-100,4,2,1,50,0,0
53769,-100,4,1,1,50,0,0
54009,-100,4,3,1,60,0,1
61689,-100,4,2,1,40,0,0
62169,-100,4,3,1,40,0,0
65529,-100,4,3,1,40,0,0
66009,-100,4,3,1,40,0,0
68889,-100,4,3,1,40,0,0
69369,-100,4,3,1,40,0,0
69849,-100,4,3,1,40,0,0
73209,-100,4,3,1,40,0,0
73689,-100,4,3,1,40,0,0
75129,-100,4,3,0,40,0,0
75769,-100,4,3,1,40,0,0
77049,-100,4,3,1,40,0,0
77529,-100,4,3,1,40,0,0
80889,-100,4,3,1,40,0,0
81369,-100,4,3,1,40,0,0
84249,-100,4,3,1,40,0,0
84729,-100,4,3,1,40,0,0
85209,-100,4,3,1,40,0,0
88569,-100,4,3,1,40,0,0
89049,-100,4,3,1,40,0,0
90489,-100,4,3,0,30,0,0
91089,-100,4,3,1,20,0,0
92169,-100,4,3,1,10,0,0
93129,-100,4,3,1,5,0,0

[HitObjects]
256,192,12249,12,0,14649,0:0:0:0:
95,111,15609,6,0,L|94:233,1,99.9999999999999,4|8,0:1|0:0,0:0:0:0:
95,290,16569,2,0,L|211:299,1,99.9999999999999,2|8,0:0|0:0,0:0:0:0:
291,299,17529,1,2,0:0:0:0:
358,236,18009,1,8,0:0:0:0:
363,151,18489,1,2,0:0:0:0:
305,84,18969,1,8,0:0:0:0:
229,53,19449,6,0,L|117:66,1,99.9999999999999,2|8,0:0|0:0,0:0:0:0:
28,75,20409,2,0,L|13:195,1,99.9999999999999,2|8,0:0|0:0,0:0:0:0:
23,272,21369,1,2,0:0:0:0:
90,348,21849,1,8,0:0:0:0:
184,343,22329,1,2,0:0:0:0:
220,254,22809,1,8,0:0:0:0:
228,203,23049,1,0,0:0:0:0:
238,165,23289,6,0,L|354:133,1,99.9999999999999,2|8,0:0|0:0,0:0:0:0:
430,111,24249,2,0,L|461:225,1,99.9999999999999,2|8,0:0|0:0,0:0:0:0:
483,308,25209,1,2,0:0:0:0:
403,352,25689,1,8,0:0:0:0:
300,352,26169,1,2,0:0:0:0:
211,352,26649,1,8,0:0:0:0:
159,357,26889,1,0,0:0:0:0:
121,357,27129,6,0,P|59:312|59:281,1,99.9999999999999,2|8,0:0|0:0,0:0:0:0:
46,210,27849,1,0,0:0:0:0:
63,131,28089,2,0,L|103:14,1,99.9999999999999,2|8,0:0|0:0,0:0:0:0:
194,62,29049,2,0,L|265:57,1,50
330,46,29529,1,8,0:0:0:0:
461,40,30009,2,0,L|466:102,1,50
469,177,30489,1,8,0:0:0:0:
388,343,30969,6,0,L|396:226,1,99.9999999999999,4|8,0:1|0:0,0:0:0:0:
408,153,31929,2,0,L|416:36,1,99.9999999999999,2|8,0:0|0:0,0:0:0:0:
331,22,32889,2,0,L|323:87,1,50,2|0,0:0|0:0,0:0:0:0:
313,170,33369,1,8,0:0:0:0:
240,245,33849,2,0,L|222:365,1,99.9999999999999,2|8,0:0|0:0,0:0:0:0:
153,245,34809,6,0,L|87:232,1,50,2|0,0:0|0:0,0:0:0:0:
36,178,35289,2,0,L|28:110,1,50,8|0,0:0|0:0,0:0:0:0:
112,87,35769,2,0,L|212:54,1,99.9999999999999,2|8,0:0|0:0,0:0:0:0:
294,43,36729,1,2,0:0:0:0:
391,90,37209,1,8,0:0:0:0:
396,134,37449,1,0,0:0:0:0:
400,175,37689,1,2,0:0:0:0:
291,257,38169,1,8,0:0:0:0:
330,225,38409,1,0,0:0:0:0:
358,196,38649,6,0,P|390:133|390:93,1,99.9999999999999,2|8,0:0|0:0,0:0:0:0:
358,13,39609,2,0,L|251:63,1,99.9999999999999,2|8,0:0|0:0,0:0:0:0:
168,111,40569,1,2,0:0:0:0:
202,154,40809,1,0,0:0:0:0:
237,195,41049,1,8,0:0:0:0:
249,283,41529,1,2,0:0:0:0:
306,266,41769,1,0,0:0:0:0:
363,254,42009,1,8,0:0:0:0:
453,236,42489,6,0,L|435:158,1,74.9999999999999,2|0,0:0|0:0,0:0:0:0:
424,113,42969,1,8,0:0:0:0:
327,53,43209,1,0,0:0:0:0:
231,50,43449,2,0,L|166:69,2,50,2|0|8,0:0|0:0|0:0,0:0:0:0:
327,53,44169,1,0,0:0:0:0:
422,85,44409,2,0,P|375:130|327:142,1,99.9999999999999,2|8,0:0|0:0,0:0:0:0:
241,161,45129,1,0,0:0:0:0:
181,237,45369,2,0,L|116:250,1,50,2|0,0:0|0:0,0:0:0:0:
30,252,45849,2,0,L|9:181,1,50,8|0,0:0|0:0,0:0:0:0:
59,111,46329,6,0,L|175:102,1,99.9999999999999,4|8,0:1|0:0,0:0:0:0:
229,168,47049,1,0,0:0:0:0:
309,209,47289,2,0,L|421:200,1,99.9999999999999,0|8,0:0|0:0,0:0:0:0:
423,113,48009,1,0,0:0:0:0:
493,158,48249,1,2,0:0:0:0:
489,245,48729,1,8,0:0:0:0:
395,263,49209,1,2,0:0:0:0:
375,346,49449,1,0,0:0:0:0:
311,291,49689,1,8,0:0:0:0:
215,281,50169,6,0,L|222:208,1,50,2|0,0:0|0:0,0:0:0:0:
228,139,50649,1,8,0:0:0:0:
253,19,51129,2,0,L|325:27,1,50,2|0,0:0|0:0,0:0:0:0:
395,42,51609,1,8,0:0:0:0:
432,126,51849,1,0,0:0:0:0:
423,213,52089,2,0,L|417:273,1,50,2|0,0:0|0:0,0:0:0:0:
398,355,52569,2,0,L|339:351,1,50,8|0,0:0|0:0,0:0:0:0:
238,370,53049,1,0,0:0:0:0:
146,361,53769,1,0,0:0:0:0:
104,273,54009,6,0,L|139:157,1,99.9999999999999,4|8,0:1|0:0,0:0:0:0:
157,101,54729,1,0,0:0:0:0:
223,173,54969,2,0,L|259:61,1,99.9999999999999,2|8,0:0|0:0,0:0:0:0:
345,8,55929,1,2,0:0:0:0:
434,7,56169,1,0,0:0:0:0:
493,82,56409,1,8,0:0:0:0:
430,179,56889,1,2,0:0:0:0:
356,129,57129,1,0,0:0:0:0:
269,143,57369,1,8,0:0:0:0:
239,237,57849,6,0,L|358:227,1,99.9999999999999,0|8,0:0|0:0,0:0:0:0:
432,194,58809,2,0,L|425:75,1,99.9999999999999,0|8,0:0|0:0,0:0:0:0:
373,18,59769,2,0,L|300:22,1,50,2|0,0:1|0:0,0:0:0:0:
222,32,60249,2,0,L|155:34,1,50,2|0,0:1|0:0,0:0:0:0:
58,79,60729,2,0,L|41:121,2,25,2|2|2,0:1|0:1|0:1,0:1:0:0:
145,127,61209,2,0,L|191:118,2,25,2|2|2,0:1|0:1|0:1,0:1:0:0:
77,215,61689,1,2,0:0:0:0:
46,314,62169,6,0,P|121:326|139:319,1,74.9999999999999,8|0,0:0|0:0,0:0:0:0:
202,289,62649,2,0,P|256:280|296:286,1,74.9999999999999,2|0,0:0|0:0,0:0:0:0:
360,329,63129,2,0,P|417:333|448:322,1,74.9999999999999,8|0,0:0|0:0,0:0:0:0:
493,250,63609,2,0,L|488:190,1,50,2|0,0:0|0:0,0:0:0:0:
445,109,64089,2,0,L|439:49,1,50,8|0,0:0|0:0,0:0:0:0:
346,25,64569,1,2,0:0:0:0:
263,32,64809,1,0,0:0:0:0:
183,38,65049,1,8,0:0:0:0:
60,140,65529,6,0,L|172:154,1,99.9999999999999,4|8,0:2|0:0,0:0:0:0:
267,169,66249,1,0,0:0:0:0:
342,227,66489,2,0,L|416:240,1,74.9999999999999,2|0,0:0|0:0,0:0:0:0:
483,255,66969,2,0,L|495:189,1,50,8|0,0:0|0:0,0:0:0:0:
511,111,67449,2,0,L|538:-9,2,99.9999999999999,2|8|2,0:0|0:0|0:0,0:0:0:0:
416,104,68649,1,0,0:0:0:0:
329,122,68889,1,8,0:0:0:0:
251,292,69369,6,0,L|232:171,1,99.9999999999999,4|8,0:1|0:0,0:0:0:0:
218,95,70329,2,0,L|161:57,2,50,2|0|8,0:0|0:0|0:0,0:0:0:0:
300,148,71049,1,0,0:0:0:0:
378,85,71289,2,0,L|430:126,1,50,2|0,0:0|0:0,0:0:0:0:
491,195,71769,2,0,L|478:255,1,50,8|0,0:0|0:0,0:0:0:0:
434,324,72249,1,2,0:0:0:0:
343,338,72489,1,0,0:0:0:0:
253,304,72729,1,8,0:0:0:0:
121,276,73209,6,0,P|67:280|14:263,1,99.9999999999999,4|8,0:2|0:0,0:0:0:0:
12,169,73929,1,0,0:0:0:0:
105,156,74169,2,0,B|163:147,1,50,2|0,0:0|0:0,0:0:0:0:
258,136,74649,2,0,L|326:126,1,50,8|0,0:0|0:0,0:0:0:0:
435,113,75129,1,0,0:0:0:0:
500,177,75609,1,0,0:0:0:0:
492,285,76089,2,0,L|498:330,2,25
393,300,76569,2,0,L|398:343,2,25
295,298,77049,1,2,0:0:0:0:
196,265,77529,6,0,L|204:177,1,74.9999999999999,8|0,0:0|0:0,0:0:0:0:
214,93,78009,2,0,L|306:103,1,74.9999999999999,2|0,0:0|0:0,0:0:0:0:
384,108,78489,2,0,P|431:157|439:174,1,74.9999999999999,8|0,0:0|0:0,0:0:0:0:
451,292,78969,2,0,L|390:305,1,50,2|0,0:0|0:0,0:0:0:0:
281,348,79449,2,0,L|221:333,1,50,8|0,0:0|0:0,0:0:0:0:
143,280,79929,2,0,L|138:213,1,50,2|0,0:0|0:0,0:0:0:0:
134,124,80409,2,0,L|188:91,1,50,8|0,0:0|0:0,0:0:0:0:
253,47,80889,1,2,0:0:0:0:
359,47,81369,6,0,L|365:109,1,50,8|0,0:0|0:0,0:0:0:0:
372,195,81849,1,2,0:0:0:0:
374,296,82329,2,0,L|304:301,1,50,8|0,0:0|0:0,0:0:0:0:
184,301,82809,2,0,L|183:229,1,50,2|0,0:0|0:0,0:0:0:0:
196,164,83289,1,8,0:0:0:0:
234,114,83529,1,0,0:0:0:0:
272,64,83769,1,2,0:0:0:0:
413,53,84249,1,8,0:0:0:0:
455,90,84489,1,0,0:0:0:0:
497,137,84729,1,2,0:0:0:0:
481,284,85209,6,0,L|444:288,1,25,8|0,0:0|0:0,0:0:0:0:
398,290,85449,1,0,0:0:0:0:
281,290,85689,2,0,P|196:289|186:285,1,74.9999999999999,2|0,0:0|0:0,0:0:0:0:
88,271,86169,2,0,P|83:210|91:178,1,74.9999999999999,8|0,0:0|0:0,0:0:0:0:
80,82,86649,2,0,L|148:70,1,50,2|0,0:0|0:0,0:0:0:0:
239,94,87129,1,8,0:0:0:0:
319,82,87369,1,0,0:0:0:0:
395,95,87609,1,2,0:0:0:0:
501,113,87849,2,0,L|515:185,2,50,0|8|0,0:0|0:0|0:0,0:0:0:0:
487,17,88569,1,2,0:0:0:0:
360,24,89049,6,0,L|326:26,2,25,8|0|0,0:0|0:0|0:0,0:0:0:0:
209,32,89529,2,0,L|121:47,1,74.9999999999999,2|0,0:0|0:0,0:0:0:0:
29,104,90009,2,0,L|12:193,1,74.9999999999999,8|0,0:0|0:0,0:0:0:0:
256,192,90489,12,0,93129,0:0:0:0:
