osu file format v14

[General]
AudioFilename: audio.mp3
AudioLeadIn: 0
PreviewTime: 31913
Countdown: 0
SampleSet: Soft
StackLeniency: 0.7
Mode: 0
LetterboxInBreaks: 0
WidescreenStoryboard: 0

[Editor]
DistanceSpacing: 0.7
BeatDivisor: 4
GridSize: 4
TimelineZoom: 1

[Metadata]
Title:Joker
TitleUnicode:Joker
Artist:D.J.Nero
ArtistUnicode:D.J.Nero
Creator:Alvieee
Version:Extra
Source:
Tags:nimagan
BeatmapID:1417830
BeatmapSetID:670394

[Difficulty]
HPDrainRate:6.5
CircleSize:5.2
OverallDifficulty:8.4
ApproachRate:9.4
SliderMultiplier:1.6
SliderTickRate:1

[Events]
//Background and Video events
0,0,"jokerbg.jpg",0,0
//Break Periods
2,76262,82784
//Storyboard Layer 0 (Background)
//Storyboard Layer 1 (Fail)
//Storyboard Layer 2 (Pass)
//Storyboard Layer 3 (Foreground)
//Storyboard Sound Samples

[TimingPoints]
5828,326.086956521739,4,2,1,50,1,0
8436,-100,4,2,1,80,0,0
63217,-80,4,2,1,80,0,0
74958,-80,4,2,3,80,0,0
84086,-100,4,2,1,80,0,0
104958,-66.6666666666667,4,2,1,80,0,1
125827,-100,4,2,1,80,0,0

[Colours]
Combo1 : 64,0,128
Combo2 : 128,0,0

[HitObjects]
112,152,5828,5,2,0:0:0:0:
172,208,5991,1,0,0:0:0:0:
112,80,6154,1,8,0:0:0:0:
176,284,6317,1,0,0:0:0:0:
164,20,6643,5,8,0:0:0:0:
400,152,7132,5,2,0:0:0:0:
340,208,7295,1,0,0:0:0:0:
400,80,7458,1,8,0:0:0:0:
336,284,7621,1,0,0:0:0:0:
352,20,7947,5,8,0:0:0:0:
216,324,8436,6,0,L|272:328,3,40,2|0|0|0,0:0|0:0|0:0|0:0,0:0:0:0:
328,216,8762,1,0,0:0:0:0:
300,208,8844,1,0,0:0:0:0:
276,200,8925,2,0,L|220:196,3,40,2|0|0|0,0:0|0:0|0:0|0:0,0:0:0:0:
295,121,9251,5,2,0:0:0:0:
275,119,9332,1,0,0:0:0:0:
256,118,9414,1,0,0:0:0:0:
236,116,9495,1,0,0:0:0:0:
216,114,9577,2,0,L|160:110,1,40
88,48,9741,6,0,L|32:52,3,40,2|0|0|0,0:0|0:0|0:0|0:0,0:0:0:0:
0,186,10067,1,0,0:0:0:0:
32,194,10148,1,0,0:0:0:0:
64,202,10230,2,0,L|120:198,3,40,2|0|0|0,0:0|0:0|0:0|0:0,0:0:0:0:
176,111,10556,5,2,0:0:0:0:
195,112,10637,1,0,0:0:0:0:
215,114,10719,1,0,0:0:0:0:
235,115,10800,1,0,0:0:0:0:
255,118,10882,2,0,L|296:122,2,26.6666666666667
102,99,11045,5,2,0:0:0:0:
164,228,11208,1,0,0:0:0:0:
192,80,11371,1,10,0:0:0:0:
76,244,11534,1,0,0:0:0:0:
260,156,11697,5,2,0:0:0:0:
260,156,11860,1,0,0:0:0:0:
188,356,12023,1,10,0:0:0:0:
188,356,12186,1,0,0:0:0:0:
308,244,12349,5,2,0:0:0:0:
352,344,12512,1,0,0:0:0:0:
308,244,12675,1,10,0:0:0:0:
456,348,12838,1,0,0:0:0:0:
368,152,13001,5,2,0:0:0:0:
368,152,13164,1,0,0:0:0:0:
196,236,13327,1,10,0:0:0:0:
196,236,13491,1,0,0:0:0:0:
220,56,13654,5,2,0:0:0:0:
368,152,13817,1,0,0:0:0:0:
220,56,13980,1,10,0:0:0:0:
204,156,14143,1,0,0:0:0:0:
144,0,14306,5,2,0:0:0:0:
128,192,14469,1,0,0:0:0:0:
292,112,14632,1,10,0:0:0:0:
128,224,14795,1,0,0:0:0:0:
48,40,14958,5,2,0:0:0:0:
212,132,15121,1,0,0:0:0:0:
48,128,15284,1,10,0:0:0:0:
216,44,15447,1,0,0:0:0:0:
128,144,15610,5,2,0:0:0:0:
136,28,15773,1,0,0:0:0:0:
200,92,15936,1,10,0:0:0:0:
68,84,16099,1,0,0:0:0:0:
124,292,16262,5,2,0:0:0:0:
124,292,16425,1,0,0:0:0:0:
236,176,16588,1,10,0:0:0:0:
236,176,16751,1,0,0:0:0:0:
72,216,16914,5,2,0:0:0:0:
288,248,17077,1,0,0:0:0:0:
136,156,17241,1,10,0:0:0:0:
228,308,17404,1,0,0:0:0:0:
204,96,17567,5,2,0:0:0:0:
204,96,17730,1,0,0:0:0:0:
148,272,17893,1,10,0:0:0:0:
148,272,18056,1,0,0:0:0:0:
288,124,18219,5,2,0:0:0:0:
64,232,18382,1,0,0:0:0:0:
280,208,18545,1,10,0:0:0:0:
76,148,18708,1,0,0:0:0:0:
268,296,18871,5,2,0:0:0:0:
148,100,19034,1,0,0:0:0:0:
192,340,19197,1,10,0:0:0:0:
64,232,19360,1,0,0:0:0:0:
280,208,19523,5,2,0:0:0:0:
56,136,19686,1,0,0:0:0:0:
288,308,19849,1,10,0:0:0:0:
84,228,20012,1,0,0:0:0:0:
256,208,20175,5,2,0:0:0:0:
112,308,20338,1,0,0:0:0:0:
228,128,20501,1,10,0:0:0:0:
216,320,20664,1,0,0:0:0:0:
132,96,20827,5,2,0:0:0:0:
140,288,20991,1,0,0:0:0:0:
200,148,21154,1,10,0:0:0:0:
140,288,21317,1,0,0:0:0:0:
244,40,21480,5,2,0:0:0:0:
264,208,21643,1,0,0:0:0:0:
244,40,21806,1,10,0:0:0:0:
264,208,21969,1,0,0:0:0:0:
420,42,22132,5,2,0:0:0:0:
420,42,22295,1,0,0:0:0:0:
444,204,22458,1,10,0:0:0:0:
444,204,22621,1,0,0:0:0:0:
240,108,22784,5,2,0:0:0:0:
364,236,22947,1,0,0:0:0:0:
328,68,23110,1,10,0:0:0:0:
280,244,23273,1,0,0:0:0:0:
408,112,23436,5,2,0:0:0:0:
408,112,23599,1,0,0:0:0:0:
232,168,23762,1,10,0:0:0:0:
232,168,23925,1,0,0:0:0:0:
416,200,24088,5,2,0:0:0:0:
272,84,24251,1,0,0:0:0:0:
416,200,24414,1,10,0:0:0:0:
272,84,24577,1,0,0:0:0:0:
452,116,24741,5,2,0:0:0:0:
232,168,24904,1,0,0:0:0:0:
452,116,25067,1,10,0:0:0:0:
232,168,25230,1,0,0:0:0:0:
408,36,25393,5,2,0:0:0:0:
300,232,25556,1,0,0:0:0:0:
408,36,25719,1,10,0:0:0:0:
300,232,25882,1,0,0:0:0:0:
424,128,26045,5,2,0:0:0:0:
264,148,26208,1,0,0:0:0:0:
424,128,26371,1,10,0:0:0:0:
264,148,26534,1,0,0:0:0:0:
376,52,26697,5,2,0:0:0:0:
328,208,26860,1,0,0:0:0:0:
288,44,27023,1,10,0:0:0:0:
416,212,27186,1,0,0:0:0:0:
240,120,27349,5,2,0:0:0:0:
240,120,27512,1,0,0:0:0:0:
452,132,27675,1,10,0:0:0:0:
452,132,27838,1,0,0:0:0:0:
256,204,28001,5,2,0:0:0:0:
444,40,28164,1,0,0:0:0:0:
336,224,28327,1,10,0:0:0:0:
360,20,28491,1,0,0:0:0:0:
416,192,28654,5,2,0:0:0:0:
416,192,28817,1,0,0:0:0:0:
276,48,28980,1,10,0:0:0:0:
276,48,29143,1,0,0:0:0:0:
500,168,29306,5,2,0:0:0:0:
232,136,29469,1,0,0:0:0:0:
444,96,29632,1,10,0:0:0:0:
296,196,29795,1,0,0:0:0:0:
388,24,29958,5,2,0:0:0:0:
384,200,30121,1,0,0:0:0:0:
336,96,30284,1,10,0:0:0:0:
336,276,30447,1,0,0:0:0:0:
248,80,30610,5,2,0:0:0:0:
248,264,30773,1,0,0:0:0:0:
224,260,30855,1,0,0:0:0:0:
204,256,30936,2,0,L|216:300,1,40,10|0,0:0|0:0,0:0:0:0:
356,100,31099,5,0,0:0:0:0:
336,96,31180,1,0,0:0:0:0:
312,92,31262,1,2,0:0:0:0:
396,284,31425,1,0,0:0:0:0:
512,203,31588,1,10,0:0:0:0:
472,197,31670,1,0,0:0:0:0:
432,192,31751,2,2,L|432:168,1,20,2|0,0:0|0:0,0:0:0:0:
391,186,31833,2,2,L|392:160,1,20,2|0,0:0|0:0,0:0:0:0:
351,180,31914,6,0,B|304:176|304:176|268:204,1,80,2|0,0:0|0:0,0:0:0:0:
104,144,32241,1,10,0:0:0:0:
280,300,32404,2,0,L|276:260,1,40
196,280,32567,2,0,L|192:240,1,40,2|0,0:0|0:0,0:0:0:0:
112,260,32730,1,0,0:0:0:0:
12,48,32893,2,0,B|8:96|8:96|24:144,1,80,10|0,0:0|0:0,0:0:0:0:
266,207,33219,6,0,B|272:168|272:168|260:128,1,80,2|0,0:0|0:0,0:0:0:0:
468,76,33545,1,10,0:0:0:0:
448,260,33708,2,0,L|444:299,1,40
364,280,33871,2,0,L|360:319,1,40,2|0,0:0|0:0,0:0:0:0:
280,300,34034,1,0,0:0:0:0:
300,148,34197,2,0,B|260:134|260:134|216:144,1,80,10|0,0:0|0:0,0:0:0:0:
112,276,34523,6,0,B|152:290|152:290|192:280,1,80,2|0,0:0|0:0,0:0:0:0:
160,148,34849,1,10,0:0:0:0:
368,152,35012,1,0,0:0:0:0:
364,176,35094,1,0,0:0:0:0:
360,200,35175,1,2,0:0:0:0:
356,224,35257,1,0,0:0:0:0:
352,248,35338,1,0,0:0:0:0:
184,236,35501,2,0,B|188:280|188:280|216:320,1,80,10|0,0:0|0:0,0:0:0:0:
64,224,35827,6,0,B|60:180|60:180|32:140,1,80,2|0,0:0|0:0,0:0:0:0:
140,28,36154,1,10,0:0:0:0:
268,128,36317,1,0,0:0:0:0:
272,152,36399,1,0,0:0:0:0:
276,176,36480,1,2,0:0:0:0:
280,200,36562,1,0,0:0:0:0:
284,224,36643,1,0,0:0:0:0:
436,152,36806,2,0,B|480:156|480:156|512:136,1,80,10|0,0:0|0:0,0:0:0:0:
268,128,37132,5,2,0:0:0:0:
264,100,37214,1,0,0:0:0:0:
260,76,37295,1,0,0:0:0:0:
460,68,37458,1,10,0:0:0:0:
372,240,37621,5,0,0:0:0:0:
360,264,37702,1,0,0:0:0:0:
348,288,37784,1,2,0:0:0:0:
336,312,37866,1,0,0:0:0:0:
324,336,37947,1,0,0:0:0:0:
404,176,38110,1,10,0:0:0:0:
416,152,38192,1,0,0:0:0:0:
428,128,38273,1,0,0:0:0:0:
156,28,38436,6,0,L|68:76,1,80,2|0,0:0|0:0,0:0:0:0:
32,256,38762,1,10,0:0:0:0:
56,244,38844,1,0,0:0:0:0:
76,232,38925,1,0,0:0:0:0:
100,220,39007,1,0,0:0:0:0:
124,208,39088,2,0,L|176:236,1,40,2|0,0:0|0:0,0:0:0:0:
224,260,39251,2,0,L|272:248,1,40
336,232,39414,2,0,B|380:232|380:232|424:264,1,80,10|0,0:0|0:0,0:0:0:0:
232,336,39741,5,2,0:0:0:0:
204,344,39822,1,0,0:0:0:0:
176,352,39904,1,0,0:0:0:0:
360,296,40067,1,10,0:0:0:0:
276,156,40230,5,0,0:0:0:0:
262,131,40311,1,0,0:0:0:0:
248,107,40393,1,2,0:0:0:0:
234,83,40474,1,0,0:0:0:0:
220,58,40556,1,0,0:0:0:0:
392,100,40719,2,0,P|440:84|456:52,1,80,10|0,0:0|0:0,0:0:0:0:
220,58,41045,5,2,0:0:0:0:
376,184,41208,1,0,0:0:0:0:
372,208,41289,1,0,0:0:0:0:
368,232,41371,1,10,0:0:0:0:
396,104,41534,1,0,0:0:0:0:
360,320,41697,5,2,0:0:0:0:
396,104,41860,1,0,0:0:0:0:
360,320,42023,1,10,0:0:0:0:
496,84,42186,1,0,0:0:0:0:
264,336,42349,5,2,0:0:0:0:
380,212,42512,1,0,0:0:0:0:
264,336,42675,1,10,0:0:0:0:
232,84,42838,2,0,L|236:124,1,40
316,104,43001,2,0,L|320:144,1,40,2|0,0:0|0:0,0:0:0:0:
400,124,43164,1,0,0:0:0:0:
500,336,43327,2,0,B|484:292|484:292|492:240,1,80,10|0,0:0|0:0,0:0:0:0:
246,177,43653,6,0,B|260:220|260:220|252:256,1,80,2|0,0:0|0:0,0:0:0:0:
44,308,43979,1,10,0:0:0:0:
64,124,44142,2,0,L|68:85,1,40
148,104,44305,2,0,L|152:65,1,40,2|0,0:0|0:0,0:0:0:0:
232,84,44468,1,0,0:0:0:0:
212,236,44632,2,0,B|252:232|252:232|292:248,1,80,10|0,0:0|0:0,0:0:0:0:
400,108,44958,6,0,B|356:116|356:116|320:100,1,80,2|0,0:0|0:0,0:0:0:0:
352,236,45284,1,10,0:0:0:0:
144,232,45447,1,0,0:0:0:0:
148,208,45529,1,0,0:0:0:0:
152,184,45610,1,2,0:0:0:0:
156,160,45692,1,0,0:0:0:0:
160,136,45773,1,0,0:0:0:0:
328,148,45936,2,0,B|324:104|324:104|296:64,1,80,10|0,0:0|0:0,0:0:0:0:
448,160,46262,6,0,B|448:204|448:204|480:244,1,80,2|0,0:0|0:0,0:0:0:0:
372,356,46589,1,10,0:0:0:0:
244,256,46752,1,0,0:0:0:0:
240,232,46834,1,0,0:0:0:0:
236,208,46915,1,2,0:0:0:0:
232,184,46997,1,0,0:0:0:0:
228,160,47078,1,0,0:0:0:0:
56,216,47241,2,0,B|140:232,1,80,10|0,0:0|0:0,0:0:0:0:
180,56,47567,5,2,0:0:0:0:
176,80,47649,1,0,0:0:0:0:
172,104,47730,1,0,0:0:0:0:
244,256,47893,1,10,0:0:0:0:
340,108,48055,5,0,0:0:0:0:
364,116,48136,1,0,0:0:0:0:
388,124,48218,1,2,0:0:0:0:
408,132,48300,1,0,0:0:0:0:
428,140,48381,1,0,0:0:0:0:
244,256,48545,1,10,0:0:0:0:
248,232,48626,1,0,0:0:0:0:
252,208,48708,1,0,0:0:0:0:
428,280,48870,6,0,B|356:328,1,80,2|0,0:0|0:0,0:0:0:0:
296,160,49196,1,10,0:0:0:0:
464,60,49359,1,0,0:0:0:0:
436,56,49441,1,0,0:0:0:0:
412,52,49523,2,0,L|360:44,1,40,2|0,0:0|0:0,0:0:0:0:
300,52,49686,2,0,L|256:72,1,40
196,92,49848,2,0,L|112:64,1,80,10|0,0:0|0:0,0:0:0:0:
312,132,50175,5,2,0:0:0:0:
316,156,50257,1,0,0:0:0:0:
320,180,50338,1,0,0:0:0:0:
112,128,50501,5,10,0:0:0:0:
216,264,50664,1,0,0:0:0:0:
232,284,50745,1,0,0:0:0:0:
248,304,50827,1,2,0:0:0:0:
264,324,50908,1,0,0:0:0:0:
280,344,50990,1,0,0:0:0:0:
384,224,51153,2,0,L|400:136,1,80,10|0,0:0|0:0,0:0:0:0:
512,316,51479,5,2,0:0:0:0:
464,96,51642,1,0,0:0:0:0:
468,72,51723,1,0,0:0:0:0:
472,48,51805,1,10,0:0:0:0:
328,156,51968,1,0,0:0:0:0:
208,32,52131,5,2,0:0:0:0:
320,232,52294,1,0,0:0:0:0:
472,48,52457,1,10,0:0:0:0:
312,308,52621,2,0,L|308:352,1,40
128,20,52783,1,2,0:0:0:0:
492,276,53110,5,8,0:0:0:0:
372,348,53273,1,0,0:0:0:0:
376,352,53762,1,8,0:0:0:0:
376,352,54088,5,0,0:0:0:0:
320,232,54251,1,0,0:0:0:0:
248,340,54414,1,8,0:0:0:0:
376,352,54577,1,0,0:0:0:0:
284,148,54741,1,0,0:0:0:0:
212,256,54904,1,0,0:0:0:0:
168,172,55067,1,8,0:0:0:0:
196,280,55230,5,0,0:0:0:0:
176,284,55312,1,0,0:0:0:0:
156,288,55393,2,0,B|144:328|92:328|92:328|40:328|24:376,1,160,0|8,0:0|0:0,0:0:0:0:
96,256,55882,2,0,P|92:208|56:176,1,80
0,156,56208,1,0,0:0:0:0:
88,47,56371,1,8,0:0:0:0:
107,54,56452,1,0,0:0:0:0:
122,67,56534,1,0,0:0:0:0:
132,84,56615,1,0,0:0:0:0:
140,104,56697,6,0,P|162:146|208:162,1,80
412,124,57023,1,8,0:0:0:0:
264,176,57186,2,0,L|348:148,1,80
484,96,57512,2,0,B|504:144|472:180|472:180|444:212|464:264,1,160
489,317,58001,6,0,P|422:270|461:245,1,160,0|8,0:0|0:0,0:0:0:0:
423,135,58491,2,0,P|481:164|475:91,1,160
360,176,58980,1,8,0:0:0:0:
360,176,59306,5,0,0:0:0:0:
160,208,59469,1,0,0:0:0:0:
340,248,59632,1,8,0:0:0:0:
180,136,59795,1,0,0:0:0:0:
328,180,59958,1,0,0:0:0:0:
192,204,60121,2,0,B|208:252|180:292|180:292|172:336|204:364,1,160
252,308,60610,6,0,P|296:340|304:264,1,160,0|8,0:0|0:0,0:0:0:0:
124,236,61099,1,0,0:0:0:0:
224,228,61262,1,0,0:0:0:0:
96,156,61425,1,0,0:0:0:0:
252,308,61588,1,8,0:0:0:0:
288,304,61670,1,0,0:0:0:0:
324,300,61751,1,0,0:0:0:0:
116,320,61914,6,0,L|36:328,1,80
16,148,62241,2,0,L|96:156,1,80,8|0,0:0|0:0,0:0:0:0:
280,224,62567,2,0,L|200:232,1,80
180,52,62894,2,0,L|260:60,1,80,8|0,0:0|0:0,0:0:0:0:
416,132,63219,6,2,P|408:204|480:144,1,200,2|10,0:0|0:0,0:0:0:0:
510,129,63626,1,0,0:0:0:0:
484,95,63708,1,0,0:0:0:0:
449,71,63789,1,0,0:0:0:0:
408,60,63871,1,2,0:0:0:0:
366,62,63952,1,0,0:0:0:0:
327,79,64034,1,0,0:0:0:0:
297,108,64116,1,0,0:0:0:0:
259,126,64197,1,10,0:0:0:0:
216,125,64279,1,0,0:0:0:0:
176,110,64360,1,0,0:0:0:0:
148,78,64442,1,0,0:0:0:0:
112,55,64523,5,2,0:0:0:0:
43,63,64605,1,0,0:0:0:0:
88,192,64849,6,0,L|76:296,1,100,10|0,0:0|0:0,0:0:0:0:
76,291,65175,1,2,0:0:0:0:
96,116,65338,1,0,0:0:0:0:
160,272,65501,1,10,0:0:0:0:
24,152,65664,1,0,0:0:0:0:
188,296,65827,1,2,0:0:0:0:
148,168,65991,1,0,0:0:0:0:
312,304,66154,5,10,0:0:0:0:
295,265,66235,1,0,0:0:0:0:
299,223,66317,1,0,0:0:0:0:
324,190,66398,1,0,0:0:0:0:
363,173,66480,1,2,0:0:0:0:
405,179,66561,1,0,0:0:0:0:
438,204,66643,1,0,0:0:0:0:
454,243,66724,1,0,0:0:0:0:
448,284,66806,5,10,0:0:0:0:
472,104,66969,1,0,0:0:0:0:
374,253,67132,2,0,P|380:332|400:352,1,100,2|0,0:0|0:0,0:0:0:0:
328,148,67458,2,0,P|264:132|216:152,1,100,10|0,0:0|0:0,0:0:0:0:
440,160,67784,2,0,P|488:144|512:96,1,100,2|0,0:0|0:0,0:0:0:0:
374,253,68110,2,0,P|380:332|400:352,1,100,10|0,0:0|0:0,0:0:0:0:
328,148,68436,5,2,0:0:0:0:
444,288,68599,1,0,0:0:0:0:
384,88,68762,1,10,0:0:0:0:
391,344,68925,1,0,0:0:0:0:
444,288,69251,5,0,0:0:0:0:
308,72,69414,1,10,0:0:0:0:
252,124,69741,5,2,0:0:0:0:
324,312,69904,1,0,0:0:0:0:
200,180,70067,1,10,0:0:0:0:
374,253,70230,1,0,0:0:0:0:
144,236,70393,1,2,0:0:0:0:
376,176,70556,1,0,0:0:0:0:
144,316,70719,1,10,0:0:0:0:
312,132,70882,1,0,0:0:0:0:
215,351,71045,1,2,0:0:0:0:
247,327,71126,1,0,0:0:0:0:
269,293,71208,1,0,0:0:0:0:
273,253,71289,1,0,0:0:0:0:
260,215,71371,1,10,0:0:0:0:
249,177,71452,1,0,0:0:0:0:
236,139,71534,1,0,0:0:0:0:
238,100,71615,1,0,0:0:0:0:
250,63,71697,5,2,0:0:0:0:
202,73,71778,1,0,0:0:0:0:
165,106,71860,1,0,0:0:0:0:
149,152,71941,1,0,0:0:0:0:
157,201,72023,1,10,0:0:0:0:
188,240,72104,1,0,0:0:0:0:
234,258,72186,1,0,0:0:0:0:
283,252,72267,1,0,0:0:0:0:
323,222,72349,6,0,L|317:166,1,50,2|0,0:0|0:0,0:0:0:0:
184,312,72512,2,0,L|177:368,1,50
348,200,72675,2,0,L|341:143,1,50,10|0,0:0|0:0,0:0:0:0:
156,328,72838,2,0,L|149:384,1,50
376,180,73001,5,2,0:0:0:0:
377,119,73082,1,0,0:0:0:0:
347,67,73164,1,2,0:0:0:0:
294,38,73245,1,0,0:0:0:0:
235,40,73327,1,2,0:0:0:0:
185,73,73408,1,0,0:0:0:0:
159,126,73490,1,2,0:0:0:0:
163,185,73571,1,0,0:0:0:0:
198,233,73653,1,6,0:0:0:0:
256,192,73735,12,8,74958,0:0:0:0:
168,192,84088,5,2,0:0:0:0:
272,220,84414,5,10,0:0:0:0:
104,248,84577,1,0,0:0:0:0:
332,164,84740,1,2,0:0:0:0:
224,136,85067,5,10,0:0:0:0:
440,188,85230,1,0,0:0:0:0:
344,240,85556,5,0,0:0:0:0:
380,56,85719,1,10,0:0:0:0:
416,260,85882,1,0,0:0:0:0:
304,36,86045,1,2,0:0:0:0:
200,80,86371,5,10,0:0:0:0:
304,112,86697,5,2,0:0:0:0:
200,80,87023,5,10,0:0:0:0:
404,72,87186,1,0,0:0:0:0:
196,152,87349,1,2,0:0:0:0:
300,200,87675,5,10,0:0:0:0:
96,100,87838,1,0,0:0:0:0:
76,204,88164,5,0,0:0:0:0:
160,48,88327,1,10,0:0:0:0:
124,264,88491,1,0,0:0:0:0:
88,24,88654,1,2,0:0:0:0:
232,68,88980,6,0,L|236:112,3,40,8|0|0|0,0:0|0:0|0:0|0:0,0:0:0:0:
240,152,89306,5,6,0:0:0:0:
376,88,89469,1,0,0:0:0:0:
176,188,89632,5,0,0:0:0:0:
412,160,89795,1,2,0:0:0:0:
136,120,89958,5,10,0:0:0:0:
308,48,90121,1,0,0:0:0:0:
244,228,90284,5,0,0:0:0:0:
232,72,90447,1,2,0:0:0:0:
320,200,90610,5,0,0:0:0:0:
196,136,90773,1,2,0:0:0:0:
352,136,90936,5,0,0:0:0:0:
160,204,91099,1,2,0:0:0:0:
384,68,91262,5,10,0:0:0:0:
132,280,91425,1,2,0:0:0:0:
132,280,91507,1,2,0:0:0:0:
132,280,91588,1,2,0:0:0:0:
320,200,91751,1,0,0:0:0:0:
136,92,91914,6,0,L|143:131,1,40,2|0,0:0|0:0,0:0:0:0:
375,92,92077,2,0,L|368:132,1,40
196,184,92241,2,0,L|206:234,1,40,0|0,0:0|0:0,0:0:0:0:
312,184,92404,2,0,L|304:223,1,40,2|0,0:0|0:0,0:0:0:0:
184,356,92567,6,0,L|176:316,1,40,10|0,0:0|0:0,0:0:0:0:
328,356,92730,2,0,L|335:316,1,40
128,224,92893,2,0,L|120:184,1,40,0|0,0:0|0:0,0:0:0:0:
384,224,93056,2,0,L|391:184,1,40,2|0,0:0|0:0,0:0:0:0:
200,40,93219,6,0,L|208:100,1,40,0|0,0:0|0:0,0:0:0:0:
312,268,93382,2,0,L|304:208,1,40,2|0,0:0|0:0,0:0:0:0:
312,40,93545,2,0,L|304:100,1,40,0|0,0:0|0:0,0:0:0:0:
200,268,93708,2,0,L|208:208,1,40,2|0,0:0|0:0,0:0:0:0:
191,23,93871,6,0,L|200:91,1,40,10|0,0:0|0:0,0:0:0:0:
320,284,94034,2,0,L|311:216,1,40
320,23,94197,2,0,L|311:91,1,40,0|0,0:0|0:0,0:0:0:0:
191,284,94360,2,0,L|200:216,1,40
376,96,94523,5,0,0:0:0:0:
396,100,94605,1,0,0:0:0:0:
416,104,94686,1,0,0:0:0:0:
436,108,94768,1,0,0:0:0:0:
344,256,95012,5,0,0:0:0:0:
340,276,95094,1,0,0:0:0:0:
338,298,95175,1,0,0:0:0:0:
309,283,95256,1,0,0:0:0:0:
278,276,95338,1,0,0:0:0:0:
246,277,95419,1,0,0:0:0:0:
215,287,95501,1,0,0:0:0:0:
188,303,95582,1,0,0:0:0:0:
162,321,95664,1,0,0:0:0:0:
132,333,95745,1,0,0:0:0:0:
100,334,95827,1,0,0:0:0:0:
70,324,95908,1,0,0:0:0:0:
45,303,95990,1,0,0:0:0:0:
31,275,96071,1,0,0:0:0:0:
28,243,96153,1,0,0:0:0:0:
43,187,96235,6,0,P|45:136|29:103,1,53.3333333333333
0,24,96480,5,0,0:0:0:0:
32,32,96562,1,0,0:0:0:0:
64,40,96643,1,0,0:0:0:0:
116,244,96806,5,0,0:0:0:0:
124,204,96887,1,0,0:0:0:0:
132,164,96969,1,0,0:0:0:0:
168,8,97132,5,0,0:0:0:0:
176,44,97213,1,0,0:0:0:0:
184,80,97295,1,0,0:0:0:0:
192,116,97376,1,0,0:0:0:0:
200,152,97458,5,0,0:0:0:0:
237,138,97539,1,0,0:0:0:0:
276,140,97621,1,0,0:0:0:0:
310,160,97702,1,0,0:0:0:0:
336,190,97784,1,0,0:0:0:0:
371,210,97865,1,0,0:0:0:0:
411,214,97947,1,0,0:0:0:0:
448,200,98028,1,0,0:0:0:0:
475,171,98110,1,0,0:0:0:0:
486,133,98191,1,0,0:0:0:0:
483,93,98273,5,0,0:0:0:0:
467,95,98327,1,0,0:0:0:0:
450,97,98382,1,0,0:0:0:0:
432,100,98436,2,0,L|373:108,2,40
432,284,98762,2,0,L|373:276,2,40
335,48,99088,2,0,L|276:56,2,40
335,336,99414,2,0,L|276:328,3,40
241,321,99741,5,0,0:0:0:0:
213,316,99822,1,0,0:0:0:0:
185,310,99904,1,0,0:0:0:0:
157,305,99985,1,0,0:0:0:0:
129,299,100067,5,0,0:0:0:0:
146,259,100148,1,0,0:0:0:0:
147,212,100230,1,0,0:0:0:0:
126,177,100311,1,0,0:0:0:0:
97,149,100393,5,0,0:0:0:0:
119,115,100474,1,0,0:0:0:0:
153,89,100556,1,0,0:0:0:0:
195,83,100637,1,0,0:0:0:0:
234,87,100719,1,0,0:0:0:0:
267,108,100800,1,0,0:0:0:0:
294,138,100882,1,0,0:0:0:0:
325,164,100963,1,0,0:0:0:0:
362,177,101045,1,0,0:0:0:0:
401,174,101126,1,0,0:0:0:0:
434,152,101208,1,0,0:0:0:0:
453,117,101289,1,0,0:0:0:0:
455,77,101371,5,0,0:0:0:0:
433,39,101452,1,0,0:0:0:0:
399,12,101534,1,0,0:0:0:0:
357,1,101615,1,0,0:0:0:0:
313,7,101697,1,0,0:0:0:0:
276,29,101778,1,0,0:0:0:0:
250,64,101860,1,0,0:0:0:0:
239,107,101941,1,0,0:0:0:0:
246,150,102023,1,0,0:0:0:0:
269,187,102104,1,0,0:0:0:0:
304,212,102186,1,0,0:0:0:0:
347,222,102267,1,0,0:0:0:0:
390,214,102349,5,0,0:0:0:0:
452,178,102431,1,0,0:0:0:0:
427,330,102594,5,0,0:0:0:0:
336,142,102757,1,0,0:0:0:0:
340,121,102838,1,0,0:0:0:0:
306,283,103001,1,0,0:0:0:0:
271,263,103082,1,0,0:0:0:0:
231,261,103164,1,0,0:0:0:0:
195,277,103245,1,0,0:0:0:0:
163,301,103327,1,0,0:0:0:0:
126,316,103408,1,0,0:0:0:0:
87,313,103490,1,0,0:0:0:0:
54,291,103571,1,0,0:0:0:0:
30,259,103653,5,0,0:0:0:0:
59,232,103734,1,0,0:0:0:0:
78,197,103816,1,0,0:0:0:0:
82,158,103897,1,0,0:0:0:0:
74,120,103979,5,0,0:0:0:0:
114,116,104060,1,0,0:0:0:0:
149,99,104142,1,0,0:0:0:0:
172,66,104223,1,0,0:0:0:0:
179,27,104305,5,0,0:0:0:0:
206,57,104387,1,0,0:0:0:0:
245,65,104469,1,0,0:0:0:0:
281,50,104550,1,0,0:0:0:0:
304,19,104632,5,0,0:0:0:0:
312,68,104713,1,0,0:0:0:0:
320,116,104795,1,0,0:0:0:0:
328,164,104876,1,0,0:0:0:0:
336,212,104958,2,0,B|348:300|348:300|408:272,1,120.000004577637,2|0,0:0|0:0,0:0:0:0:
419,88,105284,6,0,L|419:20,1,60.0000022888184,10|0,0:0|0:0,0:0:0:0:
312,204,105447,2,0,L|320:268,1,60.0000022888184
440,112,105610,2,0,L|499:108,1,60.0000022888184,2|0,0:0|0:0,0:0:0:0:
252,84,105773,2,0,L|192:80,1,60.0000022888184
424,184,105936,2,0,L|483:180,1,60.0000022888184,10|0,0:0|0:0,0:0:0:0:
236,152,106099,2,0,L|176:148,1,60.0000022888184
408,256,106262,5,2,0:0:0:0:
456,254,106344,1,0,0:0:0:0:
504,252,106425,1,0,0:0:0:0:
220,220,106588,5,10,0:0:0:0:
172,218,106670,1,0,0:0:0:0:
125,216,106751,1,0,0:0:0:0:
116,188,106833,1,0,0:0:0:0:
108,160,106914,5,2,0:0:0:0:
64,184,106996,1,0,0:0:0:0:
44,228,107077,1,0,0:0:0:0:
44,276,107159,1,0,0:0:0:0:
68,316,107241,1,10,0:0:0:0:
112,340,107322,1,0,0:0:0:0:
160,340,107404,1,0,0:0:0:0:
200,312,107485,1,0,0:0:0:0:
248,304,107567,5,2,0:0:0:0:
292,316,107648,1,0,0:0:0:0:
328,348,107730,2,0,P|392:372|424:356,1,60.0000022888184
480,360,107893,1,10,0:0:0:0:
472,336,107974,1,0,0:0:0:0:
420,168,108137,6,0,P|400:232|336:244,1,120.000004577637
284,244,108382,1,0,0:0:0:0:
236,208,108463,1,0,0:0:0:0:
220,152,108545,1,10,0:0:0:0:
228,92,108626,1,0,0:0:0:0:
264,44,108708,1,0,0:0:0:0:
72,32,108871,5,2,0:0:0:0:
80,80,108952,1,0,0:0:0:0:
88,128,109034,1,0,0:0:0:0:
164,356,109197,5,10,0:0:0:0:
172,308,109278,1,0,0:0:0:0:
180,260,109360,1,0,0:0:0:0:
56,24,109523,5,2,0:0:0:0:
64,72,109604,1,0,0:0:0:0:
72,120,109686,1,0,0:0:0:0:
176,368,109849,5,10,0:0:0:0:
184,320,109930,1,0,0:0:0:0:
192,272,110012,1,0,0:0:0:0:
204,284,110094,1,0,0:0:0:0:
216,296,110175,5,2,0:0:0:0:
224,248,110257,1,0,0:0:0:0:
232,200,110338,1,0,0:0:0:0:
240,152,110420,1,0,0:0:0:0:
248,104,110501,1,10,0:0:0:0:
256,56,110583,1,0,0:0:0:0:
288,20,110664,1,0,0:0:0:0:
336,8,110746,1,0,0:0:0:0:
384,16,110827,6,0,L|404:84,1,60.0000022888184,2|0,0:0|0:0,0:0:0:0:
364,232,110991,2,0,L|344:164,1,60.0000022888184
404,16,111154,2,0,L|424:84,1,60.0000022888184,10|0,0:0|0:0,0:0:0:0:
384,232,111318,2,0,L|364:164,1,60.0000022888184
424,16,111480,5,2,0:0:0:0:
436,52,111561,1,0,0:0:0:0:
448,88,111643,1,0,0:0:0:0:
460,124,111724,1,0,0:0:0:0:
480,184,111806,5,10,0:0:0:0:
434,145,111887,1,0,0:0:0:0:
376,133,111969,1,0,0:0:0:0:
321,154,112050,1,0,0:0:0:0:
269,184,112132,1,2,0:0:0:0:
213,205,112213,1,0,0:0:0:0:
153,203,112295,1,0,0:0:0:0:
104,170,112376,1,0,0:0:0:0:
64,120,112458,5,10,0:0:0:0:
68,184,112539,1,0,0:0:0:0:
76,248,112621,1,0,0:0:0:0:
84,312,112702,1,0,0:0:0:0:
92,376,112784,5,2,0:0:0:0:
168,384,112866,1,0,0:0:0:0:
360,328,113029,2,0,L|296:328,1,60.0000022888184,0|8,0:0|0:0,0:0:0:0:
192,276,113191,1,0,0:0:0:0:
216,276,113273,1,0,0:0:0:0:
416,160,113436,5,2,0:0:0:0:
368,160,113518,1,0,0:0:0:0:
320,160,113599,1,0,0:0:0:0:
272,160,113681,1,0,0:0:0:0:
224,160,113762,1,10,0:0:0:0:
176,160,113844,1,0,0:0:0:0:
128,160,113925,1,0,0:0:0:0:
80,160,114007,1,0,0:0:0:0:
32,160,114088,6,0,P|16:224|24:248,1,60.0000022888184,6|0,0:0|0:0,0:0:0:0:
296,92,114251,2,0,P|312:28|304:4,1,60.0000022888184
40,184,114414,6,0,P|24:248|32:272,1,60.0000022888184,14|0,0:0|0:0,0:0:0:0:
320,84,114577,2,0,P|336:20|328:-4,1,60.0000022888184
48,208,114741,6,0,P|32:272|40:296,1,60.0000022888184,2|0,0:0|0:0,0:0:0:0:
344,76,114904,2,0,P|360:12|352:-12,1,60.0000022888184
56,232,115067,5,14,0:0:0:0:
100,248,115148,1,0,0:0:0:0:
144,264,115230,1,0,0:0:0:0:
188,280,115311,1,0,0:0:0:0:
232,296,115393,2,0,B|312:320|312:320|300:280,1,120.000004577637,2|0,0:0|0:0,0:0:0:0:
392,152,115719,5,10,0:0:0:0:
408,204,115801,1,0,0:0:0:0:
424,256,115882,1,0,0:0:0:0:
440,308,115964,1,0,0:0:0:0:
456,360,116045,1,2,0:0:0:0:
416,323,116126,1,0,0:0:0:0:
365,309,116208,1,0,0:0:0:0:
313,323,116289,1,0,0:0:0:0:
266,349,116371,1,10,0:0:0:0:
214,358,116452,1,0,0:0:0:0:
163,340,116534,1,0,0:0:0:0:
131,298,116615,1,0,0:0:0:0:
126,245,116697,5,2,0:0:0:0:
180,252,116779,1,0,0:0:0:0:
232,260,116860,1,0,0:0:0:0:
368,136,117023,5,10,0:0:0:0:
420,144,117104,1,0,0:0:0:0:
473,150,117186,1,0,0:0:0:0:
468,97,117268,1,0,0:0:0:0:
436,55,117349,1,2,0:0:0:0:
385,37,117431,1,0,0:0:0:0:
333,46,117512,1,0,0:0:0:0:
286,72,117594,1,0,0:0:0:0:
234,86,117675,1,10,0:0:0:0:
183,72,117757,1,0,0:0:0:0:
144,36,117838,1,0,0:0:0:0:
92,18,117920,1,0,0:0:0:0:
40,28,118001,5,2,0:0:0:0:
44,80,118083,1,0,0:0:0:0:
48,132,118164,1,0,0:0:0:0:
52,184,118246,1,0,0:0:0:0:
56,236,118327,5,10,0:0:0:0:
61,304,118409,1,0,0:0:0:0:
235,365,118572,2,0,P|288:344|304:277,1,120.000004577637
293,228,118817,5,0,0:0:0:0:
260,177,118898,1,0,0:0:0:0:
200,164,118980,1,10,0:0:0:0:
146,191,119061,1,0,0:0:0:0:
127,248,119143,1,0,0:0:0:0:
40,104,119306,6,0,L|48:36,1,60.0000022888184,2|0,0:0|0:0,0:0:0:0:
148,236,119469,2,0,L|156:304,1,60.0000022888184
60,92,119632,2,0,L|68:24,1,60.0000022888184,10|0,0:0|0:0,0:0:0:0:
168,224,119795,2,0,L|176:292,1,60.0000022888184
80,80,119958,5,2,0:0:0:0:
128,57,120039,1,0,0:0:0:0:
182,52,120121,1,0,0:0:0:0:
232,71,120202,1,0,0:0:0:0:
275,103,120284,1,10,0:0:0:0:
325,122,120365,1,0,0:0:0:0:
378,117,120447,1,0,0:0:0:0:
417,80,120528,1,0,0:0:0:0:
424,4,120610,5,2,0:0:0:0:
463,41,120691,1,0,0:0:0:0:
484,89,120773,1,0,0:0:0:0:
478,142,120854,1,0,0:0:0:0:
451,190,120936,1,10,0:0:0:0:
433,240,121017,1,0,0:0:0:0:
437,294,121099,1,0,0:0:0:0:
469,337,121181,1,0,0:0:0:0:
512,280,121262,5,2,0:0:0:0:
503,227,121344,1,0,0:0:0:0:
473,183,121425,1,0,0:0:0:0:
420,168,121507,1,0,0:0:0:0:
367,179,121588,1,10,0:0:0:0:
332,220,121670,1,0,0:0:0:0:
323,272,121751,1,0,0:0:0:0:
279,303,121833,1,0,0:0:0:0:
227,295,121914,5,2,0:0:0:0:
235,243,121996,1,0,0:0:0:0:
243,191,122077,1,0,0:0:0:0:
36,192,122241,5,10,0:0:0:0:
28,140,122322,1,0,0:0:0:0:
20,88,122404,1,0,0:0:0:0:
72,80,122485,1,0,0:0:0:0:
116,111,122567,1,2,0:0:0:0:
125,163,122648,1,0,0:0:0:0:
160,204,122730,1,0,0:0:0:0:
213,215,122811,1,0,0:0:0:0:
266,200,122893,1,10,0:0:0:0:
296,157,122974,1,0,0:0:0:0:
305,103,123056,1,0,0:0:0:0:
284,53,123137,1,0,0:0:0:0:
236,28,123219,6,0,L|164:40,1,60.0000022888184,2|0,0:0|0:0,0:0:0:0:
364,140,123382,2,0,L|436:152,1,60.0000022888184
216,48,123545,2,0,L|144:60,1,60.0000022888184,10|0,0:0|0:0,0:0:0:0:
384,160,123708,2,0,L|456:172,1,60.0000022888184
196,68,123871,6,0,L|124:80,1,60.0000022888184,2|0,0:0|0:0,0:0:0:0:
404,180,124034,2,0,L|476:192,1,60.0000022888184
188,176,124197,2,0,L|116:164,1,60.0000022888184,10|0,0:0|0:0,0:0:0:0:
396,64,124360,2,0,L|468:52,1,60.0000022888184
208,252,124523,6,0,L|198:311,1,60.0000022888184,6|0,0:0|0:0,0:0:0:0:
316,72,124686,2,0,L|306:12,1,60.0000022888184,0|0,0:0|0:0,0:0:0:0:
280,280,124849,2,0,L|352:292,1,60.0000022888184,14|0,0:0|0:0,0:0:0:0:
100,112,125012,2,0,L|40:121,1,60.0000022888184
300,304,125175,6,0,L|372:316,1,60.0000022888184,2|0,0:0|0:0,0:0:0:0:
80,88,125338,2,0,L|8:100,1,60.0000022888184,0|0,0:0|0:0,0:0:0:0:
300,80,125501,2,0,L|372:68,1,60.0000022888184,14|0,0:0|0:0,0:0:0:0:
80,296,125664,2,0,L|8:284,1,60.0000022888184
440,56,125827,5,6,0:0:0:0:
424,136,126317,5,2,0:0:0:0:
416,216,126806,5,2,0:0:0:0:
416,216,126887,1,0,0:0:0:0:
240,112,127051,1,0,0:0:0:0:
240,112,127132,1,2,0:0:0:0:
264,188,127621,5,2,0:0:0:0:
292,268,128110,5,2,0:0:0:0:
292,268,128192,1,0,0:0:0:0:
104,188,128354,1,0,0:0:0:0:
104,188,128436,1,2,0:0:0:0:
156,248,128925,5,2,0:0:0:0:
216,308,129414,5,2,0:0:0:0:
216,308,129496,1,0,0:0:0:0:
304,140,129660,1,0,0:0:0:0:
304,140,129741,1,0,0:0:0:0:
