osu file format v14

[General]
AudioFilename: audio.mp3
AudioLeadIn: 0
PreviewTime: -1
Countdown: 1
SampleSet: None
StackLeniency: 0.7
Mode: 3
LetterboxInBreaks: 0
SpecialStyle: 0
WidescreenStoryboard: 1

[Editor]
DistanceSpacing: 0.8
BeatDivisor: 4
GridSize: 32
TimelineZoom: 3.199999

[Metadata]
Title:X
TitleUnicode:X
Artist:D.J.Amuro
ArtistUnicode:D.J.Amuro
Creator:IDATEN-SAMA
Version:Normal Lv.7
Source:Beatmania IIDX 23 Copula
Tags:IIDX, beatmania, Renaissanse, DJ Amuro
BeatmapID:1519519
BeatmapSetID:719576

[Difficulty]
HPDrainRate:8
CircleSize:4
OverallDifficulty:7
ApproachRate:5
SliderMultiplier:1.4
SliderTickRate:1

[Events]
//Background and Video events
0,0,"b7000c455338ed3a5ce68b2478f606a0.jpg",0,0
//Break Periods
//Storyboard Layer 0 (Background)
//Storyboard Layer 1 (Fail)
//Storyboard Layer 2 (Pass)
//Storyboard Layer 3 (Foreground)
//Storyboard Sound Samples

[TimingPoints]
1500.44967228464,333.333333333333,4,1,0,20,1,0

[HitObjects]
64,192,1500,5,0,0:0:0:0:
192,192,1667,1,0,0:0:0:0:
320,192,1833,1,0,0:0:0:0:
448,192,2000,1,0,0:0:0:0:
320,192,2167,1,0,0:0:0:0:
192,192,2333,1,0,0:0:0:0:
64,192,2500,1,0,0:0:0:0:
192,192,2667,1,0,0:0:0:0:
64,192,2833,1,0,0:0:0:0:
192,192,3000,1,0,0:0:0:0:
320,192,3167,1,0,0:0:0:0:
448,192,3333,1,0,0:0:0:0:
320,192,3500,1,0,0:0:0:0:
192,192,3667,1,0,0:0:0:0:
448,192,3833,1,0,0:0:0:0:
320,192,4000,1,0,0:0:0:0:
64,192,4167,1,0,0:0:0:0:
192,192,4333,1,0,0:0:0:0:
320,192,4500,1,0,0:0:0:0:
64,192,4667,1,0,0:0:0:0:
192,192,4833,1,0,0:0:0:0:
320,192,5000,1,0,0:0:0:0:
448,192,5167,1,0,0:0:0:0:
320,192,5333,1,0,0:0:0:0:
64,192,5500,1,0,0:0:0:0:
192,192,5667,1,0,0:0:0:0:
320,192,5833,1,0,0:0:0:0:
448,192,6000,1,0,0:0:0:0:
320,192,6167,1,0,0:0:0:0:
192,192,6333,1,0,0:0:0:0:
64,192,6500,1,0,0:0:0:0:
192,192,6667,1,0,0:0:0:0:
448,192,6833,1,0,0:0:0:0:
320,192,7000,1,0,0:0:0:0:
192,192,7167,1,0,0:0:0:0:
320,192,7333,1,0,0:0:0:0:
192,192,7500,1,0,0:0:0:0:
64,192,7667,1,0,0:0:0:0:
320,192,7833,1,0,0:0:0:0:
192,192,8000,1,0,0:0:0:0:
64,192,8167,1,0,0:0:0:0:
192,192,8333,1,0,0:0:0:0:
320,192,8500,1,0,0:0:0:0:
448,192,8667,1,0,0:0:0:0:
320,192,8833,1,0,0:0:0:0:
192,192,9000,1,0,0:0:0:0:
64,192,9167,1,0,0:0:0:0:
192,192,9333,1,0,0:0:0:0:
320,192,9500,1,0,0:0:0:0:
448,192,9667,1,0,0:0:0:0:
192,192,9833,1,0,0:0:0:0:
320,192,10000,1,0,0:0:0:0:
64,192,10167,1,0,0:0:0:0:
192,192,10333,1,0,0:0:0:0:
448,192,10500,1,0,0:0:0:0:
320,192,10667,1,0,0:0:0:0:
64,192,10833,1,0,0:0:0:0:
192,192,11000,1,0,0:0:0:0:
320,192,11167,1,0,0:0:0:0:
448,192,11333,1,0,0:0:0:0:
64,192,11500,1,0,0:0:0:0:
192,192,11583,1,0,0:0:0:0:
320,192,11667,1,0,0:0:0:0:
448,192,11750,1,0,0:0:0:0:
320,192,11833,1,0,0:0:0:0:
192,192,11833,1,0,0:0:0:0:
64,192,12167,1,0,0:0:0:0:
192,192,12167,1,0,0:0:0:0:
320,192,12333,1,0,0:0:0:0:
448,192,12500,1,0,0:0:0:0:
320,192,12667,1,0,0:0:0:0:
192,192,12667,1,0,0:0:0:0:
64,192,12833,1,0,0:0:0:0:
192,192,13000,1,0,0:0:0:0:
320,192,13167,1,0,0:0:0:0:
448,192,13167,1,0,0:0:0:0:
192,192,13333,1,0,0:0:0:0:
64,192,13500,1,0,0:0:0:0:
320,192,13500,1,0,0:0:0:0:
192,192,13667,1,0,0:0:0:0:
320,192,13833,1,0,0:0:0:0:
448,192,14000,1,0,0:0:0:0:
192,192,14000,1,0,0:0:0:0:
320,192,14167,1,0,0:0:0:0:
192,192,14333,1,0,0:0:0:0:
64,192,14500,1,0,0:0:0:0:
320,192,14500,1,0,0:0:0:0:
448,192,14667,1,0,0:0:0:0:
320,192,14833,1,0,0:0:0:0:
192,192,14833,1,0,0:0:0:0:
64,192,15000,1,0,0:0:0:0:
192,192,15167,1,0,0:0:0:0:
320,192,15333,1,0,0:0:0:0:
448,192,15333,1,0,0:0:0:0:
192,192,15500,1,0,0:0:0:0:
64,192,15667,1,0,0:0:0:0:
192,192,15833,1,0,0:0:0:0:
320,192,15833,1,0,0:0:0:0:
448,192,16000,1,0,0:0:0:0:
192,192,16167,1,0,0:0:0:0:
320,192,16167,1,0,0:0:0:0:
64,192,16333,1,0,0:0:0:0:
192,192,16500,1,0,0:0:0:0:
320,192,16667,1,0,0:0:0:0:
448,192,16667,1,0,0:0:0:0:
192,192,16833,1,0,0:0:0:0:
64,192,17000,1,0,0:0:0:0:
192,192,17167,1,0,0:0:0:0:
320,192,17167,1,0,0:0:0:0:
448,192,17333,1,0,0:0:0:0:
192,192,17500,1,0,0:0:0:0:
64,192,17500,1,0,0:0:0:0:
320,192,17667,1,0,0:0:0:0:
448,192,17833,1,0,0:0:0:0:
192,192,18000,1,0,0:0:0:0:
320,192,18000,1,0,0:0:0:0:
448,192,18167,1,0,0:0:0:0:
320,192,18333,1,0,0:0:0:0:
192,192,18500,1,0,0:0:0:0:
64,192,18500,1,0,0:0:0:0:
448,192,18667,1,0,0:0:0:0:
320,192,18833,1,0,0:0:0:0:
192,192,18833,1,0,0:0:0:0:
64,192,19000,1,0,0:0:0:0:
192,192,19167,1,0,0:0:0:0:
448,192,19333,1,0,0:0:0:0:
320,192,19333,1,0,0:0:0:0:
192,192,19500,1,0,0:0:0:0:
64,192,19667,1,0,0:0:0:0:
192,192,19833,1,0,0:0:0:0:
320,192,19833,1,0,0:0:0:0:
448,192,20000,1,0,0:0:0:0:
64,192,20167,1,0,0:0:0:0:
192,192,20333,1,0,0:0:0:0:
320,192,20500,1,0,0:0:0:0:
192,192,20667,1,0,0:0:0:0:
320,192,20833,1,0,0:0:0:0:
448,192,21000,1,0,0:0:0:0:
320,192,21167,1,0,0:0:0:0:
448,192,21333,1,0,0:0:0:0:
192,192,21500,1,0,0:0:0:0:
64,192,21500,1,0,0:0:0:0:
448,192,21750,1,0,0:0:0:0:
192,192,21750,1,0,0:0:0:0:
320,192,22000,1,0,0:0:0:0:
64,192,22000,1,0,0:0:0:0:
192,192,22167,1,0,0:0:0:0:
320,192,22333,1,0,0:0:0:0:
448,192,22500,1,0,0:0:0:0:
64,192,22667,1,0,0:0:0:0:
192,192,22833,1,0,0:0:0:0:
320,192,22833,1,0,0:0:0:0:
448,192,23000,1,0,0:0:0:0:
320,192,23167,1,0,0:0:0:0:
64,192,23333,1,0,0:0:0:0:
192,192,23333,1,0,0:0:0:0:
320,192,23500,1,0,0:0:0:0:
448,192,23667,1,0,0:0:0:0:
192,192,23833,1,0,0:0:0:0:
320,192,23833,1,0,0:0:0:0:
64,192,24000,1,0,0:0:0:0:
448,192,24167,1,0,0:0:0:0:
320,192,24167,1,0,0:0:0:0:
192,192,24333,1,0,0:0:0:0:
64,192,24500,1,0,0:0:0:0:
448,192,24667,1,0,0:0:0:0:
192,192,24667,1,0,0:0:0:0:
320,192,24833,1,0,0:0:0:0:
192,192,25000,1,0,0:0:0:0:
448,192,25167,1,0,0:0:0:0:
320,192,25167,1,0,0:0:0:0:
192,192,25333,1,0,0:0:0:0:
64,192,25500,1,0,0:0:0:0:
320,192,25500,1,0,0:0:0:0:
192,192,25667,1,0,0:0:0:0:
320,192,25833,1,0,0:0:0:0:
64,192,26000,1,0,0:0:0:0:
192,192,26000,1,0,0:0:0:0:
320,192,26167,1,0,0:0:0:0:
448,192,26333,1,0,0:0:0:0:
64,192,26500,1,0,0:0:0:0:
320,192,26500,1,0,0:0:0:0:
192,192,26667,1,0,0:0:0:0:
448,192,26833,1,0,0:0:0:0:
320,192,26833,1,0,0:0:0:0:
192,192,27000,1,0,0:0:0:0:
320,192,27167,1,0,0:0:0:0:
64,192,27333,1,0,0:0:0:0:
192,192,27333,1,0,0:0:0:0:
320,192,27500,1,0,0:0:0:0:
192,192,27667,1,0,0:0:0:0:
64,192,27833,1,0,0:0:0:0:
320,192,27833,1,0,0:0:0:0:
192,192,28000,1,0,0:0:0:0:
448,192,28167,1,0,0:0:0:0:
320,192,28167,1,0,0:0:0:0:
192,192,28333,1,0,0:0:0:0:
64,192,28500,1,0,0:0:0:0:
448,192,28667,1,0,0:0:0:0:
192,192,28667,1,0,0:0:0:0:
320,192,28833,1,0,0:0:0:0:
64,192,29000,1,0,0:0:0:0:
448,192,29167,1,0,0:0:0:0:
192,192,29167,1,0,0:0:0:0:
320,192,29333,1,0,0:0:0:0:
64,192,29500,1,0,0:0:0:0:
192,192,29500,1,0,0:0:0:0:
320,192,29667,1,0,0:0:0:0:
448,192,29833,1,0,0:0:0:0:
64,192,30000,1,0,0:0:0:0:
320,192,30000,1,0,0:0:0:0:
192,192,30167,1,0,0:0:0:0:
448,192,30333,1,0,0:0:0:0:
64,192,30500,1,0,0:0:0:0:
320,192,30500,1,0,0:0:0:0:
192,192,30667,1,0,0:0:0:0:
448,192,30833,1,0,0:0:0:0:
320,192,31000,1,0,0:0:0:0:
64,192,31167,1,0,0:0:0:0:
192,192,31333,1,0,0:0:0:0:
320,192,31500,1,0,0:0:0:0:
192,192,31667,1,0,0:0:0:0:
64,192,31833,1,0,0:0:0:0:
192,192,32000,1,0,0:0:0:0:
448,192,32167,1,0,0:0:0:0:
320,192,32333,1,0,0:0:0:0:
64,192,32500,1,0,0:0:0:0:
192,192,32667,1,0,0:0:0:0:
320,192,32833,1,0,0:0:0:0:
192,192,33000,1,0,0:0:0:0:
64,192,33167,1,0,0:0:0:0:
192,192,33333,1,0,0:0:0:0:
320,192,33500,1,0,0:0:0:0:
448,192,33500,1,0,0:0:0:0:
64,192,33500,1,0,0:0:0:0:
192,192,33833,1,0,0:0:0:0:
448,192,34000,1,0,0:0:0:0:
320,192,34000,1,0,0:0:0:0:
64,192,34000,1,0,0:0:0:0:
320,192,34333,1,0,0:0:0:0:
64,192,34500,1,0,0:0:0:0:
192,192,34500,1,0,0:0:0:0:
448,192,34500,1,0,0:0:0:0:
320,192,34833,1,0,0:0:0:0:
192,192,35000,1,0,0:0:0:0:
448,192,35000,1,0,0:0:0:0:
64,192,35000,1,0,0:0:0:0:
448,192,35500,1,0,0:0:0:0:
320,192,35667,1,0,0:0:0:0:
192,192,35833,1,0,0:0:0:0:
320,192,36000,1,0,0:0:0:0:
448,192,36167,1,0,0:0:0:0:
192,192,36167,1,0,0:0:0:0:
64,192,36167,1,0,0:0:0:0:
320,192,36500,1,0,0:0:0:0:
448,192,36667,1,0,0:0:0:0:
192,192,36667,1,0,0:0:0:0:
64,192,36667,1,0,0:0:0:0:
192,192,37000,1,0,0:0:0:0:
64,192,37167,1,0,0:0:0:0:
320,192,37167,1,0,0:0:0:0:
448,192,37167,1,0,0:0:0:0:
192,192,37500,1,0,0:0:0:0:
64,192,37667,1,0,0:0:0:0:
448,192,37667,1,0,0:0:0:0:
320,192,37667,1,0,0:0:0:0:
448,192,38167,1,0,0:0:0:0:
320,192,38333,1,0,0:0:0:0:
192,192,38500,1,0,0:0:0:0:
320,192,38667,1,0,0:0:0:0:
192,192,38833,1,0,0:0:0:0:
448,192,38833,1,0,0:0:0:0:
64,192,39000,1,0,0:0:0:0:
192,192,39167,1,0,0:0:0:0:
320,192,39333,1,0,0:0:0:0:
64,192,39333,1,0,0:0:0:0:
448,192,39500,1,0,0:0:0:0:
320,192,39667,1,0,0:0:0:0:
192,192,39833,1,0,0:0:0:0:
448,192,39833,1,0,0:0:0:0:
64,192,40000,1,0,0:0:0:0:
192,192,40167,1,0,0:0:0:0:
64,192,40333,1,0,0:0:0:0:
320,192,40333,1,0,0:0:0:0:
448,192,40500,1,0,0:0:0:0:
320,192,40667,1,0,0:0:0:0:
448,192,40833,1,0,0:0:0:0:
192,192,40833,1,0,0:0:0:0:
320,192,41000,1,0,0:0:0:0:
192,192,41167,1,0,0:0:0:0:
64,192,41333,1,0,0:0:0:0:
64,192,41500,1,0,0:0:0:0:
192,192,41611,1,0,0:0:0:0:
320,192,41722,1,0,0:0:0:0:
448,192,41833,1,0,0:0:0:0:
192,192,41944,1,0,0:0:0:0:
320,192,42056,1,0,0:0:0:0:
64,192,42167,1,0,0:0:0:0:
192,192,42250,1,0,0:0:0:0:
320,192,42333,1,0,0:0:0:0:
192,192,42417,1,0,0:0:0:0:
320,192,42500,1,0,0:0:0:0:
448,192,42583,1,0,0:0:0:0:
64,192,42667,1,0,0:0:0:0:
192,192,42750,1,0,0:0:0:0:
320,192,42833,128,0,43500:0:0:0:0:
320,192,43833,1,0,0:0:0:0:
64,192,44167,1,0,0:0:0:0:
320,192,44167,1,0,0:0:0:0:
192,192,44333,1,0,0:0:0:0:
448,192,44500,1,0,0:0:0:0:
320,192,44500,1,0,0:0:0:0:
192,192,44667,1,0,0:0:0:0:
64,192,44833,1,0,0:0:0:0:
320,192,45000,1,0,0:0:0:0:
448,192,45000,1,0,0:0:0:0:
192,192,45167,1,0,0:0:0:0:
64,192,45167,1,0,0:0:0:0:
448,192,45333,1,0,0:0:0:0:
64,192,45500,1,0,0:0:0:0:
320,192,45500,1,0,0:0:0:0:
192,192,45667,1,0,0:0:0:0:
320,192,45833,1,0,0:0:0:0:
448,192,45833,1,0,0:0:0:0:
192,192,46000,1,0,0:0:0:0:
320,192,46167,1,0,0:0:0:0:
64,192,46333,1,0,0:0:0:0:
192,192,46333,1,0,0:0:0:0:
320,192,46500,1,0,0:0:0:0:
448,192,46500,1,0,0:0:0:0:
192,192,46667,1,0,0:0:0:0:
448,192,46833,1,0,0:0:0:0:
320,192,46833,1,0,0:0:0:0:
192,192,47000,1,0,0:0:0:0:
320,192,47167,1,0,0:0:0:0:
64,192,47167,1,0,0:0:0:0:
448,192,47333,1,0,0:0:0:0:
64,192,47500,1,0,0:0:0:0:
320,192,47667,1,0,0:0:0:0:
448,192,47667,1,0,0:0:0:0:
192,192,47833,1,0,0:0:0:0:
64,192,47833,1,0,0:0:0:0:
448,192,48000,1,0,0:0:0:0:
64,192,48167,1,0,0:0:0:0:
320,192,48167,1,0,0:0:0:0:
192,192,48333,1,0,0:0:0:0:
448,192,48500,1,0,0:0:0:0:
320,192,48500,1,0,0:0:0:0:
192,192,48667,1,0,0:0:0:0:
64,192,48833,1,0,0:0:0:0:
192,192,49000,1,0,0:0:0:0:
448,192,49000,1,0,0:0:0:0:
320,192,49167,1,0,0:0:0:0:
64,192,49167,1,0,0:0:0:0:
192,192,49333,1,0,0:0:0:0:
448,192,49500,1,0,0:0:0:0:
320,192,49500,1,0,0:0:0:0:
192,192,49667,1,0,0:0:0:0:
64,192,49833,1,0,0:0:0:0:
320,192,49833,1,0,0:0:0:0:
192,192,50000,1,0,0:0:0:0:
448,192,50167,1,0,0:0:0:0:
192,192,50333,1,0,0:0:0:0:
64,192,50333,1,0,0:0:0:0:
320,192,50500,1,0,0:0:0:0:
448,192,50500,1,0,0:0:0:0:
64,192,50667,1,0,0:0:0:0:
64,192,50833,1,0,0:0:0:0:
192,192,50833,1,0,0:0:0:0:
320,192,51000,1,0,0:0:0:0:
192,192,51167,1,0,0:0:0:0:
448,192,51167,1,0,0:0:0:0:
320,192,51333,1,0,0:0:0:0:
192,192,51500,1,0,0:0:0:0:
64,192,51667,1,0,0:0:0:0:
320,192,51667,1,0,0:0:0:0:
192,192,51833,1,0,0:0:0:0:
448,192,51833,1,0,0:0:0:0:
320,192,52000,1,0,0:0:0:0:
448,192,52167,1,0,0:0:0:0:
192,192,52167,1,0,0:0:0:0:
320,192,52333,1,0,0:0:0:0:
192,192,52500,1,0,0:0:0:0:
64,192,52500,1,0,0:0:0:0:
320,192,52667,1,0,0:0:0:0:
448,192,52833,1,0,0:0:0:0:
192,192,53000,1,0,0:0:0:0:
64,192,53000,1,0,0:0:0:0:
320,192,53167,1,0,0:0:0:0:
448,192,53167,1,0,0:0:0:0:
64,192,53333,1,0,0:0:0:0:
320,192,53500,1,0,0:0:0:0:
448,192,53500,1,0,0:0:0:0:
320,192,53750,1,0,0:0:0:0:
192,192,53750,1,0,0:0:0:0:
64,192,54000,1,0,0:0:0:0:
192,192,54000,1,0,0:0:0:0:
64,192,54167,1,0,0:0:0:0:
448,192,54333,1,0,0:0:0:0:
320,192,54500,1,0,0:0:0:0:
448,192,54667,1,0,0:0:0:0:
