osu file format v14

[General]
AudioFilename: audio.mp3
AudioLeadIn: 0
PreviewTime: -1
Countdown: 1
SampleSet: None
StackLeniency: 0.7
Mode: 3
LetterboxInBreaks: 0
SpecialStyle: 0
WidescreenStoryboard: 0

[Editor]
DistanceSpacing: 0.8
BeatDivisor: 4
GridSize: 32
TimelineZoom: 3.199999

[Metadata]
Title:X
TitleUnicode:X
Artist:D.J.Amuro
ArtistUnicode:D.J.Amuro
Creator:IDATEN-SAMA
Version:Another Lv.12 (Lv.0)
Source:Beatmania IIDX 23 Copula
Tags:IIDX, beatmania, Renaissanse, DJ Amuro
BeatmapID:1519518
BeatmapSetID:719576

[Difficulty]
HPDrainRate:8
CircleSize:4
OverallDifficulty:7
ApproachRate:5
SliderMultiplier:1.4
SliderTickRate:1

[Events]
//Background and Video events
0,0,"b7000c455338ed3a5ce68b2478f606a0.jpg",0,0
//Break Periods
//Storyboard Layer 0 (Background)
//Storyboard Layer 1 (Fail)
//Storyboard Layer 2 (Pass)
//Storyboard Layer 3 (Foreground)
//Storyboard Sound Samples

[TimingPoints]
1500.44967228464,333.333333333333,4,1,0,20,1,0

[HitObjects]
64,192,1500,5,0,0:0:0:0:
192,192,1583,1,0,0:0:0:0:
320,192,1667,1,0,0:0:0:0:
448,192,1750,1,0,0:0:0:0:
320,192,1833,1,0,0:0:0:0:
64,192,2000,1,0,0:0:0:0:
192,192,2083,1,0,0:0:0:0:
320,192,2167,1,0,0:0:0:0:
448,192,2250,1,0,0:0:0:0:
320,192,2333,1,0,0:0:0:0:
64,192,2500,1,0,0:0:0:0:
192,192,2583,1,0,0:0:0:0:
320,192,2667,1,0,0:0:0:0:
448,192,2750,1,0,0:0:0:0:
64,192,2833,1,0,0:0:0:0:
192,192,2917,1,0,0:0:0:0:
320,192,3000,1,0,0:0:0:0:
448,192,3083,1,0,0:0:0:0:
320,192,3167,1,0,0:0:0:0:
64,192,3333,1,0,0:0:0:0:
448,192,3333,1,0,0:0:0:0:
192,192,3417,1,0,0:0:0:0:
320,192,3500,1,0,0:0:0:0:
448,192,3583,1,0,0:0:0:0:
320,192,3667,1,0,0:0:0:0:
64,192,3833,1,0,0:0:0:0:
448,192,3833,1,0,0:0:0:0:
192,192,3917,1,0,0:0:0:0:
320,192,4000,1,0,0:0:0:0:
448,192,4083,1,0,0:0:0:0:
320,192,4167,1,0,0:0:0:0:
64,192,4167,1,0,0:0:0:0:
192,192,4250,1,0,0:0:0:0:
320,192,4333,1,0,0:0:0:0:
448,192,4417,1,0,0:0:0:0:
320,192,4500,1,0,0:0:0:0:
64,192,4667,1,0,0:0:0:0:
320,192,4667,1,0,0:0:0:0:
192,192,4750,1,0,0:0:0:0:
320,192,4833,1,0,0:0:0:0:
448,192,4917,1,0,0:0:0:0:
320,192,5000,1,0,0:0:0:0:
64,192,5167,1,0,0:0:0:0:
320,192,5167,1,0,0:0:0:0:
192,192,5250,1,0,0:0:0:0:
320,192,5333,1,0,0:0:0:0:
448,192,5417,1,0,0:0:0:0:
64,192,5500,1,0,0:0:0:0:
192,192,5583,1,0,0:0:0:0:
320,192,5667,1,0,0:0:0:0:
448,192,5750,1,0,0:0:0:0:
320,192,5833,1,0,0:0:0:0:
64,192,6000,1,0,0:0:0:0:
192,192,6083,1,0,0:0:0:0:
320,192,6167,1,0,0:0:0:0:
448,192,6250,1,0,0:0:0:0:
320,192,6333,1,0,0:0:0:0:
64,192,6500,1,0,0:0:0:0:
192,192,6583,1,0,0:0:0:0:
320,192,6667,1,0,0:0:0:0:
448,192,6750,1,0,0:0:0:0:
320,192,6833,1,0,0:0:0:0:
192,192,6833,1,0,0:0:0:0:
64,192,6917,1,0,0:0:0:0:
448,192,7000,1,0,0:0:0:0:
320,192,7083,1,0,0:0:0:0:
192,192,7167,1,0,0:0:0:0:
192,192,7333,1,0,0:0:0:0:
64,192,7417,1,0,0:0:0:0:
448,192,7500,1,0,0:0:0:0:
320,192,7583,1,0,0:0:0:0:
192,192,7667,1,0,0:0:0:0:
192,192,7833,1,0,0:0:0:0:
64,192,7917,1,0,0:0:0:0:
448,192,8000,1,0,0:0:0:0:
192,192,8083,1,0,0:0:0:0:
448,192,8167,1,0,0:0:0:0:
320,192,8250,1,0,0:0:0:0:
192,192,8333,1,0,0:0:0:0:
320,192,8417,1,0,0:0:0:0:
64,192,8500,1,0,0:0:0:0:
448,192,8667,1,0,0:0:0:0:
320,192,8750,1,0,0:0:0:0:
192,192,8833,1,0,0:0:0:0:
320,192,8917,1,0,0:0:0:0:
64,192,9000,1,0,0:0:0:0:
192,192,9083,1,0,0:0:0:0:
448,192,9167,1,0,0:0:0:0:
320,192,9250,1,0,0:0:0:0:
192,192,9333,1,0,0:0:0:0:
320,192,9417,1,0,0:0:0:0:
64,192,9500,1,0,0:0:0:0:
192,192,9583,1,0,0:0:0:0:
320,192,9667,1,0,0:0:0:0:
448,192,9750,1,0,0:0:0:0:
64,192,9833,1,0,0:0:0:0:
192,192,9917,1,0,0:0:0:0:
320,192,10000,1,0,0:0:0:0:
192,192,10083,1,0,0:0:0:0:
448,192,10167,1,0,0:0:0:0:
192,192,10250,1,0,0:0:0:0:
320,192,10333,1,0,0:0:0:0:
448,192,10417,1,0,0:0:0:0:
64,192,10500,1,0,0:0:0:0:
192,192,10583,1,0,0:0:0:0:
320,192,10667,1,0,0:0:0:0:
448,192,10750,1,0,0:0:0:0:
448,192,10833,1,0,0:0:0:0:
320,192,10917,1,0,0:0:0:0:
192,192,11000,1,0,0:0:0:0:
64,192,11083,1,0,0:0:0:0:
448,192,11167,1,0,0:0:0:0:
320,192,11250,1,0,0:0:0:0:
192,192,11333,1,0,0:0:0:0:
320,192,11417,1,0,0:0:0:0:
192,192,11500,1,0,0:0:0:0:
64,192,11583,1,0,0:0:0:0:
448,192,11667,1,0,0:0:0:0:
320,192,11750,1,0,0:0:0:0:
192,192,11833,1,0,0:0:0:0:
448,192,11833,1,0,0:0:0:0:
192,192,12167,1,0,0:0:0:0:
448,192,12167,1,0,0:0:0:0:
64,192,12167,1,0,0:0:0:0:
320,192,12250,1,0,0:0:0:0:
192,192,12333,1,0,0:0:0:0:
320,192,12417,1,0,0:0:0:0:
64,192,12500,1,0,0:0:0:0:
448,192,12667,1,0,0:0:0:0:
320,192,12750,1,0,0:0:0:0:
192,192,12833,1,0,0:0:0:0:
320,192,12917,1,0,0:0:0:0:
64,192,13000,1,0,0:0:0:0:
448,192,13167,1,0,0:0:0:0:
320,192,13250,1,0,0:0:0:0:
192,192,13333,1,0,0:0:0:0:
320,192,13417,1,0,0:0:0:0:
448,192,13500,1,0,0:0:0:0:
320,192,13583,1,0,0:0:0:0:
192,192,13667,1,0,0:0:0:0:
64,192,13750,1,0,0:0:0:0:
192,192,13833,1,0,0:0:0:0:
448,192,14000,1,0,0:0:0:0:
320,192,14083,1,0,0:0:0:0:
192,192,14167,1,0,0:0:0:0:
64,192,14250,1,0,0:0:0:0:
192,192,14333,1,0,0:0:0:0:
448,192,14500,1,0,0:0:0:0:
320,192,14583,1,0,0:0:0:0:
192,192,14667,1,0,0:0:0:0:
64,192,14750,1,0,0:0:0:0:
320,192,14833,1,0,0:0:0:0:
192,192,14917,1,0,0:0:0:0:
64,192,15000,1,0,0:0:0:0:
192,192,15083,1,0,0:0:0:0:
64,192,15167,1,0,0:0:0:0:
320,192,15333,1,0,0:0:0:0:
192,192,15417,1,0,0:0:0:0:
64,192,15500,1,0,0:0:0:0:
192,192,15583,1,0,0:0:0:0:
64,192,15667,1,0,0:0:0:0:
192,192,15833,1,0,0:0:0:0:
64,192,15917,1,0,0:0:0:0:
192,192,16000,1,0,0:0:0:0:
64,192,16083,1,0,0:0:0:0:
320,192,16167,1,0,0:0:0:0:
192,192,16250,1,0,0:0:0:0:
64,192,16333,1,0,0:0:0:0:
192,192,16417,1,0,0:0:0:0:
64,192,16500,1,0,0:0:0:0:
320,192,16667,1,0,0:0:0:0:
192,192,16750,1,0,0:0:0:0:
64,192,16833,1,0,0:0:0:0:
192,192,16917,1,0,0:0:0:0:
64,192,17000,1,0,0:0:0:0:
448,192,17167,1,0,0:0:0:0:
320,192,17250,1,0,0:0:0:0:
192,192,17333,1,0,0:0:0:0:
64,192,17417,1,0,0:0:0:0:
320,192,17500,1,0,0:0:0:0:
192,192,17583,1,0,0:0:0:0:
320,192,17667,1,0,0:0:0:0:
64,192,17750,1,0,0:0:0:0:
192,192,17833,1,0,0:0:0:0:
320,192,18000,1,0,0:0:0:0:
192,192,18083,1,0,0:0:0:0:
320,192,18167,1,0,0:0:0:0:
64,192,18250,1,0,0:0:0:0:
192,192,18333,1,0,0:0:0:0:
320,192,18500,1,0,0:0:0:0:
192,192,18583,1,0,0:0:0:0:
320,192,18667,1,0,0:0:0:0:
64,192,18750,1,0,0:0:0:0:
192,192,18833,1,0,0:0:0:0:
320,192,18917,1,0,0:0:0:0:
448,192,19000,1,0,0:0:0:0:
64,192,19083,1,0,0:0:0:0:
192,192,19167,1,0,0:0:0:0:
192,192,19333,1,0,0:0:0:0:
320,192,19417,1,0,0:0:0:0:
448,192,19500,1,0,0:0:0:0:
64,192,19583,1,0,0:0:0:0:
192,192,19667,1,0,0:0:0:0:
192,192,19833,1,0,0:0:0:0:
320,192,19917,1,0,0:0:0:0:
448,192,20000,1,0,0:0:0:0:
64,192,20083,1,0,0:0:0:0:
192,192,20167,1,0,0:0:0:0:
448,192,20167,1,0,0:0:0:0:
320,192,20250,1,0,0:0:0:0:
192,192,20333,1,0,0:0:0:0:
64,192,20417,1,0,0:0:0:0:
448,192,20500,1,0,0:0:0:0:
320,192,20583,1,0,0:0:0:0:
192,192,20667,1,0,0:0:0:0:
320,192,20750,1,0,0:0:0:0:
192,192,20833,1,0,0:0:0:0:
64,192,20917,1,0,0:0:0:0:
448,192,21000,1,0,0:0:0:0:
320,192,21083,1,0,0:0:0:0:
448,192,21167,1,0,0:0:0:0:
320,192,21250,1,0,0:0:0:0:
192,192,21333,1,0,0:0:0:0:
64,192,21417,1,0,0:0:0:0:
64,192,21500,1,0,0:0:0:0:
192,192,21500,1,0,0:0:0:0:
320,192,21583,1,0,0:0:0:0:
448,192,21667,1,0,0:0:0:0:
192,192,21750,1,0,0:0:0:0:
320,192,21750,1,0,0:0:0:0:
448,192,21833,1,0,0:0:0:0:
320,192,21917,1,0,0:0:0:0:
64,192,22000,1,0,0:0:0:0:
192,192,22000,1,0,0:0:0:0:
320,192,22083,1,0,0:0:0:0:
192,192,22167,1,0,0:0:0:0:
64,192,22250,1,0,0:0:0:0:
192,192,22333,1,0,0:0:0:0:
320,192,22417,1,0,0:0:0:0:
192,192,22500,1,0,0:0:0:0:
448,192,22583,1,0,0:0:0:0:
320,192,22667,1,0,0:0:0:0:
192,192,22750,1,0,0:0:0:0:
64,192,22833,1,0,0:0:0:0:
320,192,22833,1,0,0:0:0:0:
448,192,22833,1,0,0:0:0:0:
192,192,22917,1,0,0:0:0:0:
320,192,23000,1,0,0:0:0:0:
448,192,23083,1,0,0:0:0:0:
320,192,23167,1,0,0:0:0:0:
64,192,23333,1,0,0:0:0:0:
192,192,23417,1,0,0:0:0:0:
320,192,23500,1,0,0:0:0:0:
448,192,23583,1,0,0:0:0:0:
320,192,23667,1,0,0:0:0:0:
192,192,23667,1,0,0:0:0:0:
64,192,23833,1,0,0:0:0:0:
192,192,23917,1,0,0:0:0:0:
320,192,24000,1,0,0:0:0:0:
192,192,24083,1,0,0:0:0:0:
448,192,24167,1,0,0:0:0:0:
64,192,24167,1,0,0:0:0:0:
320,192,24250,1,0,0:0:0:0:
192,192,24333,1,0,0:0:0:0:
64,192,24417,1,0,0:0:0:0:
320,192,24500,1,0,0:0:0:0:
448,192,24667,1,0,0:0:0:0:
320,192,24750,1,0,0:0:0:0:
192,192,24833,1,0,0:0:0:0:
64,192,24917,1,0,0:0:0:0:
192,192,25000,1,0,0:0:0:0:
320,192,25000,1,0,0:0:0:0:
448,192,25167,1,0,0:0:0:0:
320,192,25250,1,0,0:0:0:0:
192,192,25333,1,0,0:0:0:0:
64,192,25417,1,0,0:0:0:0:
192,192,25500,1,0,0:0:0:0:
320,192,25500,1,0,0:0:0:0:
448,192,25583,1,0,0:0:0:0:
192,192,25667,1,0,0:0:0:0:
64,192,25750,1,0,0:0:0:0:
320,192,25833,1,0,0:0:0:0:
320,192,26000,1,0,0:0:0:0:
448,192,26083,1,0,0:0:0:0:
192,192,26167,1,0,0:0:0:0:
64,192,26250,1,0,0:0:0:0:
320,192,26333,1,0,0:0:0:0:
192,192,26333,1,0,0:0:0:0:
320,192,26500,1,0,0:0:0:0:
448,192,26583,1,0,0:0:0:0:
192,192,26667,1,0,0:0:0:0:
64,192,26750,1,0,0:0:0:0:
320,192,26833,1,0,0:0:0:0:
192,192,26833,1,0,0:0:0:0:
448,192,26917,1,0,0:0:0:0:
192,192,27000,1,0,0:0:0:0:
64,192,27083,1,0,0:0:0:0:
320,192,27167,1,0,0:0:0:0:
320,192,27333,1,0,0:0:0:0:
448,192,27417,1,0,0:0:0:0:
192,192,27500,1,0,0:0:0:0:
64,192,27583,1,0,0:0:0:0:
320,192,27667,1,0,0:0:0:0:
192,192,27667,1,0,0:0:0:0:
448,192,27833,1,0,0:0:0:0:
320,192,27917,1,0,0:0:0:0:
192,192,28000,1,0,0:0:0:0:
64,192,28083,1,0,0:0:0:0:
192,192,28167,1,0,0:0:0:0:
320,192,28167,1,0,0:0:0:0:
448,192,28167,1,0,0:0:0:0:
64,192,28250,1,0,0:0:0:0:
192,192,28333,1,0,0:0:0:0:
320,192,28417,1,0,0:0:0:0:
192,192,28500,1,0,0:0:0:0:
192,192,28667,1,0,0:0:0:0:
64,192,28750,1,0,0:0:0:0:
192,192,28833,1,0,0:0:0:0:
320,192,28917,1,0,0:0:0:0:
192,192,29000,1,0,0:0:0:0:
64,192,29000,1,0,0:0:0:0:
192,192,29167,1,0,0:0:0:0:
320,192,29167,1,0,0:0:0:0:
64,192,29250,1,0,0:0:0:0:
192,192,29333,1,0,0:0:0:0:
320,192,29417,1,0,0:0:0:0:
448,192,29500,1,0,0:0:0:0:
64,192,29500,1,0,0:0:0:0:
320,192,29583,1,0,0:0:0:0:
192,192,29667,1,0,0:0:0:0:
320,192,29750,1,0,0:0:0:0:
448,192,29833,1,0,0:0:0:0:
64,192,30000,1,0,0:0:0:0:
320,192,30000,1,0,0:0:0:0:
448,192,30083,1,0,0:0:0:0:
320,192,30167,1,0,0:0:0:0:
192,192,30250,1,0,0:0:0:0:
320,192,30333,1,0,0:0:0:0:
448,192,30333,1,0,0:0:0:0:
320,192,30500,1,0,0:0:0:0:
192,192,30500,1,0,0:0:0:0:
448,192,30583,1,0,0:0:0:0:
320,192,30667,1,0,0:0:0:0:
192,192,30750,1,0,0:0:0:0:
64,192,30833,1,0,0:0:0:0:
192,192,30917,1,0,0:0:0:0:
320,192,31000,1,0,0:0:0:0:
448,192,31083,1,0,0:0:0:0:
64,192,31167,1,0,0:0:0:0:
192,192,31250,1,0,0:0:0:0:
320,192,31333,1,0,0:0:0:0:
192,192,31417,1,0,0:0:0:0:
320,192,31500,1,0,0:0:0:0:
448,192,31583,1,0,0:0:0:0:
64,192,31667,1,0,0:0:0:0:
192,192,31750,1,0,0:0:0:0:
64,192,31833,1,0,0:0:0:0:
192,192,31917,1,0,0:0:0:0:
320,192,32000,1,0,0:0:0:0:
448,192,32083,1,0,0:0:0:0:
448,192,32167,1,0,0:0:0:0:
320,192,32250,1,0,0:0:0:0:
192,192,32333,1,0,0:0:0:0:
64,192,32417,1,0,0:0:0:0:
448,192,32500,1,0,0:0:0:0:
320,192,32583,1,0,0:0:0:0:
192,192,32667,1,0,0:0:0:0:
320,192,32750,1,0,0:0:0:0:
192,192,32833,1,0,0:0:0:0:
64,192,32917,1,0,0:0:0:0:
192,192,33000,1,0,0:0:0:0:
64,192,33083,1,0,0:0:0:0:
320,192,33167,1,0,0:0:0:0:
192,192,33250,1,0,0:0:0:0:
64,192,33333,1,0,0:0:0:0:
192,192,33417,1,0,0:0:0:0:
320,192,33500,1,0,0:0:0:0:
448,192,33500,1,0,0:0:0:0:
64,192,33500,1,0,0:0:0:0:
192,192,33667,1,0,0:0:0:0:
320,192,33750,1,0,0:0:0:0:
64,192,33750,1,0,0:0:0:0:
192,192,33833,1,0,0:0:0:0:
64,192,34000,1,0,0:0:0:0:
320,192,34000,1,0,0:0:0:0:
448,192,34000,1,0,0:0:0:0:
192,192,34167,1,0,0:0:0:0:
320,192,34250,1,0,0:0:0:0:
64,192,34250,1,0,0:0:0:0:
192,192,34333,1,0,0:0:0:0:
64,192,34500,1,0,0:0:0:0:
320,192,34500,1,0,0:0:0:0:
448,192,34500,1,0,0:0:0:0:
192,192,34667,1,0,0:0:0:0:
64,192,34750,1,0,0:0:0:0:
320,192,34750,1,0,0:0:0:0:
192,192,34833,1,0,0:0:0:0:
64,192,35000,1,0,0:0:0:0:
320,192,35000,1,0,0:0:0:0:
448,192,35000,1,0,0:0:0:0:
192,192,35167,1,0,0:0:0:0:
320,192,35250,1,0,0:0:0:0:
64,192,35250,1,0,0:0:0:0:
192,192,35333,1,0,0:0:0:0:
64,192,35500,1,0,0:0:0:0:
192,192,35583,1,0,0:0:0:0:
320,192,35667,1,0,0:0:0:0:
192,192,35750,1,0,0:0:0:0:
320,192,35833,1,0,0:0:0:0:
192,192,35917,1,0,0:0:0:0:
64,192,36000,1,0,0:0:0:0:
448,192,36167,1,0,0:0:0:0:
192,192,36167,1,0,0:0:0:0:
64,192,36167,1,0,0:0:0:0:
320,192,36333,1,0,0:0:0:0:
192,192,36417,1,0,0:0:0:0:
448,192,36417,1,0,0:0:0:0:
320,192,36500,1,0,0:0:0:0:
448,192,36667,1,0,0:0:0:0:
192,192,36667,1,0,0:0:0:0:
64,192,36667,1,0,0:0:0:0:
320,192,36833,1,0,0:0:0:0:
448,192,36917,1,0,0:0:0:0:
192,192,36917,1,0,0:0:0:0:
320,192,37000,1,0,0:0:0:0:
448,192,37167,1,0,0:0:0:0:
320,192,37167,1,0,0:0:0:0:
192,192,37167,1,0,0:0:0:0:
64,192,37333,1,0,0:0:0:0:
192,192,37417,1,0,0:0:0:0:
448,192,37417,1,0,0:0:0:0:
64,192,37500,1,0,0:0:0:0:
192,192,37667,1,0,0:0:0:0:
320,192,37667,1,0,0:0:0:0:
448,192,37667,1,0,0:0:0:0:
64,192,37833,1,0,0:0:0:0:
192,192,37917,1,0,0:0:0:0:
448,192,37917,1,0,0:0:0:0:
64,192,38000,1,0,0:0:0:0:
448,192,38167,1,0,0:0:0:0:
320,192,38250,1,0,0:0:0:0:
192,192,38333,1,0,0:0:0:0:
320,192,38417,1,0,0:0:0:0:
192,192,38500,1,0,0:0:0:0:
320,192,38583,1,0,0:0:0:0:
448,192,38667,1,0,0:0:0:0:
320,192,38833,1,0,0:0:0:0:
448,192,38833,1,0,0:0:0:0:
64,192,38833,1,0,0:0:0:0:
192,192,38917,1,0,0:0:0:0:
64,192,39000,1,0,0:0:0:0:
320,192,39000,1,0,0:0:0:0:
192,192,39083,1,0,0:0:0:0:
320,192,39167,1,0,0:0:0:0:
448,192,39167,1,0,0:0:0:0:
64,192,39167,1,0,0:0:0:0:
64,192,39333,1,0,0:0:0:0:
192,192,39333,1,0,0:0:0:0:
448,192,39333,1,0,0:0:0:0:
320,192,39417,1,0,0:0:0:0:
192,192,39500,1,0,0:0:0:0:
448,192,39500,1,0,0:0:0:0:
320,192,39583,1,0,0:0:0:0:
448,192,39667,1,0,0:0:0:0:
192,192,39667,1,0,0:0:0:0:
64,192,39667,1,0,0:0:0:0:
192,192,39833,1,0,0:0:0:0:
320,192,39833,1,0,0:0:0:0:
448,192,39833,1,0,0:0:0:0:
64,192,39917,1,0,0:0:0:0:
192,192,40000,1,0,0:0:0:0:
448,192,40000,1,0,0:0:0:0:
64,192,40083,1,0,0:0:0:0:
192,192,40167,1,0,0:0:0:0:
320,192,40167,1,0,0:0:0:0:
448,192,40167,1,0,0:0:0:0:
192,192,40333,1,0,0:0:0:0:
320,192,40333,1,0,0:0:0:0:
448,192,40333,1,0,0:0:0:0:
64,192,40417,1,0,0:0:0:0:
192,192,40500,1,0,0:0:0:0:
448,192,40500,1,0,0:0:0:0:
64,192,40583,1,0,0:0:0:0:
192,192,40667,1,0,0:0:0:0:
320,192,40667,1,0,0:0:0:0:
448,192,40667,1,0,0:0:0:0:
320,192,40833,1,0,0:0:0:0:
448,192,40833,1,0,0:0:0:0:
192,192,40917,1,0,0:0:0:0:
64,192,40917,1,0,0:0:0:0:
320,192,41000,1,0,0:0:0:0:
448,192,41000,1,0,0:0:0:0:
192,192,41083,1,0,0:0:0:0:
64,192,41083,1,0,0:0:0:0:
320,192,41167,1,0,0:0:0:0:
448,192,41167,1,0,0:0:0:0:
192,192,41250,1,0,0:0:0:0:
64,192,41333,1,0,0:0:0:0:
64,192,41500,1,0,0:0:0:0:
192,192,41611,1,0,0:0:0:0:
320,192,41722,1,0,0:0:0:0:
448,192,41833,1,0,0:0:0:0:
192,192,41944,1,0,0:0:0:0:
320,192,42056,1,0,0:0:0:0:
64,192,42167,1,0,0:0:0:0:
192,192,42250,1,0,0:0:0:0:
320,192,42333,1,0,0:0:0:0:
192,192,42417,1,0,0:0:0:0:
320,192,42500,1,0,0:0:0:0:
448,192,42583,1,0,0:0:0:0:
64,192,42667,1,0,0:0:0:0:
192,192,42750,1,0,0:0:0:0:
320,192,42833,1,0,0:0:0:0:
192,192,42889,1,0,0:0:0:0:
320,192,42944,1,0,0:0:0:0:
192,192,43000,1,0,0:0:0:0:
320,192,43056,1,0,0:0:0:0:
192,192,43111,1,0,0:0:0:0:
320,192,43167,1,0,0:0:0:0:
192,192,43222,1,0,0:0:0:0:
320,192,43278,1,0,0:0:0:0:
192,192,43333,1,0,0:0:0:0:
320,192,43389,1,0,0:0:0:0:
192,192,43444,1,0,0:0:0:0:
320,192,43500,1,0,0:0:0:0:
192,192,43556,1,0,0:0:0:0:
192,192,43833,1,0,0:0:0:0:
64,192,43833,1,0,0:0:0:0:
64,192,44167,1,0,0:0:0:0:
320,192,44167,1,0,0:0:0:0:
448,192,44167,1,0,0:0:0:0:
192,192,44250,1,0,0:0:0:0:
320,192,44333,1,0,0:0:0:0:
192,192,44417,1,0,0:0:0:0:
448,192,44500,1,0,0:0:0:0:
64,192,44500,1,0,0:0:0:0:
320,192,44583,1,0,0:0:0:0:
192,192,44667,1,0,0:0:0:0:
320,192,44750,1,0,0:0:0:0:
64,192,44833,1,0,0:0:0:0:
192,192,44917,1,0,0:0:0:0:
320,192,45000,1,0,0:0:0:0:
448,192,45000,1,0,0:0:0:0:
192,192,45083,1,0,0:0:0:0:
64,192,45167,1,0,0:0:0:0:
320,192,45250,1,0,0:0:0:0:
448,192,45333,1,0,0:0:0:0:
320,192,45417,1,0,0:0:0:0:
64,192,45500,1,0,0:0:0:0:
192,192,45583,1,0,0:0:0:0:
448,192,45667,1,0,0:0:0:0:
320,192,45750,1,0,0:0:0:0:
64,192,45833,1,0,0:0:0:0:
192,192,45917,1,0,0:0:0:0:
448,192,46000,1,0,0:0:0:0:
192,192,46083,1,0,0:0:0:0:
320,192,46167,1,0,0:0:0:0:
64,192,46250,1,0,0:0:0:0:
192,192,46333,1,0,0:0:0:0:
320,192,46333,1,0,0:0:0:0:
448,192,46417,1,0,0:0:0:0:
64,192,46500,1,0,0:0:0:0:
320,192,46583,1,0,0:0:0:0:
192,192,46667,1,0,0:0:0:0:
64,192,46750,1,0,0:0:0:0:
64,192,46833,1,0,0:0:0:0:
192,192,46917,1,0,0:0:0:0:
320,192,47000,1,0,0:0:0:0:
448,192,47083,1,0,0:0:0:0:
320,192,47167,1,0,0:0:0:0:
192,192,47250,1,0,0:0:0:0:
320,192,47333,1,0,0:0:0:0:
448,192,47417,1,0,0:0:0:0:
64,192,47500,1,0,0:0:0:0:
192,192,47583,1,0,0:0:0:0:
320,192,47667,1,0,0:0:0:0:
448,192,47667,1,0,0:0:0:0:
192,192,47750,1,0,0:0:0:0:
448,192,47833,1,0,0:0:0:0:
320,192,47917,1,0,0:0:0:0:
448,192,48000,1,0,0:0:0:0:
320,192,48083,1,0,0:0:0:0:
64,192,48167,1,0,0:0:0:0:
192,192,48250,1,0,0:0:0:0:
448,192,48333,1,0,0:0:0:0:
320,192,48417,1,0,0:0:0:0:
64,192,48500,1,0,0:0:0:0:
192,192,48583,1,0,0:0:0:0:
448,192,48667,1,0,0:0:0:0:
192,192,48750,1,0,0:0:0:0:
320,192,48833,1,0,0:0:0:0:
64,192,48917,1,0,0:0:0:0:
448,192,49000,1,0,0:0:0:0:
192,192,49000,1,0,0:0:0:0:
320,192,49083,1,0,0:0:0:0:
64,192,49167,1,0,0:0:0:0:
192,192,49250,1,0,0:0:0:0:
320,192,49333,1,0,0:0:0:0:
192,192,49417,1,0,0:0:0:0:
64,192,49500,1,0,0:0:0:0:
192,192,49583,1,0,0:0:0:0:
320,192,49667,1,0,0:0:0:0:
192,192,49750,1,0,0:0:0:0:
320,192,49833,1,0,0:0:0:0:
448,192,49917,1,0,0:0:0:0:
64,192,50000,1,0,0:0:0:0:
192,192,50083,1,0,0:0:0:0:
448,192,50167,1,0,0:0:0:0:
320,192,50250,1,0,0:0:0:0:
192,192,50333,1,0,0:0:0:0:
64,192,50333,1,0,0:0:0:0:
320,192,50417,1,0,0:0:0:0:
192,192,50500,1,0,0:0:0:0:
64,192,50583,1,0,0:0:0:0:
192,192,50667,1,0,0:0:0:0:
64,192,50750,1,0,0:0:0:0:
448,192,50833,1,0,0:0:0:0:
320,192,50917,1,0,0:0:0:0:
64,192,51000,1,0,0:0:0:0:
192,192,51083,1,0,0:0:0:0:
448,192,51167,1,0,0:0:0:0:
320,192,51250,1,0,0:0:0:0:
64,192,51333,1,0,0:0:0:0:
192,192,51417,1,0,0:0:0:0:
320,192,51500,1,0,0:0:0:0:
192,192,51583,1,0,0:0:0:0:
448,192,51667,1,0,0:0:0:0:
320,192,51667,1,0,0:0:0:0:
64,192,51750,1,0,0:0:0:0:
448,192,51833,1,0,0:0:0:0:
64,192,51917,1,0,0:0:0:0:
192,192,52000,1,0,0:0:0:0:
320,192,52083,1,0,0:0:0:0:
192,192,52167,1,0,0:0:0:0:
448,192,52167,1,0,0:0:0:0:
320,192,52250,1,0,0:0:0:0:
192,192,52333,1,0,0:0:0:0:
320,192,52417,1,0,0:0:0:0:
192,192,52458,1,0,0:0:0:0:
64,192,52500,1,0,0:0:0:0:
320,192,52500,1,0,0:0:0:0:
192,192,52583,1,0,0:0:0:0:
64,192,52667,1,0,0:0:0:0:
448,192,52750,1,0,0:0:0:0:
320,192,52833,1,0,0:0:0:0:
192,192,52917,1,0,0:0:0:0:
320,192,53000,1,0,0:0:0:0:
448,192,53000,1,0,0:0:0:0:
192,192,53083,1,0,0:0:0:0:
448,192,53167,1,0,0:0:0:0:
320,192,53250,1,0,0:0:0:0:
192,192,53333,1,0,0:0:0:0:
320,192,53417,1,0,0:0:0:0:
192,192,53500,1,0,0:0:0:0:
64,192,53500,1,0,0:0:0:0:
320,192,53583,1,0,0:0:0:0:
448,192,53667,1,0,0:0:0:0:
64,192,53750,1,0,0:0:0:0:
320,192,53750,1,0,0:0:0:0:
192,192,53833,1,0,0:0:0:0:
320,192,53917,1,0,0:0:0:0:
448,192,54000,1,0,0:0:0:0:
64,192,54000,1,0,0:0:0:0:
192,192,54083,1,0,0:0:0:0:
320,192,54167,1,0,0:0:0:0:
448,192,54250,1,0,0:0:0:0:
320,192,54333,1,0,0:0:0:0:
192,192,54500,1,0,0:0:0:0:
64,192,54667,1,0,0:0:0:0:
448,192,54833,1,0,0:3:0:0:
320,192,54917,1,0,0:3:0:0:
192,192,55000,1,0,0:3:0:0:
320,192,55083,1,0,0:3:0:0:
64,192,55167,1,0,0:3:0:0:
448,192,55167,1,0,0:0:0:0:
192,192,55250,1,0,0:3:0:0:
320,192,55333,1,0,0:3:0:0:
192,192,55417,1,0,0:3:0:0:
448,192,55500,1,0,0:3:0:0:
320,192,55583,1,0,0:3:0:0:
192,192,55667,1,0,0:3:0:0:
448,192,55667,1,0,0:0:0:0:
64,192,55750,1,0,0:3:0:0:
320,192,55833,1,0,0:3:0:0:
192,192,55917,1,0,0:3:0:0:
64,192,56000,1,0,0:3:0:0:
192,192,56083,1,0,0:3:0:0:
448,192,56167,1,0,0:3:0:0:
320,192,56250,1,0,0:3:0:0:
64,192,56333,1,0,0:3:0:0:
192,192,56417,1,0,0:3:0:0:
448,192,56500,1,0,0:3:0:0:
320,192,56583,1,0,0:3:0:0:
64,192,56667,1,0,0:3:0:0:
320,192,56750,1,0,0:3:0:0:
192,192,56833,1,0,0:3:0:0:
448,192,56917,1,0,0:3:0:0:
320,192,57000,1,0,0:3:0:0:
192,192,57000,1,0,0:0:0:0:
64,192,57083,1,0,0:3:0:0:
448,192,57167,1,0,0:3:0:0:
192,192,57250,1,0,0:3:0:0:
320,192,57333,1,0,0:3:0:0:
448,192,57417,1,0,0:3:0:0:
448,192,57500,1,0,0:3:0:0:
320,192,57583,1,0,0:3:0:0:
192,192,57667,1,0,0:3:0:0:
64,192,57750,1,0,0:3:0:0:
192,192,57833,1,0,0:3:0:0:
448,192,57833,1,0,0:0:0:0:
320,192,57917,1,0,0:3:0:0:
192,192,58000,1,0,0:3:0:0:
64,192,58083,1,0,0:3:0:0:
448,192,58167,1,0,0:3:0:0:
320,192,58250,1,0,0:3:0:0:
192,192,58333,1,0,0:3:0:0:
64,192,58333,1,0,0:0:0:0:
320,192,58417,1,0,0:3:0:0:
64,192,58500,1,0,0:3:0:0:
192,192,58583,1,0,0:3:0:0:
64,192,58667,1,0,0:3:0:0:
192,192,58750,1,0,0:3:0:0:
448,192,58833,1,0,0:3:0:0:
64,192,58833,1,0,0:0:0:0:
320,192,58917,1,0,0:3:0:0:
64,192,59000,1,0,0:3:0:0:
448,192,59000,1,0,0:0:0:0:
192,192,59083,1,0,0:3:0:0:
448,192,59167,1,0,0:3:0:0:
320,192,59250,1,0,0:3:0:0:
64,192,59333,1,0,0:3:0:0:
448,192,59333,1,0,0:0:0:0:
320,192,59417,1,0,0:3:0:0:
192,192,59500,1,0,0:3:0:0:
64,192,59500,1,0,0:0:0:0:
448,192,59583,1,0,0:3:0:0:
64,192,59667,1,0,0:3:0:0:
192,192,59750,1,0,0:3:0:0:
448,192,59833,1,0,0:3:0:0:
320,192,59917,1,0,0:3:0:0:
192,192,60000,1,0,0:3:0:0:
320,192,60333,1,0,0:0:0:0:
192,192,60333,1,0,0:0:0:0:
64,192,60333,1,0,0:0:0:0:
448,192,60417,1,0,0:0:0:0:
64,192,60500,1,0,0:0:0:0:
192,192,60583,1,0,0:0:0:0:
320,192,60667,1,0,0:0:0:0:
192,192,60750,1,0,0:0:0:0:
448,192,60833,1,0,0:0:0:0:
192,192,60917,1,0,0:0:0:0:
448,192,61000,1,0,0:0:0:0:
320,192,61000,1,0,0:0:0:0:
192,192,61083,1,0,0:0:0:0:
64,192,61167,1,0,0:0:0:0:
192,192,61250,1,0,0:0:0:0:
448,192,61333,1,0,0:0:0:0:
320,192,61417,1,0,0:0:0:0:
64,192,61500,1,0,0:0:0:0:
448,192,61500,1,0,0:0:0:0:
192,192,61500,1,0,0:0:0:0:
320,192,61583,1,0,0:0:0:0:
448,192,61667,1,0,0:0:0:0:
192,192,61750,1,0,0:0:0:0:
320,192,61833,1,0,0:0:0:0:
64,192,61917,1,0,0:0:0:0:
448,192,62000,1,0,0:0:0:0:
320,192,62083,1,0,0:0:0:0:
64,192,62167,1,0,0:0:0:0:
192,192,62250,1,0,0:0:0:0:
320,192,62333,1,0,0:0:0:0:
448,192,62333,1,0,0:0:0:0:
192,192,62417,1,0,0:0:0:0:
64,192,62500,1,0,0:0:0:0:
192,192,62583,1,0,0:0:0:0:
320,192,62667,1,0,0:0:0:0:
448,192,62750,1,0,0:0:0:0:
64,192,62833,1,0,0:0:0:0:
320,192,62833,1,0,0:0:0:0:
192,192,62917,1,0,0:0:0:0:
448,192,63000,1,0,0:0:0:0:
320,192,63083,1,0,0:0:0:0:
64,192,63167,1,0,0:0:0:0:
192,192,63250,1,0,0:0:0:0:
320,192,63333,1,0,0:0:0:0:
448,192,63417,1,0,0:0:0:0:
192,192,63500,1,0,0:0:0:0:
320,192,63500,1,0,0:0:0:0:
64,192,63583,1,0,0:0:0:0:
320,192,63667,1,0,0:0:0:0:
448,192,63667,1,0,0:0:0:0:
192,192,63750,1,0,0:0:0:0:
448,192,63833,1,0,0:0:0:0:
320,192,63917,1,0,0:0:0:0:
192,192,64000,1,0,0:0:0:0:
64,192,64083,1,0,0:0:0:0:
320,192,64167,1,0,0:0:0:0:
448,192,64250,1,0,0:0:0:0:
192,192,64333,1,0,0:0:0:0:
320,192,64417,1,0,0:0:0:0:
64,192,64500,1,0,0:0:0:0:
192,192,64583,1,0,0:0:0:0:
320,192,64667,1,0,0:0:0:0:
448,192,64750,1,0,0:0:0:0:
192,192,64833,1,0,0:0:0:0:
64,192,64917,1,0,0:0:0:0:
320,192,65000,1,0,0:0:0:0:
192,192,65083,1,0,0:0:0:0:
448,192,65167,1,0,0:0:0:0:
320,192,65250,1,0,0:0:0:0:
192,192,65333,1,0,0:0:0:0:
320,192,65417,1,0,0:0:0:0:
64,192,65500,5,0,0:0:0:0:
448,192,65500,1,0,0:0:0:0:
448,192,65833,1,0,0:0:0:0:
192,192,66000,1,0,0:0:0:0:
448,192,66167,1,0,0:0:0:0:
448,192,66500,1,0,0:0:0:0:
192,192,66667,1,0,0:0:0:0:
320,192,66833,1,0,0:0:0:0:
320,192,67167,1,0,0:0:0:0:
192,192,67333,1,0,0:0:0:0:
320,192,67500,1,0,0:0:0:0:
448,192,67722,1,0,0:0:0:0:
320,192,67833,1,0,0:0:0:0:
320,192,68056,1,0,0:0:0:0:
64,192,68167,1,0,0:0:0:0:
64,192,68500,1,0,0:0:0:0:
320,192,68667,1,0,0:0:0:0:
64,192,68833,1,0,0:0:0:0:
64,192,69167,1,0,0:0:0:0:
320,192,69333,1,0,0:0:0:0:
192,192,69500,1,0,0:0:0:0:
448,192,69667,1,0,0:0:0:0:
192,192,69833,1,0,0:0:0:0:
64,192,70000,1,0,0:0:0:0:
448,192,70167,1,0,0:0:0:0:
320,192,70333,1,0,0:0:0:0:
320,192,70500,1,0,0:0:0:0:
192,192,70667,1,0,0:0:0:0:
64,192,70833,1,0,0:0:0:0:
64,192,71167,1,0,0:0:0:0:
320,192,71333,1,0,0:0:0:0:
64,192,71500,1,0,0:0:0:0:
64,192,71833,1,0,0:0:0:0:
320,192,72000,1,0,0:0:0:0:
448,192,72167,1,0,0:0:0:0:
448,192,72500,1,0,0:0:0:0:
64,192,72667,1,0,0:0:0:0:
192,192,72833,1,0,0:0:0:0:
448,192,73000,1,0,0:0:0:0:
320,192,73167,1,0,0:0:0:0:
192,192,73333,1,0,0:0:0:0:
64,192,73500,1,0,0:0:0:0:
64,192,73833,1,0,0:0:0:0:
448,192,74000,1,0,0:0:0:0:
64,192,74167,1,0,0:0:0:0:
64,192,74500,1,0,0:0:0:0:
448,192,74667,1,0,0:0:0:0:
192,192,74833,1,0,0:0:0:0:
320,192,75000,1,0,0:0:0:0:
192,192,75167,1,0,0:0:0:0:
64,192,75333,1,0,0:0:0:0:
448,192,75500,1,0,0:0:0:0:
320,192,75667,1,0,0:0:0:0:
192,192,75833,1,0,0:0:0:0:
64,192,76000,1,0,0:0:0:0:
192,192,76167,1,0,0:0:0:0:
320,192,76167,1,0,0:0:0:0:
64,192,76667,1,0,0:0:0:0:
192,192,76833,1,0,0:0:0:0:
320,192,77000,1,0,0:0:0:0:
320,192,77167,1,0,0:0:0:0:
448,192,77333,1,0,0:0:0:0:
64,192,77500,1,0,0:0:0:0:
192,192,77667,1,0,0:0:0:0:
320,192,77833,1,0,0:0:0:0:
192,192,78000,1,0,0:0:0:0:
448,192,78167,1,0,0:0:0:0:
320,192,78333,1,0,0:0:0:0:
192,192,78500,1,0,0:0:0:0:
64,192,78667,1,0,0:0:0:0:
64,192,78833,1,0,0:0:0:0:
448,192,79000,1,0,0:0:0:0:
448,192,79167,1,0,0:0:0:0:
320,192,79333,1,0,0:0:0:0:
320,192,79500,1,0,0:0:0:0:
192,192,79667,1,0,0:0:0:0:
192,192,79833,1,0,0:0:0:0:
64,192,80000,1,0,0:0:0:0:
64,192,80167,1,0,0:0:0:0:
192,192,80333,1,0,0:0:0:0:
320,192,80500,1,0,0:0:0:0:
448,192,80667,1,0,0:0:0:0:
192,192,80667,1,0,0:0:0:0:
64,192,81167,1,0,0:0:0:0:
320,192,81167,1,0,0:0:0:0:
64,192,81500,1,0,0:0:0:0:
192,192,81500,1,0,0:0:0:0:
320,192,81667,1,0,0:0:0:0:
64,192,81833,1,0,0:0:0:0:
192,192,82000,1,0,0:0:0:0:
320,192,82167,1,0,0:0:0:0:
448,192,82333,1,0,0:0:0:0:
64,192,82500,1,0,0:0:0:0:
192,192,82667,1,0,0:0:0:0:
448,192,82833,1,0,0:0:0:0:
64,192,83000,1,0,0:0:0:0:
320,192,83167,1,0,0:0:0:0:
448,192,83333,1,0,0:0:0:0:
320,192,83833,1,0,0:0:0:0:
448,192,84000,1,0,0:0:0:0:
448,192,84167,1,0,0:0:0:0:
192,192,84333,1,0,0:0:0:0:
192,192,84500,1,0,0:0:0:0:
320,192,84667,1,0,0:0:0:0:
320,192,84833,1,0,0:0:0:0:
64,192,85000,1,0,0:0:0:0:
64,192,85167,1,0,0:0:0:0:
320,192,85333,1,0,0:0:0:0:
320,192,85500,1,0,0:0:0:0:
192,192,85667,5,0,0:0:0:0:
192,192,85833,1,0,0:0:0:0:
64,192,86000,1,0,0:0:0:0:
448,192,86167,1,0,0:0:0:0:
320,192,86250,1,0,0:0:0:0:
192,192,86333,1,0,0:0:0:0:
64,192,86417,1,0,0:0:0:0:
64,192,86500,1,0,0:0:0:0:
320,192,86500,1,0,0:0:0:0:
192,192,86833,5,0,0:0:0:0:
320,192,86833,1,0,0:0:0:0:
64,192,86833,1,0,0:0:0:0:
448,192,86917,1,0,0:0:0:0:
320,192,87000,1,0,0:0:0:0:
192,192,87167,1,0,0:0:0:0:
64,192,87167,1,0,0:0:0:0:
320,192,87333,1,0,0:0:0:0:
192,192,87417,1,0,0:0:0:0:
320,192,87500,1,0,0:0:0:0:
192,192,87583,1,0,0:0:0:0:
64,192,87667,1,0,0:0:0:0:
320,192,87833,1,0,0:0:0:0:
448,192,87833,1,0,0:0:0:0:
192,192,88000,1,0,0:0:0:0:
320,192,88083,1,0,0:0:0:0:
448,192,88167,1,0,0:0:0:0:
192,192,88167,1,0,0:0:0:0:
64,192,88167,1,0,0:0:0:0:
448,192,88333,1,0,0:0:0:0:
320,192,88333,1,0,0:0:0:0:
64,192,88500,1,0,0:0:0:0:
320,192,88500,1,0,0:0:0:0:
320,192,88667,1,0,0:0:0:0:
192,192,88750,1,0,0:0:0:0:
320,192,88833,1,0,0:0:0:0:
192,192,88917,1,0,0:0:0:0:
64,192,89000,1,0,0:0:0:0:
448,192,89167,1,0,0:0:0:0:
320,192,89167,1,0,0:0:0:0:
320,192,89333,1,0,0:0:0:0:
448,192,89417,1,0,0:0:0:0:
192,192,89500,1,0,0:0:0:0:
320,192,89500,1,0,0:0:0:0:
64,192,89500,1,0,0:0:0:0:
448,192,89583,1,0,0:0:0:0:
320,192,89667,1,0,0:0:0:0:
192,192,89833,1,0,0:0:0:0:
64,192,89833,1,0,0:0:0:0:
320,192,90000,1,0,0:0:0:0:
192,192,90083,1,0,0:0:0:0:
320,192,90167,1,0,0:0:0:0:
192,192,90250,1,0,0:0:0:0:
64,192,90333,1,0,0:0:0:0:
320,192,90500,1,0,0:0:0:0:
448,192,90500,1,0,0:0:0:0:
192,192,90667,1,0,0:0:0:0:
320,192,90750,1,0,0:0:0:0:
448,192,90833,1,0,0:0:0:0:
192,192,90833,1,0,0:0:0:0:
64,192,90833,1,0,0:0:0:0:
448,192,91000,1,0,0:0:0:0:
320,192,91000,1,0,0:0:0:0:
64,192,91167,1,0,0:0:0:0:
320,192,91167,1,0,0:0:0:0:
320,192,91333,1,0,0:0:0:0:
192,192,91417,1,0,0:0:0:0:
320,192,91500,1,0,0:0:0:0:
192,192,91583,1,0,0:0:0:0:
64,192,91667,1,0,0:0:0:0:
448,192,91833,1,0,0:0:0:0:
320,192,91833,1,0,0:0:0:0:
448,192,92000,1,0,0:0:0:0:
192,192,92167,1,0,0:0:0:0:
320,192,92167,1,0,0:0:0:0:
448,192,92167,1,0,0:0:0:0:
320,192,92333,1,0,0:0:0:0:
448,192,92333,1,0,0:0:0:0:
64,192,92500,1,0,0:0:0:0:
192,192,92500,1,0,0:0:0:0:
320,192,92667,1,0,0:0:0:0:
448,192,92750,1,0,0:0:0:0:
320,192,92833,1,0,0:0:0:0:
192,192,92917,1,0,0:0:0:0:
320,192,93000,1,0,0:0:0:0:
192,192,93167,1,0,0:0:0:0:
448,192,93167,1,0,0:0:0:0:
192,192,93333,1,0,0:0:0:0:
320,192,93333,1,0,0:0:0:0:
64,192,93500,1,0,0:0:0:0:
320,192,93500,1,0,0:0:0:0:
448,192,93500,1,0,0:0:0:0:
192,192,93667,1,0,0:0:0:0:
448,192,93667,1,0,0:0:0:0:
64,192,93833,1,0,0:0:0:0:
192,192,93833,1,0,0:0:0:0:
192,192,94000,1,0,0:0:0:0:
320,192,94000,1,0,0:0:0:0:
64,192,94083,1,0,0:0:0:0:
192,192,94167,1,0,0:0:0:0:
320,192,94250,1,0,0:0:0:0:
192,192,94333,1,0,0:0:0:0:
64,192,94417,1,0,0:0:0:0:
192,192,94500,1,0,0:0:0:0:
320,192,94500,1,0,0:0:0:0:
448,192,94583,1,0,0:0:0:0:
320,192,94667,1,0,0:0:0:0:
64,192,94750,1,0,0:0:0:0:
192,192,94833,1,0,0:0:0:0:
448,192,94833,1,0,0:0:0:0:
320,192,94917,1,0,0:0:0:0:
448,192,95000,1,0,0:0:0:0:
448,192,95167,1,0,0:0:0:0:
320,192,95167,1,0,0:0:0:0:
192,192,95250,1,0,0:0:0:0:
64,192,95333,1,0,0:0:0:0:
448,192,95333,1,0,0:0:0:0:
320,192,95417,1,0,0:0:0:0:
192,192,95500,1,0,0:0:0:0:
64,192,95583,1,0,0:0:0:0:
192,192,95667,1,0,0:0:0:0:
320,192,95667,1,0,0:0:0:0:
192,192,95833,1,0,0:0:0:0:
64,192,95833,1,0,0:0:0:0:
320,192,95917,1,0,0:0:0:0:
448,192,96000,1,0,0:0:0:0:
320,192,96083,1,0,0:0:0:0:
448,192,96167,1,0,0:0:0:0:
64,192,96167,1,0,0:0:0:0:
192,192,96167,1,0,0:0:0:0:
320,192,96333,1,0,0:0:0:0:
448,192,96417,1,0,0:0:0:0:
192,192,96417,1,0,0:0:0:0:
64,192,96417,1,0,0:0:0:0:
448,192,96667,1,0,0:0:0:0:
192,192,96667,1,0,0:0:0:0:
64,192,96667,1,0,0:0:0:0:
192,192,96833,1,0,0:0:0:0:
320,192,96833,1,0,0:0:0:0:
320,192,97000,1,0,0:0:0:0:
448,192,97000,1,0,0:0:0:0:
192,192,97167,1,0,0:0:0:0:
448,192,97167,1,0,0:0:0:0:
320,192,97250,1,0,0:0:0:0:
192,192,97333,1,0,0:0:0:0:
64,192,97417,1,0,0:0:0:0:
448,192,97500,1,0,0:0:0:0:
320,192,97500,1,0,0:0:0:0:
192,192,97500,1,0,0:0:0:0:
64,192,97583,1,0,0:0:0:0:
192,192,97667,1,0,0:0:0:0:
448,192,97833,1,0,0:0:0:0:
320,192,97833,1,0,0:0:0:0:
192,192,98000,1,0,0:0:0:0:
320,192,98083,1,0,0:0:0:0:
192,192,98167,1,0,0:0:0:0:
320,192,98250,1,0,0:0:0:0:
448,192,98333,1,0,0:0:0:0:
192,192,98500,1,0,0:0:0:0:
64,192,98500,1,0,0:0:0:0:
320,192,98667,1,0,0:0:0:0:
192,192,98750,1,0,0:0:0:0:
64,192,98833,1,0,0:0:0:0:
320,192,98833,1,0,0:0:0:0:
448,192,98833,1,0,0:0:0:0:
64,192,99000,1,0,0:0:0:0:
192,192,99000,1,0,0:0:0:0:
448,192,99167,1,0,0:0:0:0:
192,192,99167,1,0,0:0:0:0:
192,192,99333,1,0,0:0:0:0:
320,192,99417,1,0,0:0:0:0:
192,192,99500,1,0,0:0:0:0:
320,192,99583,1,0,0:0:0:0:
448,192,99667,1,0,0:0:0:0:
64,192,99833,1,0,0:0:0:0:
192,192,99833,1,0,0:0:0:0:
192,192,100000,1,0,0:0:0:0:
64,192,100083,1,0,0:0:0:0:
320,192,100167,1,0,0:0:0:0:
192,192,100167,1,0,0:0:0:0:
448,192,100167,1,0,0:0:0:0:
64,192,100250,1,0,0:0:0:0:
192,192,100333,1,0,0:0:0:0:
320,192,100500,1,0,0:0:0:0:
448,192,100500,1,0,0:0:0:0:
192,192,100667,1,0,0:0:0:0:
320,192,100750,1,0,0:0:0:0:
192,192,100833,1,0,0:0:0:0:
320,192,100917,1,0,0:0:0:0:
448,192,101000,1,0,0:0:0:0:
192,192,101167,1,0,0:0:0:0:
64,192,101167,1,0,0:0:0:0:
320,192,101333,1,0,0:0:0:0:
192,192,101417,1,0,0:0:0:0:
64,192,101500,1,0,0:0:0:0:
320,192,101500,1,0,0:0:0:0:
448,192,101500,1,0,0:0:0:0:
64,192,101667,1,0,0:0:0:0:
192,192,101667,1,0,0:0:0:0:
192,192,101833,1,0,0:0:0:0:
448,192,101833,1,0,0:0:0:0:
192,192,102000,1,0,0:0:0:0:
320,192,102083,1,0,0:0:0:0:
192,192,102167,1,0,0:0:0:0:
320,192,102250,1,0,0:0:0:0:
192,192,102333,1,0,0:0:0:0:
64,192,102333,1,0,0:0:0:0:
192,192,102500,1,0,0:0:0:0:
320,192,102500,1,0,0:0:0:0:
448,192,102667,1,0,0:0:0:0:
192,192,102667,1,0,0:0:0:0:
320,192,102833,1,0,0:0:0:0:
64,192,102833,1,0,0:0:0:0:
192,192,103000,1,0,0:0:0:0:
64,192,103000,1,0,0:0:0:0:
320,192,103056,1,0,0:0:0:0:
448,192,103111,1,0,0:0:0:0:
192,192,103167,1,0,0:0:0:0:
320,192,103167,1,0,0:0:0:0:
320,192,103333,1,0,0:0:0:0:
192,192,103417,1,0,0:0:0:0:
320,192,103500,1,0,0:0:0:0:
448,192,103583,1,0,0:0:0:0:
320,192,103667,1,0,0:0:0:0:
192,192,103667,1,0,0:0:0:0:
64,192,103667,1,0,0:0:0:0:
192,192,103833,1,0,0:0:0:0:
320,192,103833,1,0,0:0:0:0:
320,192,104000,1,0,0:0:0:0:
64,192,104167,1,0,0:0:0:0:
320,192,104167,1,0,0:0:0:0:
320,192,104333,1,0,0:0:0:0:
448,192,104333,1,0,0:0:0:0:
320,192,104500,1,0,0:0:0:0:
64,192,104500,1,0,0:0:0:0:
320,192,104667,1,0,0:0:0:0:
448,192,104750,1,0,0:0:0:0:
192,192,104833,1,0,0:0:0:0:
64,192,104833,1,0,0:0:0:0:
320,192,104944,1,0,0:0:0:0:
192,192,104944,1,0,0:0:0:0:
448,192,105056,1,0,0:0:0:0:
320,192,105056,1,0,0:0:0:0:
192,192,105167,1,0,0:0:0:0:
320,192,105167,1,0,0:0:0:0:
320,192,105278,1,0,0:0:0:0:
448,192,105278,1,0,0:0:0:0:
64,192,105389,1,0,0:0:0:0:
192,192,105389,1,0,0:0:0:0:
64,192,105500,1,0,0:0:0:0:
320,192,105500,1,0,0:0:0:0:
448,192,105500,1,0,0:0:0:0:
64,192,105667,1,0,0:0:0:0:
192,192,105667,1,0,0:0:0:0:
192,192,105833,1,0,0:0:0:0:
320,192,105833,1,0,0:0:0:0:
448,192,105833,1,0,0:0:0:0:
192,192,106000,1,0,0:0:0:0:
64,192,106083,1,0,0:0:0:0:
192,192,106167,1,0,0:0:0:0:
320,192,106250,1,0,0:0:0:0:
192,192,106333,1,0,0:0:0:0:
64,192,106333,1,0,0:0:0:0:
448,192,106333,1,0,0:0:0:0:
192,192,106500,1,0,0:0:0:0:
448,192,106500,1,0,0:0:0:0:
64,192,106583,1,0,0:0:0:0:
192,192,106667,1,0,0:0:0:0:
320,192,106750,1,0,0:0:0:0:
64,192,106833,1,0,0:0:0:0:
192,192,106833,1,0,0:0:0:0:
448,192,106833,1,0,0:0:0:0:
320,192,107000,1,0,0:0:0:0:
448,192,107000,1,0,0:0:0:0:
64,192,107167,1,0,0:0:0:0:
320,192,107167,1,0,0:0:0:0:
192,192,107333,1,0,0:0:0:0:
64,192,107333,1,0,0:0:0:0:
320,192,107417,1,0,0:0:0:0:
192,192,107500,1,0,0:0:0:0:
64,192,107583,1,0,0:0:0:0:
192,192,107667,1,0,0:0:0:0:
320,192,107667,1,0,0:0:0:0:
448,192,107750,1,0,0:0:0:0:
320,192,107833,1,0,0:0:0:0:
192,192,107917,1,0,0:0:0:0:
320,192,108000,1,0,0:0:0:0:
448,192,108083,1,0,0:0:0:0:
320,192,108167,1,0,0:0:0:0:
192,192,108167,1,0,0:0:0:0:
64,192,108167,1,0,0:0:0:0:
320,192,108333,1,0,0:0:0:0:
448,192,108417,1,0,0:0:0:0:
320,192,108500,1,0,0:0:0:0:
64,192,108500,1,0,0:0:0:0:
192,192,108500,1,0,0:0:0:0:
320,192,108667,1,0,0:0:0:0:
448,192,108750,1,0,0:0:0:0:
320,192,108833,1,0,0:0:0:0:
192,192,108833,1,0,0:0:0:0:
64,192,108833,1,0,0:0:0:0:
320,192,109000,1,0,0:0:0:0:
448,192,109083,1,0,0:0:0:0:
320,192,109167,1,0,0:0:0:0:
192,192,109167,1,0,0:0:0:0:
64,192,109167,1,0,0:0:0:0:
320,192,109333,1,0,0:0:0:0:
448,192,109417,1,0,0:0:0:0:
320,192,109500,1,0,0:0:0:0:
192,192,109500,1,0,0:0:0:0:
64,192,109500,1,0,0:0:0:0:
320,192,109667,1,0,0:0:0:0:
448,192,109750,1,0,0:0:0:0:
320,192,109833,1,0,0:0:0:0:
192,192,109833,1,0,0:0:0:0:
64,192,109833,1,0,0:0:0:0:
320,192,110000,1,0,0:0:0:0:
448,192,110083,1,0,0:0:0:0:
320,192,110167,1,0,0:0:0:0:
192,192,110167,1,0,0:0:0:0:
64,192,110167,1,0,0:0:0:0:
320,192,110333,1,0,0:0:0:0:
448,192,110417,1,0,0:0:0:0:
320,192,110500,1,0,0:0:0:0:
192,192,110500,1,0,0:0:0:0:
64,192,110500,1,0,0:0:0:0:
448,192,110583,1,0,0:0:0:0:
320,192,110667,1,0,0:0:0:0:
448,192,110750,1,0,0:0:0:0:
320,192,110833,1,0,0:0:0:0:
192,192,110833,1,0,0:0:0:0:
64,192,110833,1,0,0:0:0:0:
320,192,111000,1,0,0:0:0:0:
448,192,111083,1,0,0:0:0:0:
320,192,111167,1,0,0:0:0:0:
192,192,111167,1,0,0:0:0:0:
64,192,111167,1,0,0:0:0:0:
192,192,111333,1,0,0:0:0:0:
448,192,111417,1,0,0:0:0:0:
320,192,111500,1,0,0:0:0:0:
192,192,111500,1,0,0:0:0:0:
64,192,111500,1,0,0:0:0:0:
320,192,111667,1,0,0:0:0:0:
448,192,111750,1,0,0:0:0:0:
320,192,111833,1,0,0:0:0:0:
192,192,111833,1,0,0:0:0:0:
64,192,111833,1,0,0:0:0:0:
192,192,112000,1,0,0:0:0:0:
448,192,112083,1,0,0:0:0:0:
320,192,112167,1,0,0:0:0:0:
192,192,112167,1,0,0:0:0:0:
64,192,112167,1,0,0:0:0:0:
320,192,112333,1,0,0:0:0:0:
448,192,112417,1,0,0:0:0:0:
320,192,112500,1,0,0:0:0:0:
192,192,112500,1,0,0:0:0:0:
64,192,112500,1,0,0:0:0:0:
192,192,112667,1,0,0:0:0:0:
448,192,112750,1,0,0:0:0:0:
320,192,112833,1,0,0:0:0:0:
192,192,112833,1,0,0:0:0:0:
64,192,112833,1,0,0:0:0:0:
448,192,113000,1,0,0:0:0:0:
320,192,113000,1,0,0:0:0:0:
192,192,113000,1,0,0:0:0:0:
64,192,113167,1,0,0:0:0:0:
192,192,113167,1,0,0:0:0:0:
448,192,113167,1,0,0:0:0:0:
320,192,113333,1,0,0:0:0:0:
64,192,113333,1,0,0:0:0:0:
64,192,113500,1,0,0:0:0:0:
320,192,113500,1,0,0:0:0:0:
448,192,113500,1,0,0:0:0:0:
192,192,113583,1,0,0:0:0:0:
320,192,113667,1,0,0:0:0:0:
448,192,113750,1,0,0:0:0:0:
320,192,113833,1,0,0:0:0:0:
64,192,114000,1,0,0:0:0:0:
192,192,114083,1,0,0:0:0:0:
320,192,114167,1,0,0:0:0:0:
448,192,114250,1,0,0:0:0:0:
320,192,114333,1,0,0:0:0:0:
64,192,114500,1,0,0:0:0:0:
192,192,114583,1,0,0:0:0:0:
320,192,114667,1,0,0:0:0:0:
448,192,114750,1,0,0:0:0:0:
64,192,114833,1,0,0:0:0:0:
192,192,114917,1,0,0:0:0:0:
320,192,115000,1,0,0:0:0:0:
448,192,115083,1,0,0:0:0:0:
320,192,115167,1,0,0:0:0:0:
64,192,115333,1,0,0:0:0:0:
192,192,115417,1,0,0:0:0:0:
320,192,115500,1,0,0:0:0:0:
448,192,115583,1,0,0:0:0:0:
320,192,115667,1,0,0:0:0:0:
64,192,115833,1,0,0:0:0:0:
192,192,115917,1,0,0:0:0:0:
320,192,116000,1,0,0:0:0:0:
448,192,116083,1,0,0:0:0:0:
320,192,116167,1,0,0:0:0:0:
64,192,116167,1,0,0:0:0:0:
192,192,116333,1,0,0:0:0:0:
448,192,116333,1,0,0:0:0:0:
64,192,116417,1,0,0:0:0:0:
320,192,116417,1,0,0:0:0:0:
192,192,116500,1,0,0:0:0:0:
448,192,116500,1,0,0:0:0:0:
192,192,116667,1,0,0:0:0:0:
448,192,116667,1,0,0:0:0:0:
64,192,116833,1,0,0:0:0:0:
320,192,116833,1,0,0:0:0:0:
192,192,116917,1,0,0:0:0:0:
448,192,116917,1,0,0:0:0:0:
320,192,117000,1,0,0:0:0:0:
64,192,117000,1,0,0:0:0:0:
64,192,117167,1,0,0:0:0:0:
320,192,117167,1,0,0:0:0:0:
192,192,117333,1,0,0:0:0:0:
448,192,117333,1,0,0:0:0:0:
320,192,117417,1,0,0:0:0:0:
64,192,117417,1,0,0:0:0:0:
192,192,117500,1,0,0:0:0:0:
448,192,117500,1,0,0:0:0:0:
192,192,117667,1,0,0:0:0:0:
448,192,117667,1,0,0:0:0:0:
64,192,117833,1,0,0:0:0:0:
320,192,117833,1,0,0:0:0:0:
192,192,117917,1,0,0:0:0:0:
448,192,117917,1,0,0:0:0:0:
320,192,118000,1,0,0:0:0:0:
64,192,118000,1,0,0:0:0:0:
192,192,118167,1,0,0:0:0:0:
320,192,118167,1,0,0:0:0:0:
448,192,118167,1,0,0:0:0:0:
64,192,118417,1,0,0:0:0:0:
192,192,118417,1,0,0:0:0:0:
320,192,118417,1,0,0:0:0:0:
64,192,118667,1,0,0:0:0:0:
192,192,118667,1,0,0:0:0:0:
320,192,118667,1,0,0:0:0:0:
448,192,118667,1,0,0:0:0:0:
