osu file format v14

[General]
AudioFilename: audio.mp3
AudioLeadIn: 0
PreviewTime: 82907
Countdown: 1
SampleSet: Normal
StackLeniency: 0.7
Mode: 1
LetterboxInBreaks: 0
WidescreenStoryboard: 0

[Editor]
DistanceSpacing: 1
BeatDivisor: 8
GridSize: 8
TimelineZoom: 2.999999

[Metadata]
Title:Pandemik
TitleUnicode:Pandemik
Artist:D.F.K.Soundsystem
ArtistUnicode:D.F.K.Soundsystem
Creator:-[ ix Ishida xi ]-
Version:-[ ix Despair xi ]-
Source:Dynamix
Tags:
BeatmapID:1679839
BeatmapSetID:800135

[Difficulty]
HPDrainRate:7.7
CircleSize:5
OverallDifficulty:5
ApproachRate:5
SliderMultiplier:2.8
SliderTickRate:1

[Events]
//Background and Video events
0,0,"PandemikDynamix.png",0,0
//Break Periods
//Storyboard Layer 0 (Background)
//Storyboard Layer 1 (Fail)
//Storyboard Layer 2 (Pass)
//Storyboard Layer 3 (Foreground)
//Storyboard Layer 4 (Overlay)
//Storyboard Sound Samples

[TimingPoints]
1765,142.857142857143,4,1,0,70,1,8
1765,-83.3333333333333,4,1,0,70,0,0
1800,-400,4,1,0,70,0,0
2336,143.198090692124,4,1,0,70,1,8
2622,-83.3333333333333,4,1,0,70,0,0
2657,-400,4,1,0,70,0,0
2907,143.198090692124,4,1,0,70,1,8
2907,-400,4,1,0,70,0,8
3479,143.198090692124,4,1,0,70,1,8
3479,-83.3333333333333,4,1,0,70,0,0
3514,-400,4,1,0,70,0,0
4050,143.198090692124,4,1,0,70,1,8
4050,-400,4,1,0,70,0,8
4336,-83.3333333333333,4,1,0,70,0,0
4371,-400,4,1,0,70,0,0
4622,143.198090692124,4,1,0,70,1,8
4764,-400,4,1,0,70,0,8
5193,143.198090692124,4,1,0,70,1,8
5193,-83.3333333333333,4,1,0,70,0,0
5228,-400,4,1,0,70,0,0
5765,143.198090692124,4,1,0,70,1,8
5765,-400,4,1,0,70,0,8
6336,143.198090692124,4,1,0,70,1,8
6336,-25,4,1,0,70,0,0
6372,-400,4,1,0,70,0,0
6765,-25,4,1,0,70,0,0
6801,-400,4,1,0,70,0,0
6907,143.198090692124,4,1,0,70,1,8
6907,-400,4,1,0,70,0,8
7193,-25,4,1,0,70,0,0
7229,-400,4,1,0,70,0,0
7479,143.198090692124,4,1,0,70,1,8
7479,-400,4,1,0,70,0,8
8050,143.198090692124,4,1,0,70,1,8
8050,-400,4,1,0,70,0,8
8622,143.198090692124,4,1,0,70,1,8
8622,-25,4,1,0,70,0,0
8658,-400,4,1,0,70,0,0
9050,-25,4,1,0,70,0,0
9086,-400,4,1,0,70,0,0
9193,143.198090692124,4,1,0,70,1,8
9193,-400,4,1,0,70,0,8
9479,-25,4,1,0,70,0,0
9515,-400,4,1,0,70,0,0
9765,143.198090692124,4,1,0,70,1,8
9765,-400,4,1,0,70,0,8
10336,143.198090692124,4,1,0,70,1,8
10336,-400,4,1,0,70,0,8
10907,143.198090692124,4,1,0,70,1,8
10907,-400,4,1,0,70,0,8
11193,-71.4285714285714,4,1,0,70,0,0
11229,-400,4,1,0,70,0,0
11478,-400,4,1,0,70,0,8
11479,143.198090692124,4,1,0,70,1,8
11622,-400,4,1,0,70,0,8
12050,143.198090692124,4,1,0,70,1,8
12050,-71.4285714285714,4,1,0,70,0,0
12086,-400,4,1,0,70,0,0
12622,143.198090692124,4,1,0,70,1,8
12907,-71.4285714285714,4,1,0,70,0,0
12943,-400,4,1,0,70,0,0
13193,143.198090692124,4,1,0,70,1,8
13193,-400,4,1,0,70,0,8
13765,143.198090692124,4,1,0,70,1,8
13765,-71.4285714285714,4,1,0,70,0,0
13801,-400,4,1,0,70,0,0
14336,143.198090692124,4,1,0,70,1,8
14336,-400,4,1,0,70,0,8
14907,143.198090692124,4,1,0,70,1,8
14907,-400,4,1,0,70,0,8
15479,143.198090692124,4,1,0,70,1,8
15479,-25,4,1,0,70,0,0
15515,-400,4,1,0,70,0,0
15907,-25,4,1,0,70,0,0
15943,-400,4,1,0,70,0,0
16050,143.198090692124,4,1,0,70,1,8
16050,-400,4,1,0,70,0,8
16336,-25,4,1,0,70,0,0
16372,-400,4,1,0,70,0,0
16622,143.198090692124,4,1,0,70,1,8
16622,-400,4,1,0,70,0,8
17193,143.198090692124,4,1,0,70,1,8
17193,-400,4,1,0,70,0,8
17765,143.198090692124,4,1,0,70,1,8
17765,-25,4,1,0,70,0,0
17801,-400,4,1,0,70,0,0
18193,-25,4,1,0,70,0,0
18229,-400,4,1,0,70,0,0
18336,143.198090692124,4,1,0,70,1,8
18336,-400,4,1,0,70,0,8
18622,-25,4,1,0,70,0,0
18658,-400,4,1,0,70,0,0
18907,143.198090692124,4,1,0,70,1,8
18907,-400,4,1,0,70,0,8
19479,143.198090692124,4,1,0,70,1,8
19479,-400,4,1,0,70,0,8
20050,285.714285714286,4,1,0,70,1,0
20050,-50,4,1,0,70,0,0
20085,-200,4,1,0,70,0,0
28050,-121.951219512195,4,1,0,70,0,0
28121,-125,4,1,0,70,0,0
28192,-128.205128205128,4,1,0,70,0,0
28264,-131.578947368421,4,1,0,70,0,0
28335,-135.135135135135,4,1,0,70,0,0
28407,-138.888888888889,4,1,0,70,0,0
28478,-142.857142857143,4,1,0,70,0,0
28550,-147.058823529412,4,1,0,70,0,0
28621,-151.515151515152,4,1,0,70,0,0
28692,-156.25,4,1,0,70,0,0
28764,-161.290322580645,4,1,0,70,0,0
28835,-166.666666666667,4,1,0,70,0,0
28907,-172.413793103448,4,1,0,70,0,0
28978,-178.571428571429,4,1,0,70,0,0
29050,-185.185185185185,4,1,0,70,0,0
29121,-192.307692307692,4,1,0,70,0,0
29192,-200,4,1,0,70,0,0
37175,-121.951219512195,4,1,0,70,0,0
37246,-125,4,1,0,70,0,0
37317,-128.205128205128,4,1,0,70,0,0
37389,-131.578947368421,4,1,0,70,0,0
37460,-135.135135135135,4,1,0,70,0,0
37532,-138.888888888889,4,1,0,70,0,0
37603,-142.857142857143,4,1,0,70,0,0
37675,-147.058823529412,4,1,0,70,0,0
37746,-151.515151515152,4,1,0,70,0,0
37817,-156.25,4,1,0,70,0,0
37889,-161.290322580645,4,1,0,70,0,0
37960,-166.666666666667,4,1,0,70,0,0
38032,-172.413793103448,4,1,0,70,0,0
38103,-178.571428571429,4,1,0,70,0,0
38175,-185.185185185185,4,1,0,70,0,0
38246,-192.307692307692,4,1,0,70,0,0
38317,-200,4,1,0,70,0,0
38478,-50,4,1,0,70,0,0
38514,-200,4,1,0,70,0,0
38764,-50,4,1,0,70,0,0
38800,-200,4,1,0,70,0,0
39050,-50,4,1,0,70,0,0
39086,-200,4,1,0,70,0,0
39335,-50,4,1,0,70,0,0
39371,-200,4,1,0,70,0,0
39621,-50,4,1,0,70,0,0
39657,-200,4,1,0,70,0,0
39907,-50,4,1,0,70,0,0
39943,-25,4,1,0,70,0,0
40050,285.714285714286,4,1,0,70,1,8
40050,-25,4,1,0,70,0,0
40478,-200,4,1,0,70,0,0
40746,-50,4,1,0,70,0,0
40782,-200,4,1,0,70,0,0
41032,-50,4,1,0,70,0,0
41068,-200,4,1,0,70,0,0
41318,-50,4,1,0,70,0,0
41354,-200,4,1,0,70,0,0
41603,-50,4,1,0,70,0,0
41760,285.714285714286,4,1,0,70,1,8
41764,-50,4,1,0,70,0,0
41889,-50,4,1,0,70,0,0
41925,-200,4,1,0,70,0,0
42175,-50,4,1,0,70,0,0
42264,-25,4,1,0,70,0,0
42835,-200,4,1,0,70,0,0
43032,-50,4,1,0,70,0,0
43068,-200,4,1,0,70,0,0
43318,-50,4,1,0,70,0,0
43354,-200,4,1,0,70,0,0
43604,-50,4,1,0,70,0,0
43640,-200,4,1,0,70,0,0
43889,-50,4,1,0,70,0,0
43925,-200,4,1,0,70,0,0
44175,-50,4,1,0,70,0,0
44211,-200,4,1,0,70,0,0
44461,-50,4,1,0,70,0,0
44550,-25,4,1,0,70,0,0
45050,-200,4,1,0,70,0,0
45317,-50,4,1,0,70,0,0
45353,-200,4,1,0,70,0,0
45603,-50,4,1,0,70,0,0
45639,-200,4,1,0,70,0,0
45889,-50,4,1,0,70,0,0
45925,-200,4,1,0,70,0,0
46174,-50,4,1,0,70,0,0
46325,285.714285714286,4,1,0,70,1,8
46335,-50,4,1,0,70,0,0
46460,-50,4,1,0,70,0,0
46496,-200,4,1,0,70,0,0
46746,-50,4,1,0,70,0,0
46835,-25,4,1,0,70,0,0
47469,142.857142857143,4,1,0,70,1,8
47469,-83.3333333333333,4,1,0,70,0,0
47478,142.857142857143,4,1,0,70,1,8
47478,-25,4,1,0,70,0,0
47495,14.2857142857143,4,1,0,70,1,0
47495,-25,4,1,0,70,0,0
47504,142.857142857143,4,1,0,70,1,0
47504,-400,4,1,0,70,0,0
48040,143.198090692124,4,1,0,70,1,8
48326,-83.3333333333333,4,1,0,70,0,0
48361,-400,4,1,0,70,0,0
48611,143.198090692124,4,1,0,70,1,8
48611,-400,4,1,0,70,0,8
49183,143.198090692124,4,1,0,70,1,8
49183,-83.3333333333333,4,1,0,70,0,0
49218,-400,4,1,0,70,0,0
49754,143.198090692124,4,1,0,70,1,8
49754,-400,4,1,0,70,0,8
50040,-83.3333333333333,4,1,0,70,0,0
50075,-400,4,1,0,70,0,0
50326,143.198090692124,4,1,0,70,1,8
50468,-400,4,1,0,70,0,8
50897,143.198090692124,4,1,0,70,1,8
50897,-83.3333333333333,4,1,0,70,0,0
50932,-400,4,1,0,70,0,0
51469,143.198090692124,4,1,0,70,1,8
51469,-400,4,1,0,70,0,8
52040,143.198090692124,4,1,0,70,1,8
52040,-25,4,1,0,70,0,0
52076,-400,4,1,0,70,0,0
52469,-25,4,1,0,70,0,0
52505,-400,4,1,0,70,0,0
52611,143.198090692124,4,1,0,70,1,8
52611,-400,4,1,0,70,0,8
52897,-25,4,1,0,70,0,0
52933,-400,4,1,0,70,0,0
53183,143.198090692124,4,1,0,70,1,8
53183,-400,4,1,0,70,0,8
53754,143.198090692124,4,1,0,70,1,8
53754,-400,4,1,0,70,0,8
54326,143.198090692124,4,1,0,70,1,8
54326,-25,4,1,0,70,0,0
54362,-400,4,1,0,70,0,0
54754,-25,4,1,0,70,0,0
54790,-400,4,1,0,70,0,0
54897,143.198090692124,4,1,0,70,1,8
54897,-400,4,1,0,70,0,8
55183,-25,4,1,0,70,0,0
55219,-400,4,1,0,70,0,0
55469,143.198090692124,4,1,0,70,1,8
55469,-400,4,1,0,70,0,8
56040,143.198090692124,4,1,0,70,1,8
56040,-400,4,1,0,70,0,8
56611,143.198090692124,4,1,0,70,1,8
56611,-400,4,1,0,70,0,8
56897,-71.4285714285714,4,1,0,70,0,0
56933,-400,4,1,0,70,0,0
57182,-400,4,1,0,70,0,8
57183,143.198090692124,4,1,0,70,1,8
57326,-400,4,1,0,70,0,8
57754,143.198090692124,4,1,0,70,1,8
57754,-71.4285714285714,4,1,0,70,0,0
57790,-400,4,1,0,70,0,0
58326,143.198090692124,4,1,0,70,1,8
58611,-71.4285714285714,4,1,0,70,0,0
58647,-400,4,1,0,70,0,0
58897,143.198090692124,4,1,0,70,1,8
58897,-400,4,1,0,70,0,8
59469,143.198090692124,4,1,0,70,1,8
59469,-71.4285714285714,4,1,0,70,0,0
59505,-400,4,1,0,70,0,0
60040,143.198090692124,4,1,0,70,1,8
60040,-400,4,1,0,70,0,8
60611,143.198090692124,4,1,0,70,1,8
60611,-400,4,1,0,70,0,8
61183,143.198090692124,4,1,0,70,1,8
61183,-25,4,1,0,70,0,0
61219,-400,4,1,0,70,0,0
61611,-25,4,1,0,70,0,0
61647,-400,4,1,0,70,0,0
61754,143.198090692124,4,1,0,70,1,8
61754,-400,4,1,0,70,0,8
62040,-25,4,1,0,70,0,0
62076,-400,4,1,0,70,0,0
62326,143.198090692124,4,1,0,70,1,8
62326,-400,4,1,0,70,0,8
62897,143.198090692124,4,1,0,70,1,8
62897,-400,4,1,0,70,0,8
63469,143.198090692124,4,1,0,70,1,8
63469,-25,4,1,0,70,0,0
63505,-400,4,1,0,70,0,0
63897,-25,4,1,0,70,0,0
63933,-400,4,1,0,70,0,0
64040,143.198090692124,4,1,0,70,1,8
64040,-400,4,1,0,70,0,8
64326,-25,4,1,0,70,0,0
64362,-400,4,1,0,70,0,0
64611,143.198090692124,4,1,0,70,1,8
64611,-400,4,1,0,70,0,8
65183,143.198090692124,4,1,0,70,1,8
65183,-400,4,1,0,70,0,8
65755,143.198090692124,4,1,0,70,1,8
65765,285.714285714286,4,1,0,70,1,0
65765,-200,4,1,0,70,0,0
65907,-250,4,1,0,70,0,0
70336,287.081339712919,4,1,0,70,1,8
70336,-25,4,1,0,70,0,8
70372,-250,4,1,0,70,0,0
71479,287.081339712919,4,1,0,70,1,8
71479,-25,4,1,0,70,0,8
71515,-250,4,1,0,70,0,0
72622,287.081339712919,4,1,0,70,1,8
72622,-25,4,1,0,70,0,8
72658,-250,4,1,0,70,0,0
73765,287.081339712919,4,1,0,70,1,8
73765,-25,4,1,0,70,0,8
73801,-250,4,1,0,70,0,0
74907,287.081339712919,4,1,0,70,1,8
74907,-25,4,1,0,70,0,8
74943,-250,4,1,0,70,0,0
76050,287.081339712919,4,1,0,70,1,8
76050,-25,4,1,0,70,0,8
76086,-250,4,1,0,70,0,0
77193,287.081339712919,4,1,0,70,1,8
77193,-25,4,1,0,70,0,8
77229,-250,4,1,0,70,0,0
78336,287.081339712919,4,1,0,70,1,8
78336,-25,4,1,0,70,0,8
78372,-250,4,1,0,70,0,0
79479,287.081339712919,4,1,0,70,1,8
79479,-25,4,1,0,70,0,8
79515,-250,4,1,0,70,0,0
80050,287.081339712919,4,1,0,70,1,8
80050,-25,4,1,0,70,0,8
80086,-250,4,1,0,70,0,0
80622,287.081339712919,4,1,0,70,1,8
80622,-25,4,1,0,70,0,8
80658,-250,4,1,0,70,0,0
81193,287.081339712919,4,1,0,70,1,8
81193,-25,4,1,0,70,0,8
81229,-250,4,1,0,70,0,0
81765,287.081339712919,4,1,0,70,1,8
81765,-25,4,1,0,70,0,8
81801,-250,4,1,0,70,0,0
82907,285.714285714286,4,1,0,70,1,0
82907,-121.951219512195,4,1,0,70,0,0
82978,-125,4,1,0,70,0,0
83049,-128.205128205128,4,1,0,70,0,0
83121,-131.578947368421,4,1,0,70,0,0
83192,-135.135135135135,4,1,0,70,0,0
83264,-138.888888888889,4,1,0,70,0,0
83335,-142.857142857143,4,1,0,70,0,0
83407,-147.058823529412,4,1,0,70,0,0
83478,-151.515151515152,4,1,0,70,0,0
83549,-156.25,4,1,0,70,0,0
83621,-161.290322580645,4,1,0,70,0,0
83692,-166.666666666667,4,1,0,70,0,0
83764,-172.413793103448,4,1,0,70,0,0
83835,-178.571428571429,4,1,0,70,0,0
83907,-185.185185185185,4,1,0,70,0,0
83978,-192.307692307692,4,1,0,70,0,0
84049,-200,4,1,0,70,0,1
84478,-185.185185185185,4,1,0,70,0,1
84496,-200,4,1,0,70,0,1
85335,-185.185185185185,4,1,0,70,0,1
85353,-200,4,1,0,70,0,1
85907,-185.185185185185,4,1,0,70,0,1
85925,-200,4,1,0,70,0,1
86764,-185.185185185185,4,1,0,70,0,1
86782,-200,4,1,0,70,0,1
87621,-185.185185185185,4,1,0,70,0,1
87639,-200,4,1,0,70,0,1
88192,-185.185185185185,4,1,0,70,0,1
88210,-200,4,1,0,70,0,1
89049,-185.185185185185,4,1,0,70,0,1
89067,-200,4,1,0,70,0,1
89907,-185.185185185185,4,1,0,70,0,1
89925,-200,4,1,0,70,0,1
90478,-185.185185185185,4,1,0,70,0,1
90496,-200,4,1,0,70,0,1
92049,-121.951219512195,4,1,0,70,0,0
92120,-125,4,1,0,70,0,0
92191,-128.205128205128,4,1,0,70,0,0
92263,-131.578947368421,4,1,0,70,0,0
92334,-135.135135135135,4,1,0,70,0,0
92406,-138.888888888889,4,1,0,70,0,0
92477,-142.857142857143,4,1,0,70,0,0
92549,-147.058823529412,4,1,0,70,0,0
92620,-151.515151515152,4,1,0,70,0,0
92691,-156.25,4,1,0,70,0,0
92763,-161.290322580645,4,1,0,70,0,0
92834,-166.666666666667,4,1,0,70,0,0
92906,-172.413793103448,4,1,0,70,0,0
92977,-178.571428571429,4,1,0,70,0,0
93049,-185.185185185185,4,1,0,70,0,0
93120,-192.307692307692,4,1,0,70,0,0
93191,-200,4,1,0,70,0,1
93335,-25,4,1,0,70,0,1
93371,-166.666666666667,4,1,0,70,0,1
93621,-25,4,1,0,70,0,1
93657,-166.666666666667,4,1,0,70,0,1
93907,-25,4,1,0,70,0,1
93943,-166.666666666667,4,1,0,70,0,1
94192,-25,4,1,0,70,0,1
94228,-166.666666666667,4,1,0,70,0,1
94478,-25,4,1,0,70,0,1
94514,-166.666666666667,4,1,0,70,0,1
94764,-25,4,1,0,70,0,1
94800,-166.666666666667,4,1,0,70,0,1
95049,-25,4,1,0,70,0,1
95085,-166.666666666667,4,1,0,70,0,1
95335,-25,4,1,0,70,0,1
95371,-166.666666666667,4,1,0,70,0,1
95603,-25,4,1,0,70,0,1
95639,-166.666666666667,4,1,0,70,0,1
95889,-25,4,1,0,70,0,1
95925,-166.666666666667,4,1,0,70,0,1
96175,-25,4,1,0,70,0,1
96211,-166.666666666667,4,1,0,70,0,1
96460,-25,4,1,0,70,0,1
96496,-166.666666666667,4,1,0,70,0,1
96746,-25,4,1,0,70,0,1
96782,-166.666666666667,4,1,0,70,0,1
97032,-25,4,1,0,70,0,1
97068,-166.666666666667,4,1,0,70,0,1
97317,-25,4,1,0,70,0,1
97353,-166.666666666667,4,1,0,70,0,1
97603,-25,4,1,0,70,0,1
97639,-166.666666666667,4,1,0,70,0,1
97889,-25,4,1,0,70,0,1
97925,-166.666666666667,4,1,0,70,0,1
98175,-25,4,1,0,70,0,1
98211,-166.666666666667,4,1,0,70,0,1
98461,-25,4,1,0,70,0,1
98497,-166.666666666667,4,1,0,70,0,1
98746,-25,4,1,0,70,0,1
98782,-166.666666666667,4,1,0,70,0,1
99032,-25,4,1,0,70,0,1
99068,-166.666666666667,4,1,0,70,0,1
99318,-25,4,1,0,70,0,1
99354,-166.666666666667,4,1,0,70,0,1
99603,-25,4,1,0,70,0,1
99639,-166.666666666667,4,1,0,70,0,1
99889,-25,4,1,0,70,0,1
99925,-166.666666666667,4,1,0,70,0,1
100049,-50,4,1,0,70,0,1
100174,-25,4,1,0,70,0,1
100210,-166.666666666667,4,1,0,70,0,1
100460,-25,4,1,0,70,0,1
100496,-166.666666666667,4,1,0,70,0,1
100621,-50,4,1,0,70,0,1
100746,-25,4,1,0,70,0,1
100782,-166.666666666667,4,1,0,70,0,1
101031,-25,4,1,0,70,0,1
101067,-166.666666666667,4,1,0,70,0,1
101317,-25,4,1,0,70,0,1
101353,-166.666666666667,4,1,0,70,0,1
101603,-25,4,1,0,70,0,1
101639,-166.666666666667,4,1,0,70,0,1
101888,-25,4,1,0,70,0,1
101924,-166.666666666667,4,1,0,70,0,1
102174,-25,4,1,0,70,0,1
102210,-166.666666666667,4,1,0,70,0,1
102460,-25,4,1,0,70,0,1
102496,-166.666666666667,4,1,0,70,0,1
102746,-25,4,1,0,70,0,1
102782,-166.666666666667,4,1,0,70,0,1
103032,-25,4,1,0,70,0,1
103068,-166.666666666667,4,1,0,70,0,1
103317,-25,4,1,0,70,0,1
103353,-166.666666666667,4,1,0,70,0,1
103603,-25,4,1,0,70,0,1
103639,-166.666666666667,4,1,0,70,0,1
103889,-25,4,1,0,70,0,1
103925,-166.666666666667,4,1,0,70,0,1
104174,-25,4,1,0,70,0,1
104210,-166.666666666667,4,1,0,70,0,1
104460,-25,4,1,0,70,0,1
104496,-166.666666666667,4,1,0,70,0,1
104746,-25,4,1,0,70,0,1
104782,-166.666666666667,4,1,0,70,0,1
105032,-25,4,1,0,70,0,1
105068,-166.666666666667,4,1,0,70,0,1
105318,-25,4,1,0,70,0,1
105354,-166.666666666667,4,1,0,70,0,1
105603,-25,4,1,0,70,0,1
105639,-166.666666666667,4,1,0,70,0,1
105889,-25,4,1,0,70,0,1
105925,-166.666666666667,4,1,0,70,0,1
106175,-25,4,1,0,70,0,1
106211,-166.666666666667,4,1,0,70,0,1
106460,-25,4,1,0,70,0,1
106496,-166.666666666667,4,1,0,70,0,1
106746,-25,4,1,0,70,0,1
106782,-166.666666666667,4,1,0,70,0,1
107049,-153.846153846154,4,1,0,70,0,1
109192,-142.857142857143,4,1,0,70,0,1
109621,-133.333333333333,4,1,0,70,0,1
110192,-125,4,1,0,70,0,1
110907,-111.111111111111,4,1,0,70,0,1
111478,-25,4,1,0,70,0,0
111621,-142.857142857143,4,1,0,40,0,0
112049,-181.818181818182,4,1,0,40,0,0
112478,-250,4,1,0,40,0,0
116192,-285.714285714286,4,1,0,40,0,0
116621,-333.333333333333,4,1,0,40,0,0
117049,-400,4,1,0,40,0,0
120621,-50,4,1,0,40,0,0

[HitObjects]
256,192,1765,5,8,0:0:0:0:
256,192,2193,1,0,0:0:0:0:
256,192,2622,1,8,0:0:0:0:
256,192,2907,1,0,0:0:0:0:
288,160,3336,1,0,0:0:0:0:
288,160,3479,1,8,0:0:0:0:
288,160,3765,1,0,0:0:0:0:
288,160,3907,1,0,0:0:0:0:
288,160,4050,1,0,0:0:0:0:
288,128,4336,1,8,0:0:0:0:
288,128,4479,1,0,0:0:0:0:
288,128,4907,1,0,0:0:0:0:
288,128,5193,1,8,0:0:0:0:
288,128,5407,1,0,0:0:0:0:
288,128,5479,1,0,0:0:0:0:
288,128,5622,1,0,0:0:0:0:
288,128,5765,1,0,0:0:0:0:
288,128,5907,1,0,0:0:0:0:
288,128,6050,1,8,0:0:0:0:
288,128,6122,1,8,0:0:0:0:
288,128,6265,1,0,0:0:0:0:
288,128,6336,1,12,0:0:0:0:
288,128,6479,1,0,0:0:0:0:
288,128,6550,1,0,0:0:0:0:
288,128,6622,1,0,0:0:0:0:
288,128,6765,1,12,0:0:0:0:
288,128,6907,1,0,0:0:0:0:
288,128,6979,1,0,0:0:0:0:
288,128,7050,1,0,0:0:0:0:
288,128,7193,1,12,0:0:0:0:
288,128,7479,1,0,0:0:0:0:
288,128,7622,1,8,0:0:0:0:
288,128,7693,1,8,0:0:0:0:
288,128,7765,1,0,0:0:0:0:
224,96,7907,1,0,0:0:0:0:
256,128,8050,1,0,0:0:0:0:
256,128,8122,1,0,0:0:0:0:
256,128,8193,1,0,0:0:0:0:
256,128,8336,1,8,0:0:0:0:
288,160,8479,1,0,0:0:0:0:
288,160,8622,1,12,0:0:0:0:
224,128,8765,1,0,0:0:0:0:
224,128,8836,1,0,0:0:0:0:
224,128,8907,1,0,0:0:0:0:
256,96,9050,1,12,0:0:0:0:
256,96,9193,1,0,0:0:0:0:
256,96,9265,1,0,0:0:0:0:
256,96,9336,1,0,0:0:0:0:
256,96,9479,1,12,0:0:0:0:
256,96,9765,1,0,0:0:0:0:
224,64,9907,1,8,0:0:0:0:
224,64,9979,1,0,0:0:0:0:
224,64,10050,1,0,0:0:0:0:
352,96,10193,1,0,0:0:0:0:
352,96,10336,1,0,0:0:0:0:
352,96,10479,1,0,0:0:0:0:
352,96,10622,1,8,0:0:0:0:
352,96,10693,1,8,0:0:0:0:
352,96,10836,1,0,0:0:0:0:
352,96,10907,1,0,0:0:0:0:
320,96,11193,1,8,0:0:0:0:
320,128,11336,1,0,0:0:0:0:
320,96,11765,1,0,0:0:0:0:
320,96,12050,1,8,0:0:0:0:
320,96,12479,1,0,0:0:0:0:
320,96,12907,1,8,0:0:0:0:
320,96,13050,1,0,0:0:0:0:
320,96,13193,1,0,0:0:0:0:
320,96,13622,1,0,0:0:0:0:
320,96,13765,1,8,0:0:0:0:
320,96,14050,1,0,0:0:0:0:
320,96,14336,1,0,0:0:0:0:
320,96,14479,1,0,0:0:0:0:
320,96,14550,1,8,0:0:0:0:
320,96,14622,1,8,0:0:0:0:
320,96,14765,1,8,0:0:0:0:
256,64,14907,1,8,0:0:0:0:
256,64,15050,1,8,0:0:0:0:
256,64,15193,1,8,0:0:0:0:
256,64,15265,1,8,0:0:0:0:
256,64,15407,1,0,0:0:0:0:
256,64,15479,1,12,0:0:0:0:
288,128,15622,1,0,0:0:0:0:
288,128,15693,1,0,0:0:0:0:
288,128,15765,1,0,0:0:0:0:
288,128,15908,1,12,0:0:0:0:
288,128,16050,1,0,0:0:0:0:
288,128,16122,1,0,0:0:0:0:
288,128,16193,1,0,0:0:0:0:
320,96,16336,1,12,0:0:0:0:
288,128,16622,1,0,0:0:0:0:
288,128,16765,1,8,0:0:0:0:
288,128,16836,1,8,0:0:0:0:
288,128,16908,1,0,0:0:0:0:
224,96,17050,1,0,0:0:0:0:
256,128,17193,1,0,0:0:0:0:
256,128,17265,1,0,0:0:0:0:
256,128,17336,1,0,0:0:0:0:
256,128,17479,1,8,0:0:0:0:
288,160,17622,1,0,0:0:0:0:
288,160,17765,1,12,0:0:0:0:
224,128,17908,1,0,0:0:0:0:
224,128,17979,1,0,0:0:0:0:
224,128,18050,1,0,0:0:0:0:
256,96,18193,1,12,0:0:0:0:
256,96,18336,1,0,0:0:0:0:
256,96,18408,1,0,0:0:0:0:
256,96,18479,1,0,0:0:0:0:
256,96,18622,1,12,0:0:0:0:
256,96,18908,1,0,0:0:0:0:
224,64,19050,1,8,0:0:0:0:
224,64,19122,1,0,0:0:0:0:
224,64,19193,1,0,0:0:0:0:
352,96,19336,1,0,0:0:0:0:
352,96,19479,1,12,0:0:0:0:
352,96,19622,1,0,0:0:0:0:
352,96,19765,1,8,0:0:0:0:
352,96,19836,1,8,0:0:0:0:
352,96,19979,1,0,0:0:0:0:
352,96,20050,1,4,0:0:0:0:
256,64,20336,1,0,0:0:0:0:
256,64,20622,1,0,0:0:0:0:
320,96,20907,1,0,0:0:0:0:
352,96,21050,1,0,0:0:0:0:
352,96,21193,1,0,0:0:0:0:
352,96,21407,1,0,0:0:0:0:
352,96,21479,1,0,0:0:0:0:
352,96,21622,1,0,0:0:0:0:
352,96,21765,1,0,0:0:0:0:
352,96,21907,1,0,0:0:0:0:
352,96,22050,1,0,0:0:0:0:
256,96,22336,1,0,0:0:0:0:
320,128,22622,1,0,0:0:0:0:
320,128,22907,1,0,0:0:0:0:
352,64,23193,1,0,0:0:0:0:
352,96,23265,1,0,0:0:0:0:
352,96,23336,1,0,0:0:0:0:
352,96,23407,1,0,0:0:0:0:
352,96,23479,1,0,0:0:0:0:
352,96,23622,1,0,0:0:0:0:
352,96,23765,1,0,0:0:0:0:
352,96,23836,1,0,0:0:0:0:
352,96,23979,1,0,0:0:0:0:
352,96,24050,1,0,0:0:0:0:
352,96,24193,1,0,0:0:0:0:
352,96,24336,1,0,0:0:0:0:
352,96,24479,1,0,0:0:0:0:
352,96,24550,1,0,0:0:0:0:
352,96,24622,1,0,0:0:0:0:
352,96,24907,1,0,0:0:0:0:
352,96,25193,1,0,0:0:0:0:
352,96,25479,1,0,0:0:0:0:
352,96,25622,1,0,0:0:0:0:
352,96,25765,1,0,0:0:0:0:
96,128,25979,1,0,0:0:0:0:
128,128,26050,1,0,0:0:0:0:
288,96,26193,1,0,0:0:0:0:
288,96,26336,1,0,0:0:0:0:
288,96,26479,1,0,0:0:0:0:
288,96,26622,1,0,0:0:0:0:
352,64,26907,1,0,0:0:0:0:
352,64,27193,1,0,0:0:0:0:
352,64,27479,1,0,0:0:0:0:
352,64,27765,1,0,0:0:0:0:
352,64,27836,1,0,0:0:0:0:
352,64,27907,1,0,0:0:0:0:
352,64,27979,1,0,0:0:0:0:
32,128,28050,1,0,0:0:0:0:
352,96,28122,1,8,0:0:0:0:
352,128,28193,1,0,0:0:0:0:
352,96,28265,1,8,0:0:0:0:
352,128,28336,1,8,0:0:0:0:
352,128,28407,1,8,0:0:0:0:
352,128,28479,1,0,0:0:0:0:
352,128,28550,1,8,0:0:0:0:
352,128,28622,1,0,0:0:0:0:
224,96,28693,1,8,0:0:0:0:
224,96,28765,1,0,0:0:0:0:
224,96,28836,1,8,0:0:0:0:
224,96,28907,1,8,0:0:0:0:
352,96,28979,1,8,0:0:0:0:
224,96,29050,1,0,0:0:0:0:
352,128,29122,1,8,0:0:0:0:
352,96,29193,1,0,0:0:0:0:
320,64,29479,1,0,0:0:0:0:
320,64,29765,1,0,0:0:0:0:
320,96,30050,1,0,0:0:0:0:
320,96,30193,1,0,0:0:0:0:
320,96,30336,1,0,0:0:0:0:
192,96,30550,1,0,0:0:0:0:
320,96,30622,1,0,0:0:0:0:
256,96,30765,1,0,0:0:0:0:
256,96,30907,1,0,0:0:0:0:
256,96,31050,1,0,0:0:0:0:
256,96,31193,1,0,0:0:0:0:
320,64,31479,1,0,0:0:0:0:
320,64,31765,1,0,0:0:0:0:
320,64,32050,1,0,0:0:0:0:
352,96,32336,1,0,0:0:0:0:
352,96,32407,1,0,0:0:0:0:
352,96,32479,1,0,0:0:0:0:
352,96,32550,1,0,0:0:0:0:
352,96,32622,1,0,0:0:0:0:
352,96,32765,1,0,0:0:0:0:
352,96,32907,1,0,0:0:0:0:
352,96,32979,1,0,0:0:0:0:
352,96,33122,1,0,0:0:0:0:
352,96,33193,1,0,0:0:0:0:
352,96,33336,1,0,0:0:0:0:
352,96,33479,1,0,0:0:0:0:
384,96,33622,1,0,0:0:0:0:
384,96,33693,1,0,0:0:0:0:
384,96,33765,1,0,0:0:0:0:
224,64,34050,1,0,0:0:0:0:
224,64,34336,1,0,0:0:0:0:
320,96,34622,1,0,0:0:0:0:
320,96,34765,1,0,0:0:0:0:
320,96,34907,1,0,0:0:0:0:
416,64,35122,1,0,0:0:0:0:
416,64,35193,1,0,0:0:0:0:
416,64,35336,1,0,0:0:0:0:
416,64,35479,1,0,0:0:0:0:
416,64,35622,1,0,0:0:0:0:
416,64,35765,1,0,0:0:0:0:
320,96,36050,1,0,0:0:0:0:
384,64,36336,1,0,0:0:0:0:
384,64,36479,1,0,0:0:0:0:
384,64,36622,1,0,0:0:0:0:
384,64,36693,1,0,0:0:0:0:
384,64,36836,1,0,0:0:0:0:
384,64,36907,1,0,0:0:0:0:
384,64,37050,1,0,0:0:0:0:
288,64,37193,1,0,0:0:0:0:
288,64,37265,1,8,0:0:0:0:
288,64,37336,1,0,0:0:0:0:
288,64,37407,1,8,0:0:0:0:
288,64,37479,1,8,0:0:0:0:
288,64,37550,1,8,0:0:0:0:
288,64,37622,1,0,0:0:0:0:
288,64,37693,1,8,0:0:0:0:
288,64,37765,1,0,0:0:0:0:
288,64,37836,1,8,0:0:0:0:
288,64,37907,1,0,0:0:0:0:
288,64,37979,1,8,0:0:0:0:
288,64,38050,1,8,0:0:0:0:
288,64,38122,1,8,0:0:0:0:
288,64,38193,1,0,0:0:0:0:
288,64,38265,1,8,0:0:0:0:
288,64,38336,1,0,0:0:0:0:
352,96,38479,1,8,0:0:0:0:
320,64,38622,1,0,0:0:0:0:
352,96,38765,1,8,0:0:0:0:
320,64,38907,1,0,0:0:0:0:
352,96,39050,1,8,0:0:0:0:
320,64,39193,1,0,0:0:0:0:
320,64,39336,1,8,0:0:0:0:
320,64,39479,1,0,0:0:0:0:
160,96,39622,1,8,0:0:0:0:
352,64,39693,1,0,0:0:0:0:
352,64,39765,1,0,0:0:0:0:
320,64,39907,1,8,0:0:0:0:
320,64,40050,1,12,0:0:0:0:
320,64,40193,1,12,0:0:0:0:
320,64,40336,1,12,0:0:0:0:
352,64,40622,1,0,0:0:0:0:
256,32,40765,1,8,0:0:0:0:
288,64,40907,1,0,0:0:0:0:
288,64,41050,1,8,0:0:0:0:
288,64,41193,1,0,0:0:0:0:
288,64,41336,1,8,0:0:0:0:
384,96,41479,1,0,0:0:0:0:
384,96,41622,1,8,0:0:0:0:
384,96,41765,1,8,0:0:0:0:
384,96,41907,1,8,0:0:0:0:
320,96,41979,1,0,0:0:0:0:
320,96,42050,1,0,0:0:0:0:
352,96,42193,1,8,0:0:0:0:
352,96,42336,1,12,0:0:0:0:
352,96,42479,1,12,0:0:0:0:
352,96,42622,1,12,0:0:0:0:
384,128,42765,1,12,0:0:0:0:
384,128,42907,1,0,0:0:0:0:
384,64,43050,1,8,0:0:0:0:
384,64,43193,1,0,0:0:0:0:
384,64,43336,1,8,0:0:0:0:
384,64,43479,1,0,0:0:0:0:
384,64,43622,1,8,0:0:0:0:
384,64,43765,1,0,0:0:0:0:
384,64,43907,1,8,0:0:0:0:
384,64,44050,1,0,0:0:0:0:
384,64,44193,1,8,0:0:0:0:
384,64,44265,1,0,0:0:0:0:
384,64,44336,1,0,0:0:0:0:
416,64,44479,1,8,0:0:0:0:
416,64,44622,1,12,0:0:0:0:
416,64,44765,1,12,0:0:0:0:
416,64,44907,1,12,0:0:0:0:
128,32,45193,1,0,0:0:0:0:
256,32,45336,1,8,0:0:0:0:
288,64,45478,1,0,0:0:0:0:
288,64,45621,1,8,0:0:0:0:
288,64,45764,1,0,0:0:0:0:
288,64,45907,1,8,0:0:0:0:
384,96,46050,1,0,0:0:0:0:
384,96,46193,1,8,0:0:0:0:
384,96,46336,1,8,0:0:0:0:
384,96,46478,1,8,0:0:0:0:
320,96,46550,1,0,0:0:0:0:
320,96,46621,1,0,0:0:0:0:
352,96,46764,1,8,0:0:0:0:
352,96,46907,1,12,0:0:0:0:
352,96,47050,1,12,0:0:0:0:
352,96,47193,1,12,0:0:0:0:
384,128,47336,1,12,0:0:0:0:
128,128,47479,5,8,0:0:0:0:
256,192,47907,5,0,0:0:0:0:
256,192,48336,1,8,0:0:0:0:
256,192,48621,1,0,0:0:0:0:
288,160,49050,1,0,0:0:0:0:
288,160,49193,1,8,0:0:0:0:
288,160,49479,1,0,0:0:0:0:
288,160,49621,1,0,0:0:0:0:
288,160,49764,1,0,0:0:0:0:
288,128,50050,1,8,0:0:0:0:
288,128,50193,1,0,0:0:0:0:
288,128,50621,1,0,0:0:0:0:
288,128,50907,1,8,0:0:0:0:
288,128,51121,1,0,0:0:0:0:
288,128,51193,1,0,0:0:0:0:
288,128,51336,1,0,0:0:0:0:
288,128,51479,1,0,0:0:0:0:
288,128,51621,1,0,0:0:0:0:
288,128,51764,1,8,0:0:0:0:
288,128,51836,1,8,0:0:0:0:
288,128,51979,1,0,0:0:0:0:
288,128,52050,1,12,0:0:0:0:
288,128,52193,1,0,0:0:0:0:
288,128,52264,1,0,0:0:0:0:
288,128,52336,1,0,0:0:0:0:
288,128,52479,1,12,0:0:0:0:
288,128,52621,1,0,0:0:0:0:
288,128,52693,1,0,0:0:0:0:
288,128,52764,1,0,0:0:0:0:
288,128,52907,1,12,0:0:0:0:
288,128,53193,1,0,0:0:0:0:
288,128,53336,1,8,0:0:0:0:
288,128,53407,1,8,0:0:0:0:
288,128,53479,1,0,0:0:0:0:
224,96,53621,1,0,0:0:0:0:
256,128,53764,1,0,0:0:0:0:
256,128,53836,1,0,0:0:0:0:
256,128,53907,1,0,0:0:0:0:
256,128,54050,1,8,0:0:0:0:
288,160,54193,1,0,0:0:0:0:
288,160,54336,1,12,0:0:0:0:
224,128,54479,1,0,0:0:0:0:
224,128,54550,1,0,0:0:0:0:
224,128,54621,1,0,0:0:0:0:
256,96,54764,1,12,0:0:0:0:
256,96,54907,1,0,0:0:0:0:
256,96,54979,1,0,0:0:0:0:
256,96,55050,1,0,0:0:0:0:
256,96,55193,1,12,0:0:0:0:
256,96,55479,1,0,0:0:0:0:
224,64,55621,1,8,0:0:0:0:
224,64,55693,1,0,0:0:0:0:
224,64,55764,1,0,0:0:0:0:
352,96,55907,1,0,0:0:0:0:
352,96,56050,1,0,0:0:0:0:
352,96,56193,1,0,0:0:0:0:
352,96,56336,1,8,0:0:0:0:
352,96,56407,1,8,0:0:0:0:
352,96,56550,1,0,0:0:0:0:
352,96,56621,1,0,0:0:0:0:
320,96,56907,1,8,0:0:0:0:
320,128,57050,1,0,0:0:0:0:
320,96,57479,1,0,0:0:0:0:
320,96,57764,1,8,0:0:0:0:
320,96,58193,1,0,0:0:0:0:
320,96,58621,1,8,0:0:0:0:
320,96,58764,1,0,0:0:0:0:
320,96,58907,1,0,0:0:0:0:
320,96,59336,1,0,0:0:0:0:
320,96,59479,1,8,0:0:0:0:
320,96,59764,1,0,0:0:0:0:
320,96,60050,1,0,0:0:0:0:
320,96,60193,1,0,0:0:0:0:
320,96,60264,1,8,0:0:0:0:
320,96,60336,1,8,0:0:0:0:
320,96,60479,1,8,0:0:0:0:
256,64,60621,1,8,0:0:0:0:
256,64,60764,1,8,0:0:0:0:
256,64,60907,1,8,0:0:0:0:
256,64,60979,1,8,0:0:0:0:
256,64,61121,1,0,0:0:0:0:
256,64,61193,1,12,0:0:0:0:
288,128,61336,1,0,0:0:0:0:
288,128,61407,1,0,0:0:0:0:
288,128,61479,1,0,0:0:0:0:
288,128,61622,1,12,0:0:0:0:
288,128,61764,1,0,0:0:0:0:
288,128,61836,1,0,0:0:0:0:
288,128,61907,1,0,0:0:0:0:
320,96,62050,1,12,0:0:0:0:
288,128,62336,1,0,0:0:0:0:
288,128,62479,1,8,0:0:0:0:
288,128,62550,1,8,0:0:0:0:
288,128,62622,1,0,0:0:0:0:
224,96,62764,1,0,0:0:0:0:
256,128,62907,1,0,0:0:0:0:
256,128,62979,1,0,0:0:0:0:
256,128,63050,1,0,0:0:0:0:
256,128,63193,1,8,0:0:0:0:
288,160,63336,1,0,0:0:0:0:
288,160,63479,1,12,0:0:0:0:
224,128,63622,1,0,0:0:0:0:
224,128,63693,1,0,0:0:0:0:
224,128,63764,1,0,0:0:0:0:
256,96,63907,1,12,0:0:0:0:
256,96,64050,1,0,0:0:0:0:
256,96,64122,1,0,0:0:0:0:
256,96,64193,1,0,0:0:0:0:
256,96,64336,1,12,0:0:0:0:
256,96,64622,1,0,0:0:0:0:
224,64,64764,1,8,0:0:0:0:
224,64,64836,1,0,0:0:0:0:
224,64,64907,1,0,0:0:0:0:
352,96,65050,1,0,0:0:0:0:
352,96,65193,1,0,0:0:0:0:
352,96,65336,1,0,0:0:0:0:
352,96,65479,1,8,0:0:0:0:
352,96,65550,1,8,0:0:0:0:
352,96,65693,1,0,0:0:0:0:
352,96,65765,1,12,0:0:0:0:
256,64,66051,1,8,0:0:0:0:
352,192,66193,1,8,0:0:0:0:
256,64,66337,1,8,0:0:0:0:
320,96,66622,1,8,0:0:0:0:
352,96,66908,1,8,0:0:0:0:
352,96,67122,1,8,0:0:0:0:
352,96,67194,1,8,0:0:0:0:
352,96,67337,1,8,0:0:0:0:
352,96,67480,1,8,0:0:0:0:
352,96,67622,1,8,0:0:0:0:
352,96,67765,1,8,0:0:0:0:
256,96,68051,1,8,0:0:0:0:
320,128,68337,1,8,0:0:0:0:
224,128,68479,1,8,0:0:0:0:
320,128,68622,1,8,0:0:0:0:
352,64,68908,1,8,0:0:0:0:
352,96,68980,1,8,0:0:0:0:
352,96,69051,1,8,0:0:0:0:
352,96,69122,1,8,0:0:0:0:
352,96,69194,1,8,0:0:0:0:
352,96,69337,1,8,0:0:0:0:
352,96,69480,1,8,0:0:0:0:
352,96,69551,1,8,0:0:0:0:
352,96,69694,1,8,0:0:0:0:
352,96,69765,1,8,0:0:0:0:
352,96,69908,1,8,0:0:0:0:
352,96,70051,1,8,0:0:0:0:
352,96,70194,1,8,0:0:0:0:
352,96,70265,1,8,0:0:0:0:
128,128,70336,1,12,0:0:0:0:
192,64,70550,1,8,0:0:0:0:
288,96,70622,1,8,0:0:0:0:
288,96,70765,1,8,0:0:0:0:
192,64,70907,1,8,0:0:0:0:
224,96,71193,1,8,0:0:0:0:
224,96,71336,1,8,0:0:0:0:
256,160,71479,1,12,0:0:0:0:
288,96,71765,1,8,0:0:0:0:
288,96,71907,1,8,0:0:0:0:
288,96,72050,1,8,0:0:0:0:
288,96,72336,1,8,0:0:0:0:
288,96,72479,1,8,0:0:0:0:
256,160,72622,1,12,0:0:0:0:
288,96,72907,1,8,0:0:0:0:
192,64,73336,1,8,0:0:0:0:
256,160,73765,1,12,0:0:0:0:
352,96,73979,1,8,0:0:0:0:
352,96,74050,1,8,0:0:0:0:
352,96,74193,1,8,0:0:0:0:
288,96,74336,1,8,0:0:0:0:
320,96,74479,1,8,0:0:0:0:
288,96,74622,1,8,0:0:0:0:
288,96,74693,1,8,0:0:0:0:
288,96,74765,1,8,0:0:0:0:
288,96,74836,1,8,0:0:0:0:
256,160,74907,1,12,0:0:0:0:
288,96,75479,1,0,0:0:0:0:
288,96,76050,1,12,0:0:0:0:
256,128,76622,1,0,0:0:0:0:
288,64,77193,1,12,0:0:0:0:
288,64,77765,1,0,0:0:0:0:
288,64,78336,1,12,0:0:0:0:
288,64,78907,1,0,0:0:0:0:
288,96,79479,1,12,0:0:0:0:
256,64,79765,1,0,0:0:0:0:
256,64,80050,1,12,0:0:0:0:
256,64,80336,1,0,0:0:0:0:
256,64,80622,1,12,0:0:0:0:
256,64,80907,1,0,0:0:0:0:
320,64,81193,1,12,0:0:0:0:
320,64,81479,1,0,0:0:0:0:
288,64,81765,1,12,0:0:0:0:
288,192,82907,1,0,0:0:0:0:
288,160,82979,1,8,0:0:0:0:
288,160,83050,1,0,0:0:0:0:
288,160,83122,1,8,0:0:0:0:
288,160,83193,1,8,0:0:0:0:
288,160,83265,1,8,0:0:0:0:
288,160,83336,1,0,0:0:0:0:
320,160,83407,1,8,0:0:0:0:
320,160,83479,1,0,0:0:0:0:
320,160,83550,1,8,0:0:0:0:
320,160,83622,1,0,0:0:0:0:
320,160,83693,1,8,0:0:0:0:
320,160,83765,1,8,0:0:0:0:
320,160,83836,1,8,0:0:0:0:
320,160,83907,1,0,0:0:0:0:
320,160,83979,1,8,0:0:0:0:
320,160,84050,1,4,0:0:0:0:
352,96,84336,1,0,0:0:0:0:
352,96,84479,1,8,0:0:0:0:
352,96,84622,1,0,0:0:0:0:
320,96,84907,1,0,0:0:0:0:
320,96,85050,1,0,0:0:0:0:
320,96,85193,1,0,0:0:0:0:
320,96,85336,1,8,0:0:0:0:
320,96,85407,1,0,0:0:0:0:
320,96,85479,1,0,0:0:0:0:
320,96,85622,1,0,0:0:0:0:
320,96,85765,1,0,0:0:0:0:
320,96,85907,1,8,0:0:0:0:
320,96,86050,1,0,0:0:0:0:
192,32,86336,1,0,0:0:0:0:
320,96,86622,1,0,0:0:0:0:
320,96,86765,1,8,0:0:0:0:
320,96,86907,1,0,0:0:0:0:
320,96,87193,1,0,0:0:0:0:
320,96,87265,1,0,0:0:0:0:
320,96,87336,1,0,0:0:0:0:
320,96,87407,1,0,0:0:0:0:
320,96,87479,1,0,0:0:0:0:
352,160,87622,1,8,0:0:0:0:
352,160,87765,1,0,0:0:0:0:
352,160,87836,1,0,0:0:0:0:
352,160,87979,1,0,0:0:0:0:
352,160,88050,1,0,0:0:0:0:
352,160,88193,1,8,0:0:0:0:
352,160,88336,1,0,0:0:0:0:
192,64,88479,1,0,0:0:0:0:
192,64,88550,1,0,0:0:0:0:
192,64,88622,1,0,0:0:0:0:
384,64,88907,1,0,0:0:0:0:
160,128,89050,1,8,0:0:0:0:
384,64,89193,1,0,0:0:0:0:
192,64,89479,1,0,0:0:0:0:
192,64,89622,1,0,0:0:0:0:
384,64,89765,1,0,0:0:0:0:
224,96,89907,1,8,0:0:0:0:
288,64,89979,1,0,0:0:0:0:
288,64,90050,1,0,0:0:0:0:
288,64,90193,1,0,0:0:0:0:
288,96,90336,1,0,0:0:0:0:
288,96,90479,1,8,0:0:0:0:
288,96,90622,1,0,0:0:0:0:
256,64,90765,1,0,0:0:0:0:
256,64,90836,1,0,0:0:0:0:
224,32,90907,1,4,0:0:0:0:
288,128,91193,1,4,0:0:0:0:
288,128,91479,1,4,0:0:0:0:
384,96,91765,1,0,0:0:0:0:
384,96,91836,1,0,0:0:0:0:
384,96,91907,1,0,0:0:0:0:
384,96,91979,1,0,0:0:0:0:
384,96,92050,1,0,0:0:0:0:
320,64,92122,1,8,0:0:0:0:
320,64,92193,1,0,0:0:0:0:
320,64,92265,1,8,0:0:0:0:
320,64,92336,1,8,0:0:0:0:
320,64,92407,1,8,0:0:0:0:
320,64,92479,1,0,0:0:0:0:
320,64,92550,1,8,0:0:0:0:
320,64,92622,1,0,0:0:0:0:
320,64,92693,1,8,0:0:0:0:
320,64,92765,1,0,0:0:0:0:
320,64,92836,1,8,0:0:0:0:
320,64,92907,1,8,0:0:0:0:
320,64,92979,1,8,0:0:0:0:
320,64,93050,1,0,0:0:0:0:
320,64,93122,1,8,0:0:0:0:
320,64,93193,1,4,0:0:0:0:
288,96,93336,1,8,0:0:0:0:
288,96,93479,1,0,0:0:0:0:
288,96,93622,1,8,0:0:0:0:
224,32,93765,1,0,0:0:0:0:
352,96,93907,1,8,0:0:0:0:
352,96,94050,1,0,0:0:0:0:
352,96,94193,1,8,0:0:0:0:
352,96,94336,1,0,0:0:0:0:
352,96,94479,1,8,0:0:0:0:
352,96,94550,1,0,0:0:0:0:
352,96,94622,1,0,0:0:0:0:
352,96,94765,1,8,0:0:0:0:
352,96,94907,1,0,0:0:0:0:
352,96,95050,1,8,0:0:0:0:
352,96,95193,1,0,0:0:0:0:
352,32,95336,1,8,0:0:0:0:
352,128,95479,1,0,0:0:0:0:
352,128,95622,1,8,0:0:0:0:
352,128,95765,1,0,0:0:0:0:
352,128,95907,1,8,0:0:0:0:
352,128,96050,1,0,0:0:0:0:
352,128,96193,1,8,0:0:0:0:
352,128,96336,1,0,0:0:0:0:
352,128,96407,1,0,0:0:0:0:
352,128,96479,1,8,0:0:0:0:
352,128,96550,1,0,0:0:0:0:
352,128,96622,1,0,0:0:0:0:
352,128,96765,1,8,0:0:0:0:
352,64,96907,1,0,0:0:0:0:
352,64,96979,1,0,0:0:0:0:
352,64,97050,1,8,0:0:0:0:
352,64,97122,1,0,0:0:0:0:
352,64,97193,1,0,0:0:0:0:
352,64,97336,1,8,0:0:0:0:
352,64,97479,1,0,0:0:0:0:
352,64,97622,1,8,0:0:0:0:
352,64,97693,1,0,0:0:0:0:
352,64,97765,1,0,0:0:0:0:
352,64,97907,1,8,0:0:0:0:
352,64,98050,1,0,0:0:0:0:
352,32,98193,1,8,0:0:0:0:
352,32,98336,1,0,0:0:0:0:
352,32,98479,1,8,0:0:0:0:
352,32,98622,1,0,0:0:0:0:
352,32,98765,1,8,0:0:0:0:
352,32,98907,1,0,0:0:0:0:
352,32,99050,1,8,0:0:0:0:
352,32,99122,1,0,0:0:0:0:
352,32,99193,1,0,0:0:0:0:
352,32,99336,1,8,0:0:0:0:
352,32,99479,1,0,0:0:0:0:
352,32,99622,1,8,0:0:0:0:
352,32,99765,1,0,0:0:0:0:
352,32,99907,1,8,0:0:0:0:
352,32,100050,1,12,0:0:0:0:
352,64,100193,1,8,0:0:0:0:
352,64,100336,1,0,0:0:0:0:
352,64,100479,1,8,0:0:0:0:
352,64,100622,1,12,0:0:0:0:
352,64,100765,1,8,0:0:0:0:
352,32,100907,1,0,0:0:0:0:
352,32,100979,1,0,0:0:0:0:
352,32,101050,1,8,0:0:0:0:
352,32,101122,1,0,0:0:0:0:
352,64,101193,1,0,0:0:0:0:
128,128,101336,1,8,0:0:0:0:
288,64,101479,1,0,0:0:0:0:
288,64,101550,1,0,0:0:0:0:
288,64,101622,1,8,0:0:0:0:
288,64,101693,1,0,0:0:0:0:
288,64,101765,1,0,0:0:0:0:
288,64,101907,1,8,0:0:0:0:
288,64,102050,1,0,0:0:0:0:
320,32,102193,1,8,0:0:0:0:
320,32,102265,1,0,0:0:0:0:
320,32,102336,1,0,0:0:0:0:
320,32,102407,1,0,0:0:0:0:
320,32,102479,1,8,0:0:0:0:
320,32,102550,1,0,0:0:0:0:
320,32,102622,1,0,0:0:0:0:
320,32,102765,1,8,0:0:0:0:
352,32,102907,1,0,0:0:0:0:
352,32,102979,1,0,0:0:0:0:
352,32,103050,1,8,0:0:0:0:
352,32,103122,1,0,0:0:0:0:
352,32,103193,1,0,0:0:0:0:
352,32,103265,1,0,0:0:0:0:
352,32,103336,1,8,0:0:0:0:
352,32,103407,1,0,0:0:0:0:
352,32,103479,1,0,0:0:0:0:
352,32,103622,1,8,0:0:0:0:
352,32,103765,1,0,0:0:0:0:
352,32,103836,1,0,0:0:0:0:
352,32,103907,1,8,0:0:0:0:
352,32,103979,1,0,0:0:0:0:
352,32,104050,1,0,0:0:0:0:
288,64,104193,1,8,0:0:0:0:
288,64,104265,1,0,0:0:0:0:
288,64,104336,1,0,0:0:0:0:
288,64,104407,1,0,0:0:0:0:
288,64,104479,1,8,0:0:0:0:
288,64,104550,1,0,0:0:0:0:
288,64,104622,1,0,0:0:0:0:
288,64,104765,1,8,0:0:0:0:
288,64,104907,1,0,0:0:0:0:
288,64,104979,1,0,0:0:0:0:
288,64,105050,1,8,0:0:0:0:
288,64,105122,1,0,0:0:0:0:
288,64,105193,1,0,0:0:0:0:
288,64,105265,1,0,0:0:0:0:
288,64,105336,1,8,0:0:0:0:
288,64,105479,1,0,0:0:0:0:
288,64,105550,1,0,0:0:0:0:
288,64,105622,1,8,0:0:0:0:
288,64,105693,1,0,0:0:0:0:
288,64,105765,1,0,0:0:0:0:
320,32,105907,1,8,0:0:0:0:
320,32,105979,1,0,0:0:0:0:
320,32,106050,1,0,0:0:0:0:
320,32,106122,1,0,0:0:0:0:
320,32,106193,1,8,0:0:0:0:
320,32,106265,1,0,0:0:0:0:
320,32,106336,1,0,0:0:0:0:
320,32,106479,1,8,0:0:0:0:
320,32,106622,1,0,0:0:0:0:
320,32,106693,1,0,0:0:0:0:
320,32,106765,1,8,0:0:0:0:
320,64,106836,1,0,0:0:0:0:
320,64,106907,1,0,0:0:0:0:
320,64,107050,1,8,0:0:0:0:
320,64,107122,1,8,0:0:0:0:
320,64,107193,1,8,0:0:0:0:
320,64,107265,1,8,0:0:0:0:
320,64,107336,1,8,0:0:0:0:
320,64,107407,1,8,0:0:0:0:
320,64,107479,1,0,0:0:0:0:
320,64,107622,1,8,0:0:0:0:
320,64,107765,1,8,0:0:0:0:
320,64,107907,1,8,0:0:0:0:
320,64,107979,1,8,0:0:0:0:
320,64,108050,1,0,0:0:0:0:
320,64,108193,1,8,0:0:0:0:
320,64,108265,1,8,0:0:0:0:
320,64,108336,1,8,0:0:0:0:
320,64,108407,1,8,0:0:0:0:
320,64,108479,1,0,0:0:0:0:
320,64,108622,1,8,0:0:0:0:
320,64,108693,1,8,0:0:0:0:
320,64,108765,1,8,0:0:0:0:
320,64,108836,1,8,0:0:0:0:
320,64,108907,1,0,0:0:0:0:
320,64,109050,1,8,0:0:0:0:
320,64,109122,1,8,0:0:0:0:
320,64,109193,1,0,0:0:0:0:
320,64,109336,1,8,0:0:0:0:
256,96,109479,1,0,0:0:0:0:
320,64,109622,1,8,0:0:0:0:
320,64,109693,1,8,0:0:0:0:
256,96,109765,1,0,0:0:0:0:
320,64,109836,1,8,0:0:0:0:
320,64,109907,1,8,0:0:0:0:
320,64,109979,1,8,0:0:0:0:
320,64,110050,1,0,0:0:0:0:
320,64,110193,1,8,0:0:0:0:
320,64,110265,1,8,0:0:0:0:
320,64,110336,1,0,0:0:0:0:
320,64,110407,1,8,0:0:0:0:
256,96,110479,1,0,0:0:0:0:
320,64,110550,1,8,0:0:0:0:
256,96,110622,1,0,0:0:0:0:
320,64,110693,1,8,0:0:0:0:
320,64,110765,1,0,0:0:0:0:
320,64,110907,1,0,0:0:0:0:
320,64,110979,1,8,0:0:0:0:
320,64,111050,1,0,0:0:0:0:
320,64,111122,1,0,0:0:0:0:
320,64,111193,1,8,0:0:0:0:
320,64,111265,1,0,0:0:0:0:
320,64,111336,1,0,0:0:0:0:
320,64,111407,1,8,0:0:0:0:
320,64,111479,1,4,0:0:0:0:
320,128,111765,1,8,0:0:0:0:
320,128,112193,1,8,0:0:0:0:
256,96,112622,1,8,0:0:0:0:
288,96,113050,1,8,0:0:0:0:
288,128,113479,1,8,0:0:0:0:
288,160,113622,1,8,0:0:0:0:
288,160,114050,1,8,0:0:0:0:
256,128,114479,1,8,0:0:0:0:
256,128,114907,1,8,0:0:0:0:
288,64,115050,1,8,0:0:0:0:
256,128,115336,1,8,0:0:0:0:
256,128,115765,1,8,0:0:0:0:
192,32,116336,1,8,0:0:0:0:
192,64,116765,1,8,0:0:0:0:
320,128,117193,1,8,0:0:0:0:
320,160,117622,1,8,0:0:0:0:
320,160,118050,1,8,0:0:0:0:
320,160,118193,1,8,0:0:0:0:
320,160,118622,1,8,0:0:0:0:
320,160,119050,1,8,0:0:0:0:
320,160,119479,1,8,0:0:0:0:
288,128,119622,1,8,0:0:0:0:
352,128,119907,1,8,0:0:0:0:
352,128,120336,1,8,0:0:0:0:
288,128,120622,1,12,0:0:0:0:
