osu file format v14

[General]
AudioFilename: DBOYD x KOMMISAR - Interstellar Retribution.mp3
AudioLeadIn: 0
PreviewTime: 243973
Countdown: 0
SampleSet: Soft
StackLeniency: 0.7
Mode: 3
LetterboxInBreaks: 0
SpecialStyle: 0
WidescreenStoryboard: 0

[Editor]
DistanceSpacing: 0.7
BeatDivisor: 8
GridSize: 8
TimelineZoom: 2.3

[Metadata]
Title:Interstellar Retribution
TitleUnicode:Interstellar Retribution
Artist:D.B.O.Y.D x Kommisar
ArtistUnicode:D.B.O.Y.D x Kommisar
Creator:ExVeemon
Version:Disbelief
Source:
Tags:undertale DBOYD Kommisar disbelief toby radiation "radiation" fox papyrus blaster blasters
BeatmapID:823799
BeatmapSetID:376267

[Difficulty]
HPDrainRate:8.5
CircleSize:4
OverallDifficulty:7
ApproachRate:5
SliderMultiplier:1.4
SliderTickRate:1

[Events]
//Background and Video events
0,0,"papyrus disbelief.jpg",0,0
//Break Periods
//Storyboard Layer 0 (Background)
//Storyboard Layer 1 (Fail)
//Storyboard Layer 2 (Pass)
//Storyboard Layer 3 (Foreground)
//Storyboard Sound Samples

[TimingPoints]
197,428.571428571429,4,2,0,30,1,0
1057,428.571428571429,4,2,0,30,1,0
3628,-52.6315789473684,4,2,0,30,0,0
3655,-1000,4,2,0,30,0,0
3682,-52.6315789473684,4,2,0,30,0,0
3708,-1000,4,2,0,30,0,0
3735,-100,4,2,0,30,0,0
7057,-52.6315789473684,4,2,0,30,0,0
7083,-1000,4,2,0,30,0,0
7110,-52.6315789473684,4,2,0,30,0,0
7137,-1000,4,2,0,30,0,0
7164,-100,4,2,0,30,0,0
7378,-200,4,2,0,30,0,0
7432,-80,4,2,0,30,0,0
7592,-200,4,2,0,30,0,0
7646,-80,4,2,0,30,0,0
7807,-200,4,2,0,30,0,0
7860,-80,4,2,0,30,0,0
7914,-100,4,2,0,30,0,0
10485,-52.6315789473684,4,2,0,30,0,0
10512,-1000,4,2,0,30,0,0
10539,-52.6315789473684,4,2,0,30,0,0
10565,-1000,4,2,0,30,0,0
10592,-100,4,2,0,30,0,0
17342,-52.6315789473684,4,2,0,30,0,0
17369,-1000,4,2,0,30,0,0
17396,-52.6315789473684,4,2,0,30,0,0
17423,-1000,4,2,0,30,0,0
17449,-100,4,2,0,30,0,0
20771,-52.6315789473684,4,2,0,30,0,0
20798,-1000,4,2,0,30,0,0
20824,-52.6315789473684,4,2,0,30,0,0
20851,-1000,4,2,0,30,0,0
20878,-100,4,2,0,30,0,0
21092,-200,4,2,0,30,0,0
21146,-80,4,2,0,30,0,0
21307,-200,4,2,0,30,0,0
21360,-80,4,2,0,30,0,0
21521,-200,4,2,0,30,0,0
21574,-80,4,2,0,30,0,0
21628,-100,4,2,0,30,0,0
58914,-66.6666666666667,4,2,0,30,0,0
58967,-133.333333333333,4,2,0,30,0,0
59021,-66.6666666666667,4,2,0,30,0,0
59074,-133.333333333333,4,2,0,30,0,0
59128,-66.6666666666667,4,2,0,30,0,0
59182,-133.333333333333,4,2,0,30,0,0
59235,-66.6666666666667,4,2,0,30,0,0
59289,-133.333333333333,4,2,0,30,0,0
59342,-100,4,2,0,30,0,1
61057,-100,4,2,0,30,0,0
66199,-100,4,2,0,30,0,1
67914,-100,4,2,0,30,0,0
143342,-100,4,2,0,30,0,1
144735,-66.6666666666667,4,2,0,30,0,1
144789,-125,4,2,0,30,0,1
144842,-66.6666666666667,4,2,0,30,0,1
144896,-125,4,2,0,30,0,1
144949,-66.6666666666667,4,2,0,30,0,1
145003,-125,4,2,0,30,0,1
145057,-100,4,2,0,30,0,1
145271,-52.6315789473684,4,2,0,30,0,1
145298,-1000,4,2,0,30,0,1
145324,-52.6315789473684,4,2,0,30,0,1
145351,-1000,4,2,0,30,0,1
145378,-52.6315789473684,4,2,0,30,0,1
145405,-1000,4,2,0,30,0,1
145432,-52.6315789473684,4,2,0,30,0,1
145458,-1000,4,2,0,30,0,1
145485,-100,4,2,0,30,0,1
146449,-52.6315789473684,4,2,0,30,0,1
146476,-1000,4,2,0,30,0,1
146503,-100,4,2,0,30,0,1
148164,-66.6666666666667,4,2,0,30,0,1
148217,-125,4,2,0,30,0,1
148271,-66.6666666666667,4,2,0,30,0,1
148324,-125,4,2,0,30,0,1
148378,-66.6666666666667,4,2,0,30,0,1
148432,-125,4,2,0,30,0,1
148485,-100,4,2,0,30,0,1
148699,-52.6315789473684,4,2,0,30,0,1
148726,-1000,4,2,0,30,0,1
148753,-52.6315789473684,4,2,0,30,0,1
148780,-1000,4,2,0,30,0,1
148807,-52.6315789473684,4,2,0,30,0,1
148833,-1000,4,2,0,30,0,1
148860,-52.6315789473684,4,2,0,30,0,1
148887,-1000,4,2,0,30,0,1
148914,-100,4,2,0,30,0,1
149878,-52.6315789473684,4,2,0,30,0,1
149905,-1000,4,2,0,30,0,1
149932,-100,4,2,0,30,0,1
151592,-66.6666666666667,4,2,0,30,0,1
151646,-125,4,2,0,30,0,1
151699,-66.6666666666667,4,2,0,30,0,1
151753,-125,4,2,0,30,0,1
151807,-66.6666666666667,4,2,0,30,0,1
151860,-125,4,2,0,30,0,1
151914,-100,4,2,0,30,0,1
153307,-66.6666666666667,4,2,0,30,0,1
153360,-125,4,2,0,30,0,1
153414,-66.6666666666667,4,2,0,30,0,1
153467,-125,4,2,0,30,0,1
153521,-66.6666666666667,4,2,0,30,0,1
153574,-125,4,2,0,30,0,1
153628,-100,4,2,0,30,0,1
153842,-52.6315789473684,4,2,0,30,0,1
153869,-1000,4,2,0,30,0,1
153896,-52.6315789473684,4,2,0,30,0,1
153923,-1000,4,2,0,30,0,1
153949,-52.6315789473684,4,2,0,30,0,1
153976,-1000,4,2,0,30,0,1
154003,-100,4,2,0,30,0,1
154030,-1000,4,2,0,30,0,1
154057,-100,4,2,0,30,0,1
155021,-52.6315789473684,4,2,0,30,0,1
155048,-1000,4,2,0,30,0,1
155074,-100,4,2,0,30,0,1
155342,-100,4,2,0,30,0,0
156628,-66.6666666666667,4,2,0,30,0,0
156682,-133.333333333333,4,2,0,30,0,0
156735,-66.6666666666667,4,2,0,30,0,0
156789,-133.333333333333,4,2,0,30,0,0
156842,-66.6666666666667,4,2,0,30,0,0
156896,-133.333333333333,4,2,0,30,0,0
156949,-66.6666666666667,4,2,0,30,0,0
157003,-133.333333333333,4,2,0,30,0,0
157057,-100,4,2,0,30,0,1
158771,-100,4,2,0,30,0,0
167342,-100,4,2,0,30,0,1
169914,-52.6315789473684,4,2,0,30,0,1
169940,-1000,4,2,0,30,0,1
169967,-52.6315789473684,4,2,0,30,0,1
169994,-1000,4,2,0,30,0,1
170021,-100,4,2,0,30,0,1
173342,-52.6315789473684,4,2,0,30,0,1
173369,-1000,4,2,0,30,0,1
173396,-52.6315789473684,4,2,0,30,0,1
173423,-1000,4,2,0,30,0,1
173449,-100,4,2,0,30,0,1
173664,-200,4,2,0,30,0,1
173717,-80,4,2,0,30,0,1
173878,-200,4,2,0,30,0,1
173932,-80,4,2,0,30,0,1
174092,-200,4,2,0,30,0,1
174146,-80,4,2,0,30,0,1
174199,-100,4,2,0,30,0,1
176771,-52.6315789473684,4,2,0,30,0,1
176798,-1000,4,2,0,30,0,1
176824,-52.6315789473684,4,2,0,30,0,1
176851,-1000,4,2,0,30,0,1
176878,-100,4,2,0,30,0,1
183628,-52.6315789473684,4,2,0,30,0,1
183655,-1000,4,2,0,30,0,1
183682,-52.6315789473684,4,2,0,30,0,1
183708,-1000,4,2,0,30,0,1
183735,-100,4,2,0,30,0,1
187057,-52.6315789473684,4,2,0,30,0,1
187083,-1000,4,2,0,30,0,1
187110,-52.6315789473684,4,2,0,30,0,1
187137,-1000,4,2,0,30,0,1
187164,-100,4,2,0,30,0,1
187378,-200,4,2,0,30,0,1
187432,-80,4,2,0,30,0,1
187592,-200,4,2,0,30,0,1
187646,-80,4,2,0,30,0,1
187807,-200,4,2,0,30,0,1
187860,-80,4,2,0,30,0,1
187914,-100,4,2,0,30,0,1
190485,-52.6315789473684,4,2,0,30,0,1
190512,-1000,4,2,0,30,0,1
190539,-52.6315789473684,4,2,0,30,0,1
190565,-1000,4,2,0,30,0,1
190592,-100,4,2,0,30,0,1
194771,-100,4,2,0,30,0,0
201949,-52.6315789473684,4,2,0,30,0,0
201976,-1000,4,2,0,30,0,0
202003,-52.6315789473684,4,2,0,30,0,0
202030,-1000,4,2,0,30,0,0
202057,-52.6315789473684,4,2,0,30,0,0
202083,-1000,4,2,0,30,0,0
202110,-52.6315789473684,4,2,0,30,0,0
202137,-1000,4,2,0,30,0,0
202164,-52.6315789473684,4,2,0,30,0,0
202190,-1000,4,2,0,30,0,0
202217,-52.6315789473684,4,2,0,30,0,0
202244,-1000,4,2,0,30,0,0
202271,-52.6315789473684,4,2,0,30,0,0
202298,-1000,4,2,0,30,0,0
202324,-52.6315789473684,4,2,0,30,0,0
202351,-1000,4,2,0,30,0,0
202378,-52.6315789473684,4,2,0,30,0,0
202405,-1000,4,2,0,30,0,0
202432,-52.6315789473684,4,2,0,30,0,0
202458,-1000,4,2,0,30,0,0
202485,-52.6315789473684,4,2,0,30,0,0
202512,-1000,4,2,0,30,0,0
202539,-52.6315789473684,4,2,0,30,0,0
202565,-1000,4,2,0,30,0,0
202592,-52.6315789473684,4,2,0,30,0,0
202619,-1000,4,2,0,30,0,0
202646,-52.6315789473684,4,2,0,30,0,0
202673,-1000,4,2,0,30,0,0
202699,-52.6315789473684,4,2,0,30,0,0
202726,-1000,4,2,0,30,0,0
202753,-52.6315789473684,4,2,0,30,0,0
202780,-1000,4,2,0,30,0,0
202799,825.877494838266,4,2,0,30,1,0
202799,-62.5,4,2,0,30,0,0
229227,-62.5,4,2,0,30,0,1
239111,571.428571428571,4,2,0,30,1,0
240266,612.244897959184,4,2,0,30,1,0
240266,-95.2380952380952,4,2,0,30,0,0
241492,697.674418604651,4,2,0,30,1,0
241492,-95.2380952380952,4,2,0,30,0,0
242179,769.230769230769,4,2,0,30,1,0
242179,-90.9090909090909,4,2,0,30,0,0
242926,1000,4,2,0,30,1,0
242926,-83.3333333333333,4,2,0,30,0,0
243973,1111.11111111111,4,2,0,30,1,0
243973,-55.5555555555556,4,2,0,30,0,0
263927,428.571428571429,4,2,0,30,1,0
266498,-66.6666666666667,4,2,0,30,0,0
266712,-133.333333333333,4,2,0,30,0,0
266927,-66.6666666666667,4,2,0,30,0,0
267141,-133.333333333333,4,2,0,30,0,0
267355,-100,4,2,0,30,0,1
269069,-66.6666666666667,4,2,0,30,0,1
269177,-133.333333333333,4,2,0,30,0,1
269230,-153.846153846153,4,2,0,30,0,1
269284,-181.818181818181,4,2,0,30,0,1
269337,-222.222222222221,4,2,0,30,0,1
269391,-76.9230769230769,4,2,0,30,0,1
269498,-153.846153846153,4,2,0,30,0,1
269552,-181.818181818181,4,2,0,30,0,1
269605,-222.222222222221,4,2,0,30,0,1
269659,-285.714285714284,4,2,0,30,0,1
269712,-83.3333333333333,4,2,0,30,0,1
269927,-66.6666666666667,4,2,0,30,0,1
269998,-133.333333333333,4,2,0,30,0,1
270069,-66.6666666666667,4,2,0,30,0,1
270141,-153.846153846153,4,2,0,30,0,1
270212,-71.4285714285714,4,2,0,30,0,1
270284,-181.818181818181,4,2,0,30,0,1
270355,-83.3333333333333,4,2,0,30,0,1
270427,-181.818181818181,4,2,0,30,0,1
270498,-90.9090909090909,4,2,0,30,0,1
270569,-222.222222222221,4,2,0,30,0,1
270641,-100,4,2,0,30,0,1
270712,-285.714285714284,4,2,0,30,0,1
270784,-100,4,2,0,30,0,1
272069,-66.6666666666667,4,2,0,30,0,1
272096,-200,4,2,0,30,0,1
272123,-66.6666666666667,4,2,0,30,0,1
272150,-200,4,2,0,30,0,1
272177,-66.6666666666667,4,2,0,30,0,1
272203,-200,4,2,0,30,0,1
272230,-66.6666666666667,4,2,0,30,0,1
272257,-200,4,2,0,30,0,1
272284,-66.6666666666667,4,2,0,30,0,1
272310,-200,4,2,0,30,0,1
272337,-66.6666666666667,4,2,0,30,0,1
272364,-200,4,2,0,30,0,1
272391,-66.6666666666667,4,2,0,30,0,1
272418,-200,4,2,0,30,0,1
272444,-66.6666666666667,4,2,0,30,0,1
272471,-200,4,2,0,30,0,1
272498,-100,4,2,0,30,0,1
274427,-52.6315789473684,4,2,0,30,0,1
274462,-1000,4,2,0,30,0,1
274498,-52.6315789473684,4,2,0,30,0,1
274534,-1000,4,2,0,30,0,1
274569,-52.6315789473684,4,2,0,30,0,1
274605,-1000,4,2,0,30,0,1
274641,-52.6315789473684,4,2,0,30,0,1
274677,-1000,4,2,0,30,0,1
274712,-52.6315789473684,4,2,0,30,0,1
274748,-1000,4,2,0,30,0,1
274784,-52.6315789473684,4,2,0,30,0,1
274819,-1000,4,2,0,30,0,1
274855,-52.6315789473684,4,2,0,30,0,1
274891,-1000,4,2,0,30,0,1
274927,-52.6315789473684,4,2,0,30,0,1
274962,-1000,4,2,0,30,0,1
274998,-52.6315789473684,4,2,0,30,0,1
275034,-1000,4,2,0,30,0,1
275069,-52.6315789473684,4,2,0,30,0,1
275105,-1000,4,2,0,30,0,1
275141,-52.6315789473684,4,2,0,30,0,1
275177,-1000,4,2,0,30,0,1
275212,-52.6315789473684,4,2,0,30,0,1
275248,-1000,4,2,0,30,0,1
275284,-52.6315789473684,4,2,0,30,0,1
275319,-1000,4,2,0,30,0,1
275355,-52.6315789473684,4,2,0,30,0,1
275391,-1000,4,2,0,30,0,1
275427,-52.6315789473684,4,2,0,30,0,1
275462,-1000,4,2,0,30,0,1
275498,-52.6315789473684,4,2,0,30,0,1
275534,-1000,4,2,0,30,0,1
275569,-52.6315789473684,4,2,0,30,0,1
275605,-1000,4,2,0,30,0,1
275641,-52.6315789473684,4,2,0,30,0,1
275677,-1000,4,2,0,30,0,1
275712,-52.6315789473684,4,2,0,30,0,1
275748,-1000,4,2,0,30,0,1
275784,-52.6315789473684,4,2,0,30,0,1
275819,-1000,4,2,0,30,0,1
275855,-52.6315789473684,4,2,0,30,0,1
275891,-1000,4,2,0,30,0,1
275927,-100,4,2,0,30,0,1
278927,-52.6315789473684,4,2,0,30,0,1
278953,-1000,4,2,0,30,0,1
278980,-52.6315789473684,4,2,0,30,0,1
279007,-1000,4,2,0,30,0,1
279034,-52.6315789473684,4,2,0,30,0,1
279060,-1000,4,2,0,30,0,1
279087,-52.6315789473684,4,2,0,30,0,1
279114,-1000,4,2,0,30,0,1
279141,-100,4,2,0,30,0,1
280212,-166.666666666667,4,2,0,30,0,1
280266,-142.857142857143,4,2,0,30,0,1
280319,-125,4,2,0,30,0,1
280373,-111.111111111111,4,2,0,30,0,1
280427,-100,4,2,0,30,0,1
280480,-90.9090909090909,4,2,0,30,0,1
280534,-83.3333333333333,4,2,0,30,0,1
280587,-76.9230769230769,4,2,0,30,0,1
280641,-100,4,2,0,30,0,1
284498,-66.6666666666667,4,2,0,30,0,1
284525,-200,4,2,0,30,0,1
284552,-66.6666666666667,4,2,0,30,0,1
284578,-200,4,2,0,30,0,1
284605,-66.6666666666667,4,2,0,30,0,1
284632,-200,4,2,0,30,0,1
284659,-66.6666666666667,4,2,0,30,0,1
284685,-200,4,2,0,30,0,1
284712,-66.6666666666667,4,2,0,30,0,1
284739,-200,4,2,0,30,0,1
284766,-66.6666666666667,4,2,0,30,0,1
284793,-200,4,2,0,30,0,1
284819,-52.6315789473684,4,2,0,30,0,1
284846,-1000,4,2,0,30,0,1
284873,-52.6315789473684,4,2,0,30,0,1
284900,-1000,4,2,0,30,0,1
284927,-52.6315789473684,4,2,0,30,0,1
284953,-1000,4,2,0,30,0,1
284980,-52.6315789473684,4,2,0,30,0,1
285007,-1000,4,2,0,30,0,1
285034,-52.6315789473684,4,2,0,30,0,1
285060,-1000,4,2,0,30,0,1
285087,-52.6315789473684,4,2,0,30,0,1
285114,-1000,4,2,0,30,0,1
285141,-100,4,2,0,30,0,1
286641,-90.9090909090909,4,2,0,30,0,1
286748,-125,4,2,0,30,0,1
286855,-90.9090909090909,4,2,0,30,0,1
286962,-125,4,2,0,30,0,1
287069,-90.9090909090909,4,2,0,30,0,1
287177,-125,4,2,0,30,0,1
287284,-90.9090909090909,4,2,0,30,0,1
287391,-125,4,2,0,30,0,1
287498,-90.9090909090909,4,2,0,30,0,1
287605,-125,4,2,0,30,0,1
287712,-90.9090909090909,4,2,0,30,0,1
287819,-125,4,2,0,30,0,1
287927,-100,4,2,0,30,0,1
291784,-79.9999999999999,4,2,0,30,0,1
291810,-133.333333333333,4,2,0,30,0,1
291837,-79.9999999999999,4,2,0,30,0,1
291864,-133.333333333333,4,2,0,30,0,1
291891,-79.9999999999999,4,2,0,30,0,1
291918,-133.333333333333,4,2,0,30,0,1
291944,-79.9999999999999,4,2,0,30,0,1
291971,-133.333333333333,4,2,0,30,0,1
291998,-79.9999999999999,4,2,0,30,0,1
292025,-133.333333333333,4,2,0,30,0,1
292052,-79.9999999999999,4,2,0,30,0,1
292078,-133.333333333333,4,2,0,30,0,1
292105,-79.9999999999999,4,2,0,30,0,1
292132,-133.333333333333,4,2,0,30,0,1
292159,-79.9999999999999,4,2,0,30,0,1
292185,-133.333333333333,4,2,0,30,0,1
292212,-66.6666666666667,4,2,0,30,0,1
292239,-200,4,2,0,30,0,1
292266,-66.6666666666667,4,2,0,30,0,1
292293,-200,4,2,0,30,0,1
292319,-66.6666666666667,4,2,0,30,0,1
292346,-200,4,2,0,30,0,1
292373,-66.6666666666667,4,2,0,30,0,1
292400,-200,4,2,0,30,0,1
292427,-66.6666666666667,4,2,0,30,0,1
292453,-200,4,2,0,30,0,1
292480,-66.6666666666667,4,2,0,30,0,1
292507,-200,4,2,0,30,0,1
292534,-66.6666666666667,4,2,0,30,0,1
292560,-200,4,2,0,30,0,1
292587,-66.6666666666667,4,2,0,30,0,1
292614,-200,4,2,0,30,0,1
292641,-52.6315789473684,4,2,0,30,0,1
292668,-1000,4,2,0,30,0,1
292694,-52.6315789473684,4,2,0,30,0,1
292721,-1000,4,2,0,30,0,1
292748,-52.6315789473684,4,2,0,30,0,1
292775,-1000,4,2,0,30,0,1
292802,-52.6315789473684,4,2,0,30,0,1
292828,-1000,4,2,0,30,0,1
292855,-52.6315789473684,4,2,0,30,0,1
292882,-1000,4,2,0,30,0,1
292909,-52.6315789473684,4,2,0,30,0,1
292935,-1000,4,2,0,30,0,1
292962,-52.6315789473684,4,2,0,30,0,1
292989,-1000,4,2,0,30,0,1
293016,-52.6315789473684,4,2,0,30,0,1
293043,-1000,4,2,0,30,0,1
293069,-100,4,2,0,30,0,1
296498,-111.111111111111,4,2,0,30,0,1
296712,-90.9090909090909,4,2,0,30,0,1
296819,-100,4,2,0,30,0,1
297141,-111.111111111111,4,2,0,30,0,1
297355,-90.9090909090909,4,2,0,30,0,1
297462,-100,4,2,0,30,0,1
297784,-111.111111111111,4,2,0,30,0,1
297998,-100,4,2,0,30,0,1
298212,-90.9090909090909,4,2,0,30,0,1
298319,-125,4,2,0,30,0,1
298427,-90.9090909090909,4,2,0,30,0,1
298534,-125,4,2,0,30,0,1
298641,-90.9090909090909,4,2,0,30,0,1
298748,-125,4,2,0,30,0,1
298855,-90.9090909090909,4,2,0,30,0,1
298962,-125,4,2,0,30,0,1
299069,-90.9090909090909,4,2,0,30,0,1
299177,-125,4,2,0,30,0,1
299284,-90.9090909090909,4,2,0,30,0,1
299391,-125,4,2,0,30,0,1
299498,-90.9090909090909,4,2,0,30,0,1
299605,-125,4,2,0,30,0,1
299712,-90.9090909090909,4,2,0,30,0,1
299819,-125,4,2,0,30,0,1
299927,-100,4,2,0,30,0,1
300141,-52.6315789473684,4,2,0,30,0,1
300168,-1000,4,2,0,30,0,1
300194,-52.6315789473684,4,2,0,30,0,1
300221,-1000,4,2,0,30,0,1
300248,-52.6315789473684,4,2,0,30,0,1
300275,-1000,4,2,0,30,0,1
300302,-52.6315789473684,4,2,0,30,0,1
300328,-1000,4,2,0,30,0,1
300355,-100,4,2,0,30,0,1
300998,-52.6315789473684,4,2,0,30,0,1
301025,-1000,4,2,0,30,0,1
301052,-52.6315789473684,4,2,0,30,0,1
301078,-1000,4,2,0,30,0,1
301105,-100,4,2,0,30,0,1
301319,-52.6315789473684,4,2,0,30,0,1
301346,-1000,4,2,0,30,0,1
301373,-52.6315789473684,4,2,0,30,0,1
301400,-1000,4,2,0,30,0,1
301427,-100,4,2,0,30,0,1
304534,-52.6315789473684,4,2,0,30,0,1
304560,-1000,4,2,0,30,0,1
304587,-52.6315789473684,4,2,0,30,0,1
304614,-1000,4,2,0,30,0,1
304641,-52.6315789473684,4,2,0,30,0,1
304668,-1000,4,2,0,30,0,1
304694,-52.6315789473684,4,2,0,30,0,1
304721,-1000,4,2,0,30,0,1
304748,-100,4,2,0,30,0,1
307855,-74.074074074074,4,2,0,30,0,1
307882,-153.846153846153,4,2,0,30,0,1
307909,-74.074074074074,4,2,0,30,0,1
307935,-153.846153846153,4,2,0,30,0,1
307962,-74.074074074074,4,2,0,30,0,1
307989,-153.846153846153,4,2,0,30,0,1
308016,-74.074074074074,4,2,0,30,0,1
308043,-153.846153846153,4,2,0,30,0,1
308069,-52.6315789473684,4,2,0,30,0,1
308096,-1000,4,2,0,30,0,1
308123,-52.6315789473684,4,2,0,30,0,1
308150,-1000,4,2,0,30,0,1
308177,-52.6315789473684,4,2,0,30,0,1
308203,-1000,4,2,0,30,0,1
308230,-52.6315789473684,4,2,0,30,0,1
308257,-1000,4,2,0,30,0,1
308284,-76.9230769230769,4,2,0,30,0,1
308310,-83.3333333333333,4,2,0,30,0,1
308337,-90.9090909090909,4,2,0,30,0,1
308364,-100,4,2,0,30,0,1
308391,-111.111111111111,4,2,0,30,0,1
308418,-125,4,2,0,30,0,1
308444,-142.857142857143,4,2,0,30,0,1
308471,-166.666666666667,4,2,0,30,0,1
308498,-100,4,2,0,30,0,1
310534,-66.6666666666667,4,2,0,30,0,1
310560,-200,4,2,0,30,0,1
310587,-66.6666666666667,4,2,0,30,0,1
310614,-200,4,2,0,30,0,1
310641,-66.6666666666667,4,2,0,30,0,1
310668,-200,4,2,0,30,0,1
310694,-66.6666666666667,4,2,0,30,0,1
310721,-200,4,2,0,30,0,1
310748,-100,4,2,0,30,0,1
313641,-90.9090909090909,4,2,0,30,0,1
313748,-125,4,2,0,30,0,1
313855,-52.6315789473684,4,2,0,30,0,1
313882,-1000,4,2,0,30,0,1
313909,-52.6315789473684,4,2,0,30,0,1
313935,-1000,4,2,0,30,0,1
313962,-52.6315789473684,4,2,0,30,0,1
313989,-1000,4,2,0,30,0,1
314016,-52.6315789473684,4,2,0,30,0,1
314043,-1000,4,2,0,30,0,1
314069,-90.9090909090909,4,2,0,30,0,1
314177,-125,4,2,0,30,0,1
314284,-90.9090909090909,4,2,0,30,0,1
314391,-125,4,2,0,30,0,1
314498,-90.9090909090909,4,2,0,30,0,1
314605,-125,4,2,0,30,0,1
314712,-100,4,2,0,30,0,1
314819,-52.6315789473684,4,2,0,30,0,1
314846,-1000,4,2,0,30,0,1
314873,-52.6315789473684,4,2,0,30,0,1
314900,-1000,4,2,0,30,0,1
314927,-100,4,2,0,30,0,1
315034,-52.6315789473684,4,2,0,30,0,1
315060,-1000,4,2,0,30,0,1
315087,-52.6315789473684,4,2,0,30,0,1
315114,-1000,4,2,0,30,0,1
315141,-100,4,2,0,30,0,1
318355,-80,4,2,0,30,0,1
318462,-133.333333333333,4,2,0,30,0,1
318569,-66.6666666666667,4,2,0,30,0,1
318677,-200,4,2,0,30,0,1
318784,-100,4,2,0,30,0,1
322212,-100,4,2,0,30,0,0
324784,-52.6315789473684,4,2,0,30,0,0
324810,-1000,4,2,0,30,0,0
324837,-52.6315789473684,4,2,0,30,0,0
324864,-1000,4,2,0,30,0,0
324891,-100,4,2,0,30,0,0
328212,-52.6315789473684,4,2,0,30,0,0
328239,-1000,4,2,0,30,0,0
328266,-52.6315789473684,4,2,0,30,0,0
328293,-1000,4,2,0,30,0,0
328319,-100,4,2,0,30,0,0
328534,-66.6666666666667,4,2,0,30,0,0
328587,-133.333333333333,4,2,0,30,0,0
328748,-66.6666666666667,4,2,0,30,0,0
328802,-133.333333333333,4,2,0,30,0,0
328962,-66.6666666666667,4,2,0,30,0,0
329016,-66.6666666666667,4,2,0,30,0,0
329069,-100,4,2,0,30,0,0
331641,-52.6315789473684,4,2,0,30,0,0
331668,-1000,4,2,0,30,0,0
331694,-52.6315789473684,4,2,0,30,0,0
331721,-1000,4,2,0,30,0,0
331748,-100,4,2,0,30,0,0
335069,-80,4,2,0,30,0,0
335096,-133.333333333333,4,2,0,30,0,0
335123,-80,4,2,0,30,0,0
335150,-133.333333333333,4,2,0,30,0,0
335177,-80,4,2,0,30,0,0
335203,-133.333333333333,4,2,0,30,0,0
335230,-80,4,2,0,30,0,0
335257,-133.333333333333,4,2,0,30,0,0
335284,-100,4,2,0,30,0,0
335391,-66.6666666666667,4,2,0,30,0,0
335418,-200,4,2,0,30,0,0
335444,-66.6666666666667,4,2,0,30,0,0
335471,-200,4,2,0,30,0,0
335498,-66.6666666666667,4,2,0,30,0,0
335525,-200,4,2,0,30,0,0
335552,-66.6666666666667,4,2,0,30,0,0
335578,-200,4,2,0,30,0,0
335605,-100,4,2,0,30,0,0
338498,-52.6315789473684,4,2,0,30,0,0
338525,-1000,4,2,0,30,0,0
338552,-52.6315789473684,4,2,0,30,0,0
338578,-1000,4,2,0,30,0,0
338605,-100,4,2,0,30,0,0
339355,-90.9090909090909,4,2,0,30,0,0
339462,-111.111111111111,4,2,0,30,0,0
339677,-90.9090909090909,4,2,0,30,0,0
339784,-111.111111111111,4,2,0,30,0,0
339998,-90.9090909090909,4,2,0,30,0,0
340105,-111.111111111111,4,2,0,30,0,0
340319,-90.9090909090909,4,2,0,30,0,0
340427,-111.111111111111,4,2,0,30,0,0
340641,-90.9090909090908,4,2,0,30,0,0
340748,-111.111111111111,4,2,0,30,0,0
340855,-90.9090909090908,4,2,0,30,0,0
340962,-111.111111111111,4,2,0,30,0,0
341069,-90.9090909090908,4,2,0,30,0,0
341177,-111.111111111111,4,2,0,30,0,0
341391,-90.9090909090908,4,2,0,30,0,0
341498,-111.111111111111,4,2,0,30,0,0
341712,-90.9090909090908,4,2,0,30,0,0
341819,-111.111111111111,4,2,0,30,0,0
342034,-90.9090909090908,4,2,0,30,0,0
342141,-111.111111111111,4,2,0,30,0,0
342355,-90.9090909090908,4,2,0,30,0,0
342462,-111.111111111111,4,2,0,30,0,0
342569,-90.9090909090908,4,2,0,30,0,0
342677,-100,4,2,0,30,0,0
343748,-66.6666666666667,4,2,0,30,0,0
343775,-200,4,2,0,30,0,0
343802,-66.6666666666667,4,2,0,30,0,0
343828,-200,4,2,0,30,0,0
343855,-66.6666666666667,4,2,0,30,0,0
343882,-200,4,2,0,30,0,0
343909,-66.6666666666667,4,2,0,30,0,0
343935,-200,4,2,0,30,0,0
343962,-66.6666666666667,4,2,0,30,0,0
343989,-200,4,2,0,30,0,0
344016,-66.6666666666667,4,2,0,30,0,0
344043,-200,4,2,0,30,0,0
344069,-52.6315789473684,4,2,0,30,0,0
344096,-1000,4,2,0,30,0,0
344123,-52.6315789473684,4,2,0,30,0,0
344150,-1000,4,2,0,30,0,0
344177,-52.6315789473684,4,2,0,30,0,0
344203,-1000,4,2,0,30,0,0
344230,-52.6315789473684,4,2,0,30,0,0
344257,-1000,4,2,0,30,0,0
344284,-52.6315789473684,4,2,0,30,0,0
344310,-1000,4,2,0,30,0,0
344337,-52.6315789473684,4,2,0,30,0,0
344364,-1000,4,2,0,30,0,0
344391,-52.6315789473684,4,2,0,30,0,0
344418,-1000,4,2,0,30,0,0
344444,-52.6315789473684,4,2,0,30,0,0
344471,-1000,4,2,0,30,0,0
344498,-58.8235294117647,4,2,0,30,0,0
344605,-62.5,4,2,0,30,0,0
344712,-66.6666666666667,4,2,0,30,0,0
344766,-71.4285714285714,4,2,0,30,0,0
344819,-76.9230769230769,4,2,0,30,0,0
344873,-83.3333333333333,4,2,0,30,0,0
344927,-90.9090909090908,4,2,0,30,0,0
344980,-100,4,2,0,30,0,0
345034,-111.111111111111,4,2,0,30,0,0
345087,-117.647058823529,4,2,0,30,0,0
345141,-125,4,2,0,30,0,0
345194,-133.333333333333,4,2,0,30,0,0
345248,-142.857142857143,4,2,0,30,0,0
345302,-153.846153846154,4,2,0,30,0,0
345355,-200,4,2,0,30,0,0
345409,-222.222222222222,4,2,0,30,0,0
345462,-250,4,2,0,30,0,0
345516,-285.714285714286,4,2,0,30,0,0
345569,-100,4,2,0,30,0,0

[HitObjects]
64,192,197,128,0,250:0:0:0:0:
448,192,572,128,0,1057:0:0:0:0:
64,192,1057,1,0,0:0:0:0:
192,192,1057,1,0,0:0:0:0:
320,192,1057,1,0,0:0:0:0:
320,192,1164,1,0,0:0:0:0:
448,192,1271,1,0,0:0:0:0:
192,192,1271,1,0,0:0:0:0:
64,192,1378,1,0,0:0:0:0:
320,192,1485,1,0,0:0:0:0:
448,192,1485,1,0,0:0:0:0:
192,192,1485,1,0,0:0:0:0:
64,192,1592,1,0,0:0:0:0:
192,192,1592,1,0,0:0:0:0:
320,192,1699,1,0,0:0:0:0:
192,192,1699,1,0,0:0:0:0:
448,192,1807,1,0,0:0:0:0:
192,192,1807,1,0,0:0:0:0:
64,192,1914,1,0,0:0:0:0:
320,192,1914,1,0,0:0:0:0:
448,192,1914,1,0,0:0:0:0:
448,192,2021,1,0,0:0:0:0:
192,192,2021,1,0,0:0:0:0:
320,192,2128,1,0,0:0:0:0:
64,192,2235,1,0,0:0:0:0:
192,192,2235,1,0,0:0:0:0:
448,192,2342,1,0,0:0:0:0:
320,192,2342,1,0,0:0:0:0:
192,192,2342,1,0,0:0:0:0:
64,192,2449,1,0,0:0:0:0:
192,192,2449,1,0,0:0:0:0:
448,192,2557,1,0,0:0:0:0:
192,192,2557,1,0,0:0:0:0:
320,192,2664,1,0,0:0:0:0:
64,192,2771,1,0,0:0:0:0:
448,192,2771,1,0,0:0:0:0:
192,192,2771,1,0,0:0:0:0:
320,192,2878,1,0,0:0:0:0:
448,192,2985,1,0,0:0:0:0:
192,192,2985,1,0,0:0:0:0:
320,192,3092,1,0,0:0:0:0:
192,192,3092,1,0,0:0:0:0:
64,192,3199,1,0,0:0:0:0:
448,192,3199,1,0,0:0:0:0:
192,192,3199,1,0,0:0:0:0:
320,192,3307,1,0,0:0:0:0:
192,192,3307,1,0,0:0:0:0:
64,192,3414,1,0,0:0:0:0:
320,192,3521,1,0,0:0:0:0:
192,192,3521,1,0,0:0:0:0:
448,192,3628,128,0,3735:0:0:0:0:
64,192,3628,1,0,0:0:0:0:
192,192,3628,1,0,0:0:0:0:
320,192,3735,1,0,0:0:0:0:
192,192,3735,1,0,0:0:0:0:
320,192,3949,1,0,0:0:0:0:
192,192,3949,1,0,0:0:0:0:
448,192,4057,1,0,0:0:0:0:
64,192,4057,1,0,0:0:0:0:
320,192,4057,1,0,0:0:0:0:
192,192,4164,1,0,0:0:0:0:
448,192,4164,1,0,0:0:0:0:
64,192,4271,1,0,0:0:0:0:
320,192,4271,1,0,0:0:0:0:
192,192,4378,1,0,0:0:0:0:
448,192,4378,1,0,0:0:0:0:
64,192,4378,1,0,0:0:0:0:
64,192,4485,1,0,0:0:0:0:
192,192,4485,1,0,0:0:0:0:
320,192,4485,1,0,0:0:0:0:
448,192,4592,1,0,0:0:0:0:
320,192,4699,1,0,0:0:0:0:
64,192,4699,1,0,0:0:0:0:
192,192,4807,1,0,0:0:0:0:
320,192,4914,1,0,0:0:0:0:
448,192,4914,1,0,0:0:0:0:
64,192,4914,1,0,0:0:0:0:
320,192,5021,1,0,0:0:0:0:
192,192,5021,1,0,0:0:0:0:
320,192,5128,1,0,0:0:0:0:
64,192,5128,1,0,0:0:0:0:
320,192,5235,1,0,0:0:0:0:
448,192,5235,1,0,0:0:0:0:
192,192,5342,1,0,0:0:0:0:
64,192,5342,1,0,0:0:0:0:
448,192,5342,1,0,0:0:0:0:
320,192,5449,1,0,0:0:0:0:
192,192,5449,1,0,0:0:0:0:
64,192,5557,1,0,0:0:0:0:
320,192,5664,1,0,0:0:0:0:
192,192,5664,1,0,0:0:0:0:
320,192,5771,1,0,0:0:0:0:
448,192,5771,1,0,0:0:0:0:
64,192,5771,1,0,0:0:0:0:
320,192,5878,1,0,0:0:0:0:
192,192,5878,1,0,0:0:0:0:
320,192,5985,1,0,0:0:0:0:
64,192,5985,1,0,0:0:0:0:
192,192,6092,1,0,0:0:0:0:
320,192,6199,1,0,0:0:0:0:
448,192,6199,1,0,0:0:0:0:
64,192,6199,1,0,0:0:0:0:
192,192,6307,1,0,0:0:0:0:
320,192,6414,1,0,0:0:0:0:
448,192,6414,1,0,0:0:0:0:
320,192,6521,1,0,0:0:0:0:
192,192,6521,1,0,0:0:0:0:
320,192,6628,1,0,0:0:0:0:
64,192,6628,1,0,0:0:0:0:
448,192,6628,1,0,0:0:0:0:
320,192,6735,1,0,0:0:0:0:
192,192,6735,1,0,0:0:0:0:
448,192,6842,1,0,0:0:0:0:
320,192,6949,1,0,0:0:0:0:
192,192,6949,1,0,0:0:0:0:
64,192,7057,1,0,0:0:0:0:
192,192,7057,1,0,0:0:0:0:
448,192,7057,128,0,7164:0:0:0:0:
320,192,7164,1,0,0:0:0:0:
64,192,7164,1,0,0:0:0:0:
320,192,7378,1,0,0:0:0:0:
64,192,7378,1,0,0:0:0:0:
192,192,7378,1,0,0:0:0:0:
320,192,7592,1,0,0:0:0:0:
192,192,7592,1,0,0:0:0:0:
64,192,7592,1,0,0:0:0:0:
448,192,7699,1,0,0:0:0:0:
192,192,7807,1,0,0:0:0:0:
64,192,7807,1,0,0:0:0:0:
320,192,7807,1,0,0:0:0:0:
448,192,7914,1,0,0:0:0:0:
192,192,7914,1,0,0:0:0:0:
64,192,7914,1,0,0:0:0:0:
320,192,8021,1,0,0:0:0:0:
448,192,8128,1,0,0:0:0:0:
192,192,8128,1,0,0:0:0:0:
64,192,8235,1,0,0:0:0:0:
448,192,8342,1,0,0:0:0:0:
192,192,8342,1,0,0:0:0:0:
320,192,8342,1,0,0:0:0:0:
448,192,8449,1,0,0:0:0:0:
64,192,8449,1,0,0:0:0:0:
448,192,8557,1,0,0:0:0:0:
320,192,8557,1,0,0:0:0:0:
448,192,8664,1,0,0:0:0:0:
192,192,8664,1,0,0:0:0:0:
64,192,8771,1,0,0:0:0:0:
320,192,8771,1,0,0:0:0:0:
192,192,8771,1,0,0:0:0:0:
448,192,8878,1,0,0:0:0:0:
320,192,8878,1,0,0:0:0:0:
192,192,8985,1,0,0:0:0:0:
448,192,9092,1,0,0:0:0:0:
320,192,9092,1,0,0:0:0:0:
448,192,9199,1,0,0:0:0:0:
64,192,9199,1,0,0:0:0:0:
192,192,9199,1,0,0:0:0:0:
448,192,9307,1,0,0:0:0:0:
320,192,9307,1,0,0:0:0:0:
448,192,9414,1,0,0:0:0:0:
192,192,9414,1,0,0:0:0:0:
64,192,9521,1,0,0:0:0:0:
448,192,9628,1,0,0:0:0:0:
320,192,9628,1,0,0:0:0:0:
192,192,9628,1,0,0:0:0:0:
64,192,9735,1,0,0:0:0:0:
448,192,9842,1,0,0:0:0:0:
320,192,9842,1,0,0:0:0:0:
448,192,9949,1,0,0:0:0:0:
192,192,9949,1,0,0:0:0:0:
448,192,10057,1,0,0:0:0:0:
64,192,10057,1,0,0:0:0:0:
320,192,10057,1,0,0:0:0:0:
448,192,10164,1,0,0:0:0:0:
192,192,10164,1,0,0:0:0:0:
320,192,10271,1,0,0:0:0:0:
448,192,10378,1,0,0:0:0:0:
64,192,10378,1,0,0:0:0:0:
192,192,10485,1,0,0:0:0:0:
64,192,10485,1,0,0:0:0:0:
320,192,10485,128,0,10592:0:0:0:0:
448,192,10592,1,0,0:0:0:0:
192,192,10592,1,0,0:0:0:0:
448,192,10807,1,0,0:0:0:0:
320,192,10807,1,0,0:0:0:0:
320,192,10914,1,0,0:0:0:0:
64,192,10914,1,0,0:0:0:0:
192,192,10914,1,0,0:0:0:0:
448,192,11021,1,0,0:0:0:0:
192,192,11021,1,0,0:0:0:0:
192,192,11128,1,0,0:0:0:0:
64,192,11128,1,0,0:0:0:0:
448,192,11235,1,0,0:0:0:0:
320,192,11235,1,0,0:0:0:0:
64,192,11235,1,0,0:0:0:0:
64,192,11342,1,0,0:0:0:0:
192,192,11342,1,0,0:0:0:0:
448,192,11342,1,0,0:0:0:0:
320,192,11449,1,0,0:0:0:0:
64,192,11557,1,0,0:0:0:0:
448,192,11557,1,0,0:0:0:0:
320,192,11664,1,0,0:0:0:0:
64,192,11771,1,0,0:0:0:0:
192,192,11771,1,0,0:0:0:0:
448,192,11771,1,0,0:0:0:0:
64,192,11878,1,0,0:0:0:0:
320,192,11878,1,0,0:0:0:0:
64,192,11985,1,0,0:0:0:0:
192,192,11985,1,0,0:0:0:0:
64,192,12092,1,0,0:0:0:0:
320,192,12092,1,0,0:0:0:0:
448,192,12199,1,0,0:0:0:0:
320,192,12199,1,0,0:0:0:0:
192,192,12199,1,0,0:0:0:0:
64,192,12307,1,0,0:0:0:0:
448,192,12307,1,0,0:0:0:0:
320,192,12414,1,0,0:0:0:0:
64,192,12521,1,0,0:0:0:0:
192,192,12521,1,0,0:0:0:0:
64,192,12628,1,0,0:0:0:0:
448,192,12628,1,0,0:0:0:0:
320,192,12628,1,0,0:0:0:0:
64,192,12735,1,0,0:0:0:0:
192,192,12735,1,0,0:0:0:0:
64,192,12842,1,0,0:0:0:0:
320,192,12842,1,0,0:0:0:0:
448,192,12949,1,0,0:0:0:0:
64,192,13057,1,0,0:0:0:0:
192,192,13057,1,0,0:0:0:0:
320,192,13057,1,0,0:0:0:0:
448,192,13164,1,0,0:0:0:0:
64,192,13271,1,0,0:0:0:0:
192,192,13271,1,0,0:0:0:0:
64,192,13378,1,0,0:0:0:0:
320,192,13378,1,0,0:0:0:0:
64,192,13485,1,0,0:0:0:0:
448,192,13485,1,0,0:0:0:0:
192,192,13485,1,0,0:0:0:0:
64,192,13592,1,0,0:0:0:0:
320,192,13592,1,0,0:0:0:0:
192,192,13699,1,0,0:0:0:0:
64,192,13807,1,0,0:0:0:0:
448,192,13807,1,0,0:0:0:0:
448,192,13914,1,0,0:0:0:0:
320,192,13914,1,0,0:0:0:0:
192,192,13914,128,0,14021:0:0:0:0:
64,192,14021,1,0,0:0:0:0:
320,192,14021,1,0,0:0:0:0:
448,192,14235,128,0,14449:0:0:0:0:
64,192,14235,1,0,0:0:0:0:
320,192,14235,1,0,0:0:0:0:
192,192,14342,1,0,0:0:0:0:
320,192,14342,1,0,0:0:0:0:
64,192,14449,1,0,0:0:0:0:
192,192,14449,1,0,0:0:0:0:
448,192,14557,1,0,0:0:0:0:
320,192,14557,1,0,0:0:0:0:
320,192,14664,1,0,0:0:0:0:
64,192,14664,1,0,0:0:0:0:
448,192,14664,1,0,0:0:0:0:
448,192,14771,1,0,0:0:0:0:
320,192,14771,1,0,0:0:0:0:
192,192,14771,128,0,14878:0:0:0:0:
64,192,14878,1,0,0:0:0:0:
192,192,14985,128,0,15092:0:0:0:0:
320,192,14985,1,0,0:0:0:0:
448,192,15092,1,0,0:0:0:0:
192,192,15199,128,0,15253:0:0:0:0:
320,192,15199,1,0,0:0:0:0:
64,192,15199,1,0,0:0:0:0:
192,192,15307,128,0,15360:0:0:0:0:
448,192,15307,1,0,0:0:0:0:
192,192,15414,128,0,15467:0:0:0:0:
64,192,15414,1,0,0:0:0:0:
192,192,15521,128,0,15628:0:0:0:0:
448,192,15521,1,0,0:0:0:0:
64,192,15628,1,0,0:0:0:0:
320,192,15628,1,0,0:0:0:0:
192,192,15735,128,0,15842:0:0:0:0:
448,192,15735,1,0,0:0:0:0:
320,192,15842,1,0,0:0:0:0:
192,192,15949,128,0,16003:0:0:0:0:
64,192,15949,1,0,0:0:0:0:
192,192,16057,128,0,16110:0:0:0:0:
448,192,16057,1,0,0:0:0:0:
320,192,16057,1,0,0:0:0:0:
192,192,16164,128,0,16217:0:0:0:0:
64,192,16164,1,0,0:0:0:0:
192,192,16271,128,0,16378:0:0:0:0:
320,192,16271,1,0,0:0:0:0:
448,192,16378,1,0,0:0:0:0:
192,192,16485,128,0,16592:0:0:0:0:
64,192,16485,1,0,0:0:0:0:
320,192,16485,1,0,0:0:0:0:
448,192,16592,1,0,0:0:0:0:
192,192,16699,128,0,16753:0:0:0:0:
64,192,16699,1,0,0:0:0:0:
192,192,16807,128,0,16860:0:0:0:0:
320,192,16807,1,0,0:0:0:0:
192,192,16914,128,0,16967:0:0:0:0:
64,192,16914,1,0,0:0:0:0:
448,192,16914,1,0,0:0:0:0:
192,192,17021,128,0,17128:0:0:0:0:
320,192,17021,1,0,0:0:0:0:
64,192,17128,1,0,0:0:0:0:
192,192,17235,128,0,17342:0:0:0:0:
320,192,17235,1,0,0:0:0:0:
64,192,17342,1,0,0:0:0:0:
448,192,17342,128,0,17449:0:0:0:0:
192,192,17449,128,0,17557:0:0:0:0:
320,192,17449,1,0,0:0:0:0:
192,192,17664,128,0,17771:0:0:0:0:
448,192,17664,1,0,0:0:0:0:
64,192,17771,1,0,0:0:0:0:
320,192,17771,1,0,0:0:0:0:
192,192,17878,128,0,17985:0:0:0:0:
448,192,17878,1,0,0:0:0:0:
64,192,17985,128,0,18092:0:0:0:0:
320,192,17985,1,0,0:0:0:0:
448,192,18092,128,0,18199:0:0:0:0:
192,192,18092,1,0,0:0:0:0:
320,192,18092,1,0,0:0:0:0:
320,192,18199,128,0,18307:0:0:0:0:
64,192,18199,1,0,0:0:0:0:
192,192,18199,1,0,0:0:0:0:
64,192,18307,1,0,0:0:0:0:
320,192,18414,128,0,18521:0:0:0:0:
448,192,18414,1,0,0:0:0:0:
64,192,18521,1,0,0:0:0:0:
320,192,18628,128,0,18682:0:0:0:0:
448,192,18628,1,0,0:0:0:0:
192,192,18628,1,0,0:0:0:0:
320,192,18735,128,0,18789:0:0:0:0:
64,192,18735,1,0,0:0:0:0:
320,192,18842,128,0,18896:0:0:0:0:
192,192,18842,1,0,0:0:0:0:
320,192,18949,128,0,19057:0:0:0:0:
448,192,18949,1,0,0:0:0:0:
64,192,19057,1,0,0:0:0:0:
192,192,19057,1,0,0:0:0:0:
320,192,19164,128,0,19271:0:0:0:0:
448,192,19164,1,0,0:0:0:0:
64,192,19271,1,0,0:0:0:0:
320,192,19378,128,0,19432:0:0:0:0:
192,192,19378,1,0,0:0:0:0:
320,192,19485,128,0,19539:0:0:0:0:
64,192,19485,1,0,0:0:0:0:
448,192,19485,1,0,0:0:0:0:
320,192,19592,128,0,19646:0:0:0:0:
192,192,19592,1,0,0:0:0:0:
320,192,19699,128,0,19807:0:0:0:0:
64,192,19699,1,0,0:0:0:0:
192,192,19807,1,0,0:0:0:0:
320,192,19914,128,0,20021:0:0:0:0:
448,192,19914,1,0,0:0:0:0:
64,192,19914,1,0,0:0:0:0:
192,192,20021,1,0,0:0:0:0:
320,192,20128,128,0,20182:0:0:0:0:
448,192,20128,1,0,0:0:0:0:
320,192,20235,128,0,20289:0:0:0:0:
64,192,20235,1,0,0:0:0:0:
320,192,20342,128,0,20396:0:0:0:0:
192,192,20342,1,0,0:0:0:0:
448,192,20342,1,0,0:0:0:0:
320,192,20449,128,0,20557:0:0:0:0:
64,192,20449,1,0,0:0:0:0:
192,192,20557,1,0,0:0:0:0:
320,192,20664,128,0,20771:0:0:0:0:
64,192,20664,1,0,0:0:0:0:
64,192,20771,1,0,0:0:0:0:
448,192,20771,128,0,20878:0:0:0:0:
320,192,20878,128,0,20985:0:0:0:0:
192,192,20878,1,0,0:0:0:0:
320,192,21092,128,0,21199:0:0:0:0:
192,192,21092,1,0,0:0:0:0:
64,192,21092,1,0,0:0:0:0:
448,192,21199,1,0,0:0:0:0:
320,192,21307,128,0,21414:0:0:0:0:
64,192,21307,1,0,0:0:0:0:
192,192,21307,1,0,0:0:0:0:
448,192,21414,128,0,21521:0:0:0:0:
192,192,21521,128,0,21628:0:0:0:0:
64,192,21521,1,0,0:0:0:0:
320,192,21521,1,0,0:0:0:0:
320,192,21628,128,0,21735:0:0:0:0:
448,192,21628,1,0,0:0:0:0:
64,192,21628,1,0,0:0:0:0:
192,192,21735,1,0,0:0:0:0:
320,192,21842,128,0,21949:0:0:0:0:
64,192,21842,1,0,0:0:0:0:
192,192,21949,1,0,0:0:0:0:
320,192,22057,128,0,22110:0:0:0:0:
64,192,22057,1,0,0:0:0:0:
448,192,22057,1,0,0:0:0:0:
320,192,22164,128,0,22217:0:0:0:0:
192,192,22164,1,0,0:0:0:0:
320,192,22271,128,0,22324:0:0:0:0:
64,192,22271,1,0,0:0:0:0:
448,192,22378,1,0,0:0:0:0:
320,192,22378,128,0,22485:0:0:0:0:
64,192,22485,1,0,0:0:0:0:
192,192,22485,1,0,0:0:0:0:
320,192,22592,128,0,22699:0:0:0:0:
192,192,22592,1,0,0:0:0:0:
64,192,22699,1,0,0:0:0:0:
320,192,22807,128,0,22860:0:0:0:0:
448,192,22807,1,0,0:0:0:0:
320,192,22914,128,0,22967:0:0:0:0:
64,192,22914,1,0,0:0:0:0:
192,192,22914,1,0,0:0:0:0:
320,192,23021,128,0,23074:0:0:0:0:
192,192,23021,1,0,0:0:0:0:
448,192,23128,1,0,0:0:0:0:
320,192,23128,128,0,23235:0:0:0:0:
192,192,23235,1,0,0:0:0:0:
320,192,23342,128,0,23449:0:0:0:0:
64,192,23342,1,0,0:0:0:0:
448,192,23342,1,0,0:0:0:0:
192,192,23449,1,0,0:0:0:0:
320,192,23557,128,0,23610:0:0:0:0:
448,192,23557,1,0,0:0:0:0:
320,192,23664,128,0,23717:0:0:0:0:
64,192,23664,1,0,0:0:0:0:
320,192,23771,128,0,23824:0:0:0:0:
192,192,23771,1,0,0:0:0:0:
448,192,23771,1,0,0:0:0:0:
320,192,23878,128,0,23985:0:0:0:0:
64,192,23878,1,0,0:0:0:0:
448,192,23985,1,0,0:0:0:0:
320,192,24092,128,0,24199:0:0:0:0:
64,192,24092,1,0,0:0:0:0:
192,192,24199,1,0,0:0:0:0:
448,192,24199,1,0,0:0:0:0:
320,192,24307,128,0,24414:0:0:0:0:
64,192,24307,1,0,0:0:0:0:
320,192,24521,128,0,24628:0:0:0:0:
192,192,24521,1,0,0:0:0:0:
64,192,24628,1,0,0:0:0:0:
448,192,24628,1,0,0:0:0:0:
320,192,24735,128,0,24842:0:0:0:0:
192,192,24735,1,0,0:0:0:0:
64,192,24842,128,0,24949:0:0:0:0:
448,192,24842,1,0,0:0:0:0:
448,192,24949,128,0,25057:0:0:0:0:
320,192,24949,1,0,0:0:0:0:
192,192,24949,1,0,0:0:0:0:
192,192,25057,128,0,25164:0:0:0:0:
64,192,25057,1,0,0:0:0:0:
320,192,25057,1,0,0:0:0:0:
320,192,25164,1,0,0:0:0:0:
192,192,25271,128,0,25378:0:0:0:0:
64,192,25271,1,0,0:0:0:0:
448,192,25378,1,0,0:0:0:0:
192,192,25485,128,0,25539:0:0:0:0:
64,192,25485,1,0,0:0:0:0:
320,192,25485,1,0,0:0:0:0:
192,192,25592,128,0,25646:0:0:0:0:
448,192,25592,1,0,0:0:0:0:
192,192,25699,128,0,25753:0:0:0:0:
320,192,25699,1,0,0:0:0:0:
192,192,25807,128,0,25914:0:0:0:0:
64,192,25807,1,0,0:0:0:0:
320,192,25914,1,0,0:0:0:0:
448,192,25914,1,0,0:0:0:0:
192,192,26021,128,0,26128:0:0:0:0:
320,192,26021,1,0,0:0:0:0:
448,192,26128,1,0,0:0:0:0:
192,192,26235,128,0,26289:0:0:0:0:
64,192,26235,1,0,0:0:0:0:
192,192,26342,128,0,26396:0:0:0:0:
320,192,26342,1,0,0:0:0:0:
448,192,26342,1,0,0:0:0:0:
192,192,26449,128,0,26503:0:0:0:0:
64,192,26449,1,0,0:0:0:0:
192,192,26557,128,0,26664:0:0:0:0:
320,192,26557,1,0,0:0:0:0:
448,192,26664,1,0,0:0:0:0:
192,192,26771,128,0,26878:0:0:0:0:
320,192,26771,1,0,0:0:0:0:
64,192,26771,1,0,0:0:0:0:
448,192,26878,1,0,0:0:0:0:
192,192,26985,128,0,27039:0:0:0:0:
64,192,26985,1,0,0:0:0:0:
192,192,27092,128,0,27146:0:0:0:0:
448,192,27092,1,0,0:0:0:0:
192,192,27199,128,0,27253:0:0:0:0:
320,192,27199,1,0,0:0:0:0:
64,192,27199,1,0,0:0:0:0:
192,192,27307,128,0,27414:0:0:0:0:
448,192,27307,1,0,0:0:0:0:
320,192,27414,1,0,0:0:0:0:
192,192,27521,128,0,27628:0:0:0:0:
64,192,27521,1,0,0:0:0:0:
448,192,27628,1,0,0:0:0:0:
320,192,27628,1,0,0:0:0:0:
192,192,27735,128,0,27842:0:0:0:0:
64,192,27735,1,0,0:0:0:0:
192,192,27949,128,0,28057:0:0:0:0:
320,192,27949,1,0,0:0:0:0:
448,192,28057,1,0,0:0:0:0:
64,192,28057,1,0,0:0:0:0:
192,192,28164,128,0,28271:0:0:0:0:
320,192,28164,1,0,0:0:0:0:
448,192,28271,128,0,28378:0:0:0:0:
64,192,28271,1,0,0:0:0:0:
320,192,28378,128,0,28485:0:0:0:0:
192,192,28378,1,0,0:0:0:0:
192,192,28485,128,0,28592:0:0:0:0:
64,192,28485,128,0,28592:0:0:0:0:
448,192,28485,128,0,28592:0:0:0:0:
64,192,28699,128,0,28807:0:0:0:0:
192,192,28699,128,0,28807:0:0:0:0:
448,192,28699,128,0,28807:0:0:0:0:
64,192,28914,128,0,28967:0:0:0:0:
448,192,28914,128,0,28967:0:0:0:0:
192,192,29021,128,0,29074:0:0:0:0:
448,192,29021,128,0,29074:0:0:0:0:
320,192,29128,128,0,29182:0:0:0:0:
192,192,29128,128,0,29182:0:0:0:0:
64,192,29235,128,0,29342:0:0:0:0:
320,192,29235,128,0,29342:0:0:0:0:
192,192,29449,128,0,29557:0:0:0:0:
320,192,29449,128,0,29557:0:0:0:0:
448,192,29449,128,0,29557:0:0:0:0:
64,192,29664,128,0,29717:0:0:0:0:
320,192,29664,128,0,29717:0:0:0:0:
64,192,29771,128,0,29824:0:0:0:0:
448,192,29771,128,0,29824:0:0:0:0:
192,192,29878,128,0,29932:0:0:0:0:
320,192,29878,128,0,29932:0:0:0:0:
448,192,29985,128,0,30092:0:0:0:0:
192,192,29985,128,0,30092:0:0:0:0:
64,192,30199,128,0,30307:0:0:0:0:
192,192,30199,128,0,30307:0:0:0:0:
320,192,30199,128,0,30307:0:0:0:0:
64,192,30414,128,0,30467:0:0:0:0:
448,192,30414,128,0,30467:0:0:0:0:
64,192,30521,128,0,30574:0:0:0:0:
320,192,30521,128,0,30574:0:0:0:0:
64,192,30628,128,0,30682:0:0:0:0:
192,192,30628,128,0,30682:0:0:0:0:
192,192,30735,128,0,30842:0:0:0:0:
320,192,30735,128,0,30842:0:0:0:0:
448,192,30735,128,0,30842:0:0:0:0:
192,192,31271,128,0,31914:0:0:0:0:
320,192,31914,128,0,33199:0:0:0:0:
448,192,31914,1,0,0:0:0:0:
64,192,31914,1,0,0:0:0:0:
192,192,32021,1,0,0:0:0:0:
448,192,32128,1,0,0:0:0:0:
64,192,32235,1,0,0:0:0:0:
192,192,32342,1,0,0:0:0:0:
448,192,32342,1,0,0:0:0:0:
64,192,32449,1,0,0:0:0:0:
192,192,32557,1,0,0:0:0:0:
448,192,32664,1,0,0:0:0:0:
64,192,32771,1,0,0:0:0:0:
192,192,32771,1,0,0:0:0:0:
448,192,32878,1,0,0:0:0:0:
64,192,32985,1,0,0:0:0:0:
192,192,33092,1,0,0:0:0:0:
64,192,33199,1,0,0:0:0:0:
448,192,33199,1,0,0:0:0:0:
192,192,33307,1,0,0:0:0:0:
448,192,33414,1,0,0:0:0:0:
320,192,33521,1,0,0:0:0:0:
64,192,33628,128,0,34057:0:0:0:0:
192,192,33628,1,0,0:0:0:0:
448,192,33628,1,0,0:0:0:0:
320,192,33735,1,0,0:0:0:0:
448,192,33842,1,0,0:0:0:0:
320,192,33949,1,0,0:0:0:0:
192,192,34057,128,0,34485:0:0:0:0:
448,192,34057,1,0,0:0:0:0:
320,192,34057,1,0,0:0:0:0:
64,192,34164,1,0,0:0:0:0:
320,192,34271,1,0,0:0:0:0:
448,192,34378,1,0,0:0:0:0:
320,192,34485,128,0,34914:0:0:0:0:
64,192,34485,1,0,0:0:0:0:
448,192,34485,1,0,0:0:0:0:
192,192,34592,1,0,0:0:0:0:
448,192,34699,1,0,0:0:0:0:
64,192,34807,1,0,0:0:0:0:
192,192,34807,1,0,0:0:0:0:
448,192,34914,128,0,35342:0:0:0:0:
64,192,34914,1,0,0:0:0:0:
192,192,35021,1,0,0:0:0:0:
320,192,35128,1,0,0:0:0:0:
64,192,35128,1,0,0:0:0:0:
192,192,35235,1,0,0:0:0:0:
192,192,35342,128,0,35771:0:0:0:0:
320,192,35342,1,0,0:0:0:0:
64,192,35342,1,0,0:0:0:0:
320,192,35449,1,0,0:0:0:0:
448,192,35557,1,0,0:0:0:0:
64,192,35664,1,0,0:0:0:0:
448,192,35771,128,0,35878:0:0:0:0:
64,192,35771,1,0,0:0:0:0:
320,192,35771,1,0,0:0:0:0:
192,192,35878,128,0,35985:0:0:0:0:
320,192,35878,1,0,0:0:0:0:
64,192,35985,128,0,37057:0:0:0:0:
448,192,35985,1,0,0:0:0:0:
192,192,36092,1,0,0:0:0:0:
320,192,36199,1,0,0:0:0:0:
448,192,36199,1,0,0:0:0:0:
192,192,36307,1,0,0:0:0:0:
320,192,36414,1,0,0:0:0:0:
448,192,36521,1,0,0:0:0:0:
320,192,36628,1,0,0:0:0:0:
192,192,36628,1,0,0:0:0:0:
448,192,36735,1,0,0:0:0:0:
320,192,36842,1,0,0:0:0:0:
192,192,36949,1,0,0:0:0:0:
448,192,37057,1,0,0:0:0:0:
320,192,37057,1,0,0:0:0:0:
192,192,37164,1,0,0:0:0:0:
320,192,37271,1,0,0:0:0:0:
448,192,37378,1,0,0:0:0:0:
192,192,37485,1,0,0:0:0:0:
64,192,37485,1,0,0:0:0:0:
320,192,37592,1,0,0:0:0:0:
448,192,37699,1,0,0:0:0:0:
192,192,37807,1,0,0:0:0:0:
448,192,37914,128,0,38342:0:0:0:0:
320,192,37914,1,0,0:0:0:0:
64,192,37914,1,0,0:0:0:0:
192,192,38021,1,0,0:0:0:0:
320,192,38128,1,0,0:0:0:0:
64,192,38235,1,0,0:0:0:0:
192,192,38235,1,0,0:0:0:0:
320,192,38342,128,0,38771:0:0:0:0:
192,192,38342,1,0,0:0:0:0:
64,192,38449,1,0,0:0:0:0:
448,192,38557,1,0,0:0:0:0:
192,192,38557,1,0,0:0:0:0:
64,192,38664,1,0,0:0:0:0:
192,192,38771,128,0,39199:0:0:0:0:
448,192,38771,1,0,0:0:0:0:
64,192,38771,1,0,0:0:0:0:
320,192,38878,1,0,0:0:0:0:
64,192,38985,1,0,0:0:0:0:
320,192,39092,1,0,0:0:0:0:
448,192,39199,128,0,39307:0:0:0:0:
64,192,39199,1,0,0:0:0:0:
320,192,39199,1,0,0:0:0:0:
320,192,39307,128,0,39414:0:0:0:0:
192,192,39307,1,0,0:0:0:0:
192,192,39414,128,0,39842:0:0:0:0:
64,192,39414,1,0,0:0:0:0:
448,192,39521,1,0,0:0:0:0:
320,192,39628,1,0,0:0:0:0:
64,192,39628,1,0,0:0:0:0:
448,192,39735,1,0,0:0:0:0:
320,192,39842,128,0,39949:0:0:0:0:
448,192,39842,1,0,0:0:0:0:
192,192,39949,128,0,40057:0:0:0:0:
64,192,39949,1,0,0:0:0:0:
64,192,40057,128,0,40378:0:0:0:0:
320,192,40057,1,0,0:0:0:0:
448,192,40057,1,0,0:0:0:0:
192,192,40164,1,0,0:0:0:0:
320,192,40271,1,0,0:0:0:0:
448,192,40378,1,0,0:0:0:0:
64,192,40485,128,0,40914:0:0:0:0:
320,192,40485,1,0,0:0:0:0:
192,192,40485,1,0,0:0:0:0:
448,192,40592,1,0,0:0:0:0:
192,192,40699,1,0,0:0:0:0:
320,192,40807,1,0,0:0:0:0:
192,192,40914,128,0,41342:0:0:0:0:
320,192,40914,1,0,0:0:0:0:
448,192,40914,1,0,0:0:0:0:
448,192,41021,1,0,0:0:0:0:
320,192,41128,1,0,0:0:0:0:
64,192,41235,1,0,0:0:0:0:
320,192,41342,128,0,41771:0:0:0:0:
448,192,41342,1,0,0:0:0:0:
64,192,41342,1,0,0:0:0:0:
192,192,41449,1,0,0:0:0:0:
448,192,41557,1,0,0:0:0:0:
192,192,41664,1,0,0:0:0:0:
448,192,41771,128,0,42199:0:0:0:0:
64,192,41771,1,0,0:0:0:0:
192,192,41771,1,0,0:0:0:0:
320,192,41878,1,0,0:0:0:0:
192,192,41985,1,0,0:0:0:0:
64,192,42092,1,0,0:0:0:0:
320,192,42199,128,0,42628:0:0:0:0:
192,192,42199,1,0,0:0:0:0:
64,192,42199,1,0,0:0:0:0:
192,192,42307,1,0,0:0:0:0:
448,192,42414,1,0,0:0:0:0:
192,192,42521,1,0,0:0:0:0:
64,192,42628,1,0,0:0:0:0:
448,192,42628,1,0,0:0:0:0:
192,192,42735,1,0,0:0:0:0:
64,192,42842,128,0,43914:0:0:0:0:
320,192,42842,1,0,0:0:0:0:
192,192,42949,1,0,0:0:0:0:
320,192,43057,1,0,0:0:0:0:
448,192,43057,1,0,0:0:0:0:
192,192,43164,1,0,0:0:0:0:
320,192,43271,1,0,0:0:0:0:
448,192,43378,1,0,0:0:0:0:
192,192,43378,1,0,0:0:0:0:
320,192,43485,1,0,0:0:0:0:
448,192,43592,1,0,0:0:0:0:
192,192,43699,1,0,0:0:0:0:
320,192,43699,1,0,0:0:0:0:
448,192,43807,1,0,0:0:0:0:
192,192,43914,1,0,0:0:0:0:
320,192,43914,1,0,0:0:0:0:
448,192,44021,1,0,0:0:0:0:
64,192,44128,1,0,0:0:0:0:
192,192,44235,1,0,0:0:0:0:
448,192,44235,1,0,0:0:0:0:
320,192,44342,1,0,0:0:0:0:
448,192,44449,1,0,0:0:0:0:
64,192,44557,1,0,0:0:0:0:
320,192,44557,1,0,0:0:0:0:
192,192,44664,1,0,0:0:0:0:
320,192,44771,1,0,0:0:0:0:
448,192,44878,1,0,0:0:0:0:
64,192,44878,1,0,0:0:0:0:
192,192,44932,1,0,0:0:0:0:
320,192,44985,1,0,0:0:0:0:
64,192,45039,1,0,0:0:0:0:
320,192,45092,1,0,0:0:0:0:
192,192,45146,1,0,0:0:0:0:
320,192,45199,1,0,0:0:0:0:
448,192,45199,1,0,0:0:0:0:
64,192,45253,1,0,0:0:0:0:
448,192,45307,1,0,0:0:0:0:
320,192,45307,1,0,0:0:0:0:
192,192,45360,1,0,0:0:0:0:
448,192,45414,1,0,0:0:0:0:
320,192,45414,1,0,0:0:0:0:
64,192,45467,1,0,0:0:0:0:
320,192,45521,1,0,0:0:0:0:
448,192,45521,1,0,0:0:0:0:
192,192,45574,1,0,0:0:0:0:
64,192,45628,1,0,0:0:0:0:
448,192,45628,1,0,0:0:0:0:
320,192,45628,128,0,46485:0:0:0:0:
192,192,45735,1,0,0:0:0:0:
64,192,45842,1,0,0:0:0:0:
448,192,45949,1,0,0:0:0:0:
64,192,46057,1,0,0:0:0:0:
192,192,46057,1,0,0:0:0:0:
448,192,46164,1,0,0:0:0:0:
64,192,46271,1,0,0:0:0:0:
192,192,46378,1,0,0:0:0:0:
64,192,46485,1,0,0:0:0:0:
448,192,46485,1,0,0:0:0:0:
192,192,46592,1,0,0:0:0:0:
320,192,46646,1,0,0:0:0:0:
448,192,46699,1,0,0:0:0:0:
320,192,46753,1,0,0:0:0:0:
192,192,46807,1,0,0:0:0:0:
64,192,46860,1,0,0:0:0:0:
192,192,46914,1,0,0:0:0:0:
448,192,46914,1,0,0:0:0:0:
320,192,46967,1,0,0:0:0:0:
64,192,47021,1,0,0:0:0:0:
320,192,47074,1,0,0:0:0:0:
192,192,47128,1,0,0:0:0:0:
64,192,47182,1,0,0:0:0:0:
192,192,47235,1,0,0:0:0:0:
320,192,47289,1,0,0:0:0:0:
64,192,47342,128,0,47771:0:0:0:0:
192,192,47342,1,0,0:0:0:0:
448,192,47342,1,0,0:0:0:0:
320,192,47449,1,0,0:0:0:0:
192,192,47557,1,0,0:0:0:0:
320,192,47664,1,0,0:0:0:0:
192,192,47771,128,0,48199:0:0:0:0:
448,192,47771,1,0,0:0:0:0:
320,192,47771,1,0,0:0:0:0:
64,192,47878,1,0,0:0:0:0:
448,192,47985,1,0,0:0:0:0:
64,192,48092,1,0,0:0:0:0:
320,192,48199,128,0,48628:0:0:0:0:
448,192,48199,1,0,0:0:0:0:
64,192,48199,1,0,0:0:0:0:
192,192,48307,1,0,0:0:0:0:
64,192,48414,1,0,0:0:0:0:
448,192,48414,1,0,0:0:0:0:
192,192,48521,1,0,0:0:0:0:
64,192,48521,1,0,0:0:0:0:
448,192,48628,128,0,49057:0:0:0:0:
192,192,48628,1,0,0:0:0:0:
320,192,48735,1,0,0:0:0:0:
64,192,48842,1,0,0:0:0:0:
192,192,48842,1,0,0:0:0:0:
320,192,48949,1,0,0:0:0:0:
192,192,49057,128,0,49485:0:0:0:0:
64,192,49057,1,0,0:0:0:0:
320,192,49057,1,0,0:0:0:0:
448,192,49164,1,0,0:0:0:0:
64,192,49271,1,0,0:0:0:0:
448,192,49378,1,0,0:0:0:0:
448,192,49485,128,0,49592:0:0:0:0:
320,192,49485,1,0,0:0:0:0:
64,192,49485,1,0,0:0:0:0:
320,192,49592,128,0,49699:0:0:0:0:
192,192,49592,1,0,0:0:0:0:
192,192,49699,128,0,50342:0:0:0:0:
64,192,49699,1,0,0:0:0:0:
320,192,49807,1,0,0:0:0:0:
64,192,49914,1,0,0:0:0:0:
448,192,49914,1,0,0:0:0:0:
320,192,50021,1,0,0:0:0:0:
448,192,50128,1,0,0:0:0:0:
64,192,50235,1,0,0:0:0:0:
320,192,50342,1,0,0:0:0:0:
448,192,50342,1,0,0:0:0:0:
64,192,50396,1,0,0:0:0:0:
192,192,50449,1,0,0:0:0:0:
320,192,50503,1,0,0:0:0:0:
448,192,50557,1,0,0:0:0:0:
320,192,50610,1,0,0:0:0:0:
192,192,50664,1,0,0:0:0:0:
64,192,50717,1,0,0:0:0:0:
448,192,50771,1,0,0:0:0:0:
192,192,50771,1,0,0:0:0:0:
320,192,50824,1,0,0:0:0:0:
192,192,50878,1,0,0:0:0:0:
64,192,50932,1,0,0:0:0:0:
192,192,50985,1,0,0:0:0:0:
320,192,51039,1,0,0:0:0:0:
64,192,51092,1,0,0:0:0:0:
320,192,51146,1,0,0:0:0:0:
192,192,51199,1,0,0:0:0:0:
448,192,51199,1,0,0:0:0:0:
64,192,51253,1,0,0:0:0:0:
192,192,51307,1,0,0:0:0:0:
320,192,51360,1,0,0:0:0:0:
448,192,51414,1,0,0:0:0:0:
320,192,51467,1,0,0:0:0:0:
192,192,51521,1,0,0:0:0:0:
64,192,51574,1,0,0:0:0:0:
448,192,51628,128,0,52057:0:0:0:0:
320,192,51628,1,0,0:0:0:0:
192,192,51628,1,0,0:0:0:0:
64,192,51735,1,0,0:0:0:0:
320,192,51842,1,0,0:0:0:0:
192,192,51842,1,0,0:0:0:0:
64,192,51949,1,0,0:0:0:0:
192,192,51949,1,0,0:0:0:0:
320,192,52057,128,0,52485:0:0:0:0:
64,192,52057,1,0,0:0:0:0:
192,192,52164,1,0,0:0:0:0:
448,192,52271,1,0,0:0:0:0:
64,192,52271,1,0,0:0:0:0:
192,192,52378,1,0,0:0:0:0:
192,192,52485,128,0,52914:0:0:0:0:
448,192,52485,1,0,0:0:0:0:
64,192,52485,1,0,0:0:0:0:
320,192,52592,1,0,0:0:0:0:
448,192,52699,1,0,0:0:0:0:
320,192,52807,1,0,0:0:0:0:
448,192,52914,128,0,53021:0:0:0:0:
64,192,52914,1,0,0:0:0:0:
320,192,52914,1,0,0:0:0:0:
320,192,53021,128,0,53128:0:0:0:0:
192,192,53021,1,0,0:0:0:0:
192,192,53128,128,0,53557:0:0:0:0:
64,192,53128,1,0,0:0:0:0:
448,192,53235,1,0,0:0:0:0:
64,192,53342,1,0,0:0:0:0:
320,192,53342,1,0,0:0:0:0:
448,192,53449,1,0,0:0:0:0:
320,192,53557,128,0,53664:0:0:0:0:
64,192,53557,1,0,0:0:0:0:
192,192,53664,128,0,53771:0:0:0:0:
448,192,53664,1,0,0:0:0:0:
64,192,53771,128,0,54092:0:0:0:0:
320,192,53771,1,0,0:0:0:0:
448,192,53771,1,0,0:0:0:0:
192,192,53878,1,0,0:0:0:0:
448,192,53985,1,0,0:0:0:0:
320,192,54092,1,0,0:0:0:0:
64,192,54199,128,0,54628:0:0:0:0:
448,192,54199,1,0,0:0:0:0:
192,192,54199,1,0,0:0:0:0:
320,192,54307,1,0,0:0:0:0:
192,192,54414,1,0,0:0:0:0:
320,192,54521,1,0,0:0:0:0:
192,192,54628,128,0,55057:0:0:0:0:
448,192,54628,1,0,0:0:0:0:
320,192,54628,1,0,0:0:0:0:
64,192,54735,1,0,0:0:0:0:
448,192,54842,1,0,0:0:0:0:
64,192,54949,1,0,0:0:0:0:
320,192,55057,128,0,55485:0:0:0:0:
448,192,55057,1,0,0:0:0:0:
64,192,55057,1,0,0:0:0:0:
192,192,55164,1,0,0:0:0:0:
448,192,55271,1,0,0:0:0:0:
192,192,55378,1,0,0:0:0:0:
448,192,55485,128,0,55914:0:0:0:0:
64,192,55485,1,0,0:0:0:0:
192,192,55485,1,0,0:0:0:0:
320,192,55592,1,0,0:0:0:0:
64,192,55592,1,0,0:0:0:0:
192,192,55699,1,0,0:0:0:0:
320,192,55807,1,0,0:0:0:0:
64,192,55807,1,0,0:0:0:0:
320,192,55914,128,0,56342:0:0:0:0:
64,192,55914,1,0,0:0:0:0:
192,192,55914,1,0,0:0:0:0:
448,192,56021,1,0,0:0:0:0:
64,192,56128,1,0,0:0:0:0:
448,192,56235,1,0,0:0:0:0:
64,192,56342,128,0,56557:0:0:0:0:
192,192,56342,1,0,0:0:0:0:
448,192,56342,1,0,0:0:0:0:
320,192,56449,1,0,0:0:0:0:
192,192,56557,128,0,56985:0:0:0:0:
448,192,56557,1,0,0:0:0:0:
64,192,56664,1,0,0:0:0:0:
64,192,56771,1,0,0:0:0:0:
320,192,56771,1,0,0:0:0:0:
448,192,56878,1,0,0:0:0:0:
64,192,56985,128,0,57199:0:0:0:0:
320,192,56985,1,0,0:0:0:0:
192,192,57092,1,0,0:0:0:0:
448,192,57092,1,0,0:0:0:0:
320,192,57199,128,0,57414:0:0:0:0:
192,192,57307,1,0,0:0:0:0:
192,192,57414,128,0,57628:0:0:0:0:
64,192,57414,1,0,0:0:0:0:
448,192,57414,1,0,0:0:0:0:
320,192,57521,1,0,0:0:0:0:
448,192,57628,128,0,57842:0:0:0:0:
64,192,57628,1,0,0:0:0:0:
320,192,57628,1,0,0:0:0:0:
64,192,57842,128,0,58057:0:0:0:0:
192,192,57842,1,0,0:0:0:0:
320,192,57842,1,0,0:0:0:0:
192,192,57949,1,0,0:0:0:0:
448,192,57949,1,0,0:0:0:0:
320,192,58057,128,0,58271:0:0:0:0:
448,192,58164,1,0,0:0:0:0:
192,192,58164,1,0,0:0:0:0:
192,192,58271,128,0,58485:0:0:0:0:
64,192,58271,1,0,0:0:0:0:
448,192,58271,1,0,0:0:0:0:
448,192,58485,128,0,58699:0:0:0:0:
64,192,58485,1,0,0:0:0:0:
320,192,58485,1,0,0:0:0:0:
192,192,58592,1,0,0:0:0:0:
320,192,58699,128,0,58914:0:0:0:0:
192,192,58699,1,0,0:0:0:0:
64,192,58699,1,0,0:0:0:0:
448,192,58807,1,0,0:0:0:0:
64,192,58914,128,0,58967:0:0:0:0:
192,192,59021,128,0,59074:0:0:0:0:
64,192,59128,128,0,59182:0:0:0:0:
320,192,59128,128,0,59182:0:0:0:0:
448,192,59235,128,0,59289:0:0:0:0:
192,192,59235,128,0,59289:0:0:0:0:
320,192,59342,128,0,59449:0:0:0:0:
192,192,59342,128,0,59985:0:0:0:0:
64,192,59342,1,0,0:0:0:0:
448,192,59342,1,0,0:0:0:0:
64,192,59449,128,0,59557:0:0:0:0:
320,192,59557,128,0,59664:0:0:0:0:
448,192,59557,1,0,0:0:0:0:
448,192,59664,128,0,59771:0:0:0:0:
64,192,59664,1,0,0:0:0:0:
64,192,59771,128,0,59878:0:0:0:0:
320,192,59878,128,0,59985:0:0:0:0:
448,192,59878,1,0,0:0:0:0:
448,192,59985,128,0,60092:0:0:0:0:
64,192,59985,1,0,0:0:0:0:
320,192,60092,128,0,60199:0:0:0:0:
192,192,60092,1,0,0:0:0:0:
448,192,60199,128,0,60414:0:0:0:0:
64,192,60199,128,0,60307:0:0:0:0:
192,192,60199,1,0,0:0:0:0:
192,192,60307,128,0,60414:0:0:0:0:
64,192,60414,128,0,60521:0:0:0:0:
320,192,60414,1,0,0:0:0:0:
320,192,60521,128,0,60628:0:0:0:0:
192,192,60521,1,0,0:0:0:0:
448,192,60628,128,0,60842:0:0:0:0:
64,192,60628,128,0,60699:0:0:0:0:
192,192,60699,128,0,60771:0:0:0:0:
320,192,60735,1,0,0:0:0:0:
64,192,60771,128,0,60842:0:0:0:0:
192,192,60842,128,0,61057:0:0:0:0:
320,192,60842,128,0,60914:0:0:0:0:
64,192,60914,128,0,60985:0:0:0:0:
448,192,60949,1,0,0:0:0:0:
320,192,60985,128,0,61057:0:0:0:0:
448,192,61057,128,0,61485:0:0:0:0:
64,192,61057,1,0,0:0:0:0:
192,192,61271,1,0,0:0:0:0:
64,192,61378,1,0,0:0:0:0:
320,192,61378,1,0,0:0:0:0:
320,192,61485,128,0,61914:0:0:0:0:
64,192,61592,1,0,0:0:0:0:
448,192,61699,1,0,0:0:0:0:
192,192,61699,1,0,0:0:0:0:
64,192,61807,1,0,0:0:0:0:
192,192,61914,128,0,62128:0:0:0:0:
64,192,61914,1,0,0:0:0:0:
448,192,61914,1,0,0:0:0:0:
320,192,62128,128,0,62199:0:0:0:0:
64,192,62128,1,0,0:0:0:0:
192,192,62199,128,0,62271:0:0:0:0:
64,192,62235,1,0,0:0:0:0:
448,192,62235,1,0,0:0:0:0:
320,192,62271,128,0,62342:0:0:0:0:
192,192,62342,128,0,62557:0:0:0:0:
64,192,62449,1,0,0:0:0:0:
64,192,62557,128,0,62771:0:0:0:0:
320,192,62557,1,0,0:0:0:0:
448,192,62557,1,0,0:0:0:0:
448,192,62664,1,0,0:0:0:0:
192,192,62771,128,0,62985:0:0:0:0:
320,192,62771,1,0,0:0:0:0:
448,192,62771,1,0,0:0:0:0:
320,192,62878,1,0,0:0:0:0:
320,192,62985,128,0,63199:0:0:0:0:
64,192,62985,1,0,0:0:0:0:
192,192,63092,1,0,0:0:0:0:
448,192,63199,128,0,63414:0:0:0:0:
192,192,63199,1,0,0:0:0:0:
64,192,63199,1,0,0:0:0:0:
320,192,63307,1,0,0:0:0:0:
64,192,63414,1,0,0:0:0:0:
192,192,63414,128,0,63521:0:0:0:0:
320,192,63521,1,0,0:0:0:0:
192,192,63628,128,0,63842:0:0:0:0:
448,192,63628,1,0,0:0:0:0:
64,192,63628,1,0,0:0:0:0:
320,192,63735,1,0,0:0:0:0:
64,192,63842,128,0,64057:0:0:0:0:
448,192,63842,1,0,0:0:0:0:
192,192,63949,1,0,0:0:0:0:
192,192,64057,128,0,64271:0:0:0:0:
320,192,64057,1,0,0:0:0:0:
448,192,64057,1,0,0:0:0:0:
448,192,64164,1,0,0:0:0:0:
320,192,64271,128,0,64485:0:0:0:0:
64,192,64271,1,0,0:0:0:0:
192,192,64378,1,0,0:0:0:0:
448,192,64485,128,0,64592:0:0:0:0:
64,192,64485,1,0,0:0:0:0:
192,192,64485,1,0,0:0:0:0:
320,192,64592,128,0,64699:0:0:0:0:
64,192,64592,1,0,0:0:0:0:
448,192,64699,1,0,0:0:0:0:
320,192,64807,128,0,64914:0:0:0:0:
64,192,64807,1,0,0:0:0:0:
192,192,64914,128,0,65021:0:0:0:0:
64,192,64914,1,0,0:0:0:0:
448,192,64914,1,0,0:0:0:0:
320,192,65021,1,0,0:0:0:0:
320,192,65128,128,0,65342:0:0:0:0:
448,192,65128,1,0,0:0:0:0:
192,192,65235,1,0,0:0:0:0:
192,192,65342,128,0,65449:0:0:0:0:
64,192,65342,1,0,0:0:0:0:
448,192,65342,1,0,0:0:0:0:
320,192,65449,1,0,0:0:0:0:
192,192,65557,128,0,65771:0:0:0:0:
64,192,65557,1,0,0:0:0:0:
320,192,65664,1,0,0:0:0:0:
448,192,65664,1,0,0:0:0:0:
64,192,65771,128,0,66199:0:0:0:0:
320,192,65771,1,0,0:0:0:0:
448,192,65878,1,0,0:0:0:0:
192,192,65985,1,0,0:0:0:0:
320,192,65985,1,0,0:0:0:0:
448,192,66092,1,0,0:0:0:0:
192,192,66199,128,0,66842:0:0:0:0:
448,192,66199,1,0,0:0:0:0:
320,192,66199,128,0,66307:0:0:0:0:
64,192,66307,128,0,66414:0:0:0:0:
448,192,66414,128,0,66521:0:0:0:0:
320,192,66414,1,0,0:0:0:0:
320,192,66521,128,0,66628:0:0:0:0:
64,192,66521,1,0,0:0:0:0:
448,192,66628,128,0,66735:0:0:0:0:
320,192,66735,128,0,66842:0:0:0:0:
64,192,66735,1,0,0:0:0:0:
64,192,66842,128,0,66949:0:0:0:0:
448,192,66842,1,0,0:0:0:0:
320,192,66949,128,0,67057:0:0:0:0:
192,192,66949,1,0,0:0:0:0:
448,192,67057,128,0,67271:0:0:0:0:
192,192,67057,128,0,67164:0:0:0:0:
64,192,67057,1,0,0:0:0:0:
320,192,67164,128,0,67271:0:0:0:0:
64,192,67271,128,0,67378:0:0:0:0:
192,192,67271,1,0,0:0:0:0:
192,192,67378,128,0,67485:0:0:0:0:
448,192,67378,1,0,0:0:0:0:
320,192,67378,1,0,0:0:0:0:
320,192,67485,128,0,67699:0:0:0:0:
64,192,67485,128,0,67557:0:0:0:0:
192,192,67557,128,0,67628:0:0:0:0:
448,192,67592,1,0,0:0:0:0:
64,192,67628,128,0,67699:0:0:0:0:
448,192,67699,128,0,67914:0:0:0:0:
192,192,67699,128,0,67771:0:0:0:0:
64,192,67771,128,0,67842:0:0:0:0:
320,192,67807,1,0,0:0:0:0:
192,192,67842,128,0,67914:0:0:0:0:
320,192,67914,128,0,68342:0:0:0:0:
64,192,67914,1,0,0:0:0:0:
192,192,68128,1,0,0:0:0:0:
64,192,68235,1,0,0:0:0:0:
448,192,68235,1,0,0:0:0:0:
192,192,68342,128,0,68771:0:0:0:0:
320,192,68449,1,0,0:0:0:0:
64,192,68557,1,0,0:0:0:0:
448,192,68557,1,0,0:0:0:0:
320,192,68664,1,0,0:0:0:0:
64,192,68771,128,0,68985:0:0:0:0:
448,192,68771,1,0,0:0:0:0:
320,192,68771,1,0,0:0:0:0:
448,192,68985,128,0,69057:0:0:0:0:
192,192,68985,1,0,0:0:0:0:
320,192,69057,128,0,69128:0:0:0:0:
64,192,69092,1,0,0:0:0:0:
192,192,69128,128,0,69199:0:0:0:0:
320,192,69199,128,0,69414:0:0:0:0:
448,192,69307,1,0,0:0:0:0:
192,192,69414,128,0,69628:0:0:0:0:
64,192,69414,1,0,0:0:0:0:
320,192,69521,1,0,0:0:0:0:
448,192,69628,1,0,0:0:0:0:
320,192,69628,1,0,0:0:0:0:
64,192,69628,128,0,69842:0:0:0:0:
192,192,69735,1,0,0:0:0:0:
192,192,69842,128,0,70057:0:0:0:0:
320,192,69842,1,0,0:0:0:0:
448,192,69949,1,0,0:0:0:0:
320,192,70057,128,0,70271:0:0:0:0:
448,192,70057,1,0,0:0:0:0:
64,192,70057,1,0,0:0:0:0:
192,192,70164,1,0,0:0:0:0:
448,192,70271,128,0,70378:0:0:0:0:
64,192,70271,1,0,0:0:0:0:
192,192,70378,1,0,0:0:0:0:
448,192,70485,128,0,70699:0:0:0:0:
64,192,70485,1,0,0:0:0:0:
320,192,70485,1,0,0:0:0:0:
192,192,70592,1,0,0:0:0:0:
64,192,70699,128,0,70914:0:0:0:0:
320,192,70699,1,0,0:0:0:0:
192,192,70807,1,0,0:0:0:0:
192,192,70914,128,0,71128:0:0:0:0:
448,192,70914,1,0,0:0:0:0:
320,192,70914,1,0,0:0:0:0:
448,192,71021,1,0,0:0:0:0:
320,192,71128,128,0,71342:0:0:0:0:
64,192,71128,1,0,0:0:0:0:
192,192,71235,1,0,0:0:0:0:
448,192,71342,128,0,71449:0:0:0:0:
64,192,71342,1,0,0:0:0:0:
192,192,71342,1,0,0:0:0:0:
320,192,71449,128,0,71557:0:0:0:0:
64,192,71449,1,0,0:0:0:0:
192,192,71557,1,0,0:0:0:0:
448,192,71664,128,0,71771:0:0:0:0:
320,192,71664,1,0,0:0:0:0:
64,192,71664,1,0,0:0:0:0:
192,192,71771,128,0,71878:0:0:0:0:
320,192,71771,1,0,0:0:0:0:
448,192,71878,1,0,0:0:0:0:
192,192,71985,128,0,72199:0:0:0:0:
320,192,71985,1,0,0:0:0:0:
64,192,71985,1,0,0:0:0:0:
448,192,72092,1,0,0:0:0:0:
64,192,72199,128,0,72628:0:0:0:0:
320,192,72199,128,0,72414:0:0:0:0:
192,192,72414,1,0,0:0:0:0:
192,192,72628,128,0,72842:0:0:0:0:
448,192,72628,128,0,72842:0:0:0:0:
320,192,72842,128,0,73057:0:0:0:0:
64,192,72842,1,0,0:0:0:0:
448,192,73057,128,0,73699:0:0:0:0:
64,192,73057,1,0,0:0:0:0:
192,192,73128,1,0,0:0:0:0:
320,192,73199,1,0,0:0:0:0:
192,192,73271,1,0,0:0:0:0:
64,192,73342,1,0,0:0:0:0:
192,192,73414,1,0,0:0:0:0:
320,192,73485,1,0,0:0:0:0:
192,192,73557,1,0,0:0:0:0:
320,192,73628,1,0,0:0:0:0:
64,192,73699,128,0,74128:0:0:0:0:
192,192,73699,1,0,0:0:0:0:
320,192,73771,1,0,0:0:0:0:
448,192,73842,1,0,0:0:0:0:
320,192,73914,1,0,0:0:0:0:
192,192,73985,1,0,0:0:0:0:
320,192,74057,1,0,0:0:0:0:
192,192,74128,128,0,74342:0:0:0:0:
448,192,74128,1,0,0:0:0:0:
320,192,74199,1,0,0:0:0:0:
448,192,74271,1,0,0:0:0:0:
320,192,74342,128,0,74449:0:0:0:0:
64,192,74342,1,0,0:0:0:0:
192,192,74414,1,0,0:0:0:0:
448,192,74449,128,0,74557:0:0:0:0:
64,192,74485,1,0,0:0:0:0:
320,192,74557,128,0,74664:0:0:0:0:
192,192,74557,1,0,0:0:0:0:
64,192,74628,1,0,0:0:0:0:
192,192,74664,128,0,74771:0:0:0:0:
448,192,74699,1,0,0:0:0:0:
320,192,74771,128,0,75199:0:0:0:0:
64,192,74771,1,0,0:0:0:0:
192,192,74842,1,0,0:0:0:0:
448,192,74914,1,0,0:0:0:0:
192,192,74985,1,0,0:0:0:0:
64,192,75057,1,0,0:0:0:0:
192,192,75128,1,0,0:0:0:0:
64,192,75199,128,0,75628:0:0:0:0:
448,192,75199,1,0,0:0:0:0:
192,192,75271,1,0,0:0:0:0:
320,192,75342,1,0,0:0:0:0:
448,192,75414,1,0,0:0:0:0:
320,192,75485,1,0,0:0:0:0:
192,192,75557,1,0,0:0:0:0:
448,192,75628,128,0,75842:0:0:0:0:
320,192,75628,1,0,0:0:0:0:
192,192,75699,1,0,0:0:0:0:
64,192,75771,1,0,0:0:0:0:
320,192,75842,128,0,76057:0:0:0:0:
192,192,75842,1,0,0:0:0:0:
64,192,75914,1,0,0:0:0:0:
448,192,75985,1,0,0:0:0:0:
64,192,76057,128,0,76271:0:0:0:0:
192,192,76057,1,0,0:0:0:0:
448,192,76128,1,0,0:0:0:0:
192,192,76199,1,0,0:0:0:0:
320,192,76271,128,0,76485:0:0:0:0:
448,192,76271,1,0,0:0:0:0:
192,192,76342,1,0,0:0:0:0:
448,192,76414,1,0,0:0:0:0:
192,192,76485,128,0,76699:0:0:0:0:
64,192,76485,1,0,0:0:0:0:
448,192,76557,1,0,0:0:0:0:
320,192,76628,1,0,0:0:0:0:
448,192,76699,1,0,0:0:0:0:
320,192,76771,1,0,0:0:0:0:
64,192,76807,128,0,77021:0:0:0:0:
192,192,76842,1,0,0:0:0:0:
320,192,76914,1,0,0:0:0:0:
448,192,76985,1,0,0:0:0:0:
320,192,77057,1,0,0:0:0:0:
448,192,77128,128,0,77342:0:0:0:0:
192,192,77128,1,0,0:0:0:0:
320,192,77199,1,0,0:0:0:0:
192,192,77271,1,0,0:0:0:0:
320,192,77342,128,0,77557:0:0:0:0:
64,192,77342,1,0,0:0:0:0:
192,192,77414,1,0,0:0:0:0:
448,192,77485,1,0,0:0:0:0:
64,192,77557,128,0,77771:0:0:0:0:
192,192,77557,1,0,0:0:0:0:
448,192,77628,1,0,0:0:0:0:
320,192,77699,1,0,0:0:0:0:
192,192,77771,128,0,77985:0:0:0:0:
448,192,77771,1,0,0:0:0:0:
320,192,77842,1,0,0:0:0:0:
448,192,77914,1,0,0:0:0:0:
64,192,77985,128,0,78199:0:0:0:0:
320,192,77985,1,0,0:0:0:0:
448,192,78057,1,0,0:0:0:0:
192,192,78128,1,0,0:0:0:0:
320,192,78199,128,0,78628:0:0:0:0:
448,192,78199,1,0,0:0:0:0:
192,192,78271,1,0,0:0:0:0:
64,192,78342,1,0,0:0:0:0:
192,192,78414,1,0,0:0:0:0:
448,192,78485,1,0,0:0:0:0:
64,192,78557,1,0,0:0:0:0:
192,192,78628,128,0,78682:0:0:0:0:
448,192,78682,128,0,78735:0:0:0:0:
64,192,78735,128,0,78789:0:0:0:0:
320,192,78789,128,0,78842:0:0:0:0:
192,192,78842,128,0,78896:0:0:0:0:
448,192,78896,128,0,78949:0:0:0:0:
64,192,78949,128,0,79003:0:0:0:0:
320,192,79003,128,0,79057:0:0:0:0:
192,192,79057,128,0,79485:0:0:0:0:
448,192,79057,1,0,0:0:0:0:
64,192,79128,1,0,0:0:0:0:
320,192,79199,1,0,0:0:0:0:
448,192,79271,1,0,0:0:0:0:
64,192,79342,1,0,0:0:0:0:
320,192,79414,1,0,0:0:0:0:
448,192,79485,128,0,79914:0:0:0:0:
64,192,79485,1,0,0:0:0:0:
320,192,79557,1,0,0:0:0:0:
192,192,79628,1,0,0:0:0:0:
64,192,79699,1,0,0:0:0:0:
192,192,79771,1,0,0:0:0:0:
64,192,79842,1,0,0:0:0:0:
320,192,79914,128,0,80342:0:0:0:0:
192,192,79914,1,0,0:0:0:0:
64,192,79985,1,0,0:0:0:0:
192,192,80057,1,0,0:0:0:0:
448,192,80128,1,0,0:0:0:0:
192,192,80199,1,0,0:0:0:0:
64,192,80271,1,0,0:0:0:0:
192,192,80342,128,0,80396:0:0:0:0:
448,192,80396,128,0,80449:0:0:0:0:
64,192,80449,128,0,80503:0:0:0:0:
320,192,80503,128,0,80557:0:0:0:0:
192,192,80557,128,0,80610:0:0:0:0:
448,192,80610,128,0,80664:0:0:0:0:
64,192,80664,128,0,80717:0:0:0:0:
320,192,80717,128,0,80771:0:0:0:0:
192,192,80771,128,0,80985:0:0:0:0:
448,192,80771,1,0,0:0:0:0:
64,192,80842,1,0,0:0:0:0:
448,192,80914,1,0,0:0:0:0:
64,192,80985,128,0,81199:0:0:0:0:
320,192,80985,1,0,0:0:0:0:
448,192,81057,1,0,0:0:0:0:
192,192,81128,1,0,0:0:0:0:
320,192,81199,128,0,81414:0:0:0:0:
448,192,81199,1,0,0:0:0:0:
192,192,81271,1,0,0:0:0:0:
64,192,81342,1,0,0:0:0:0:
448,192,81414,128,0,81628:0:0:0:0:
192,192,81414,1,0,0:0:0:0:
64,192,81485,1,0,0:0:0:0:
320,192,81557,1,0,0:0:0:0:
192,192,81628,128,0,82271:0:0:0:0:
64,192,81628,1,0,0:0:0:0:
320,192,81699,1,0,0:0:0:0:
448,192,81771,1,0,0:0:0:0:
320,192,81842,1,0,0:0:0:0:
64,192,81914,1,0,0:0:0:0:
448,192,81985,1,0,0:0:0:0:
320,192,82057,1,0,0:0:0:0:
64,192,82128,1,0,0:0:0:0:
320,192,82199,1,0,0:0:0:0:
64,192,82271,128,0,82485:0:0:0:0:
448,192,82271,1,0,0:0:0:0:
320,192,82342,1,0,0:0:0:0:
192,192,82414,1,0,0:0:0:0:
448,192,82485,128,0,82699:0:0:0:0:
320,192,82485,1,0,0:0:0:0:
192,192,82557,1,0,0:0:0:0:
64,192,82628,1,0,0:0:0:0:
320,192,82699,128,0,82914:0:0:0:0:
192,192,82699,1,0,0:0:0:0:
64,192,82771,1,0,0:0:0:0:
448,192,82842,1,0,0:0:0:0:
192,192,82914,128,0,83128:0:0:0:0:
64,192,82914,1,0,0:0:0:0:
448,192,82985,1,0,0:0:0:0:
64,192,83057,1,0,0:0:0:0:
448,192,83128,128,0,83342:0:0:0:0:
320,192,83128,1,0,0:0:0:0:
64,192,83199,1,0,0:0:0:0:
192,192,83271,1,0,0:0:0:0:
320,192,83342,128,0,83985:0:0:0:0:
64,192,83342,1,0,0:0:0:0:
192,192,83414,1,0,0:0:0:0:
448,192,83485,1,0,0:0:0:0:
192,192,83557,1,0,0:0:0:0:
64,192,83628,1,0,0:0:0:0:
192,192,83699,1,0,0:0:0:0:
448,192,83771,1,0,0:0:0:0:
64,192,83842,1,0,0:0:0:0:
192,192,83914,1,0,0:0:0:0:
448,192,83985,128,0,84057:0:0:0:0:
64,192,83985,1,0,0:0:0:0:
320,192,84057,128,0,84128:0:0:0:0:
192,192,84057,1,0,0:0:0:0:
448,192,84128,128,0,84199:0:0:0:0:
64,192,84128,1,0,0:0:0:0:
192,192,84199,128,0,84842:0:0:0:0:
320,192,84199,1,0,0:0:0:0:
64,192,84271,1,0,0:0:0:0:
448,192,84342,1,0,0:0:0:0:
64,192,84414,1,0,0:0:0:0:
320,192,84485,1,0,0:0:0:0:
448,192,84557,1,0,0:0:0:0:
64,192,84628,1,0,0:0:0:0:
320,192,84699,1,0,0:0:0:0:
64,192,84771,1,0,0:0:0:0:
320,192,84842,128,0,84914:0:0:0:0:
448,192,84842,1,0,0:0:0:0:
192,192,84914,128,0,84985:0:0:0:0:
64,192,84914,1,0,0:0:0:0:
320,192,84985,128,0,85057:0:0:0:0:
448,192,84985,1,0,0:0:0:0:
64,192,85057,128,0,85914:0:0:0:0:
192,192,85057,1,0,0:0:0:0:
448,192,85128,1,0,0:0:0:0:
320,192,85199,1,0,0:0:0:0:
192,192,85271,128,0,85914:0:0:0:0:
448,192,85271,1,0,0:0:0:0:
320,192,85342,1,0,0:0:0:0:
448,192,85414,1,0,0:0:0:0:
320,192,85485,1,0,0:0:0:0:
320,192,85914,128,0,86128:0:0:0:0:
448,192,85914,128,0,86128:0:0:0:0:
192,192,86342,128,0,86557:0:0:0:0:
448,192,86342,128,0,86557:0:0:0:0:
320,192,86342,1,0,0:0:0:0:
64,192,86342,128,0,86771:0:0:0:0:
320,192,86449,1,0,0:0:0:0:
320,192,86557,1,0,0:0:0:0:
320,192,86664,1,0,0:0:0:0:
448,192,86771,1,0,0:0:0:0:
192,192,86771,1,0,0:0:0:0:
320,192,86771,128,0,87414:0:0:0:0:
192,192,86878,1,0,0:0:0:0:
448,192,86985,1,0,0:0:0:0:
192,192,87092,1,0,0:0:0:0:
64,192,87199,1,0,0:0:0:0:
448,192,87199,1,0,0:0:0:0:
192,192,87307,1,0,0:0:0:0:
64,192,87414,128,0,87842:0:0:0:0:
448,192,87414,1,0,0:0:0:0:
320,192,87521,1,0,0:0:0:0:
192,192,87628,1,0,0:0:0:0:
448,192,87628,1,0,0:0:0:0:
320,192,87735,1,0,0:0:0:0:
192,192,87842,128,0,88057:0:0:0:0:
448,192,87842,1,0,0:0:0:0:
320,192,87949,1,0,0:0:0:0:
320,192,88057,128,0,88164:0:0:0:0:
64,192,88057,1,0,0:0:0:0:
448,192,88057,1,0,0:0:0:0:
448,192,88164,128,0,88271:0:0:0:0:
192,192,88164,1,0,0:0:0:0:
320,192,88271,128,0,88378:0:0:0:0:
64,192,88271,1,0,0:0:0:0:
192,192,88378,128,0,88485:0:0:0:0:
448,192,88378,1,0,0:0:0:0:
320,192,88485,128,0,88914:0:0:0:0:
448,192,88485,1,0,0:0:0:0:
64,192,88485,1,0,0:0:0:0:
192,192,88592,1,0,0:0:0:0:
448,192,88699,1,0,0:0:0:0:
192,192,88807,1,0,0:0:0:0:
192,192,88914,128,0,89342:0:0:0:0:
64,192,88914,1,0,0:0:0:0:
448,192,88914,1,0,0:0:0:0:
320,192,89021,1,0,0:0:0:0:
64,192,89128,1,0,0:0:0:0:
320,192,89235,1,0,0:0:0:0:
448,192,89342,128,0,89557:0:0:0:0:
64,192,89342,1,0,0:0:0:0:
320,192,89342,1,0,0:0:0:0:
192,192,89449,1,0,0:0:0:0:
320,192,89557,128,0,89771:0:0:0:0:
64,192,89557,1,0,0:0:0:0:
192,192,89664,1,0,0:0:0:0:
192,192,89771,128,0,89985:0:0:0:0:
448,192,89771,1,0,0:0:0:0:
64,192,89771,1,0,0:0:0:0:
64,192,89878,1,0,0:0:0:0:
448,192,89985,128,0,90199:0:0:0:0:
320,192,89985,1,0,0:0:0:0:
64,192,90092,1,0,0:0:0:0:
320,192,90199,128,0,90414:0:0:0:0:
64,192,90199,1,0,0:0:0:0:
192,192,90199,1,0,0:0:0:0:
448,192,90307,1,0,0:0:0:0:
64,192,90414,1,0,0:0:0:0:
192,192,90521,128,0,90735:0:0:0:0:
320,192,90521,1,0,0:0:0:0:
448,192,90628,1,0,0:0:0:0:
64,192,90628,1,0,0:0:0:0:
320,192,90735,1,0,0:0:0:0:
448,192,90842,128,0,91271:0:0:0:0:
64,192,90842,1,0,0:0:0:0:
320,192,90949,1,0,0:0:0:0:
320,192,91057,128,0,91271:0:0:0:0:
64,192,91057,1,0,0:0:0:0:
192,192,91057,1,0,0:0:0:0:
192,192,91164,1,0,0:0:0:0:
64,192,91271,128,0,91485:0:0:0:0:
192,192,91271,1,0,0:0:0:0:
448,192,91378,1,0,0:0:0:0:
192,192,91485,128,0,91699:0:0:0:0:
448,192,91485,128,0,91699:0:0:0:0:
320,192,91485,1,0,0:0:0:0:
320,192,91592,1,0,0:0:0:0:
64,192,91699,128,0,91914:0:0:0:0:
320,192,91699,1,0,0:0:0:0:
192,192,91807,1,0,0:0:0:0:
192,192,91914,128,0,92342:0:0:0:0:
448,192,91914,128,0,92342:0:0:0:0:
320,192,91914,1,0,0:0:0:0:
64,192,92021,1,0,0:0:0:0:
320,192,92128,1,0,0:0:0:0:
64,192,92235,1,0,0:0:0:0:
320,192,92235,1,0,0:0:0:0:
64,192,92342,128,0,92396:0:0:0:0:
320,192,92396,128,0,92449:0:0:0:0:
192,192,92449,128,0,92503:0:0:0:0:
448,192,92503,128,0,92557:0:0:0:0:
64,192,92557,128,0,92610:0:0:0:0:
320,192,92610,128,0,92664:0:0:0:0:
192,192,92664,128,0,92717:0:0:0:0:
448,192,92717,128,0,92771:0:0:0:0:
192,192,92771,128,0,93199:0:0:0:0:
64,192,92771,128,0,92985:0:0:0:0:
320,192,92985,1,0,0:0:0:0:
448,192,92985,1,0,0:0:0:0:
448,192,93199,128,0,93628:0:0:0:0:
320,192,93199,128,0,93414:0:0:0:0:
64,192,93307,1,0,0:0:0:0:
192,192,93414,1,0,0:0:0:0:
64,192,93521,1,0,0:0:0:0:
320,192,93628,128,0,94057:0:0:0:0:
192,192,93628,1,0,0:0:0:0:
64,192,93628,1,0,0:0:0:0:
448,192,93735,1,0,0:0:0:0:
192,192,93842,1,0,0:0:0:0:
448,192,93949,1,0,0:0:0:0:
448,192,94057,128,0,94110:0:0:0:0:
64,192,94057,1,0,0:0:0:0:
192,192,94110,128,0,94164:0:0:0:0:
320,192,94164,128,0,94217:0:0:0:0:
64,192,94217,128,0,94271:0:0:0:0:
448,192,94271,128,0,94324:0:0:0:0:
192,192,94324,128,0,94378:0:0:0:0:
320,192,94378,128,0,94432:0:0:0:0:
64,192,94432,128,0,94485:0:0:0:0:
320,192,94485,128,0,94914:0:0:0:0:
448,192,94485,1,0,0:0:0:0:
192,192,94592,1,0,0:0:0:0:
192,192,94699,128,0,94914:0:0:0:0:
64,192,94699,1,0,0:0:0:0:
448,192,94807,1,0,0:0:0:0:
64,192,94914,128,0,95342:0:0:0:0:
448,192,94914,1,0,0:0:0:0:
192,192,95021,1,0,0:0:0:0:
448,192,95128,128,0,95342:0:0:0:0:
320,192,95128,1,0,0:0:0:0:
192,192,95235,1,0,0:0:0:0:
320,192,95342,128,0,95985:0:0:0:0:
192,192,95342,1,0,0:0:0:0:
448,192,95449,1,0,0:0:0:0:
192,192,95557,1,0,0:0:0:0:
448,192,95664,1,0,0:0:0:0:
192,192,95771,1,0,0:0:0:0:
64,192,95771,1,0,0:0:0:0:
448,192,95878,1,0,0:0:0:0:
64,192,95985,128,0,96199:0:0:0:0:
192,192,95985,1,0,0:0:0:0:
320,192,96092,1,0,0:0:0:0:
320,192,96199,128,0,96414:0:0:0:0:
192,192,96199,1,0,0:0:0:0:
448,192,96199,1,0,0:0:0:0:
64,192,96307,1,0,0:0:0:0:
192,192,96414,128,0,96628:0:0:0:0:
448,192,96414,1,0,0:0:0:0:
320,192,96521,1,0,0:0:0:0:
64,192,96628,128,0,96842:0:0:0:0:
320,192,96628,1,0,0:0:0:0:
448,192,96628,1,0,0:0:0:0:
192,192,96735,1,0,0:0:0:0:
320,192,96842,128,0,97057:0:0:0:0:
448,192,96842,1,0,0:0:0:0:
192,192,96949,1,0,0:0:0:0:
192,192,97057,128,0,97485:0:0:0:0:
64,192,97057,1,0,0:0:0:0:
448,192,97057,1,0,0:0:0:0:
320,192,97164,1,0,0:0:0:0:
64,192,97271,1,0,0:0:0:0:
320,192,97378,1,0,0:0:0:0:
64,192,97485,128,0,97914:0:0:0:0:
448,192,97485,1,0,0:0:0:0:
320,192,97485,1,0,0:0:0:0:
192,192,97592,1,0,0:0:0:0:
448,192,97699,1,0,0:0:0:0:
192,192,97807,1,0,0:0:0:0:
192,192,97914,128,0,98128:0:0:0:0:
320,192,97914,1,0,0:0:0:0:
448,192,97914,1,0,0:0:0:0:
320,192,98021,1,0,0:0:0:0:
320,192,98128,128,0,98342:0:0:0:0:
448,192,98128,1,0,0:0:0:0:
64,192,98235,1,0,0:0:0:0:
192,192,98342,128,0,98557:0:0:0:0:
64,192,98342,1,0,0:0:0:0:
448,192,98342,1,0,0:0:0:0:
320,192,98449,1,0,0:0:0:0:
448,192,98557,128,0,98771:0:0:0:0:
64,192,98557,1,0,0:0:0:0:
192,192,98664,1,0,0:0:0:0:
192,192,98771,128,0,98878:0:0:0:0:
64,192,98771,1,0,0:0:0:0:
320,192,98771,1,0,0:0:0:0:
192,192,98985,128,0,99092:0:0:0:0:
64,192,98985,1,0,0:0:0:0:
448,192,99092,1,0,0:0:0:0:
192,192,99199,128,0,99253:0:0:0:0:
64,192,99199,1,0,0:0:0:0:
192,192,99307,128,0,99360:0:0:0:0:
64,192,99307,1,0,0:0:0:0:
192,192,99414,128,0,99467:0:0:0:0:
64,192,99414,1,0,0:0:0:0:
448,192,99414,1,0,0:0:0:0:
192,192,99521,128,0,99628:0:0:0:0:
64,192,99521,1,0,0:0:0:0:
448,192,99628,1,0,0:0:0:0:
192,192,99735,128,0,99842:0:0:0:0:
320,192,99735,128,0,99842:0:0:0:0:
64,192,99735,1,0,0:0:0:0:
448,192,99735,128,0,100485:0:0:0:0:
192,192,99949,128,0,100003:0:0:0:0:
320,192,99949,128,0,100003:0:0:0:0:
64,192,99949,1,0,0:0:0:0:
192,192,100057,128,0,100110:0:0:0:0:
320,192,100057,128,0,100110:0:0:0:0:
64,192,100057,1,0,0:0:0:0:
320,192,100164,128,0,100217:0:0:0:0:
192,192,100164,128,0,100217:0:0:0:0:
64,192,100164,1,0,0:0:0:0:
192,192,100271,128,0,100378:0:0:0:0:
320,192,100271,128,0,100378:0:0:0:0:
64,192,100271,1,0,0:0:0:0:
320,192,100485,128,0,101771:0:0:0:0:
64,192,100485,1,0,0:0:0:0:
192,192,100485,1,0,0:0:0:0:
448,192,100592,1,0,0:0:0:0:
192,192,100699,1,0,0:0:0:0:
448,192,100807,1,0,0:0:0:0:
192,192,100914,1,0,0:0:0:0:
64,192,100914,1,0,0:0:0:0:
448,192,101021,1,0,0:0:0:0:
64,192,101128,1,0,0:0:0:0:
448,192,101235,1,0,0:0:0:0:
64,192,101342,1,0,0:0:0:0:
192,192,101342,1,0,0:0:0:0:
448,192,101449,1,0,0:0:0:0:
192,192,101557,1,0,0:0:0:0:
448,192,101664,1,0,0:0:0:0:
192,192,101771,128,0,101878:0:0:0:0:
64,192,101771,1,0,0:0:0:0:
448,192,101771,1,0,0:0:0:0:
320,192,101878,1,0,0:0:0:0:
320,192,101985,128,0,102092:0:0:0:0:
64,192,101985,1,0,0:0:0:0:
192,192,102092,1,0,0:0:0:0:
448,192,102199,128,0,102842:0:0:0:0:
64,192,102199,1,0,0:0:0:0:
320,192,102199,1,0,0:0:0:0:
192,192,102307,1,0,0:0:0:0:
64,192,102414,1,0,0:0:0:0:
192,192,102521,1,0,0:0:0:0:
64,192,102628,1,0,0:0:0:0:
320,192,102628,1,0,0:0:0:0:
192,192,102735,1,0,0:0:0:0:
192,192,102842,128,0,103485:0:0:0:0:
320,192,102842,1,0,0:0:0:0:
64,192,102949,1,0,0:0:0:0:
448,192,103057,1,0,0:0:0:0:
320,192,103057,1,0,0:0:0:0:
64,192,103164,1,0,0:0:0:0:
64,192,103271,128,0,103485:0:0:0:0:
448,192,103271,1,0,0:0:0:0:
320,192,103378,1,0,0:0:0:0:
320,192,103485,128,0,103592:0:0:0:0:
448,192,103485,1,0,0:0:0:0:
192,192,103592,1,0,0:0:0:0:
192,192,103699,128,0,103807:0:0:0:0:
64,192,103699,1,0,0:0:0:0:
320,192,103807,1,0,0:0:0:0:
64,192,103914,128,0,104557:0:0:0:0:
192,192,103914,1,0,0:0:0:0:
448,192,103914,1,0,0:0:0:0:
320,192,104021,1,0,0:0:0:0:
192,192,104128,1,0,0:0:0:0:
448,192,104235,1,0,0:0:0:0:
192,192,104342,128,0,104557:0:0:0:0:
448,192,104342,1,0,0:0:0:0:
320,192,104342,1,0,0:0:0:0:
320,192,104449,1,0,0:0:0:0:
320,192,104557,128,0,104985:0:0:0:0:
448,192,104557,1,0,0:0:0:0:
192,192,104664,1,0,0:0:0:0:
64,192,104771,1,0,0:0:0:0:
448,192,104771,1,0,0:0:0:0:
192,192,104878,1,0,0:0:0:0:
64,192,104985,128,0,105092:0:0:0:0:
448,192,104985,1,0,0:0:0:0:
320,192,105092,1,0,0:0:0:0:
192,192,105199,128,0,105307:0:0:0:0:
64,192,105199,1,0,0:0:0:0:
448,192,105199,1,0,0:0:0:0:
320,192,105307,1,0,0:0:0:0:
320,192,105414,128,0,105521:0:0:0:0:
448,192,105414,1,0,0:0:0:0:
192,192,105521,1,0,0:0:0:0:
448,192,105628,128,0,106914:0:0:0:0:
64,192,105628,1,0,0:0:0:0:
192,192,105628,1,0,0:0:0:0:
320,192,105735,1,0,0:0:0:0:
64,192,105842,1,0,0:0:0:0:
192,192,105949,1,0,0:0:0:0:
320,192,105949,1,0,0:0:0:0:
64,192,106057,1,0,0:0:0:0:
192,192,106164,1,0,0:0:0:0:
320,192,106271,1,0,0:0:0:0:
64,192,106271,1,0,0:0:0:0:
192,192,106378,1,0,0:0:0:0:
64,192,106485,128,0,106914:0:0:0:0:
320,192,106485,1,0,0:0:0:0:
192,192,106592,1,0,0:0:0:0:
320,192,106914,128,0,107199:0:0:0:0:
192,192,106914,1,0,0:0:0:0:
64,192,107021,1,0,0:0:0:0:
448,192,107199,128,0,107271:0:0:0:0:
64,192,107235,1,0,0:0:0:0:
320,192,107271,128,0,107342:0:0:0:0:
192,192,107342,128,0,107985:0:0:0:0:
64,192,107342,1,0,0:0:0:0:
448,192,107342,1,0,0:0:0:0:
320,192,107449,1,0,0:0:0:0:
64,192,107557,1,0,0:0:0:0:
320,192,107664,1,0,0:0:0:0:
64,192,107771,1,0,0:0:0:0:
448,192,107771,1,0,0:0:0:0:
320,192,107878,1,0,0:0:0:0:
448,192,107985,1,0,0:0:0:0:
320,192,108092,1,0,0:0:0:0:
64,192,108199,128,0,108307:0:0:0:0:
192,192,108199,1,0,0:0:0:0:
448,192,108199,1,0,0:0:0:0:
320,192,108307,1,0,0:0:0:0:
192,192,108414,128,0,108521:0:0:0:0:
448,192,108414,1,0,0:0:0:0:
320,192,108521,1,0,0:0:0:0:
320,192,108628,128,0,108735:0:0:0:0:
64,192,108628,1,0,0:0:0:0:
448,192,108628,1,0,0:0:0:0:
192,192,108735,1,0,0:0:0:0:
448,192,108842,128,0,108949:0:0:0:0:
64,192,108842,1,0,0:0:0:0:
192,192,108949,1,0,0:0:0:0:
192,192,109057,128,0,109164:0:0:0:0:
64,192,109057,1,0,0:0:0:0:
320,192,109057,1,0,0:0:0:0:
448,192,109164,1,0,0:0:0:0:
320,192,109271,128,0,109378:0:0:0:0:
64,192,109271,1,0,0:0:0:0:
448,192,109378,1,0,0:0:0:0:
448,192,109485,128,0,109592:0:0:0:0:
64,192,109485,1,0,0:0:0:0:
192,192,109485,1,0,0:0:0:0:
320,192,109592,1,0,0:0:0:0:
320,192,109699,128,0,110342:0:0:0:0:
192,192,109699,1,0,0:0:0:0:
448,192,109807,1,0,0:0:0:0:
64,192,109914,1,0,0:0:0:0:
192,192,109914,1,0,0:0:0:0:
448,192,110021,1,0,0:0:0:0:
64,192,110128,1,0,0:0:0:0:
448,192,110235,1,0,0:0:0:0:
192,192,110342,128,0,110449:0:0:0:0:
64,192,110342,1,0,0:0:0:0:
448,192,110342,1,0,0:0:0:0:
320,192,110449,1,0,0:0:0:0:
320,192,110557,128,0,110664:0:0:0:0:
448,192,110557,1,0,0:0:0:0:
64,192,110664,1,0,0:0:0:0:
448,192,110771,128,0,112485:0:0:0:0:
320,192,110771,1,0,0:0:0:0:
192,192,110771,1,0,0:0:0:0:
64,192,110878,1,0,0:0:0:0:
320,192,110985,1,0,0:0:0:0:
64,192,111092,1,0,0:0:0:0:
192,192,111199,1,0,0:0:0:0:
320,192,111199,1,0,0:0:0:0:
64,192,111307,1,0,0:0:0:0:
192,192,111414,1,0,0:0:0:0:
64,192,111521,1,0,0:0:0:0:
192,192,111628,1,0,0:0:0:0:
320,192,111628,1,0,0:0:0:0:
64,192,111735,1,0,0:0:0:0:
320,192,111842,1,0,0:0:0:0:
64,192,111949,1,0,0:0:0:0:
192,192,112057,1,0,0:0:0:0:
320,192,112057,1,0,0:0:0:0:
64,192,112164,1,0,0:0:0:0:
192,192,112271,1,0,0:0:0:0:
64,192,112378,1,0,0:0:0:0:
320,192,112485,128,0,112592:0:0:0:0:
192,192,112485,128,0,112592:0:0:0:0:
64,192,112485,1,0,0:0:0:0:
320,192,112699,128,0,112807:0:0:0:0:
192,192,112699,128,0,112807:0:0:0:0:
448,192,112807,1,0,0:0:0:0:
320,192,112914,128,0,112967:0:0:0:0:
192,192,112914,128,0,112967:0:0:0:0:
320,192,113021,128,0,113074:0:0:0:0:
192,192,113021,128,0,113074:0:0:0:0:
320,192,113128,128,0,113182:0:0:0:0:
192,192,113128,128,0,113182:0:0:0:0:
64,192,113128,1,0,0:0:0:0:
320,192,113235,128,0,113342:0:0:0:0:
192,192,113235,128,0,113342:0:0:0:0:
448,192,113342,1,0,0:0:0:0:
64,192,113449,128,0,113557:0:0:0:0:
192,192,113449,128,0,113557:0:0:0:0:
448,192,113449,128,0,113557:0:0:0:0:
320,192,113449,128,0,114199:0:0:0:0:
64,192,113664,128,0,113717:0:0:0:0:
192,192,113664,128,0,113717:0:0:0:0:
448,192,113664,128,0,113717:0:0:0:0:
64,192,113771,128,0,113824:0:0:0:0:
448,192,113771,128,0,113824:0:0:0:0:
192,192,113771,128,0,113824:0:0:0:0:
192,192,113878,128,0,113932:0:0:0:0:
448,192,113878,128,0,113932:0:0:0:0:
64,192,113878,128,0,113932:0:0:0:0:
448,192,113985,128,0,114092:0:0:0:0:
192,192,113985,128,0,114092:0:0:0:0:
64,192,113985,128,0,114092:0:0:0:0:
192,192,114199,128,0,115271:0:0:0:0:
64,192,114199,1,0,0:0:0:0:
448,192,114199,1,0,0:0:0:0:
448,192,114628,1,0,0:0:0:0:
64,192,114628,1,0,0:0:0:0:
320,192,114842,1,0,0:0:0:0:
64,192,115057,1,0,0:0:0:0:
448,192,115057,1,0,0:0:0:0:
320,192,115164,1,0,0:0:0:0:
64,192,115271,128,0,115378:0:0:0:0:
448,192,115271,1,0,0:0:0:0:
192,192,115485,128,0,115592:0:0:0:0:
64,192,115485,1,0,0:0:0:0:
448,192,115485,1,0,0:0:0:0:
320,192,115699,128,0,115807:0:0:0:0:
192,192,115699,1,0,0:0:0:0:
448,192,115914,128,0,116557:0:0:0:0:
320,192,115914,1,0,0:0:0:0:
64,192,115914,1,0,0:0:0:0:
192,192,116021,1,0,0:0:0:0:
64,192,116128,1,0,0:0:0:0:
192,192,116342,128,0,116557:0:0:0:0:
320,192,116342,1,0,0:0:0:0:
64,192,116342,1,0,0:0:0:0:
320,192,116557,128,0,117199:0:0:0:0:
64,192,116557,1,0,0:0:0:0:
448,192,116771,1,0,0:0:0:0:
64,192,116771,1,0,0:0:0:0:
192,192,116878,1,0,0:0:0:0:
448,192,116985,1,0,0:0:0:0:
448,192,117199,128,0,117307:0:0:0:0:
64,192,117199,1,0,0:0:0:0:
192,192,117199,1,0,0:0:0:0:
320,192,117414,128,0,117628:0:0:0:0:
192,192,117414,1,0,0:0:0:0:
64,192,117414,1,0,0:0:0:0:
64,192,117521,1,0,0:0:0:0:
192,192,117521,1,0,0:0:0:0:
192,192,117628,128,0,118271:0:0:0:0:
448,192,117628,1,0,0:0:0:0:
64,192,117628,1,0,0:0:0:0:
448,192,117842,1,0,0:0:0:0:
320,192,117949,1,0,0:0:0:0:
64,192,118057,128,0,118271:0:0:0:0:
448,192,118057,1,0,0:0:0:0:
320,192,118057,1,0,0:0:0:0:
320,192,118271,128,0,118378:0:0:0:0:
448,192,118271,1,0,0:0:0:0:
320,192,118485,128,0,118914:0:0:0:0:
192,192,118485,1,0,0:0:0:0:
448,192,118485,1,0,0:0:0:0:
64,192,118557,1,0,0:0:0:0:
192,192,118628,1,0,0:0:0:0:
64,192,118699,1,0,0:0:0:0:
192,192,118807,1,0,0:0:0:0:
448,192,118914,128,0,119342:0:0:0:0:
192,192,118914,1,0,0:0:0:0:
64,192,118914,1,0,0:0:0:0:
64,192,119128,128,0,119342:0:0:0:0:
192,192,119128,1,0,0:0:0:0:
320,192,119235,1,0,0:0:0:0:
192,192,119342,128,0,120199:0:0:0:0:
320,192,119342,1,0,0:0:0:0:
320,192,119449,1,0,0:0:0:0:
448,192,119557,1,0,0:0:0:0:
448,192,119771,1,0,0:0:0:0:
64,192,119771,1,0,0:0:0:0:
320,192,119985,128,0,120199:0:0:0:0:
448,192,119985,1,0,0:0:0:0:
448,192,120199,128,0,120628:0:0:0:0:
64,192,120199,1,0,0:0:0:0:
192,192,120307,1,0,0:0:0:0:
320,192,120414,1,0,0:0:0:0:
64,192,120521,1,0,0:0:0:0:
192,192,120521,1,0,0:0:0:0:
320,192,120628,1,0,0:0:0:0:
192,192,120735,1,0,0:0:0:0:
64,192,120735,128,0,121378:0:0:0:0:
448,192,120842,1,0,0:0:0:0:
320,192,120842,1,0,0:0:0:0:
448,192,120949,1,0,0:0:0:0:
320,192,120949,1,0,0:0:0:0:
192,192,121057,128,0,121378:0:0:0:0:
320,192,121057,1,0,0:0:0:0:
448,192,121057,1,0,0:0:0:0:
320,192,121271,1,0,0:0:0:0:
448,192,121378,128,0,121914:0:0:0:0:
64,192,121485,1,0,0:0:0:0:
320,192,121485,1,0,0:0:0:0:
192,192,121699,1,0,0:0:0:0:
64,192,121914,128,0,122128:0:0:0:0:
192,192,121914,128,0,122128:0:0:0:0:
320,192,121914,1,0,0:0:0:0:
448,192,122021,1,0,0:0:0:0:
320,192,122128,1,0,0:0:0:0:
448,192,122235,128,0,122449:0:0:0:0:
320,192,122235,128,0,122449:0:0:0:0:
192,192,122235,1,0,0:0:0:0:
192,192,122342,1,0,0:0:0:0:
64,192,122342,1,0,0:0:0:0:
64,192,122557,128,0,122664:0:0:0:0:
448,192,122557,128,0,122664:0:0:0:0:
320,192,122557,1,0,0:0:0:0:
320,192,122771,128,0,122985:0:0:0:0:
64,192,122771,128,0,122985:0:0:0:0:
448,192,122771,1,0,0:0:0:0:
192,192,122771,1,0,0:0:0:0:
448,192,122878,1,0,0:0:0:0:
448,192,122985,128,0,123414:0:0:0:0:
192,192,122985,1,0,0:0:0:0:
320,192,123199,1,0,0:0:0:0:
64,192,123199,1,0,0:0:0:0:
320,192,123414,128,0,123628:0:0:0:0:
192,192,123414,1,0,0:0:0:0:
192,192,123628,128,0,123699:0:0:0:0:
64,192,123628,1,0,0:0:0:0:
448,192,123628,1,0,0:0:0:0:
320,192,123699,128,0,123771:0:0:0:0:
192,192,123771,128,0,123842:0:0:0:0:
64,192,123842,128,0,123949:0:0:0:0:
448,192,123842,1,0,0:0:0:0:
192,192,124057,128,0,124164:0:0:0:0:
320,192,124057,1,0,0:0:0:0:
448,192,124057,1,0,0:0:0:0:
320,192,124271,128,0,124378:0:0:0:0:
192,192,124271,1,0,0:0:0:0:
192,192,124378,1,0,0:0:0:0:
448,192,124485,128,0,125235:0:0:0:0:
64,192,124485,1,0,0:0:0:0:
320,192,124485,1,0,0:0:0:0:
192,192,124699,1,0,0:0:0:0:
64,192,124914,1,0,0:0:0:0:
320,192,124914,1,0,0:0:0:0:
64,192,125128,1,0,0:0:0:0:
320,192,125128,1,0,0:0:0:0:
64,192,125235,128,0,126199:0:0:0:0:
192,192,125235,1,0,0:0:0:0:
448,192,125342,1,0,0:0:0:0:
320,192,125342,128,0,126199:0:0:0:0:
192,192,125771,1,0,0:0:0:0:
192,192,126199,128,0,126307:0:0:0:0:
448,192,126199,128,0,126307:0:0:0:0:
448,192,126414,128,0,126521:0:0:0:0:
192,192,126414,128,0,126521:0:0:0:0:
192,192,126628,128,0,126682:0:0:0:0:
448,192,126628,128,0,126682:0:0:0:0:
448,192,126735,128,0,126789:0:0:0:0:
192,192,126735,128,0,126789:0:0:0:0:
192,192,126842,128,0,126896:0:0:0:0:
448,192,126842,128,0,126896:0:0:0:0:
448,192,126949,128,0,127057:0:0:0:0:
192,192,126949,128,0,127057:0:0:0:0:
192,192,127164,128,0,127271:0:0:0:0:
448,192,127164,128,0,127271:0:0:0:0:
192,192,127378,128,0,127432:0:0:0:0:
448,192,127378,128,0,127432:0:0:0:0:
448,192,127485,128,0,127539:0:0:0:0:
192,192,127485,128,0,127539:0:0:0:0:
448,192,127592,128,0,127646:0:0:0:0:
192,192,127592,128,0,127646:0:0:0:0:
448,192,127699,128,0,127807:0:0:0:0:
192,192,127699,128,0,127807:0:0:0:0:
448,192,127914,128,0,128021:0:0:0:0:
320,192,127914,128,0,128021:0:0:0:0:
320,192,128128,128,0,128235:0:0:0:0:
448,192,128128,128,0,128235:0:0:0:0:
320,192,128342,128,0,128396:0:0:0:0:
448,192,128342,128,0,128396:0:0:0:0:
448,192,128449,128,0,128503:0:0:0:0:
320,192,128449,128,0,128503:0:0:0:0:
320,192,128557,128,0,128610:0:0:0:0:
448,192,128557,128,0,128610:0:0:0:0:
320,192,128664,128,0,128771:0:0:0:0:
448,192,128664,128,0,128771:0:0:0:0:
192,192,128771,128,0,128985:0:0:0:0:
64,192,128878,128,0,128985:0:0:0:0:
320,192,128985,128,0,129199:0:0:0:0:
64,192,129092,128,0,129199:0:0:0:0:
448,192,129199,128,0,129414:0:0:0:0:
64,192,129307,128,0,129414:0:0:0:0:
320,192,129414,128,0,129628:0:0:0:0:
192,192,129521,128,0,129628:0:0:0:0:
448,192,129628,1,0,0:0:0:0:
64,192,129628,1,0,0:0:0:0:
320,192,129682,1,0,0:0:0:0:
192,192,129735,1,0,0:0:0:0:
64,192,129789,1,0,0:0:0:0:
192,192,129842,1,0,0:0:0:0:
320,192,129896,1,0,0:0:0:0:
448,192,129949,1,0,0:0:0:0:
320,192,130003,1,0,0:0:0:0:
448,192,130057,1,0,0:0:0:0:
192,192,130057,1,0,0:0:0:0:
64,192,130110,1,0,0:0:0:0:
192,192,130164,1,0,0:0:0:0:
320,192,130217,1,0,0:0:0:0:
448,192,130271,1,0,0:0:0:0:
320,192,130324,1,0,0:0:0:0:
192,192,130378,1,0,0:0:0:0:
320,192,130432,1,0,0:0:0:0:
448,192,130485,1,0,0:0:0:0:
64,192,130485,1,0,0:0:0:0:
64,192,130699,1,0,0:0:0:0:
448,192,130753,1,0,0:0:0:0:
64,192,130807,1,0,0:0:0:0:
192,192,130914,1,0,0:0:0:0:
320,192,130914,1,0,0:0:0:0:
448,192,130967,1,0,0:0:0:0:
192,192,131021,1,0,0:0:0:0:
320,192,131128,1,0,0:0:0:0:
448,192,131182,1,0,0:0:0:0:
320,192,131235,1,0,0:0:0:0:
448,192,131342,1,0,0:0:0:0:
64,192,131342,1,0,0:0:0:0:
320,192,131396,1,0,0:0:0:0:
192,192,131449,1,0,0:0:0:0:
64,192,131503,1,0,0:0:0:0:
192,192,131557,1,0,0:0:0:0:
320,192,131610,1,0,0:0:0:0:
448,192,131664,1,0,0:0:0:0:
320,192,131717,1,0,0:0:0:0:
448,192,131771,1,0,0:0:0:0:
64,192,131771,1,0,0:0:0:0:
192,192,131824,1,0,0:0:0:0:
320,192,131878,1,0,0:0:0:0:
448,192,131932,1,0,0:0:0:0:
320,192,131985,1,0,0:0:0:0:
192,192,132039,1,0,0:0:0:0:
64,192,132092,1,0,0:0:0:0:
192,192,132146,1,0,0:0:0:0:
320,192,132199,1,0,0:0:0:0:
448,192,132199,1,0,0:0:0:0:
192,192,132253,1,0,0:0:0:0:
64,192,132307,1,0,0:0:0:0:
192,192,132360,1,0,0:0:0:0:
320,192,132414,1,0,0:0:0:0:
448,192,132467,1,0,0:0:0:0:
64,192,132521,1,0,0:0:0:0:
320,192,132521,1,0,0:0:0:0:
192,192,132574,1,0,0:0:0:0:
448,192,132628,1,0,0:0:0:0:
320,192,132682,1,0,0:0:0:0:
192,192,132735,1,0,0:0:0:0:
64,192,132789,1,0,0:0:0:0:
192,192,132842,1,0,0:0:0:0:
448,192,132842,1,0,0:0:0:0:
320,192,132896,1,0,0:0:0:0:
448,192,132949,1,0,0:0:0:0:
320,192,133003,1,0,0:0:0:0:
192,192,133057,1,0,0:0:0:0:
64,192,133057,1,0,0:0:0:0:
320,192,133110,1,0,0:0:0:0:
448,192,133164,1,0,0:0:0:0:
320,192,133217,1,0,0:0:0:0:
192,192,133271,1,0,0:0:0:0:
64,192,133324,1,0,0:0:0:0:
192,192,133378,1,0,0:0:0:0:
320,192,133432,1,0,0:0:0:0:
448,192,133485,1,0,0:0:0:0:
64,192,133485,1,0,0:0:0:0:
320,192,133539,1,0,0:0:0:0:
448,192,133592,1,0,0:0:0:0:
192,192,133646,1,0,0:0:0:0:
448,192,133699,1,0,0:0:0:0:
64,192,133753,1,0,0:0:0:0:
192,192,133807,1,0,0:0:0:0:
320,192,133860,1,0,0:0:0:0:
64,192,133914,1,0,0:0:0:0:
448,192,133914,1,0,0:0:0:0:
192,192,133967,1,0,0:0:0:0:
320,192,134021,1,0,0:0:0:0:
448,192,134074,1,0,0:0:0:0:
320,192,134128,1,0,0:0:0:0:
192,192,134182,1,0,0:0:0:0:
320,192,134235,1,0,0:0:0:0:
64,192,134289,1,0,0:0:0:0:
192,192,134342,1,0,0:0:0:0:
320,192,134342,1,0,0:0:0:0:
448,192,134396,1,0,0:0:0:0:
64,192,134449,1,0,0:0:0:0:
192,192,134503,1,0,0:0:0:0:
320,192,134557,1,0,0:0:0:0:
448,192,134610,1,0,0:0:0:0:
320,192,134664,1,0,0:0:0:0:
192,192,134717,1,0,0:0:0:0:
320,192,134771,1,0,0:0:0:0:
448,192,134771,1,0,0:0:0:0:
64,192,134824,1,0,0:0:0:0:
192,192,134878,1,0,0:0:0:0:
320,192,134932,1,0,0:0:0:0:
192,192,134985,1,0,0:0:0:0:
64,192,135039,1,0,0:0:0:0:
192,192,135092,1,0,0:0:0:0:
320,192,135146,1,0,0:0:0:0:
192,192,135199,1,0,0:0:0:0:
448,192,135199,1,0,0:0:0:0:
64,192,135253,1,0,0:0:0:0:
320,192,135307,1,0,0:0:0:0:
192,192,135360,1,0,0:0:0:0:
64,192,135414,1,0,0:0:0:0:
192,192,135467,1,0,0:0:0:0:
320,192,135521,1,0,0:0:0:0:
192,192,135574,1,0,0:0:0:0:
64,192,135628,1,0,0:0:0:0:
448,192,135628,1,0,0:0:0:0:
64,192,135949,1,0,0:0:0:0:
320,192,135949,1,0,0:0:0:0:
192,192,136057,1,0,0:0:0:0:
320,192,136110,1,0,0:0:0:0:
448,192,136164,1,0,0:0:0:0:
320,192,136217,1,0,0:0:0:0:
64,192,136271,1,0,0:0:0:0:
192,192,136271,1,0,0:0:0:0:
320,192,136324,1,0,0:0:0:0:
448,192,136378,1,0,0:0:0:0:
320,192,136432,1,0,0:0:0:0:
448,192,136485,1,0,0:0:0:0:
192,192,136485,1,0,0:0:0:0:
64,192,136539,1,0,0:0:0:0:
192,192,136592,1,0,0:0:0:0:
320,192,136646,1,0,0:0:0:0:
448,192,136699,1,0,0:0:0:0:
320,192,136753,1,0,0:0:0:0:
192,192,136807,1,0,0:0:0:0:
64,192,136860,1,0,0:0:0:0:
320,192,136914,1,0,0:0:0:0:
448,192,136914,1,0,0:0:0:0:
192,192,136967,1,0,0:0:0:0:
64,192,137021,1,0,0:0:0:0:
192,192,137074,1,0,0:0:0:0:
320,192,137128,1,0,0:0:0:0:
448,192,137182,1,0,0:0:0:0:
320,192,137235,1,0,0:0:0:0:
192,192,137289,1,0,0:0:0:0:
64,192,137342,1,0,0:0:0:0:
448,192,137342,1,0,0:0:0:0:
320,192,137396,1,0,0:0:0:0:
192,192,137449,1,0,0:0:0:0:
64,192,137503,1,0,0:0:0:0:
192,192,137557,1,0,0:0:0:0:
320,192,137610,1,0,0:0:0:0:
448,192,137664,1,0,0:0:0:0:
320,192,137717,1,0,0:0:0:0:
448,192,137771,1,0,0:0:0:0:
64,192,137771,1,0,0:0:0:0:
192,192,137824,1,0,0:0:0:0:
320,192,137878,1,0,0:0:0:0:
448,192,137932,1,0,0:0:0:0:
320,192,137985,1,0,0:0:0:0:
192,192,138039,1,0,0:0:0:0:
64,192,138092,1,0,0:0:0:0:
192,192,138146,1,0,0:0:0:0:
448,192,138199,1,0,0:0:0:0:
64,192,138199,1,0,0:0:0:0:
320,192,138253,1,0,0:0:0:0:
192,192,138307,1,0,0:0:0:0:
64,192,138360,1,0,0:0:0:0:
192,192,138414,1,0,0:0:0:0:
320,192,138467,1,0,0:0:0:0:
448,192,138521,1,0,0:0:0:0:
320,192,138574,1,0,0:0:0:0:
192,192,138628,1,0,0:0:0:0:
64,192,138628,1,0,0:0:0:0:
320,192,138682,1,0,0:0:0:0:
448,192,138735,1,0,0:0:0:0:
320,192,138789,1,0,0:0:0:0:
192,192,138842,1,0,0:0:0:0:
64,192,138896,1,0,0:0:0:0:
448,192,138949,1,0,0:0:0:0:
192,192,139003,1,0,0:0:0:0:
320,192,139057,1,0,0:0:0:0:
448,192,139057,1,0,0:0:0:0:
64,192,139110,1,0,0:0:0:0:
192,192,139164,1,0,0:0:0:0:
320,192,139217,1,0,0:0:0:0:
448,192,139271,1,0,0:0:0:0:
320,192,139324,1,0,0:0:0:0:
192,192,139378,1,0,0:0:0:0:
64,192,139432,1,0,0:0:0:0:
192,192,139485,1,0,0:0:0:0:
448,192,139485,1,0,0:0:0:0:
320,192,139539,1,0,0:0:0:0:
448,192,139592,1,0,0:0:0:0:
320,192,139646,1,0,0:0:0:0:
192,192,139699,1,0,0:0:0:0:
64,192,139753,1,0,0:0:0:0:
192,192,139807,1,0,0:0:0:0:
320,192,139860,1,0,0:0:0:0:
448,192,139914,1,0,0:0:0:0:
192,192,139914,1,0,0:0:0:0:
64,192,139967,1,0,0:0:0:0:
192,192,140021,1,0,0:0:0:0:
320,192,140074,1,0,0:0:0:0:
448,192,140128,1,0,0:0:0:0:
320,192,140182,1,0,0:0:0:0:
192,192,140235,1,0,0:0:0:0:
64,192,140289,1,0,0:0:0:0:
448,192,140342,1,0,0:0:0:0:
320,192,140342,1,0,0:0:0:0:
192,192,140396,1,0,0:0:0:0:
64,192,140449,1,0,0:0:0:0:
192,192,140503,1,0,0:0:0:0:
320,192,140557,1,0,0:0:0:0:
448,192,140610,1,0,0:0:0:0:
320,192,140664,1,0,0:0:0:0:
192,192,140717,1,0,0:0:0:0:
448,192,140771,1,0,0:0:0:0:
64,192,140771,1,0,0:0:0:0:
64,192,141092,1,0,0:0:0:0:
192,192,141092,1,0,0:0:0:0:
192,192,141414,1,0,0:0:0:0:
448,192,141414,1,0,0:0:0:0:
64,192,141628,1,0,0:0:0:0:
320,192,141628,1,0,0:0:0:0:
192,192,141628,128,0,141735:0:0:0:0:
448,192,141842,128,0,141949:0:0:0:0:
192,192,141949,128,0,142057:0:0:0:0:
64,192,141949,1,0,0:0:0:0:
320,192,142057,128,0,142164:0:0:0:0:
448,192,142164,128,0,142271:0:0:0:0:
64,192,142271,128,0,142378:0:0:0:0:
320,192,142271,1,0,0:0:0:0:
192,192,142378,128,0,142485:0:0:0:0:
320,192,142485,128,0,142592:0:0:0:0:
64,192,142592,1,0,0:0:0:0:
448,192,142592,1,0,0:0:0:0:
192,192,142646,1,0,0:0:0:0:
320,192,142699,1,0,0:0:0:0:
448,192,142753,1,0,0:0:0:0:
192,192,142807,1,0,0:0:0:0:
320,192,142860,1,0,0:0:0:0:
192,192,142914,1,0,0:0:0:0:
64,192,142914,1,0,0:0:0:0:
448,192,142967,1,0,0:0:0:0:
64,192,143021,1,0,0:0:0:0:
192,192,143021,1,0,0:0:0:0:
320,192,143074,1,0,0:0:0:0:
192,192,143128,1,0,0:0:0:0:
64,192,143128,1,0,0:0:0:0:
448,192,143182,1,0,0:0:0:0:
64,192,143235,1,0,0:0:0:0:
192,192,143235,1,0,0:0:0:0:
320,192,143289,1,0,0:0:0:0:
192,192,143342,1,0,0:0:0:0:
64,192,143342,1,0,0:0:0:0:
448,192,143342,128,0,143771:0:0:0:0:
320,192,143449,1,0,0:0:0:0:
64,192,143557,1,0,0:0:0:0:
192,192,143664,1,0,0:0:0:0:
192,192,143771,128,0,144628:0:0:0:0:
320,192,143771,1,0,0:0:0:0:
64,192,143771,1,0,0:0:0:0:
448,192,143878,1,0,0:0:0:0:
320,192,143985,1,0,0:0:0:0:
64,192,144092,1,0,0:0:0:0:
320,192,144199,1,0,0:0:0:0:
448,192,144199,1,0,0:0:0:0:
64,192,144307,1,0,0:0:0:0:
320,192,144414,1,0,0:0:0:0:
64,192,144521,1,0,0:0:0:0:
320,192,144628,1,0,0:0:0:0:
448,192,144628,1,0,0:0:0:0:
320,192,144735,128,0,144789:0:0:0:0:
448,192,144735,1,0,0:0:0:0:
448,192,144842,1,0,0:0:0:0:
320,192,144842,128,0,144896:0:0:0:0:
320,192,144949,128,0,145003:0:0:0:0:
448,192,144949,1,0,0:0:0:0:
192,192,145057,128,0,145485:0:0:0:0:
64,192,145057,1,0,0:0:0:0:
448,192,145057,1,0,0:0:0:0:
320,192,145164,1,0,0:0:0:0:
448,192,145271,1,0,0:0:0:0:
320,192,145378,1,0,0:0:0:0:
320,192,145485,128,0,145914:0:0:0:0:
448,192,145485,1,0,0:0:0:0:
64,192,145485,1,0,0:0:0:0:
192,192,145592,1,0,0:0:0:0:
448,192,145699,1,0,0:0:0:0:
64,192,145807,1,0,0:0:0:0:
448,192,145914,128,0,146342:0:0:0:0:
192,192,145914,1,0,0:0:0:0:
64,192,145914,1,0,0:0:0:0:
320,192,146021,1,0,0:0:0:0:
192,192,146128,1,0,0:0:0:0:
320,192,146235,1,0,0:0:0:0:
64,192,146235,1,0,0:0:0:0:
192,192,146342,128,0,146771:0:0:0:0:
320,192,146342,1,0,0:0:0:0:
64,192,146449,1,0,0:0:0:0:
320,192,146557,1,0,0:0:0:0:
448,192,146557,1,0,0:0:0:0:
64,192,146664,1,0,0:0:0:0:
448,192,146771,128,0,146985:0:0:0:0:
320,192,146771,1,0,0:0:0:0:
64,192,146771,1,0,0:0:0:0:
320,192,146878,1,0,0:0:0:0:
192,192,146985,1,0,0:0:0:0:
320,192,147092,128,0,147414:0:0:0:0:
64,192,147092,1,0,0:0:0:0:
192,192,147199,1,0,0:0:0:0:
448,192,147199,1,0,0:0:0:0:
64,192,147307,1,0,0:0:0:0:
192,192,147414,128,0,147521:0:0:0:0:
448,192,147414,1,0,0:0:0:0:
64,192,147521,1,0,0:0:0:0:
64,192,147628,128,0,147842:0:0:0:0:
192,192,147628,1,0,0:0:0:0:
320,192,147628,1,0,0:0:0:0:
448,192,147735,1,0,0:0:0:0:
448,192,147842,128,0,147914:0:0:0:0:
192,192,147842,1,0,0:0:0:0:
320,192,147914,128,0,147985:0:0:0:0:
192,192,147949,1,0,0:0:0:0:
64,192,147985,128,0,148057:0:0:0:0:
192,192,148057,128,0,148485:0:0:0:0:
320,192,148057,1,0,0:0:0:0:
448,192,148057,1,0,0:0:0:0:
320,192,148164,128,0,148217:0:0:0:0:
448,192,148164,1,0,0:0:0:0:
320,192,148271,128,0,148324:0:0:0:0:
448,192,148271,1,0,0:0:0:0:
320,192,148378,128,0,148432:0:0:0:0:
448,192,148378,1,0,0:0:0:0:
320,192,148485,128,0,149342:0:0:0:0:
64,192,148485,1,0,0:0:0:0:
448,192,148485,1,0,0:0:0:0:
192,192,148592,1,0,0:0:0:0:
448,192,148699,1,0,0:0:0:0:
192,192,148807,1,0,0:0:0:0:
64,192,148914,1,0,0:0:0:0:
448,192,148914,1,0,0:0:0:0:
192,192,149021,1,0,0:0:0:0:
448,192,149128,1,0,0:0:0:0:
64,192,149235,1,0,0:0:0:0:
192,192,149342,1,0,0:0:0:0:
448,192,149342,1,0,0:0:0:0:
64,192,149449,1,0,0:0:0:0:
320,192,149557,1,0,0:0:0:0:
192,192,149664,1,0,0:0:0:0:
448,192,149664,1,0,0:0:0:0:
320,192,149771,128,0,150199:0:0:0:0:
64,192,149771,1,0,0:0:0:0:
192,192,149878,1,0,0:0:0:0:
448,192,149985,1,0,0:0:0:0:
64,192,149985,1,0,0:0:0:0:
192,192,150092,1,0,0:0:0:0:
448,192,150199,128,0,150628:0:0:0:0:
64,192,150199,1,0,0:0:0:0:
192,192,150199,1,0,0:0:0:0:
320,192,150307,1,0,0:0:0:0:
192,192,150414,1,0,0:0:0:0:
64,192,150521,1,0,0:0:0:0:
192,192,150628,128,0,150735:0:0:0:0:
320,192,150628,1,0,0:0:0:0:
64,192,150628,1,0,0:0:0:0:
320,192,150735,1,0,0:0:0:0:
192,192,150842,128,0,151485:0:0:0:0:
448,192,150842,1,0,0:0:0:0:
320,192,150949,1,0,0:0:0:0:
64,192,151057,1,0,0:0:0:0:
448,192,151057,1,0,0:0:0:0:
320,192,151164,1,0,0:0:0:0:
64,192,151271,1,0,0:0:0:0:
320,192,151378,1,0,0:0:0:0:
320,192,151485,128,0,151914:0:0:0:0:
448,192,151485,1,0,0:0:0:0:
64,192,151485,1,0,0:0:0:0:
64,192,151592,128,0,151646:0:0:0:0:
192,192,151592,1,0,0:0:0:0:
192,192,151699,1,0,0:0:0:0:
64,192,151699,128,0,151753:0:0:0:0:
64,192,151807,128,0,151860:0:0:0:0:
192,192,151807,1,0,0:0:0:0:
448,192,151914,128,0,152235:0:0:0:0:
64,192,151914,1,0,0:0:0:0:
192,192,151914,1,0,0:0:0:0:
320,192,152021,1,0,0:0:0:0:
64,192,152128,1,0,0:0:0:0:
192,192,152235,1,0,0:0:0:0:
320,192,152342,128,0,152771:0:0:0:0:
64,192,152342,1,0,0:0:0:0:
448,192,152342,1,0,0:0:0:0:
192,192,152449,1,0,0:0:0:0:
64,192,152557,1,0,0:0:0:0:
448,192,152664,1,0,0:0:0:0:
64,192,152771,128,0,153092:0:0:0:0:
192,192,152771,1,0,0:0:0:0:
448,192,152771,1,0,0:0:0:0:
320,192,152878,1,0,0:0:0:0:
448,192,152985,1,0,0:0:0:0:
320,192,153092,1,0,0:0:0:0:
192,192,153199,128,0,153521:0:0:0:0:
448,192,153199,1,0,0:0:0:0:
64,192,153199,1,0,0:0:0:0:
64,192,153307,1,0,0:0:0:0:
320,192,153307,128,0,153360:0:0:0:0:
320,192,153414,128,0,153467:0:0:0:0:
64,192,153521,1,0,0:0:0:0:
320,192,153521,128,0,153574:0:0:0:0:
320,192,153628,128,0,154485:0:0:0:0:
448,192,153628,1,0,0:0:0:0:
64,192,153628,1,0,0:0:0:0:
192,192,153735,1,0,0:0:0:0:
448,192,153842,1,0,0:0:0:0:
192,192,153949,1,0,0:0:0:0:
64,192,154057,1,0,0:0:0:0:
448,192,154057,1,0,0:0:0:0:
192,192,154164,1,0,0:0:0:0:
448,192,154271,1,0,0:0:0:0:
64,192,154378,1,0,0:0:0:0:
192,192,154485,1,0,0:0:0:0:
448,192,154485,1,0,0:0:0:0:
64,192,154592,1,0,0:0:0:0:
192,192,154699,1,0,0:0:0:0:
320,192,154807,1,0,0:0:0:0:
448,192,154807,1,0,0:0:0:0:
64,192,154914,1,0,0:0:0:0:
192,192,155021,1,0,0:0:0:0:
64,192,155128,1,0,0:0:0:0:
320,192,155128,1,0,0:0:0:0:
448,192,155235,1,0,0:0:0:0:
192,192,155342,128,0,155557:0:0:0:0:
64,192,155342,1,0,0:0:0:0:
320,192,155342,1,0,0:0:0:0:
448,192,155449,1,0,0:0:0:0:
64,192,155557,128,0,155771:0:0:0:0:
320,192,155557,1,0,0:0:0:0:
448,192,155664,1,0,0:0:0:0:
192,192,155664,1,0,0:0:0:0:
448,192,155771,128,0,155878:0:0:0:0:
320,192,155771,1,0,0:0:0:0:
192,192,155878,1,0,0:0:0:0:
320,192,155985,128,0,156092:0:0:0:0:
448,192,155985,1,0,0:0:0:0:
64,192,155985,1,0,0:0:0:0:
192,192,156092,1,0,0:0:0:0:
448,192,156199,128,0,156307:0:0:0:0:
64,192,156199,1,0,0:0:0:0:
64,192,156307,1,0,0:0:0:0:
320,192,156307,1,0,0:0:0:0:
192,192,156414,128,0,156628:0:0:0:0:
64,192,156628,128,0,156842:0:0:0:0:
320,192,156735,128,0,156949:0:0:0:0:
192,192,156842,128,0,157057:0:0:0:0:
448,192,156949,128,0,157057:0:0:0:0:
320,192,157057,128,0,157699:0:0:0:0:
64,192,157057,1,0,0:0:0:0:
192,192,157164,1,0,0:0:0:0:
448,192,157271,1,0,0:0:0:0:
64,192,157378,1,0,0:0:0:0:
192,192,157378,1,0,0:0:0:0:
448,192,157485,1,0,0:0:0:0:
64,192,157592,1,0,0:0:0:0:
64,192,157699,128,0,157807:0:0:0:0:
448,192,157699,1,0,0:0:0:0:
192,192,157699,1,0,0:0:0:0:
192,192,157807,128,0,157914:0:0:0:0:
320,192,157807,1,0,0:0:0:0:
320,192,157914,128,0,158021:0:0:0:0:
448,192,157914,1,0,0:0:0:0:
64,192,157914,1,0,0:0:0:0:
192,192,158021,1,0,0:0:0:0:
64,192,158128,128,0,158235:0:0:0:0:
448,192,158128,1,0,0:0:0:0:
192,192,158235,128,0,158342:0:0:0:0:
448,192,158235,1,0,0:0:0:0:
320,192,158235,1,0,0:0:0:0:
320,192,158342,128,0,158557:0:0:0:0:
64,192,158342,1,0,0:0:0:0:
192,192,158449,1,0,0:0:0:0:
448,192,158449,1,0,0:0:0:0:
448,192,158557,128,0,158771:0:0:0:0:
192,192,158557,1,0,0:0:0:0:
64,192,158557,1,0,0:0:0:0:
320,192,158664,1,0,0:0:0:0:
320,192,158771,128,0,159199:0:0:0:0:
64,192,158771,1,0,0:0:0:0:
192,192,158771,1,0,0:0:0:0:
448,192,158878,1,0,0:0:0:0:
192,192,158985,128,0,159628:0:0:0:0:
64,192,158985,1,0,0:0:0:0:
448,192,159092,1,0,0:0:0:0:
64,192,159092,1,0,0:0:0:0:
448,192,159199,1,0,0:0:0:0:
320,192,159307,1,0,0:0:0:0:
64,192,159414,1,0,0:0:0:0:
448,192,159414,1,0,0:0:0:0:
320,192,159521,1,0,0:0:0:0:
448,192,159628,128,0,160057:0:0:0:0:
64,192,159628,1,0,0:0:0:0:
320,192,159628,1,0,0:0:0:0:
192,192,159735,1,0,0:0:0:0:
320,192,159842,1,0,0:0:0:0:
192,192,159949,1,0,0:0:0:0:
64,192,159949,1,0,0:0:0:0:
320,192,160057,128,0,160485:0:0:0:0:
192,192,160057,1,0,0:0:0:0:
448,192,160164,1,0,0:0:0:0:
64,192,160271,1,0,0:0:0:0:
192,192,160271,1,0,0:0:0:0:
448,192,160378,1,0,0:0:0:0:
448,192,160485,128,0,160914:0:0:0:0:
64,192,160485,1,0,0:0:0:0:
192,192,160485,1,0,0:0:0:0:
320,192,160592,1,0,0:0:0:0:
192,192,160699,1,0,0:0:0:0:
64,192,160807,1,0,0:0:0:0:
320,192,160914,128,0,161128:0:0:0:0:
192,192,160914,128,0,161771:0:0:0:0:
64,192,160914,1,0,0:0:0:0:
448,192,161021,1,0,0:0:0:0:
64,192,161128,1,0,0:0:0:0:
320,192,161235,1,0,0:0:0:0:
448,192,161342,1,0,0:0:0:0:
64,192,161342,1,0,0:0:0:0:
320,192,161449,1,0,0:0:0:0:
64,192,161557,1,0,0:0:0:0:
448,192,161664,1,0,0:0:0:0:
448,192,161771,128,0,161878:0:0:0:0:
320,192,161771,1,0,0:0:0:0:
64,192,161771,1,0,0:0:0:0:
192,192,161878,1,0,0:0:0:0:
320,192,161985,128,0,162092:0:0:0:0:
64,192,161985,1,0,0:0:0:0:
192,192,162092,1,0,0:0:0:0:
320,192,162199,128,0,162628:0:0:0:0:
448,192,162199,1,0,0:0:0:0:
192,192,162199,1,0,0:0:0:0:
64,192,162307,1,0,0:0:0:0:
192,192,162414,128,0,162628:0:0:0:0:
448,192,162414,1,0,0:0:0:0:
64,192,162521,1,0,0:0:0:0:
448,192,162628,128,0,162842:0:0:0:0:
64,192,162628,128,0,163485:0:0:0:0:
320,192,162735,1,0,0:0:0:0:
192,192,162842,1,0,0:0:0:0:
320,192,162949,1,0,0:0:0:0:
448,192,163057,1,0,0:0:0:0:
192,192,163057,1,0,0:0:0:0:
320,192,163164,1,0,0:0:0:0:
192,192,163271,1,0,0:0:0:0:
320,192,163378,1,0,0:0:0:0:
192,192,163485,128,0,163914:0:0:0:0:
448,192,163485,1,0,0:0:0:0:
320,192,163485,1,0,0:0:0:0:
448,192,163592,1,0,0:0:0:0:
320,192,163699,128,0,163914:0:0:0:0:
64,192,163807,1,0,0:0:0:0:
448,192,163914,128,0,164771:0:0:0:0:
64,192,163914,1,0,0:0:0:0:
192,192,164021,1,0,0:0:0:0:
320,192,164128,1,0,0:0:0:0:
192,192,164235,1,0,0:0:0:0:
64,192,164235,1,0,0:0:0:0:
320,192,164342,1,0,0:0:0:0:
64,192,164342,1,0,0:0:0:0:
320,192,164449,1,0,0:0:0:0:
192,192,164557,1,0,0:0:0:0:
64,192,164557,1,0,0:0:0:0:
320,192,164664,1,0,0:0:0:0:
64,192,164771,1,0,0:0:0:0:
192,192,164771,1,0,0:0:0:0:
320,192,164771,1,0,0:0:0:0:
448,192,164878,1,0,0:0:0:0:
320,192,164985,1,0,0:0:0:0:
192,192,165092,1,0,0:0:0:0:
64,192,165092,1,0,0:0:0:0:
64,192,165199,1,0,0:0:0:0:
320,192,165199,1,0,0:0:0:0:
448,192,165307,1,0,0:0:0:0:
320,192,165307,1,0,0:0:0:0:
320,192,165414,1,0,0:0:0:0:
448,192,165414,1,0,0:0:0:0:
320,192,165521,1,0,0:0:0:0:
448,192,165521,1,0,0:0:0:0:
448,192,165628,1,0,0:0:0:0:
320,192,165628,1,0,0:0:0:0:
192,192,165628,1,0,0:0:0:0:
64,192,165735,128,0,165842:0:0:0:0:
192,192,165842,128,0,165949:0:0:0:0:
448,192,165949,1,0,0:0:0:0:
64,192,165949,1,0,0:0:0:0:
320,192,166057,128,0,166164:0:0:0:0:
448,192,166164,128,0,166271:0:0:0:0:
192,192,166271,1,0,0:0:0:0:
320,192,166271,1,0,0:0:0:0:
64,192,166378,128,0,166485:0:0:0:0:
448,192,166485,128,0,166807:0:0:0:0:
320,192,166485,128,0,166807:0:0:0:0:
64,192,166699,128,0,166914:0:0:0:0:
448,192,166914,128,0,167342:0:0:0:0:
64,192,167128,128,0,167342:0:0:0:0:
192,192,167342,1,0,0:0:0:0:
320,192,167342,1,0,0:0:0:0:
64,192,167449,1,0,0:0:0:0:
192,192,167557,1,0,0:0:0:0:
448,192,167557,1,0,0:0:0:0:
320,192,167664,1,0,0:0:0:0:
192,192,167771,1,0,0:0:0:0:
448,192,167771,1,0,0:0:0:0:
64,192,167771,1,0,0:0:0:0:
192,192,167878,1,0,0:0:0:0:
320,192,167878,1,0,0:0:0:0:
192,192,167985,1,0,0:0:0:0:
448,192,167985,1,0,0:0:0:0:
192,192,168092,1,0,0:0:0:0:
320,192,168092,1,0,0:0:0:0:
448,192,168199,1,0,0:0:0:0:
64,192,168199,1,0,0:0:0:0:
320,192,168199,1,0,0:0:0:0:
192,192,168307,1,0,0:0:0:0:
448,192,168307,1,0,0:0:0:0:
320,192,168414,1,0,0:0:0:0:
192,192,168521,1,0,0:0:0:0:
64,192,168521,1,0,0:0:0:0:
192,192,168628,1,0,0:0:0:0:
320,192,168628,1,0,0:0:0:0:
64,192,168628,1,0,0:0:0:0:
192,192,168735,1,0,0:0:0:0:
448,192,168735,1,0,0:0:0:0:
192,192,168842,1,0,0:0:0:0:
320,192,168842,1,0,0:0:0:0:
448,192,168949,1,0,0:0:0:0:
192,192,169057,1,0,0:0:0:0:
320,192,169057,1,0,0:0:0:0:
64,192,169057,1,0,0:0:0:0:
448,192,169164,1,0,0:0:0:0:
192,192,169271,1,0,0:0:0:0:
64,192,169271,1,0,0:0:0:0:
192,192,169378,1,0,0:0:0:0:
320,192,169378,1,0,0:0:0:0:
192,192,169485,1,0,0:0:0:0:
448,192,169485,1,0,0:0:0:0:
64,192,169485,1,0,0:0:0:0:
192,192,169592,1,0,0:0:0:0:
320,192,169592,1,0,0:0:0:0:
448,192,169699,1,0,0:0:0:0:
192,192,169807,1,0,0:0:0:0:
64,192,169807,1,0,0:0:0:0:
448,192,169914,1,0,0:0:0:0:
64,192,169914,1,0,0:0:0:0:
320,192,169914,128,0,170021:0:0:0:0:
192,192,170021,1,0,0:0:0:0:
448,192,170021,1,0,0:0:0:0:
192,192,170235,1,0,0:0:0:0:
448,192,170235,1,0,0:0:0:0:
64,192,170342,1,0,0:0:0:0:
448,192,170342,1,0,0:0:0:0:
320,192,170342,1,0,0:0:0:0:
192,192,170449,1,0,0:0:0:0:
320,192,170449,1,0,0:0:0:0:
64,192,170557,1,0,0:0:0:0:
448,192,170557,1,0,0:0:0:0:
448,192,170664,1,0,0:0:0:0:
192,192,170664,1,0,0:0:0:0:
320,192,170664,1,0,0:0:0:0:
320,192,170771,1,0,0:0:0:0:
64,192,170771,1,0,0:0:0:0:
192,192,170771,1,0,0:0:0:0:
448,192,170878,1,0,0:0:0:0:
320,192,170985,1,0,0:0:0:0:
192,192,170985,1,0,0:0:0:0:
64,192,171092,1,0,0:0:0:0:
320,192,171199,1,0,0:0:0:0:
192,192,171199,1,0,0:0:0:0:
448,192,171199,1,0,0:0:0:0:
320,192,171307,1,0,0:0:0:0:
64,192,171307,1,0,0:0:0:0:
320,192,171414,1,0,0:0:0:0:
448,192,171414,1,0,0:0:0:0:
320,192,171521,1,0,0:0:0:0:
192,192,171521,1,0,0:0:0:0:
64,192,171628,1,0,0:0:0:0:
448,192,171628,1,0,0:0:0:0:
192,192,171628,1,0,0:0:0:0:
320,192,171735,1,0,0:0:0:0:
192,192,171735,1,0,0:0:0:0:
448,192,171842,1,0,0:0:0:0:
320,192,171949,1,0,0:0:0:0:
192,192,171949,1,0,0:0:0:0:
320,192,172057,1,0,0:0:0:0:
64,192,172057,1,0,0:0:0:0:
448,192,172057,1,0,0:0:0:0:
320,192,172164,1,0,0:0:0:0:
192,192,172164,1,0,0:0:0:0:
320,192,172271,1,0,0:0:0:0:
448,192,172271,1,0,0:0:0:0:
192,192,172378,1,0,0:0:0:0:
320,192,172485,1,0,0:0:0:0:
64,192,172485,1,0,0:0:0:0:
448,192,172485,1,0,0:0:0:0:
192,192,172592,1,0,0:0:0:0:
320,192,172699,1,0,0:0:0:0:
448,192,172699,1,0,0:0:0:0:
320,192,172807,1,0,0:0:0:0:
192,192,172807,1,0,0:0:0:0:
320,192,172914,1,0,0:0:0:0:
64,192,172914,1,0,0:0:0:0:
192,192,172914,1,0,0:0:0:0:
320,192,173021,1,0,0:0:0:0:
448,192,173021,1,0,0:0:0:0:
192,192,173128,1,0,0:0:0:0:
320,192,173235,1,0,0:0:0:0:
64,192,173235,1,0,0:0:0:0:
192,192,173342,1,0,0:0:0:0:
448,192,173342,1,0,0:0:0:0:
320,192,173342,128,0,173449:0:0:0:0:
192,192,173449,1,0,0:0:0:0:
64,192,173449,1,0,0:0:0:0:
448,192,173557,1,0,0:0:0:0:
320,192,173664,1,0,0:0:0:0:
448,192,173664,1,0,0:0:0:0:
64,192,173664,1,0,0:0:0:0:
320,192,173878,1,0,0:0:0:0:
448,192,173878,1,0,0:0:0:0:
64,192,173878,1,0,0:0:0:0:
192,192,173985,1,0,0:0:0:0:
320,192,174092,1,0,0:0:0:0:
448,192,174092,1,0,0:0:0:0:
64,192,174092,1,0,0:0:0:0:
192,192,174199,1,0,0:0:0:0:
320,192,174199,1,0,0:0:0:0:
448,192,174199,1,0,0:0:0:0:
192,192,174307,1,0,0:0:0:0:
64,192,174414,1,0,0:0:0:0:
320,192,174414,1,0,0:0:0:0:
448,192,174521,1,0,0:0:0:0:
64,192,174628,1,0,0:0:0:0:
192,192,174628,1,0,0:0:0:0:
320,192,174628,1,0,0:0:0:0:
64,192,174735,1,0,0:0:0:0:
448,192,174735,1,0,0:0:0:0:
64,192,174842,1,0,0:0:0:0:
320,192,174842,1,0,0:0:0:0:
64,192,174949,1,0,0:0:0:0:
192,192,174949,1,0,0:0:0:0:
320,192,175057,1,0,0:0:0:0:
448,192,175057,1,0,0:0:0:0:
192,192,175057,1,0,0:0:0:0:
64,192,175164,1,0,0:0:0:0:
320,192,175164,1,0,0:0:0:0:
192,192,175271,1,0,0:0:0:0:
64,192,175378,1,0,0:0:0:0:
448,192,175378,1,0,0:0:0:0:
64,192,175485,1,0,0:0:0:0:
320,192,175485,1,0,0:0:0:0:
192,192,175485,1,0,0:0:0:0:
64,192,175592,1,0,0:0:0:0:
320,192,175592,1,0,0:0:0:0:
64,192,175699,1,0,0:0:0:0:
448,192,175699,1,0,0:0:0:0:
320,192,175807,1,0,0:0:0:0:
64,192,175914,1,0,0:0:0:0:
192,192,175914,1,0,0:0:0:0:
448,192,175914,1,0,0:0:0:0:
320,192,176021,1,0,0:0:0:0:
64,192,176128,1,0,0:0:0:0:
192,192,176128,1,0,0:0:0:0:
64,192,176235,1,0,0:0:0:0:
320,192,176235,1,0,0:0:0:0:
64,192,176342,1,0,0:0:0:0:
448,192,176342,1,0,0:0:0:0:
192,192,176342,1,0,0:0:0:0:
64,192,176449,1,0,0:0:0:0:
320,192,176449,1,0,0:0:0:0:
192,192,176557,1,0,0:0:0:0:
64,192,176664,1,0,0:0:0:0:
320,192,176664,1,0,0:0:0:0:
320,192,176771,128,0,176878:0:0:0:0:
192,192,176771,1,0,0:0:0:0:
448,192,176771,1,0,0:0:0:0:
64,192,176878,1,0,0:0:0:0:
448,192,176878,1,0,0:0:0:0:
64,192,177092,1,0,0:0:0:0:
448,192,177092,1,0,0:0:0:0:
320,192,177199,1,0,0:0:0:0:
192,192,177199,1,0,0:0:0:0:
448,192,177199,1,0,0:0:0:0:
64,192,177307,1,0,0:0:0:0:
448,192,177307,1,0,0:0:0:0:
320,192,177414,1,0,0:0:0:0:
192,192,177414,1,0,0:0:0:0:
192,192,177521,1,0,0:0:0:0:
64,192,177521,1,0,0:0:0:0:
448,192,177521,1,0,0:0:0:0:
448,192,177628,1,0,0:0:0:0:
320,192,177628,1,0,0:0:0:0:
64,192,177628,1,0,0:0:0:0:
192,192,177735,1,0,0:0:0:0:
448,192,177842,1,0,0:0:0:0:
320,192,177842,1,0,0:0:0:0:
192,192,177949,1,0,0:0:0:0:
448,192,178057,1,0,0:0:0:0:
64,192,178057,1,0,0:0:0:0:
320,192,178057,1,0,0:0:0:0:
448,192,178164,1,0,0:0:0:0:
192,192,178164,1,0,0:0:0:0:
448,192,178271,1,0,0:0:0:0:
320,192,178271,1,0,0:0:0:0:
448,192,178378,1,0,0:0:0:0:
64,192,178378,1,0,0:0:0:0:
192,192,178485,1,0,0:0:0:0:
320,192,178485,1,0,0:0:0:0:
64,192,178485,1,0,0:0:0:0:
448,192,178592,1,0,0:0:0:0:
192,192,178592,1,0,0:0:0:0:
320,192,178699,1,0,0:0:0:0:
448,192,178807,1,0,0:0:0:0:
192,192,178807,1,0,0:0:0:0:
448,192,178914,1,0,0:0:0:0:
64,192,178914,1,0,0:0:0:0:
320,192,178914,1,0,0:0:0:0:
448,192,179021,1,0,0:0:0:0:
192,192,179021,1,0,0:0:0:0:
448,192,179128,1,0,0:0:0:0:
64,192,179128,1,0,0:0:0:0:
192,192,179235,1,0,0:0:0:0:
448,192,179342,1,0,0:0:0:0:
320,192,179342,1,0,0:0:0:0:
64,192,179342,1,0,0:0:0:0:
192,192,179449,1,0,0:0:0:0:
448,192,179557,1,0,0:0:0:0:
320,192,179557,1,0,0:0:0:0:
448,192,179664,1,0,0:0:0:0:
64,192,179664,1,0,0:0:0:0:
448,192,179771,1,0,0:0:0:0:
192,192,179771,1,0,0:0:0:0:
320,192,179771,1,0,0:0:0:0:
448,192,179878,1,0,0:0:0:0:
64,192,179878,1,0,0:0:0:0:
192,192,179985,1,0,0:0:0:0:
448,192,180092,1,0,0:0:0:0:
320,192,180092,1,0,0:0:0:0:
192,192,180199,1,0,0:0:0:0:
320,192,180199,1,0,0:0:0:0:
64,192,180199,128,0,180307:0:0:0:0:
448,192,180307,1,0,0:0:0:0:
192,192,180307,1,0,0:0:0:0:
448,192,180521,1,0,0:0:0:0:
64,192,180521,1,0,0:0:0:0:
192,192,180521,128,0,180735:0:0:0:0:
320,192,180628,1,0,0:0:0:0:
64,192,180628,1,0,0:0:0:0:
448,192,180628,1,0,0:0:0:0:
320,192,180735,1,0,0:0:0:0:
448,192,180735,1,0,0:0:0:0:
64,192,180842,1,0,0:0:0:0:
192,192,180842,1,0,0:0:0:0:
320,192,180949,1,0,0:0:0:0:
192,192,180949,1,0,0:0:0:0:
448,192,180949,1,0,0:0:0:0:
320,192,181057,1,0,0:0:0:0:
64,192,181057,1,0,0:0:0:0:
192,192,181057,128,0,181164:0:0:0:0:
448,192,181164,1,0,0:0:0:0:
192,192,181271,128,0,181378:0:0:0:0:
320,192,181271,1,0,0:0:0:0:
64,192,181378,1,0,0:0:0:0:
192,192,181485,128,0,181539:0:0:0:0:
320,192,181485,1,0,0:0:0:0:
448,192,181485,1,0,0:0:0:0:
192,192,181592,128,0,181646:0:0:0:0:
320,192,181592,1,0,0:0:0:0:
192,192,181699,128,0,181753:0:0:0:0:
448,192,181699,1,0,0:0:0:0:
192,192,181807,128,0,181914:0:0:0:0:
320,192,181807,1,0,0:0:0:0:
64,192,181914,1,0,0:0:0:0:
448,192,181914,1,0,0:0:0:0:
192,192,182021,128,0,182128:0:0:0:0:
320,192,182021,1,0,0:0:0:0:
448,192,182128,1,0,0:0:0:0:
192,192,182235,128,0,182289:0:0:0:0:
64,192,182235,1,0,0:0:0:0:
192,192,182342,128,0,182396:0:0:0:0:
448,192,182342,1,0,0:0:0:0:
320,192,182342,1,0,0:0:0:0:
192,192,182449,128,0,182503:0:0:0:0:
64,192,182449,1,0,0:0:0:0:
192,192,182557,128,0,182664:0:0:0:0:
320,192,182557,1,0,0:0:0:0:
448,192,182664,1,0,0:0:0:0:
192,192,182771,128,0,182878:0:0:0:0:
64,192,182771,1,0,0:0:0:0:
320,192,182771,1,0,0:0:0:0:
448,192,182878,1,0,0:0:0:0:
192,192,182985,128,0,183039:0:0:0:0:
64,192,182985,1,0,0:0:0:0:
192,192,183092,128,0,183146:0:0:0:0:
320,192,183092,1,0,0:0:0:0:
192,192,183199,128,0,183253:0:0:0:0:
64,192,183199,1,0,0:0:0:0:
448,192,183199,1,0,0:0:0:0:
192,192,183307,128,0,183360:0:0:0:0:
320,192,183307,1,0,0:0:0:0:
448,192,183414,1,0,0:0:0:0:
192,192,183521,128,0,183628:0:0:0:0:
320,192,183521,1,0,0:0:0:0:
64,192,183628,1,0,0:0:0:0:
448,192,183628,128,0,183735:0:0:0:0:
192,192,183735,128,0,183842:0:0:0:0:
320,192,183735,1,0,0:0:0:0:
192,192,183949,128,0,184057:0:0:0:0:
320,192,183949,1,0,0:0:0:0:
64,192,184057,1,0,0:0:0:0:
448,192,184057,1,0,0:0:0:0:
192,192,184164,128,0,184271:0:0:0:0:
320,192,184164,1,0,0:0:0:0:
64,192,184271,128,0,184378:0:0:0:0:
320,192,184271,1,0,0:0:0:0:
448,192,184378,128,0,184485:0:0:0:0:
192,192,184378,1,0,0:0:0:0:
320,192,184378,1,0,0:0:0:0:
320,192,184485,128,0,184592:0:0:0:0:
64,192,184485,1,0,0:0:0:0:
192,192,184485,1,0,0:0:0:0:
192,192,184592,1,0,0:0:0:0:
320,192,184699,128,0,184807:0:0:0:0:
64,192,184699,1,0,0:0:0:0:
192,192,184807,1,0,0:0:0:0:
320,192,184914,128,0,184967:0:0:0:0:
448,192,184914,1,0,0:0:0:0:
64,192,184914,1,0,0:0:0:0:
320,192,185021,128,0,185074:0:0:0:0:
192,192,185021,1,0,0:0:0:0:
320,192,185128,128,0,185182:0:0:0:0:
64,192,185128,1,0,0:0:0:0:
320,192,185235,128,0,185342:0:0:0:0:
192,192,185235,1,0,0:0:0:0:
448,192,185342,1,0,0:0:0:0:
64,192,185342,1,0,0:0:0:0:
320,192,185449,128,0,185557:0:0:0:0:
192,192,185449,1,0,0:0:0:0:
448,192,185557,1,0,0:0:0:0:
320,192,185664,128,0,185717:0:0:0:0:
192,192,185664,1,0,0:0:0:0:
320,192,185771,128,0,185824:0:0:0:0:
64,192,185771,1,0,0:0:0:0:
448,192,185771,1,0,0:0:0:0:
320,192,185878,128,0,185932:0:0:0:0:
192,192,185878,1,0,0:0:0:0:
320,192,185985,128,0,186092:0:0:0:0:
448,192,185985,1,0,0:0:0:0:
192,192,186092,1,0,0:0:0:0:
320,192,186199,128,0,186307:0:0:0:0:
64,192,186199,1,0,0:0:0:0:
448,192,186199,1,0,0:0:0:0:
192,192,186307,1,0,0:0:0:0:
320,192,186414,128,0,186467:0:0:0:0:
64,192,186414,1,0,0:0:0:0:
320,192,186521,128,0,186574:0:0:0:0:
448,192,186521,1,0,0:0:0:0:
320,192,186628,128,0,186682:0:0:0:0:
64,192,186628,1,0,0:0:0:0:
192,192,186628,1,0,0:0:0:0:
320,192,186735,128,0,186842:0:0:0:0:
448,192,186735,1,0,0:0:0:0:
192,192,186842,1,0,0:0:0:0:
320,192,186949,128,0,187057:0:0:0:0:
64,192,186949,1,0,0:0:0:0:
192,192,187057,1,0,0:0:0:0:
448,192,187057,128,0,187164:0:0:0:0:
320,192,187164,128,0,187271:0:0:0:0:
64,192,187164,1,0,0:0:0:0:
320,192,187378,128,0,187485:0:0:0:0:
448,192,187378,1,0,0:0:0:0:
64,192,187378,1,0,0:0:0:0:
192,192,187485,1,0,0:0:0:0:
320,192,187592,128,0,187699:0:0:0:0:
448,192,187592,1,0,0:0:0:0:
64,192,187592,1,0,0:0:0:0:
448,192,187699,128,0,187807:0:0:0:0:
64,192,187807,128,0,187914:0:0:0:0:
192,192,187807,1,0,0:0:0:0:
320,192,187807,1,0,0:0:0:0:
320,192,187914,128,0,188021:0:0:0:0:
192,192,187914,1,0,0:0:0:0:
448,192,187914,1,0,0:0:0:0:
64,192,188021,1,0,0:0:0:0:
320,192,188128,128,0,188235:0:0:0:0:
192,192,188128,1,0,0:0:0:0:
448,192,188235,1,0,0:0:0:0:
320,192,188342,128,0,188396:0:0:0:0:
192,192,188342,1,0,0:0:0:0:
64,192,188342,1,0,0:0:0:0:
320,192,188449,128,0,188503:0:0:0:0:
448,192,188449,1,0,0:0:0:0:
320,192,188557,128,0,188610:0:0:0:0:
192,192,188557,1,0,0:0:0:0:
320,192,188664,128,0,188771:0:0:0:0:
64,192,188664,1,0,0:0:0:0:
192,192,188771,1,0,0:0:0:0:
448,192,188771,1,0,0:0:0:0:
320,192,188878,128,0,188985:0:0:0:0:
64,192,188878,1,0,0:0:0:0:
192,192,188985,1,0,0:0:0:0:
320,192,189092,128,0,189146:0:0:0:0:
448,192,189092,1,0,0:0:0:0:
320,192,189199,128,0,189253:0:0:0:0:
192,192,189199,1,0,0:0:0:0:
64,192,189199,1,0,0:0:0:0:
320,192,189307,128,0,189360:0:0:0:0:
192,192,189307,1,0,0:0:0:0:
320,192,189414,128,0,189521:0:0:0:0:
64,192,189414,1,0,0:0:0:0:
192,192,189521,1,0,0:0:0:0:
320,192,189628,128,0,189735:0:0:0:0:
448,192,189628,1,0,0:0:0:0:
64,192,189628,1,0,0:0:0:0:
192,192,189735,1,0,0:0:0:0:
320,192,189842,128,0,189896:0:0:0:0:
64,192,189842,1,0,0:0:0:0:
320,192,189949,128,0,190003:0:0:0:0:
192,192,189949,1,0,0:0:0:0:
320,192,190057,128,0,190110:0:0:0:0:
448,192,190057,1,0,0:0:0:0:
64,192,190057,1,0,0:0:0:0:
320,192,190164,128,0,190271:0:0:0:0:
192,192,190164,1,0,0:0:0:0:
448,192,190271,1,0,0:0:0:0:
320,192,190378,128,0,190485:0:0:0:0:
192,192,190378,1,0,0:0:0:0:
64,192,190485,1,0,0:0:0:0:
448,192,190485,128,0,190592:0:0:0:0:
320,192,190592,128,0,190699:0:0:0:0:
192,192,190592,1,0,0:0:0:0:
320,192,190807,128,0,190914:0:0:0:0:
192,192,190807,1,0,0:0:0:0:
448,192,190914,1,0,0:0:0:0:
64,192,190914,1,0,0:0:0:0:
320,192,191021,128,0,191128:0:0:0:0:
192,192,191021,1,0,0:0:0:0:
64,192,191128,128,0,191235:0:0:0:0:
448,192,191128,1,0,0:0:0:0:
448,192,191235,128,0,191342:0:0:0:0:
192,192,191235,1,0,0:0:0:0:
320,192,191235,1,0,0:0:0:0:
192,192,191342,128,0,191449:0:0:0:0:
320,192,191342,1,0,0:0:0:0:
64,192,191342,1,0,0:0:0:0:
320,192,191449,1,0,0:0:0:0:
192,192,191557,128,0,191664:0:0:0:0:
448,192,191557,1,0,0:0:0:0:
320,192,191664,1,0,0:0:0:0:
192,192,191771,128,0,191824:0:0:0:0:
64,192,191771,1,0,0:0:0:0:
448,192,191771,1,0,0:0:0:0:
192,192,191878,128,0,191932:0:0:0:0:
320,192,191878,1,0,0:0:0:0:
192,192,191985,128,0,192039:0:0:0:0:
448,192,191985,1,0,0:0:0:0:
192,192,192092,128,0,192199:0:0:0:0:
320,192,192092,1,0,0:0:0:0:
64,192,192199,1,0,0:0:0:0:
448,192,192199,1,0,0:0:0:0:
192,192,192307,128,0,192414:0:0:0:0:
320,192,192307,1,0,0:0:0:0:
64,192,192414,1,0,0:0:0:0:
192,192,192521,128,0,192574:0:0:0:0:
320,192,192521,1,0,0:0:0:0:
192,192,192628,128,0,192682:0:0:0:0:
448,192,192628,1,0,0:0:0:0:
320,192,192628,1,0,0:0:0:0:
192,192,192735,128,0,192789:0:0:0:0:
448,192,192735,1,0,0:0:0:0:
192,192,192842,128,0,192949:0:0:0:0:
64,192,192842,1,0,0:0:0:0:
320,192,192949,1,0,0:0:0:0:
192,192,193057,128,0,193164:0:0:0:0:
64,192,193057,1,0,0:0:0:0:
448,192,193057,1,0,0:0:0:0:
320,192,193164,1,0,0:0:0:0:
192,192,193271,128,0,193324:0:0:0:0:
448,192,193271,1,0,0:0:0:0:
192,192,193378,128,0,193432:0:0:0:0:
64,192,193378,1,0,0:0:0:0:
192,192,193485,128,0,193539:0:0:0:0:
320,192,193485,1,0,0:0:0:0:
448,192,193485,1,0,0:0:0:0:
192,192,193592,128,0,193699:0:0:0:0:
320,192,193592,1,0,0:0:0:0:
64,192,193699,1,0,0:0:0:0:
192,192,193807,128,0,193914:0:0:0:0:
320,192,193807,1,0,0:0:0:0:
448,192,193914,1,0,0:0:0:0:
64,192,193914,1,0,0:0:0:0:
192,192,194021,128,0,194128:0:0:0:0:
320,192,194021,1,0,0:0:0:0:
448,192,194128,1,0,0:0:0:0:
192,192,194235,128,0,194342:0:0:0:0:
320,192,194235,1,0,0:0:0:0:
64,192,194342,1,0,0:0:0:0:
448,192,194342,1,0,0:0:0:0:
192,192,194449,128,0,194557:0:0:0:0:
320,192,194449,1,0,0:0:0:0:
448,192,194557,128,0,194664:0:0:0:0:
64,192,194557,1,0,0:0:0:0:
320,192,194664,128,0,194771:0:0:0:0:
192,192,194664,1,0,0:0:0:0:
64,192,194771,128,0,194878:0:0:0:0:
192,192,194771,128,0,194878:0:0:0:0:
448,192,194771,128,0,194878:0:0:0:0:
448,192,194985,128,0,195092:0:0:0:0:
192,192,194985,128,0,195092:0:0:0:0:
64,192,194985,128,0,195092:0:0:0:0:
192,192,195199,128,0,195253:0:0:0:0:
320,192,195199,128,0,195253:0:0:0:0:
448,192,195307,128,0,195360:0:0:0:0:
64,192,195307,128,0,195360:0:0:0:0:
64,192,195414,128,0,195467:0:0:0:0:
320,192,195414,128,0,195467:0:0:0:0:
192,192,195521,128,0,195628:0:0:0:0:
448,192,195521,128,0,195628:0:0:0:0:
64,192,195735,128,0,195842:0:0:0:0:
192,192,195735,128,0,195842:0:0:0:0:
320,192,195735,128,0,195842:0:0:0:0:
448,192,195949,128,0,196003:0:0:0:0:
320,192,195949,128,0,196003:0:0:0:0:
192,192,196057,128,0,196110:0:0:0:0:
64,192,196057,128,0,196110:0:0:0:0:
320,192,196164,128,0,196217:0:0:0:0:
448,192,196164,128,0,196217:0:0:0:0:
192,192,196271,128,0,196378:0:0:0:0:
64,192,196271,128,0,196378:0:0:0:0:
448,192,196485,128,0,196592:0:0:0:0:
64,192,196485,128,0,196592:0:0:0:0:
192,192,196485,128,0,196592:0:0:0:0:
192,192,196699,128,0,196753:0:0:0:0:
320,192,196699,128,0,196753:0:0:0:0:
448,192,196699,128,0,196753:0:0:0:0:
64,192,196807,128,0,196860:0:0:0:0:
192,192,196807,128,0,196860:0:0:0:0:
448,192,196807,128,0,196860:0:0:0:0:
64,192,196914,128,0,196967:0:0:0:0:
320,192,196914,128,0,196967:0:0:0:0:
448,192,196914,128,0,196967:0:0:0:0:
192,192,197021,128,0,197128:0:0:0:0:
64,192,197021,128,0,197128:0:0:0:0:
320,192,197021,128,0,197557:0:0:0:0:
192,192,197557,128,0,197771:0:0:0:0:
64,192,197771,128,0,197985:0:0:0:0:
320,192,197985,128,0,198199:0:0:0:0:
448,192,198199,128,0,198307:0:0:0:0:
192,192,198307,128,0,198414:0:0:0:0:
320,192,198414,128,0,198521:0:0:0:0:
192,192,198521,128,0,198628:0:0:0:0:
64,192,198628,128,0,198735:0:0:0:0:
192,192,198735,128,0,198842:0:0:0:0:
64,192,198842,128,0,198914:0:0:0:0:
320,192,198914,128,0,198985:0:0:0:0:
192,192,198985,128,0,199057:0:0:0:0:
448,192,199057,128,0,199128:0:0:0:0:
64,192,199128,128,0,199199:0:0:0:0:
320,192,199199,128,0,199271:0:0:0:0:
192,192,199271,128,0,199342:0:0:0:0:
64,192,199342,128,0,199414:0:0:0:0:
320,192,199414,128,0,199485:0:0:0:0:
448,192,199485,128,0,199557:0:0:0:0:
192,192,199557,128,0,199628:0:0:0:0:
64,192,199628,128,0,199699:0:0:0:0:
320,192,199699,128,0,199771:0:0:0:0:
192,192,199771,128,0,199842:0:0:0:0:
448,192,199842,128,0,199914:0:0:0:0:
64,192,199914,128,0,202799:0:0:0:0:
448,192,201949,128,0,202799:0:0:0:0:
320,192,202799,128,0,203074:0:0:0:0:
192,192,202799,128,0,203211:0:0:0:0:
448,192,203074,128,0,203211:0:0:0:0:
448,192,203349,128,0,203487:0:0:0:0:
64,192,203349,1,0,0:0:0:0:
192,192,203624,128,0,203900:0:0:0:0:
320,192,203624,1,0,0:0:0:0:
64,192,203624,1,0,0:0:0:0:
64,192,203900,128,0,204037:0:0:0:0:
448,192,203900,1,0,0:0:0:0:
320,192,203968,1,0,0:0:0:0:
448,192,204037,1,0,0:0:0:0:
320,192,204106,1,0,0:0:0:0:
64,192,204175,128,0,204313:0:0:0:0:
192,192,204175,1,0,0:0:0:0:
320,192,204450,128,0,204726:0:0:0:0:
192,192,204450,1,0,0:0:0:0:
192,192,204588,1,0,0:0:0:0:
448,192,204726,128,0,204863:0:0:0:0:
64,192,204726,1,0,0:0:0:0:
448,192,205001,128,0,205138:0:0:0:0:
320,192,205001,1,0,0:0:0:0:
64,192,205138,1,0,0:0:0:0:
192,192,205276,128,0,205551:0:0:0:0:
320,192,205276,1,0,0:0:0:0:
64,192,205276,1,0,0:0:0:0:
448,192,205414,1,0,0:0:0:0:
64,192,205551,128,0,205689:0:0:0:0:
320,192,205551,1,0,0:0:0:0:
64,192,205827,128,0,205964:0:0:0:0:
320,192,205827,1,0,0:0:0:0:
192,192,205896,1,0,0:0:0:0:
320,192,205964,1,0,0:0:0:0:
192,192,206033,1,0,0:0:0:0:
448,192,206102,128,0,206377:0:0:0:0:
64,192,206102,1,0,0:0:0:0:
64,192,206240,1,0,0:0:0:0:
320,192,206377,128,0,206515:0:0:0:0:
192,192,206377,1,0,0:0:0:0:
320,192,206653,128,0,206790:0:0:0:0:
192,192,206653,1,0,0:0:0:0:
192,192,206790,1,0,0:0:0:0:
64,192,206928,128,0,207203:0:0:0:0:
448,192,206928,1,0,0:0:0:0:
320,192,206928,1,0,0:0:0:0:
192,192,207203,128,0,207341:0:0:0:0:
320,192,207203,1,0,0:0:0:0:
448,192,207272,1,0,0:0:0:0:
320,192,207341,1,0,0:0:0:0:
64,192,207410,1,0,0:0:0:0:
192,192,207478,128,0,207616:0:0:0:0:
320,192,207478,1,0,0:0:0:0:
448,192,207754,128,0,208029:0:0:0:0:
192,192,207754,1,0,0:0:0:0:
192,192,207891,1,0,0:0:0:0:
320,192,208029,128,0,208167:0:0:0:0:
64,192,208029,1,0,0:0:0:0:
320,192,208304,128,0,208442:0:0:0:0:
192,192,208304,1,0,0:0:0:0:
448,192,208442,1,0,0:0:0:0:
64,192,208580,128,0,208855:0:0:0:0:
192,192,208580,1,0,0:0:0:0:
320,192,208580,1,0,0:0:0:0:
448,192,208717,1,0,0:0:0:0:
192,192,208855,128,0,208993:0:0:0:0:
320,192,208855,1,0,0:0:0:0:
192,192,209130,128,0,209268:0:0:0:0:
448,192,209130,1,0,0:0:0:0:
64,192,209199,1,0,0:0:0:0:
448,192,209268,1,0,0:0:0:0:
64,192,209337,1,0,0:0:0:0:
320,192,209406,128,0,209681:0:0:0:0:
448,192,209406,1,0,0:0:0:0:
192,192,209543,1,0,0:0:0:0:
64,192,209681,128,0,209818:0:0:0:0:
192,192,209681,1,0,0:0:0:0:
64,192,209956,128,0,210094:0:0:0:0:
320,192,209956,1,0,0:0:0:0:
448,192,210094,1,0,0:0:0:0:
192,192,210231,128,0,210507:0:0:0:0:
320,192,210231,1,0,0:0:0:0:
64,192,210231,1,0,0:0:0:0:
448,192,210507,128,0,210644:0:0:0:0:
320,192,210507,1,0,0:0:0:0:
64,192,210576,1,0,0:0:0:0:
320,192,210644,1,0,0:0:0:0:
64,192,210713,1,0,0:0:0:0:
448,192,210782,128,0,210920:0:0:0:0:
192,192,210782,1,0,0:0:0:0:
320,192,211057,128,0,211333:0:0:0:0:
192,192,211057,1,0,0:0:0:0:
192,192,211195,1,0,0:0:0:0:
64,192,211333,128,0,211470:0:0:0:0:
448,192,211333,1,0,0:0:0:0:
64,192,211608,128,0,211746:0:0:0:0:
192,192,211608,1,0,0:0:0:0:
448,192,211746,1,0,0:0:0:0:
192,192,211883,128,0,212158:0:0:0:0:
320,192,211883,1,0,0:0:0:0:
64,192,211883,1,0,0:0:0:0:
320,192,212021,1,0,0:0:0:0:
448,192,212158,128,0,212296:0:0:0:0:
64,192,212158,1,0,0:0:0:0:
448,192,212434,128,0,212571:0:0:0:0:
320,192,212434,1,0,0:0:0:0:
192,192,212503,1,0,0:0:0:0:
64,192,212571,1,0,0:0:0:0:
192,192,212640,1,0,0:0:0:0:
320,192,212709,128,0,212984:0:0:0:0:
64,192,212709,1,0,0:0:0:0:
64,192,212847,1,0,0:0:0:0:
448,192,212984,128,0,213122:0:0:0:0:
192,192,212984,1,0,0:0:0:0:
448,192,213260,128,0,213397:0:0:0:0:
192,192,213260,1,0,0:0:0:0:
64,192,213397,1,0,0:0:0:0:
192,192,213535,128,0,213810:0:0:0:0:
320,192,213535,1,0,0:0:0:0:
448,192,213535,1,0,0:0:0:0:
64,192,213810,128,0,213948:0:0:0:0:
320,192,213810,1,0,0:0:0:0:
448,192,213879,1,0,0:0:0:0:
320,192,213948,1,0,0:0:0:0:
192,192,214017,1,0,0:0:0:0:
64,192,214085,128,0,214223:0:0:0:0:
320,192,214085,1,0,0:0:0:0:
320,192,214361,128,0,214636:0:0:0:0:
192,192,214361,1,0,0:0:0:0:
192,192,214498,1,0,0:0:0:0:
448,192,214636,128,0,214774:0:0:0:0:
64,192,214636,1,0,0:0:0:0:
448,192,214911,128,0,215032:0:0:0:0:
192,192,214911,1,0,0:0:0:0:
64,192,215032,1,0,0:0:0:0:
192,192,215187,128,0,215445:0:0:0:0:
320,192,215187,1,0,0:0:0:0:
448,192,215187,1,0,0:0:0:0:
64,192,215324,1,0,0:0:0:0:
64,192,215445,128,0,215600:0:0:0:0:
320,192,215445,1,0,0:0:0:0:
64,192,215737,128,0,215858:0:0:0:0:
320,192,215737,1,0,0:0:0:0:
192,192,215806,1,0,0:0:0:0:
320,192,215875,1,0,0:0:0:0:
192,192,215944,1,0,0:0:0:0:
448,192,216013,1,0,0:0:0:0:
320,192,216013,128,0,217406:0:0:0:0:
64,192,216013,128,0,216288:0:0:0:0:
192,192,216288,128,0,216425:0:0:0:0:
448,192,216288,1,0,0:0:0:0:
192,192,216563,128,0,216701:0:0:0:0:
448,192,216563,1,0,0:0:0:0:
448,192,216838,128,0,217114:0:0:0:0:
64,192,216838,1,0,0:0:0:0:
192,192,216838,1,0,0:0:0:0:
64,192,217114,128,0,217251:0:0:0:0:
192,192,217114,1,0,0:0:0:0:
448,192,217183,1,0,0:0:0:0:
192,192,217251,1,0,0:0:0:0:
448,192,217320,1,0,0:0:0:0:
64,192,217389,128,0,217527:0:0:0:0:
192,192,217389,1,0,0:0:0:0:
448,192,217389,128,0,217527:0:0:0:0:
320,192,217527,128,0,217664:0:0:0:0:
448,192,217664,128,0,218077:0:0:0:0:
64,192,217664,128,0,217940:0:0:0:0:
192,192,217664,1,0,0:0:0:0:
192,192,217802,1,0,0:0:0:0:
192,192,217940,128,0,218077:0:0:0:0:
320,192,217940,1,0,0:0:0:0:
320,192,218077,128,0,218490:0:0:0:0:
192,192,218215,128,0,218353:0:0:0:0:
448,192,218215,1,0,0:0:0:0:
448,192,218353,1,0,0:0:0:0:
192,192,218490,128,0,218628:0:0:0:0:
448,192,218490,128,0,218765:0:0:0:0:
64,192,218490,1,0,0:0:0:0:
64,192,218628,1,0,0:0:0:0:
320,192,218628,128,0,218697:0:0:0:0:
192,192,218697,128,0,218765:0:0:0:0:
320,192,218765,128,0,218903:0:0:0:0:
64,192,218765,128,0,218903:0:0:0:0:
192,192,218903,128,0,219058:0:0:0:0:
448,192,219058,128,0,219178:0:0:0:0:
64,192,219058,128,0,219178:0:0:0:0:
320,192,219058,1,0,0:0:0:0:
192,192,219178,128,0,219316:0:0:0:0:
320,192,219178,1,0,0:0:0:0:
64,192,219316,128,0,219591:0:0:0:0:
320,192,219316,128,0,219591:0:0:0:0:
448,192,219316,1,0,0:0:0:0:
192,192,219454,1,0,0:0:0:0:
448,192,219591,128,0,219729:0:0:0:0:
192,192,219591,1,0,0:0:0:0:
192,192,219867,128,0,219935:0:0:0:0:
64,192,219867,1,0,0:0:0:0:
448,192,219867,128,0,220004:0:0:0:0:
320,192,219935,128,0,220004:0:0:0:0:
192,192,220004,128,0,220073:0:0:0:0:
64,192,220004,1,0,0:0:0:0:
320,192,220073,128,0,220142:0:0:0:0:
448,192,220142,128,0,220693:0:0:0:0:
64,192,220142,128,0,220417:0:0:0:0:
192,192,220142,1,0,0:0:0:0:
192,192,220417,128,0,220555:0:0:0:0:
320,192,220417,1,0,0:0:0:0:
320,192,220555,1,0,0:0:0:0:
320,192,220693,128,0,220968:0:0:0:0:
192,192,220693,128,0,220830:0:0:0:0:
64,192,220693,1,0,0:0:0:0:
192,192,220968,128,0,221381:0:0:0:0:
448,192,220968,128,0,221243:0:0:0:0:
64,192,220968,1,0,0:0:0:0:
320,192,221105,1,0,0:0:0:0:
320,192,221243,128,0,221381:0:0:0:0:
64,192,221243,1,0,0:0:0:0:
320,192,221518,128,0,221656:0:0:0:0:
64,192,221518,1,0,0:0:0:0:
192,192,221656,128,0,221794:0:0:0:0:
448,192,221656,1,0,0:0:0:0:
320,192,221794,128,0,221863:0:0:0:0:
64,192,221794,128,0,222069:0:0:0:0:
448,192,221863,128,0,221931:0:0:0:0:
320,192,221931,128,0,222069:0:0:0:0:
192,192,221931,1,0,0:0:0:0:
192,192,222069,128,0,222207:0:0:0:0:
448,192,222069,128,0,222207:0:0:0:0:
64,192,222207,128,0,222344:0:0:0:0:
192,192,222344,128,0,222482:0:0:0:0:
320,192,222344,1,0,0:0:0:0:
448,192,222344,128,0,222482:0:0:0:0:
320,192,222482,128,0,222620:0:0:0:0:
64,192,222482,1,0,0:0:0:0:
192,192,222620,128,0,223170:0:0:0:0:
448,192,222620,128,0,222895:0:0:0:0:
64,192,222620,1,0,0:0:0:0:
320,192,222757,1,0,0:0:0:0:
64,192,222895,128,0,223445:0:0:0:0:
320,192,222895,128,0,223032:0:0:0:0:
320,192,223170,128,0,223308:0:0:0:0:
448,192,223170,1,0,0:0:0:0:
192,192,223308,1,0,0:0:0:0:
192,192,223445,128,0,223600:0:0:0:0:
448,192,223445,128,0,223721:0:0:0:0:
320,192,223445,1,0,0:0:0:0:
320,192,223600,128,0,223721:0:0:0:0:
64,192,223721,128,0,223790:0:0:0:0:
192,192,223721,128,0,223858:0:0:0:0:
320,192,223858,128,0,223927:0:0:0:0:
448,192,223858,1,0,0:0:0:0:
192,192,223996,128,0,224134:0:0:0:0:
64,192,223996,128,0,224065:0:0:0:0:
448,192,223996,1,0,0:0:0:0:
448,192,224134,128,0,224202:0:0:0:0:
64,192,224271,128,0,224547:0:0:0:0:
192,192,224271,128,0,224340:0:0:0:0:
320,192,224271,1,0,0:0:0:0:
320,192,224409,1,0,0:0:0:0:
448,192,224409,128,0,224478:0:0:0:0:
192,192,224547,128,0,224684:0:0:0:0:
320,192,224547,128,0,224615:0:0:0:0:
448,192,224547,1,0,0:0:0:0:
448,192,224684,128,0,224753:0:0:0:0:
192,192,224822,128,0,224960:0:0:0:0:
320,192,224822,1,0,0:0:0:0:
64,192,224822,128,0,224891:0:0:0:0:
320,192,224960,128,0,225097:0:0:0:0:
448,192,224960,1,0,0:0:0:0:
448,192,225097,128,0,225200:0:0:0:0:
64,192,225097,128,0,225372:0:0:0:0:
192,192,225097,1,0,0:0:0:0:
320,192,225200,128,0,225304:0:0:0:0:
192,192,225304,128,0,225407:0:0:0:0:
448,192,225372,128,0,225510:0:0:0:0:
320,192,225407,128,0,225510:0:0:0:0:
192,192,225510,128,0,225613:0:0:0:0:
64,192,225613,128,0,225717:0:0:0:0:
448,192,225648,128,0,225785:0:0:0:0:
320,192,225717,128,0,225820:0:0:0:0:
192,192,225820,128,0,225923:0:0:0:0:
64,192,225923,128,0,226198:0:0:0:0:
320,192,225923,128,0,226198:0:0:0:0:
448,192,225923,1,0,0:0:0:0:
192,192,226061,1,0,0:0:0:0:
448,192,226198,128,0,226336:0:0:0:0:
192,192,226198,1,0,0:0:0:0:
64,192,226474,128,0,226542:0:0:0:0:
320,192,226474,1,0,0:0:0:0:
448,192,226474,128,0,226611:0:0:0:0:
192,192,226542,128,0,226611:0:0:0:0:
64,192,226611,128,0,226680:0:0:0:0:
320,192,226611,1,0,0:0:0:0:
192,192,226680,128,0,226749:0:0:0:0:
64,192,226749,1,0,0:0:0:0:
320,192,226749,128,0,227024:0:0:0:0:
448,192,226749,128,0,227300:0:0:0:0:
64,192,227024,128,0,227162:0:0:0:0:
192,192,227024,1,0,0:0:0:0:
192,192,227162,1,0,0:0:0:0:
192,192,227300,128,0,227575:0:0:0:0:
64,192,227300,128,0,227437:0:0:0:0:
320,192,227300,1,0,0:0:0:0:
320,192,227575,128,0,227712:0:0:0:0:
448,192,227575,128,0,227850:0:0:0:0:
64,192,227575,1,0,0:0:0:0:
192,192,227712,1,0,0:0:0:0:
320,192,227850,128,0,227988:0:0:0:0:
64,192,227850,128,0,227988:0:0:0:0:
192,192,227850,1,0,0:0:0:0:
448,192,227988,128,0,228125:0:0:0:0:
192,192,228125,128,0,228263:0:0:0:0:
64,192,228125,128,0,228263:0:0:0:0:
320,192,228125,1,0,0:0:0:0:
320,192,228263,1,0,0:0:0:0:
448,192,228263,128,0,228401:0:0:0:0:
320,192,228401,128,0,228676:0:0:0:0:
192,192,228401,128,0,228676:0:0:0:0:
64,192,228401,1,0,0:0:0:0:
64,192,228538,1,0,0:0:0:0:
448,192,228676,128,0,228814:0:0:0:0:
64,192,228676,128,0,228814:0:0:0:0:
320,192,228814,128,0,229227:0:0:0:0:
64,192,228951,128,0,229089:0:0:0:0:
448,192,228951,1,0,0:0:0:0:
192,192,229020,1,0,0:0:0:0:
448,192,229089,1,0,0:0:0:0:
192,192,229158,1,0,0:0:0:0:
192,192,229227,128,0,229364:0:0:0:0:
448,192,229227,1,0,0:0:0:0:
64,192,229227,128,0,229364:0:0:0:0:
320,192,229364,128,0,229502:0:0:0:0:
448,192,229502,128,0,229640:0:0:0:0:
192,192,229502,1,0,0:0:0:0:
64,192,229502,128,0,229640:0:0:0:0:
192,192,229640,128,0,229777:0:0:0:0:
64,192,229777,128,0,229915:0:0:0:0:
320,192,229777,128,0,229915:0:0:0:0:
448,192,229777,1,0,0:0:0:0:
448,192,229915,128,0,230052:0:0:0:0:
64,192,230052,128,0,230190:0:0:0:0:
320,192,230052,1,0,0:0:0:0:
192,192,230052,128,0,230190:0:0:0:0:
320,192,230190,128,0,230328:0:0:0:0:
448,192,230328,128,0,230465:0:0:0:0:
192,192,230328,128,0,230465:0:0:0:0:
64,192,230328,1,0,0:0:0:0:
320,192,230465,1,0,0:0:0:0:
64,192,230465,128,0,230603:0:0:0:0:
192,192,230603,128,0,230741:0:0:0:0:
448,192,230603,128,0,230741:0:0:0:0:
320,192,230603,1,0,0:0:0:0:
320,192,230741,128,0,230878:0:0:0:0:
192,192,230878,128,0,231016:0:0:0:0:
64,192,230878,128,0,231016:0:0:0:0:
448,192,230878,1,0,0:0:0:0:
320,192,231016,128,0,231154:0:0:0:0:
448,192,231016,1,0,0:0:0:0:
448,192,231154,128,0,231291:0:0:0:0:
192,192,231154,128,0,231291:0:0:0:0:
64,192,231154,1,0,0:0:0:0:
64,192,231291,128,0,231429:0:0:0:0:
192,192,231429,128,0,231567:0:0:0:0:
320,192,231429,128,0,231567:0:0:0:0:
448,192,231429,1,0,0:0:0:0:
448,192,231567,128,0,231704:0:0:0:0:
64,192,231567,1,0,0:0:0:0:
64,192,231704,128,0,231842:0:0:0:0:
320,192,231704,1,0,0:0:0:0:
192,192,231704,128,0,231842:0:0:0:0:
320,192,231842,128,0,231980:0:0:0:0:
448,192,231842,1,0,0:0:0:0:
448,192,231980,128,0,232117:0:0:0:0:
192,192,231980,128,0,232117:0:0:0:0:
64,192,231980,1,0,0:0:0:0:
64,192,232117,128,0,232255:0:0:0:0:
192,192,232255,128,0,232392:0:0:0:0:
448,192,232255,128,0,232392:0:0:0:0:
320,192,232255,1,0,0:0:0:0:
320,192,232392,128,0,232530:0:0:0:0:
64,192,232392,1,0,0:0:0:0:
192,192,232530,128,0,232805:0:0:0:0:
448,192,232530,128,0,232805:0:0:0:0:
64,192,232530,1,0,0:0:0:0:
320,192,232668,1,0,0:0:0:0:
320,192,232805,1,0,0:0:0:0:
64,192,232805,128,0,232943:0:0:0:0:
192,192,233081,128,0,233149:0:0:0:0:
64,192,233081,128,0,233218:0:0:0:0:
448,192,233081,1,0,0:0:0:0:
320,192,233149,128,0,233218:0:0:0:0:
192,192,233218,128,0,233287:0:0:0:0:
320,192,233287,128,0,233356:0:0:0:0:
448,192,233356,128,0,233907:0:0:0:0:
192,192,233356,128,0,233631:0:0:0:0:
64,192,233356,1,0,0:0:0:0:
64,192,233631,128,0,233769:0:0:0:0:
320,192,233631,1,0,0:0:0:0:
192,192,233700,1,0,0:0:0:0:
320,192,233769,1,0,0:0:0:0:
192,192,233838,1,0,0:0:0:0:
192,192,233907,128,0,234182:0:0:0:0:
64,192,233907,128,0,234044:0:0:0:0:
320,192,233907,1,0,0:0:0:0:
320,192,234182,128,0,234319:0:0:0:0:
64,192,234182,128,0,234457:0:0:0:0:
448,192,234182,1,0,0:0:0:0:
192,192,234319,1,0,0:0:0:0:
192,192,234457,128,0,234595:0:0:0:0:
448,192,234457,128,0,234595:0:0:0:0:
320,192,234457,1,0,0:0:0:0:
320,192,234595,128,0,234732:0:0:0:0:
64,192,234732,128,0,234870:0:0:0:0:
448,192,234732,128,0,234870:0:0:0:0:
192,192,234732,1,0,0:0:0:0:
192,192,234870,128,0,235008:0:0:0:0:
320,192,234870,1,0,0:0:0:0:
448,192,235008,128,0,235421:0:0:0:0:
320,192,235008,128,0,235283:0:0:0:0:
64,192,235008,1,0,0:0:0:0:
192,192,235145,128,0,235421:0:0:0:0:
64,192,235145,1,0,0:0:0:0:
64,192,235283,128,0,235421:0:0:0:0:
320,192,235421,128,0,235834:0:0:0:0:
448,192,235558,1,0,0:0:0:0:
64,192,235558,128,0,235696:0:0:0:0:
192,192,235696,1,0,0:0:0:0:
192,192,235834,128,0,235971:0:0:0:0:
448,192,235834,128,0,236109:0:0:0:0:
64,192,235834,1,0,0:0:0:0:
320,192,235971,1,0,0:0:0:0:
64,192,236109,128,0,236247:0:0:0:0:
320,192,236109,128,0,236247:0:0:0:0:
192,192,236109,1,0,0:0:0:0:
448,192,236384,128,0,236522:0:0:0:0:
320,192,236384,128,0,236522:0:0:0:0:
192,192,236384,1,0,0:0:0:0:
192,192,236522,1,0,0:0:0:0:
320,192,236659,128,0,236797:0:0:0:0:
64,192,236659,128,0,236935:0:0:0:0:
448,192,236659,1,0,0:0:0:0:
192,192,236659,1,0,0:0:0:0:
192,192,236935,128,0,237072:0:0:0:0:
448,192,236935,128,0,237072:0:0:0:0:
320,192,236935,1,0,0:0:0:0:
64,192,237004,1,0,0:0:0:0:
320,192,237072,1,0,0:0:0:0:
192,192,237141,1,0,0:0:0:0:
64,192,237210,128,0,237348:0:0:0:0:
448,192,237210,128,0,237348:0:0:0:0:
320,192,237210,1,0,0:0:0:0:
448,192,237485,128,0,237623:0:0:0:0:
192,192,237485,128,0,237761:0:0:0:0:
64,192,237485,1,0,0:0:0:0:
320,192,237485,1,0,0:0:0:0:
320,192,237623,1,0,0:0:0:0:
320,192,237761,128,0,237898:0:0:0:0:
64,192,237761,128,0,237898:0:0:0:0:
448,192,237761,1,0,0:0:0:0:
448,192,237898,1,0,0:0:0:0:
192,192,238036,128,0,238174:0:0:0:0:
64,192,238036,128,0,238174:0:0:0:0:
448,192,238036,1,0,0:0:0:0:
320,192,238036,1,0,0:0:0:0:
64,192,238311,128,0,238449:0:0:0:0:
320,192,238311,128,0,238587:0:0:0:0:
448,192,238311,1,0,0:0:0:0:
192,192,238380,1,0,0:0:0:0:
448,192,238449,1,0,0:0:0:0:
192,192,238518,1,0,0:0:0:0:
448,192,238587,128,0,238724:0:0:0:0:
192,192,238587,128,0,238724:0:0:0:0:
64,192,238587,1,0,0:0:0:0:
64,192,238862,128,0,238999:0:0:0:0:
192,192,238862,128,0,238999:0:0:0:0:
320,192,238862,1,0,0:0:0:0:
320,192,239111,128,0,240266:0:0:0:0:
448,192,239111,1,0,0:0:0:0:
192,192,239111,1,0,0:0:0:0:
64,192,239253,1,0,0:0:0:0:
192,192,239396,1,0,0:0:0:0:
64,192,239468,1,0,0:0:0:0:
192,192,239539,1,0,0:0:0:0:
64,192,239611,1,0,0:0:0:0:
192,192,239682,1,0,0:0:0:0:
448,192,239682,1,0,0:0:0:0:
64,192,239968,1,0,0:0:0:0:
448,192,240039,1,0,0:0:0:0:
64,192,240111,1,0,0:0:0:0:
448,192,240182,1,0,0:0:0:0:
448,192,240266,1,0,0:0:0:0:
192,192,240266,128,0,240878:0:0:0:0:
64,192,240266,1,0,0:0:0:0:
320,192,240419,1,0,0:0:0:0:
64,192,240572,1,0,0:0:0:0:
448,192,240572,1,0,0:0:0:0:
320,192,240725,1,0,0:0:0:0:
320,192,240878,128,0,241492:0:0:0:0:
448,192,240878,1,0,0:0:0:0:
64,192,240878,1,0,0:0:0:0:
192,192,241031,1,0,0:0:0:0:
448,192,241184,1,0,0:0:0:0:
192,192,241260,1,0,0:0:0:0:
448,192,241337,1,0,0:0:0:0:
192,192,241413,1,0,0:0:0:0:
448,192,241492,128,0,242179:0:0:0:0:
64,192,241492,1,0,0:0:0:0:
192,192,241492,1,0,0:0:0:0:
192,192,241666,1,0,0:0:0:0:
320,192,241840,1,0,0:0:0:0:
64,192,241840,1,0,0:0:0:0:
192,192,242015,1,0,0:0:0:0:
192,192,242179,128,0,242926:0:0:0:0:
64,192,242179,1,0,0:0:0:0:
320,192,242179,1,0,0:0:0:0:
320,192,242371,1,0,0:0:0:0:
448,192,242563,1,0,0:0:0:0:
64,192,242563,1,0,0:0:0:0:
320,192,242755,1,0,0:0:0:0:
448,192,242926,128,0,243973:0:0:0:0:
320,192,242926,1,0,0:0:0:0:
64,192,242926,1,0,0:0:0:0:
192,192,243176,1,0,0:0:0:0:
320,192,243426,1,0,0:0:0:0:
64,192,243426,1,0,0:0:0:0:
192,192,243676,1,0,0:0:0:0:
320,192,243973,128,0,244806:0:0:0:0:
192,192,243973,128,0,245084:0:0:0:0:
64,192,244806,128,0,245361:0:0:0:0:
192,192,245361,128,0,245639:0:0:0:0:
320,192,245639,128,0,245778:0:0:0:0:
64,192,245639,128,0,246195:0:0:0:0:
448,192,245778,128,0,245917:0:0:0:0:
320,192,245917,128,0,246056:0:0:0:0:
192,192,246056,128,0,246195:0:0:0:0:
320,192,246195,128,0,246750:0:0:0:0:
448,192,246195,128,0,247028:0:0:0:0:
192,192,246750,128,0,247306:0:0:0:0:
448,192,247306,128,0,247584:0:0:0:0:
320,192,247584,128,0,247861:0:0:0:0:
192,192,247861,128,0,248139:0:0:0:0:
64,192,247861,128,0,248417:0:0:0:0:
320,192,248139,128,0,248417:0:0:0:0:
192,192,248417,128,0,248695:0:0:0:0:
448,192,248417,128,0,249111:0:0:0:0:
64,192,248834,128,0,249111:0:0:0:0:
448,192,249250,128,0,249528:0:0:0:0:
320,192,249528,128,0,250084:0:0:0:0:
192,192,249528,128,0,249806:0:0:0:0:
64,192,249806,128,0,250084:0:0:0:0:
192,192,250084,128,0,250639:0:0:0:0:
448,192,250084,128,0,250361:0:0:0:0:
64,192,250361,128,0,250639:0:0:0:0:
320,192,250639,128,0,251195:0:0:0:0:
448,192,250639,128,0,251750:0:0:0:0:
64,192,251195,128,0,251264:0:0:0:0:
320,192,251264,128,0,251334:0:0:0:0:
64,192,251334,128,0,251403:0:0:0:0:
320,192,251403,128,0,251473:0:0:0:0:
64,192,251473,128,0,251542:0:0:0:0:
320,192,251542,128,0,251611:0:0:0:0:
64,192,251611,128,0,251681:0:0:0:0:
320,192,251681,128,0,251750:0:0:0:0:
192,192,251750,128,0,252306:0:0:0:0:
64,192,251750,128,0,252306:0:0:0:0:
448,192,252306,128,0,252861:0:0:0:0:
320,192,252306,128,0,252861:0:0:0:0:
64,192,252861,128,0,253417:0:0:0:0:
192,192,252861,128,0,253278:0:0:0:0:
192,192,253417,128,0,253486:0:0:0:0:
320,192,253486,128,0,253556:0:0:0:0:
192,192,253556,128,0,253625:0:0:0:0:
320,192,253625,128,0,253695:0:0:0:0:
192,192,253695,128,0,253764:0:0:0:0:
320,192,253764,128,0,253834:0:0:0:0:
192,192,253834,128,0,253903:0:0:0:0:
320,192,253903,128,0,253973:0:0:0:0:
192,192,253973,128,0,254250:0:0:0:0:
448,192,253973,128,0,254528:0:0:0:0:
64,192,254250,128,0,254528:0:0:0:0:
320,192,254528,128,0,254806:0:0:0:0:
192,192,254528,128,0,254806:0:0:0:0:
448,192,254806,128,0,255084:0:0:0:0:
192,192,255084,128,0,255917:0:0:0:0:
320,192,255084,128,0,256195:0:0:0:0:
64,192,255917,128,0,256195:0:0:0:0:
448,192,256195,128,0,256473:0:0:0:0:
192,192,256195,128,0,256473:0:0:0:0:
320,192,256473,128,0,256750:0:0:0:0:
192,192,256750,128,0,257028:0:0:0:0:
64,192,256750,128,0,257028:0:0:0:0:
320,192,257028,128,0,257306:0:0:0:0:
192,192,257306,128,0,258139:0:0:0:0:
448,192,257306,128,0,258139:0:0:0:0:
320,192,258139,128,0,258232:0:0:0:0:
448,192,258232,128,0,258324:0:0:0:0:
192,192,258324,128,0,258417:0:0:0:0:
64,192,258417,128,0,259250:0:0:0:0:
320,192,258417,128,0,259250:0:0:0:0:
192,192,259250,128,0,259343:0:0:0:0:
448,192,259343,128,0,259435:0:0:0:0:
320,192,259435,128,0,259528:0:0:0:0:
192,192,259528,128,0,263927:0:0:0:0:
64,192,259528,128,0,265641:0:0:0:0:
448,192,263927,128,0,264141:0:0:0:0:
320,192,264141,128,0,264248:0:0:0:0:
192,192,264248,1,0,0:0:0:0:
448,192,264355,1,0,0:0:0:0:
192,192,264462,1,0,0:0:0:0:
320,192,264569,128,0,264677:0:0:0:0:
192,192,264677,1,0,0:0:0:0:
448,192,264784,1,0,0:0:0:0:
192,192,264891,1,0,0:0:0:0:
320,192,264998,128,0,265105:0:0:0:0:
192,192,265105,1,0,0:0:0:0:
448,192,265212,1,0,0:0:0:0:
192,192,265319,1,0,0:0:0:0:
320,192,265427,128,0,265534:0:0:0:0:
192,192,265534,1,0,0:0:0:0:
448,192,265641,128,0,267355:0:0:0:0:
320,192,265641,128,0,265748:0:0:0:0:
192,192,265641,128,0,265748:0:0:0:0:
64,192,265748,128,0,265855:0:0:0:0:
320,192,265855,128,0,265962:0:0:0:0:
192,192,265962,128,0,266069:0:0:0:0:
64,192,265962,128,0,266069:0:0:0:0:
320,192,266069,128,0,266177:0:0:0:0:
192,192,266177,128,0,266284:0:0:0:0:
64,192,266284,128,0,266391:0:0:0:0:
320,192,266284,128,0,266391:0:0:0:0:
192,192,266391,128,0,266498:0:0:0:0:
320,192,266498,128,0,266712:0:0:0:0:
64,192,266498,128,0,266712:0:0:0:0:
192,192,266927,128,0,267141:0:0:0:0:
64,192,267355,1,0,0:0:0:0:
320,192,267355,128,0,267784:0:0:0:0:
192,192,267355,1,0,0:0:0:0:
448,192,267462,1,0,0:0:0:0:
192,192,267569,1,0,0:0:0:0:
64,192,267677,1,0,0:0:0:0:
192,192,267784,128,0,267998:0:0:0:0:
64,192,267784,1,0,0:0:0:0:
448,192,267784,1,0,0:0:0:0:
320,192,267891,1,0,0:0:0:0:
64,192,267998,128,0,268212:0:0:0:0:
448,192,267998,1,0,0:0:0:0:
320,192,268105,1,0,0:0:0:0:
192,192,268212,128,0,268319:0:0:0:0:
448,192,268212,1,0,0:0:0:0:
320,192,268212,1,0,0:0:0:0:
320,192,268319,128,0,268427:0:0:0:0:
64,192,268319,1,0,0:0:0:0:
448,192,268534,128,0,268855:0:0:0:0:
192,192,268534,1,0,0:0:0:0:
320,192,268641,1,0,0:0:0:0:
64,192,268641,1,0,0:0:0:0:
192,192,268748,1,0,0:0:0:0:
320,192,268855,128,0,269069:0:0:0:0:
64,192,268855,1,0,0:0:0:0:
192,192,268962,1,0,0:0:0:0:
192,192,269069,128,0,269284:0:0:0:0:
448,192,269069,1,0,0:0:0:0:
64,192,269069,1,0,0:0:0:0:
320,192,269284,1,0,0:0:0:0:
64,192,269391,128,0,269605:0:0:0:0:
192,192,269605,1,0,0:0:0:0:
320,192,269712,128,0,269927:0:0:0:0:
448,192,269927,128,0,270069:0:0:0:0:
64,192,269927,1,0,0:0:0:0:
192,192,269927,1,0,0:0:0:0:
320,192,270069,128,0,270212:0:0:0:0:
192,192,270212,128,0,270355:0:0:0:0:
64,192,270355,128,0,270498:0:0:0:0:
320,192,270355,1,0,0:0:0:0:
448,192,270355,1,0,0:0:0:0:
448,192,270498,128,0,270641:0:0:0:0:
320,192,270641,128,0,270784:0:0:0:0:
192,192,270784,128,0,270891:0:0:0:0:
64,192,270784,1,0,0:0:0:0:
448,192,270784,1,0,0:0:0:0:
64,192,270891,128,0,270998:0:0:0:0:
320,192,270891,1,0,0:0:0:0:
192,192,270998,128,0,271105:0:0:0:0:
448,192,270998,1,0,0:0:0:0:
320,192,271105,128,0,271427:0:0:0:0:
64,192,271105,1,0,0:0:0:0:
64,192,271212,128,0,271427:0:0:0:0:
192,192,271212,1,0,0:0:0:0:
448,192,271212,1,0,0:0:0:0:
192,192,271319,1,0,0:0:0:0:
192,192,271427,128,0,271534:0:0:0:0:
448,192,271427,1,0,0:0:0:0:
64,192,271534,128,0,271641:0:0:0:0:
320,192,271534,1,0,0:0:0:0:
192,192,271641,128,0,271748:0:0:0:0:
448,192,271641,1,0,0:0:0:0:
320,192,271641,1,0,0:0:0:0:
320,192,271748,128,0,271855:0:0:0:0:
64,192,271748,1,0,0:0:0:0:
192,192,271855,128,0,271962:0:0:0:0:
448,192,271962,128,0,272069:0:0:0:0:
320,192,271962,1,0,0:0:0:0:
320,192,272069,128,0,272123:0:0:0:0:
64,192,272069,1,0,0:0:0:0:
192,192,272123,128,0,272177:0:0:0:0:
320,192,272177,128,0,272230:0:0:0:0:
192,192,272230,128,0,272284:0:0:0:0:
320,192,272284,128,0,272337:0:0:0:0:
64,192,272284,1,0,0:0:0:0:
192,192,272337,128,0,272391:0:0:0:0:
320,192,272391,128,0,272444:0:0:0:0:
192,192,272444,128,0,272498:0:0:0:0:
320,192,272498,128,0,272712:0:0:0:0:
64,192,272498,1,0,0:0:0:0:
448,192,272498,1,0,0:0:0:0:
64,192,272712,1,0,0:0:0:0:
448,192,272712,1,0,0:0:0:0:
192,192,272819,128,0,273034:0:0:0:0:
320,192,272819,1,0,0:0:0:0:
64,192,272819,1,0,0:0:0:0:
448,192,272927,1,0,0:0:0:0:
320,192,273034,1,0,0:0:0:0:
64,192,273034,1,0,0:0:0:0:
64,192,273141,128,0,273248:0:0:0:0:
448,192,273141,1,0,0:0:0:0:
320,192,273141,1,0,0:0:0:0:
192,192,273248,128,0,273355:0:0:0:0:
448,192,273248,1,0,0:0:0:0:
448,192,273355,128,0,273569:0:0:0:0:
320,192,273355,128,0,273462:0:0:0:0:
192,192,273462,128,0,273569:0:0:0:0:
64,192,273569,128,0,273784:0:0:0:0:
320,192,273569,128,0,273677:0:0:0:0:
192,192,273677,128,0,273784:0:0:0:0:
320,192,273784,128,0,273998:0:0:0:0:
448,192,273784,128,0,273891:0:0:0:0:
192,192,273891,1,0,0:0:0:0:
192,192,273998,128,0,274105:0:0:0:0:
64,192,273998,128,0,274212:0:0:0:0:
320,192,274105,1,0,0:0:0:0:
448,192,274212,128,0,274427:0:0:0:0:
192,192,274212,1,0,0:0:0:0:
320,192,274212,1,0,0:0:0:0:
64,192,274319,128,0,274427:0:0:0:0:
192,192,274427,128,0,274498:0:0:0:0:
320,192,274427,1,0,0:0:0:0:
64,192,274498,128,0,274569:0:0:0:0:
192,192,274569,128,0,274641:0:0:0:0:
64,192,274641,128,0,274712:0:0:0:0:
320,192,274641,1,0,0:0:0:0:
448,192,274641,1,0,0:0:0:0:
192,192,274712,128,0,274784:0:0:0:0:
64,192,274784,128,0,274855:0:0:0:0:
192,192,274855,128,0,274927:0:0:0:0:
448,192,274855,1,0,0:0:0:0:
320,192,274927,128,0,274998:0:0:0:0:
192,192,274998,128,0,275069:0:0:0:0:
320,192,275069,128,0,275141:0:0:0:0:
64,192,275069,1,0,0:0:0:0:
448,192,275069,1,0,0:0:0:0:
192,192,275141,128,0,275212:0:0:0:0:
320,192,275212,128,0,275284:0:0:0:0:
448,192,275284,128,0,275355:0:0:0:0:
64,192,275284,1,0,0:0:0:0:
320,192,275355,128,0,275427:0:0:0:0:
448,192,275427,128,0,275498:0:0:0:0:
64,192,275498,128,0,275569:0:0:0:0:
192,192,275498,1,0,0:0:0:0:
320,192,275569,128,0,275641:0:0:0:0:
64,192,275641,128,0,275712:0:0:0:0:
320,192,275712,128,0,275784:0:0:0:0:
448,192,275712,1,0,0:0:0:0:
64,192,275784,128,0,275855:0:0:0:0:
448,192,275855,128,0,275927:0:0:0:0:
192,192,275927,128,0,276141:0:0:0:0:
320,192,275927,1,0,0:0:0:0:
64,192,275927,1,0,0:0:0:0:
448,192,276141,128,0,276355:0:0:0:0:
320,192,276141,1,0,0:0:0:0:
320,192,276355,128,0,276569:0:0:0:0:
192,192,276355,1,0,0:0:0:0:
64,192,276355,1,0,0:0:0:0:
192,192,276569,128,0,276641:0:0:0:0:
64,192,276569,1,0,0:0:0:0:
448,192,276641,128,0,276712:0:0:0:0:
320,192,276712,128,0,276784:0:0:0:0:
192,192,276784,128,0,276998:0:0:0:0:
64,192,276784,1,0,0:0:0:0:
448,192,276784,1,0,0:0:0:0:
320,192,276891,1,0,0:0:0:0:
64,192,276998,128,0,277212:0:0:0:0:
320,192,277105,1,0,0:0:0:0:
448,192,277212,128,0,277427:0:0:0:0:
192,192,277212,1,0,0:0:0:0:
320,192,277212,1,0,0:0:0:0:
192,192,277319,1,0,0:0:0:0:
320,192,277427,128,0,277641:0:0:0:0:
64,192,277427,1,0,0:0:0:0:
192,192,277534,1,0,0:0:0:0:
64,192,277641,1,0,0:0:0:0:
192,192,277641,1,0,0:0:0:0:
448,192,277641,128,0,277855:0:0:0:0:
320,192,277748,1,0,0:0:0:0:
64,192,277855,128,0,278069:0:0:0:0:
192,192,277855,1,0,0:0:0:0:
320,192,277962,1,0,0:0:0:0:
320,192,278069,128,0,278284:0:0:0:0:
448,192,278069,1,0,0:0:0:0:
192,192,278069,1,0,0:0:0:0:
64,192,278177,1,0,0:0:0:0:
192,192,278284,128,0,278498:0:0:0:0:
448,192,278284,1,0,0:0:0:0:
320,192,278391,1,0,0:0:0:0:
448,192,278498,128,0,278712:0:0:0:0:
64,192,278498,1,0,0:0:0:0:
320,192,278498,1,0,0:0:0:0:
64,192,278605,1,0,0:0:0:0:
192,192,278712,128,0,278927:0:0:0:0:
320,192,278712,1,0,0:0:0:0:
64,192,278819,1,0,0:0:0:0:
448,192,278927,128,0,279141:0:0:0:0:
320,192,278927,1,0,0:0:0:0:
64,192,278927,1,0,0:0:0:0:
192,192,279034,1,0,0:0:0:0:
320,192,279141,128,0,279212:0:0:0:0:
64,192,279141,1,0,0:0:0:0:
192,192,279212,128,0,279284:0:0:0:0:
448,192,279248,1,0,0:0:0:0:
320,192,279284,128,0,279355:0:0:0:0:
192,192,279355,128,0,279677:0:0:0:0:
64,192,279355,1,0,0:0:0:0:
448,192,279355,1,0,0:0:0:0:
320,192,279569,1,0,0:0:0:0:
64,192,279677,128,0,279998:0:0:0:0:
448,192,279677,1,0,0:0:0:0:
320,192,279677,1,0,0:0:0:0:
320,192,279891,1,0,0:0:0:0:
448,192,279998,128,0,280641:0:0:0:0:
320,192,279998,1,0,0:0:0:0:
192,192,279998,1,0,0:0:0:0:
192,192,280212,1,0,0:0:0:0:
64,192,280212,128,0,280641:0:0:0:0:
320,192,280212,1,0,0:0:0:0:
192,192,280641,128,0,280677:0:0:0:0:
320,192,280677,1,0,0:0:0:0:
448,192,280712,1,0,0:0:0:0:
64,192,280748,1,0,0:0:0:0:
192,192,280784,1,0,0:0:0:0:
320,192,280819,1,0,0:0:0:0:
448,192,280855,128,0,280891:0:0:0:0:
64,192,280891,1,0,0:0:0:0:
192,192,280927,1,0,0:0:0:0:
320,192,280962,1,0,0:0:0:0:
448,192,280998,1,0,0:0:0:0:
64,192,281034,1,0,0:0:0:0:
192,192,281069,1,0,0:0:0:0:
320,192,281069,128,0,281177:0:0:0:0:
448,192,281177,128,0,281284:0:0:0:0:
192,192,281284,128,0,281391:0:0:0:0:
64,192,281284,1,0,0:0:0:0:
320,192,281391,128,0,281605:0:0:0:0:
448,192,281391,1,0,0:0:0:0:
448,192,281498,1,0,0:0:0:0:
64,192,281498,1,0,0:0:0:0:
192,192,281605,128,0,281712:0:0:0:0:
64,192,281605,1,0,0:0:0:0:
64,192,281712,128,0,281819:0:0:0:0:
320,192,281712,1,0,0:0:0:0:
192,192,281819,128,0,281927:0:0:0:0:
448,192,281819,1,0,0:0:0:0:
448,192,281927,128,0,282141:0:0:0:0:
320,192,281927,1,0,0:0:0:0:
64,192,281927,1,0,0:0:0:0:
320,192,282141,128,0,282248:0:0:0:0:
64,192,282141,1,0,0:0:0:0:
192,192,282248,128,0,282355:0:0:0:0:
448,192,282248,1,0,0:0:0:0:
64,192,282355,128,0,282462:0:0:0:0:
320,192,282355,1,0,0:0:0:0:
448,192,282355,1,0,0:0:0:0:
192,192,282462,128,0,282677:0:0:0:0:
320,192,282462,1,0,0:0:0:0:
448,192,282569,1,0,0:0:0:0:
320,192,282677,128,0,282784:0:0:0:0:
64,192,282677,1,0,0:0:0:0:
192,192,282784,128,0,282891:0:0:0:0:
448,192,282784,1,0,0:0:0:0:
64,192,282784,1,0,0:0:0:0:
64,192,282891,128,0,282998:0:0:0:0:
448,192,282891,1,0,0:0:0:0:
320,192,282998,128,0,283319:0:0:0:0:
192,192,282998,1,0,0:0:0:0:
448,192,283105,1,0,0:0:0:0:
192,192,283212,1,0,0:0:0:0:
64,192,283212,1,0,0:0:0:0:
192,192,283319,128,0,283427:0:0:0:0:
448,192,283319,1,0,0:0:0:0:
64,192,283427,128,0,283534:0:0:0:0:
320,192,283427,1,0,0:0:0:0:
192,192,283534,128,0,283855:0:0:0:0:
448,192,283534,1,0,0:0:0:0:
320,192,283641,1,0,0:0:0:0:
448,192,283641,1,0,0:0:0:0:
64,192,283748,1,0,0:0:0:0:
320,192,283855,128,0,283962:0:0:0:0:
448,192,283855,1,0,0:0:0:0:
64,192,283962,128,0,284069:0:0:0:0:
192,192,283962,1,0,0:0:0:0:
192,192,284069,128,0,284177:0:0:0:0:
320,192,284069,1,0,0:0:0:0:
448,192,284069,1,0,0:0:0:0:
320,192,284177,128,0,284284:0:0:0:0:
64,192,284177,1,0,0:0:0:0:
192,192,284284,128,0,284391:0:0:0:0:
448,192,284284,1,0,0:0:0:0:
64,192,284391,128,0,284498:0:0:0:0:
320,192,284391,1,0,0:0:0:0:
448,192,284498,128,0,285141:0:0:0:0:
192,192,284498,1,0,0:0:0:0:
320,192,284498,1,0,0:0:0:0:
192,192,284712,1,0,0:0:0:0:
64,192,284819,128,0,285141:0:0:0:0:
192,192,284819,1,0,0:0:0:0:
320,192,284927,1,0,0:0:0:0:
192,192,284927,1,0,0:0:0:0:
320,192,285034,1,0,0:0:0:0:
192,192,285141,128,0,285248:0:0:0:0:
320,192,285141,1,0,0:0:0:0:
64,192,285248,128,0,285355:0:0:0:0:
448,192,285248,1,0,0:0:0:0:
192,192,285355,128,0,285462:0:0:0:0:
320,192,285355,1,0,0:0:0:0:
320,192,285462,128,0,285569:0:0:0:0:
448,192,285462,1,0,0:0:0:0:
64,192,285569,128,0,285677:0:0:0:0:
192,192,285569,1,0,0:0:0:0:
192,192,285677,128,0,285784:0:0:0:0:
448,192,285677,1,0,0:0:0:0:
320,192,285784,128,0,285998:0:0:0:0:
448,192,285784,1,0,0:0:0:0:
448,192,285998,128,0,286212:0:0:0:0:
64,192,285998,1,0,0:0:0:0:
192,192,286105,1,0,0:0:0:0:
192,192,286212,128,0,286319:0:0:0:0:
320,192,286212,1,0,0:0:0:0:
64,192,286212,128,0,286266:0:0:0:0:
320,192,286319,128,0,286534:0:0:0:0:
64,192,286319,128,0,286373:0:0:0:0:
192,192,286427,128,0,286641:0:0:0:0:
448,192,286641,128,0,286748:0:0:0:0:
64,192,286641,1,0,0:0:0:0:
320,192,286641,1,0,0:0:0:0:
320,192,286748,1,0,0:0:0:0:
192,192,286855,128,0,286962:0:0:0:0:
64,192,286855,1,0,0:0:0:0:
320,192,286962,1,0,0:0:0:0:
64,192,287069,128,0,287177:0:0:0:0:
448,192,287069,1,0,0:0:0:0:
192,192,287069,1,0,0:0:0:0:
320,192,287177,1,0,0:0:0:0:
320,192,287284,128,0,287391:0:0:0:0:
192,192,287284,1,0,0:0:0:0:
448,192,287284,128,0,287391:0:0:0:0:
64,192,287391,1,0,0:0:0:0:
192,192,287391,1,0,0:0:0:0:
192,192,287498,128,0,287605:0:0:0:0:
448,192,287498,128,0,287605:0:0:0:0:
320,192,287498,1,0,0:0:0:0:
64,192,287498,1,0,0:0:0:0:
320,192,287605,128,0,287712:0:0:0:0:
448,192,287712,128,0,287819:0:0:0:0:
64,192,287712,128,0,287819:0:0:0:0:
192,192,287712,1,0,0:0:0:0:
320,192,287819,128,0,287927:0:0:0:0:
192,192,287819,1,0,0:0:0:0:
64,192,287927,1,0,0:0:0:0:
448,192,287927,128,0,288248:0:0:0:0:
64,192,288141,1,0,0:0:0:0:
192,192,288248,128,0,288569:0:0:0:0:
320,192,288248,1,0,0:0:0:0:
448,192,288355,1,0,0:0:0:0:
64,192,288355,1,0,0:0:0:0:
64,192,288569,128,0,288677:0:0:0:0:
320,192,288569,1,0,0:0:0:0:
192,192,288677,128,0,288784:0:0:0:0:
320,192,288784,128,0,288998:0:0:0:0:
448,192,288784,1,0,0:0:0:0:
64,192,288784,1,0,0:0:0:0:
192,192,288891,1,0,0:0:0:0:
64,192,288998,128,0,289212:0:0:0:0:
448,192,288998,1,0,0:0:0:0:
320,192,289105,1,0,0:0:0:0:
192,192,289212,128,0,289427:0:0:0:0:
448,192,289212,1,0,0:0:0:0:
320,192,289212,1,0,0:0:0:0:
320,192,289427,128,0,289480:0:0:0:0:
64,192,289427,1,0,0:0:0:0:
320,192,289534,128,0,289587:0:0:0:0:
192,192,289534,1,0,0:0:0:0:
320,192,289641,128,0,289855:0:0:0:0:
192,192,289641,1,0,0:0:0:0:
64,192,289641,1,0,0:0:0:0:
448,192,289748,1,0,0:0:0:0:
448,192,289855,128,0,289927:0:0:0:0:
192,192,289855,1,0,0:0:0:0:
320,192,289927,128,0,289998:0:0:0:0:
192,192,289998,128,0,290069:0:0:0:0:
64,192,290069,128,0,290498:0:0:0:0:
448,192,290069,1,0,0:0:0:0:
320,192,290069,1,0,0:0:0:0:
448,192,290284,1,0,0:0:0:0:
320,192,290391,1,0,0:0:0:0:
448,192,290498,128,0,290927:0:0:0:0:
320,192,290498,1,0,0:0:0:0:
192,192,290498,1,0,0:0:0:0:
192,192,290605,1,0,0:0:0:0:
64,192,290712,1,0,0:0:0:0:
320,192,290927,128,0,291355:0:0:0:0:
192,192,290927,1,0,0:0:0:0:
64,192,290927,1,0,0:0:0:0:
192,192,291141,1,0,0:0:0:0:
192,192,291248,1,0,0:0:0:0:
192,192,291355,128,0,291784:0:0:0:0:
64,192,291355,1,0,0:0:0:0:
448,192,291355,1,0,0:0:0:0:
320,192,291569,1,0,0:0:0:0:
448,192,291677,1,0,0:0:0:0:
64,192,291784,128,0,292105:0:0:0:0:
320,192,291784,1,0,0:0:0:0:
448,192,291784,1,0,0:0:0:0:
192,192,291998,1,0,0:0:0:0:
320,192,292105,1,0,0:0:0:0:
192,192,292212,128,0,292534:0:0:0:0:
64,192,292212,128,0,292534:0:0:0:0:
320,192,292212,1,0,0:0:0:0:
448,192,292212,1,0,0:0:0:0:
320,192,292427,1,0,0:0:0:0:
448,192,292534,1,0,0:0:0:0:
64,192,292641,128,0,292962:0:0:0:0:
192,192,292641,128,0,292962:0:0:0:0:
320,192,292641,128,0,292962:0:0:0:0:
448,192,292641,1,0,0:0:0:0:
448,192,292855,128,0,293069:0:0:0:0:
64,192,293069,1,0,0:0:0:0:
320,192,293069,1,0,0:0:0:0:
192,192,293069,128,0,293177:0:0:0:0:
192,192,293284,128,0,293391:0:0:0:0:
320,192,293284,1,0,0:0:0:0:
192,192,293498,128,0,293552:0:0:0:0:
448,192,293498,1,0,0:0:0:0:
64,192,293498,1,0,0:0:0:0:
192,192,293605,128,0,293659:0:0:0:0:
320,192,293605,1,0,0:0:0:0:
192,192,293712,128,0,293766:0:0:0:0:
448,192,293712,1,0,0:0:0:0:
192,192,293819,128,0,293927:0:0:0:0:
320,192,293819,1,0,0:0:0:0:
64,192,293927,1,0,0:0:0:0:
192,192,294034,128,0,294141:0:0:0:0:
320,192,294141,128,0,294784:0:0:0:0:
192,192,294248,128,0,294302:0:0:0:0:
192,192,294355,128,0,294409:0:0:0:0:
64,192,294355,1,0,0:0:0:0:
192,192,294462,128,0,294516:0:0:0:0:
192,192,294569,128,0,294677:0:0:0:0:
448,192,294784,128,0,295105:0:0:0:0:
64,192,294784,1,0,0:0:0:0:
192,192,294784,1,0,0:0:0:0:
320,192,294891,1,0,0:0:0:0:
192,192,294998,1,0,0:0:0:0:
64,192,295105,128,0,295212:0:0:0:0:
320,192,295105,1,0,0:0:0:0:
192,192,295212,128,0,295319:0:0:0:0:
320,192,295212,1,0,0:0:0:0:
448,192,295212,1,0,0:0:0:0:
320,192,295319,128,0,295427:0:0:0:0:
64,192,295319,1,0,0:0:0:0:
448,192,295427,1,0,0:0:0:0:
448,192,295534,128,0,295748:0:0:0:0:
192,192,295534,1,0,0:0:0:0:
64,192,295641,1,0,0:0:0:0:
320,192,295641,1,0,0:0:0:0:
320,192,295748,128,0,295855:0:0:0:0:
192,192,295748,1,0,0:0:0:0:
64,192,295855,1,0,0:0:0:0:
320,192,295962,128,0,296177:0:0:0:0:
448,192,295962,1,0,0:0:0:0:
192,192,296069,1,0,0:0:0:0:
64,192,296069,1,0,0:0:0:0:
448,192,296177,128,0,296284:0:0:0:0:
64,192,296177,1,0,0:0:0:0:
192,192,296284,128,0,296391:0:0:0:0:
320,192,296284,1,0,0:0:0:0:
64,192,296391,128,0,296498:0:0:0:0:
448,192,296391,1,0,0:0:0:0:
192,192,296498,128,0,296819:0:0:0:0:
320,192,296498,1,0,0:0:0:0:
448,192,296498,1,0,0:0:0:0:
64,192,296605,1,0,0:0:0:0:
448,192,296712,128,0,296819:0:0:0:0:
320,192,296712,1,0,0:0:0:0:
320,192,296819,128,0,297141:0:0:0:0:
64,192,296819,1,0,0:0:0:0:
192,192,296927,1,0,0:0:0:0:
448,192,296927,1,0,0:0:0:0:
192,192,297034,1,0,0:0:0:0:
64,192,297141,128,0,297462:0:0:0:0:
448,192,297141,1,0,0:0:0:0:
320,192,297248,1,0,0:0:0:0:
320,192,297355,128,0,297462:0:0:0:0:
192,192,297355,1,0,0:0:0:0:
448,192,297355,1,0,0:0:0:0:
192,192,297462,128,0,297784:0:0:0:0:
448,192,297462,1,0,0:0:0:0:
320,192,297569,1,0,0:0:0:0:
64,192,297677,1,0,0:0:0:0:
64,192,297784,128,0,297998:0:0:0:0:
320,192,297784,1,0,0:0:0:0:
448,192,297784,1,0,0:0:0:0:
320,192,297891,1,0,0:0:0:0:
192,192,297998,128,0,298105:0:0:0:0:
320,192,298105,128,0,298212:0:0:0:0:
448,192,298105,1,0,0:0:0:0:
448,192,298212,128,0,298319:0:0:0:0:
192,192,298212,1,0,0:0:0:0:
64,192,298212,1,0,0:0:0:0:
320,192,298319,1,0,0:0:0:0:
192,192,298427,128,0,298534:0:0:0:0:
64,192,298427,1,0,0:0:0:0:
320,192,298534,1,0,0:0:0:0:
320,192,298641,128,0,298748:0:0:0:0:
448,192,298641,1,0,0:0:0:0:
64,192,298641,1,0,0:0:0:0:
192,192,298748,1,0,0:0:0:0:
192,192,298855,128,0,298962:0:0:0:0:
64,192,298855,1,0,0:0:0:0:
320,192,298962,1,0,0:0:0:0:
64,192,299069,128,0,299177:0:0:0:0:
448,192,299069,1,0,0:0:0:0:
192,192,299069,1,0,0:0:0:0:
320,192,299177,1,0,0:0:0:0:
192,192,299284,128,0,299391:0:0:0:0:
448,192,299284,1,0,0:0:0:0:
64,192,299391,1,0,0:0:0:0:
448,192,299498,128,0,299605:0:0:0:0:
192,192,299498,1,0,0:0:0:0:
320,192,299498,1,0,0:0:0:0:
64,192,299605,1,0,0:0:0:0:
192,192,299712,128,0,299819:0:0:0:0:
448,192,299712,1,0,0:0:0:0:
320,192,299819,1,0,0:0:0:0:
64,192,299927,128,0,300141:0:0:0:0:
448,192,299927,1,0,0:0:0:0:
192,192,299927,1,0,0:0:0:0:
192,192,300034,1,0,0:0:0:0:
448,192,300141,128,0,300355:0:0:0:0:
320,192,300141,1,0,0:0:0:0:
192,192,300248,1,0,0:0:0:0:
192,192,300355,128,0,300569:0:0:0:0:
64,192,300355,1,0,0:0:0:0:
320,192,300355,1,0,0:0:0:0:
320,192,300462,1,0,0:0:0:0:
448,192,300569,1,0,0:0:0:0:
320,192,300677,1,0,0:0:0:0:
320,192,300784,128,0,301212:0:0:0:0:
192,192,300784,1,0,0:0:0:0:
64,192,300784,1,0,0:0:0:0:
448,192,300891,1,0,0:0:0:0:
192,192,300998,1,0,0:0:0:0:
64,192,300998,128,0,301105:0:0:0:0:
192,192,301105,1,0,0:0:0:0:
448,192,301105,1,0,0:0:0:0:
448,192,301212,128,0,301641:0:0:0:0:
64,192,301212,1,0,0:0:0:0:
192,192,301319,128,0,301427:0:0:0:0:
320,192,301427,1,0,0:0:0:0:
64,192,301427,1,0,0:0:0:0:
192,192,301534,1,0,0:0:0:0:
64,192,301641,1,0,0:0:0:0:
320,192,301641,128,0,301748:0:0:0:0:
192,192,301748,128,0,301855:0:0:0:0:
64,192,301748,1,0,0:0:0:0:
320,192,301855,128,0,301909:0:0:0:0:
448,192,301855,1,0,0:0:0:0:
320,192,301962,128,0,302016:0:0:0:0:
448,192,301962,1,0,0:0:0:0:
192,192,302069,128,0,302177:0:0:0:0:
64,192,302069,1,0,0:0:0:0:
448,192,302069,1,0,0:0:0:0:
320,192,302177,128,0,302230:0:0:0:0:
448,192,302177,1,0,0:0:0:0:
320,192,302284,128,0,302337:0:0:0:0:
448,192,302284,1,0,0:0:0:0:
448,192,302391,128,0,302605:0:0:0:0:
192,192,302391,1,0,0:0:0:0:
64,192,302498,1,0,0:0:0:0:
320,192,302498,1,0,0:0:0:0:
192,192,302605,128,0,302712:0:0:0:0:
320,192,302605,1,0,0:0:0:0:
320,192,302712,128,0,302819:0:0:0:0:
64,192,302712,1,0,0:0:0:0:
192,192,302819,128,0,302927:0:0:0:0:
448,192,302819,1,0,0:0:0:0:
64,192,302927,128,0,303034:0:0:0:0:
320,192,302927,1,0,0:0:0:0:
448,192,302927,1,0,0:0:0:0:
320,192,303034,128,0,303141:0:0:0:0:
192,192,303034,1,0,0:0:0:0:
192,192,303141,128,0,303248:0:0:0:0:
448,192,303141,1,0,0:0:0:0:
320,192,303248,128,0,303355:0:0:0:0:
64,192,303248,1,0,0:0:0:0:
448,192,303355,128,0,303462:0:0:0:0:
64,192,303355,1,0,0:0:0:0:
192,192,303355,1,0,0:0:0:0:
320,192,303462,128,0,303569:0:0:0:0:
192,192,303462,1,0,0:0:0:0:
192,192,303569,128,0,303677:0:0:0:0:
448,192,303569,1,0,0:0:0:0:
320,192,303677,128,0,303891:0:0:0:0:
64,192,303677,1,0,0:0:0:0:
448,192,303784,1,0,0:0:0:0:
192,192,303784,1,0,0:0:0:0:
64,192,303891,128,0,303998:0:0:0:0:
448,192,303891,1,0,0:0:0:0:
192,192,303998,128,0,304105:0:0:0:0:
320,192,303998,1,0,0:0:0:0:
320,192,304105,128,0,304212:0:0:0:0:
448,192,304105,1,0,0:0:0:0:
64,192,304212,1,0,0:0:0:0:
192,192,304212,1,0,0:0:0:0:
64,192,304319,128,0,304427:0:0:0:0:
448,192,304319,1,0,0:0:0:0:
320,192,304427,128,0,304534:0:0:0:0:
192,192,304427,1,0,0:0:0:0:
448,192,304534,128,0,304748:0:0:0:0:
64,192,304534,1,0,0:0:0:0:
320,192,304641,1,0,0:0:0:0:
192,192,304641,1,0,0:0:0:0:
64,192,304748,128,0,304855:0:0:0:0:
320,192,304748,1,0,0:0:0:0:
192,192,304855,128,0,304962:0:0:0:0:
320,192,304962,128,0,305069:0:0:0:0:
448,192,304962,1,0,0:0:0:0:
448,192,305069,128,0,305284:0:0:0:0:
192,192,305069,1,0,0:0:0:0:
64,192,305069,1,0,0:0:0:0:
64,192,305177,128,0,305284:0:0:0:0:
320,192,305177,1,0,0:0:0:0:
192,192,305284,128,0,305391:0:0:0:0:
320,192,305284,1,0,0:0:0:0:
320,192,305391,128,0,305498:0:0:0:0:
64,192,305391,1,0,0:0:0:0:
448,192,305498,128,0,305712:0:0:0:0:
192,192,305498,1,0,0:0:0:0:
64,192,305498,1,0,0:0:0:0:
320,192,305605,1,0,0:0:0:0:
64,192,305712,128,0,305819:0:0:0:0:
192,192,305712,1,0,0:0:0:0:
192,192,305819,128,0,305873:0:0:0:0:
448,192,305819,1,0,0:0:0:0:
192,192,305927,128,0,306034:0:0:0:0:
320,192,305927,1,0,0:0:0:0:
448,192,305927,1,0,0:0:0:0:
320,192,306034,128,0,306141:0:0:0:0:
64,192,306034,1,0,0:0:0:0:
448,192,306141,128,0,306194:0:0:0:0:
192,192,306141,1,0,0:0:0:0:
192,192,306248,128,0,306302:0:0:0:0:
320,192,306248,1,0,0:0:0:0:
320,192,306355,128,0,306462:0:0:0:0:
64,192,306355,1,0,0:0:0:0:
448,192,306355,1,0,0:0:0:0:
448,192,306462,128,0,306516:0:0:0:0:
192,192,306462,1,0,0:0:0:0:
64,192,306569,128,0,306623:0:0:0:0:
320,192,306569,1,0,0:0:0:0:
192,192,306677,128,0,306730:0:0:0:0:
448,192,306677,1,0,0:0:0:0:
320,192,306784,128,0,306998:0:0:0:0:
64,192,306784,1,0,0:0:0:0:
448,192,306784,1,0,0:0:0:0:
192,192,306891,1,0,0:0:0:0:
192,192,306998,128,0,307105:0:0:0:0:
64,192,306998,1,0,0:0:0:0:
320,192,307105,128,0,307212:0:0:0:0:
448,192,307105,1,0,0:0:0:0:
192,192,307212,128,0,307319:0:0:0:0:
64,192,307212,1,0,0:0:0:0:
448,192,307212,1,0,0:0:0:0:
64,192,307319,128,0,307427:0:0:0:0:
320,192,307319,1,0,0:0:0:0:
448,192,307427,128,0,307534:0:0:0:0:
192,192,307427,1,0,0:0:0:0:
320,192,307534,128,0,307641:0:0:0:0:
64,192,307534,1,0,0:0:0:0:
192,192,307641,128,0,307748:0:0:0:0:
448,192,307641,1,0,0:0:0:0:
64,192,307641,1,0,0:0:0:0:
320,192,307748,128,0,307855:0:0:0:0:
64,192,307855,128,0,308498:0:0:0:0:
192,192,307855,1,0,0:0:0:0:
448,192,308069,128,0,308498:0:0:0:0:
192,192,308069,1,0,0:0:0:0:
320,192,308069,1,0,0:0:0:0:
320,192,308284,128,0,308498:0:0:0:0:
192,192,308284,1,0,0:0:0:0:
192,192,308498,128,0,308605:0:0:0:0:
320,192,308605,128,0,308712:0:0:0:0:
448,192,308605,1,0,0:0:0:0:
192,192,308712,128,0,308819:0:0:0:0:
64,192,308712,1,0,0:0:0:0:
448,192,308819,128,0,309141:0:0:0:0:
320,192,308819,1,0,0:0:0:0:
320,192,308927,1,0,0:0:0:0:
64,192,308927,1,0,0:0:0:0:
64,192,309034,128,0,309141:0:0:0:0:
192,192,309034,1,0,0:0:0:0:
192,192,309141,128,0,309248:0:0:0:0:
320,192,309141,1,0,0:0:0:0:
320,192,309248,128,0,309355:0:0:0:0:
448,192,309248,1,0,0:0:0:0:
192,192,309355,128,0,309462:0:0:0:0:
448,192,309355,1,0,0:0:0:0:
64,192,309355,1,0,0:0:0:0:
64,192,309462,128,0,309569:0:0:0:0:
320,192,309462,1,0,0:0:0:0:
192,192,309569,128,0,309677:0:0:0:0:
320,192,309569,1,0,0:0:0:0:
320,192,309677,128,0,309784:0:0:0:0:
448,192,309677,1,0,0:0:0:0:
448,192,309784,128,0,309891:0:0:0:0:
192,192,309784,1,0,0:0:0:0:
64,192,309784,1,0,0:0:0:0:
64,192,309891,128,0,309998:0:0:0:0:
192,192,309891,1,0,0:0:0:0:
192,192,309998,128,0,310105:0:0:0:0:
320,192,309998,1,0,0:0:0:0:
320,192,310105,128,0,310212:0:0:0:0:
448,192,310105,1,0,0:0:0:0:
448,192,310212,128,0,310319:0:0:0:0:
192,192,310212,1,0,0:0:0:0:
64,192,310212,1,0,0:0:0:0:
64,192,310319,128,0,310427:0:0:0:0:
320,192,310319,1,0,0:0:0:0:
192,192,310427,128,0,310534:0:0:0:0:
448,192,310427,1,0,0:0:0:0:
320,192,310534,128,0,310748:0:0:0:0:
64,192,310534,1,0,0:0:0:0:
448,192,310641,1,0,0:0:0:0:
192,192,310641,1,0,0:0:0:0:
192,192,310748,128,0,310855:0:0:0:0:
448,192,310748,1,0,0:0:0:0:
320,192,310855,128,0,310962:0:0:0:0:
64,192,310855,1,0,0:0:0:0:
448,192,310962,128,0,311177:0:0:0:0:
192,192,310962,1,0,0:0:0:0:
64,192,311069,1,0,0:0:0:0:
320,192,311069,1,0,0:0:0:0:
64,192,311177,128,0,311284:0:0:0:0:
192,192,311177,1,0,0:0:0:0:
192,192,311284,128,0,311391:0:0:0:0:
448,192,311284,1,0,0:0:0:0:
64,192,311391,128,0,311498:0:0:0:0:
320,192,311391,1,0,0:0:0:0:
448,192,311498,128,0,311605:0:0:0:0:
320,192,311498,1,0,0:0:0:0:
192,192,311498,1,0,0:0:0:0:
320,192,311605,128,0,311712:0:0:0:0:
64,192,311605,1,0,0:0:0:0:
192,192,311712,128,0,311819:0:0:0:0:
320,192,311819,128,0,312034:0:0:0:0:
64,192,311819,1,0,0:0:0:0:
448,192,311927,1,0,0:0:0:0:
192,192,311927,1,0,0:0:0:0:
192,192,312034,128,0,312141:0:0:0:0:
64,192,312034,1,0,0:0:0:0:
320,192,312141,128,0,312248:0:0:0:0:
448,192,312141,1,0,0:0:0:0:
448,192,312248,128,0,312462:0:0:0:0:
192,192,312248,1,0,0:0:0:0:
64,192,312355,1,0,0:0:0:0:
320,192,312355,1,0,0:0:0:0:
64,192,312462,128,0,312569:0:0:0:0:
192,192,312462,1,0,0:0:0:0:
192,192,312569,128,0,312784:0:0:0:0:
448,192,312569,1,0,0:0:0:0:
320,192,312677,1,0,0:0:0:0:
64,192,312784,128,0,312998:0:0:0:0:
448,192,312784,1,0,0:0:0:0:
320,192,312784,1,0,0:0:0:0:
192,192,312891,1,0,0:0:0:0:
448,192,312998,128,0,313105:0:0:0:0:
320,192,312998,1,0,0:0:0:0:
320,192,313105,128,0,313212:0:0:0:0:
192,192,313105,1,0,0:0:0:0:
448,192,313212,128,0,313319:0:0:0:0:
64,192,313212,1,0,0:0:0:0:
192,192,313212,1,0,0:0:0:0:
192,192,313319,128,0,313427:0:0:0:0:
320,192,313319,1,0,0:0:0:0:
320,192,313427,128,0,313534:0:0:0:0:
64,192,313427,1,0,0:0:0:0:
64,192,313534,128,0,313641:0:0:0:0:
448,192,313534,1,0,0:0:0:0:
192,192,313641,128,0,313748:0:0:0:0:
320,192,313641,1,0,0:0:0:0:
448,192,313641,1,0,0:0:0:0:
64,192,313748,1,0,0:0:0:0:
320,192,313855,128,0,313962:0:0:0:0:
448,192,313855,1,0,0:0:0:0:
64,192,313855,128,0,314069:0:0:0:0:
192,192,313962,1,0,0:0:0:0:
448,192,314069,128,0,314177:0:0:0:0:
320,192,314069,1,0,0:0:0:0:
192,192,314069,1,0,0:0:0:0:
320,192,314177,1,0,0:0:0:0:
192,192,314284,128,0,314391:0:0:0:0:
64,192,314284,1,0,0:0:0:0:
448,192,314391,1,0,0:0:0:0:
320,192,314498,128,0,314605:0:0:0:0:
192,192,314498,1,0,0:0:0:0:
64,192,314498,1,0,0:0:0:0:
192,192,314605,1,0,0:0:0:0:
448,192,314712,128,0,314784:0:0:0:0:
64,192,314712,1,0,0:0:0:0:
320,192,314784,128,0,314855:0:0:0:0:
192,192,314819,1,0,0:0:0:0:
64,192,314819,1,0,0:0:0:0:
448,192,314855,128,0,314927:0:0:0:0:
192,192,314927,128,0,315034:0:0:0:0:
320,192,314927,1,0,0:0:0:0:
64,192,315034,1,0,0:0:0:0:
448,192,315034,128,0,315141:0:0:0:0:
320,192,315141,128,0,315355:0:0:0:0:
192,192,315141,1,0,0:0:0:0:
64,192,315141,1,0,0:0:0:0:
192,192,315248,1,0,0:0:0:0:
64,192,315355,128,0,315462:0:0:0:0:
192,192,315355,1,0,0:0:0:0:
448,192,315355,1,0,0:0:0:0:
192,192,315462,128,0,315569:0:0:0:0:
320,192,315462,1,0,0:0:0:0:
320,192,315569,128,0,315677:0:0:0:0:
448,192,315569,1,0,0:0:0:0:
64,192,315677,128,0,315784:0:0:0:0:
192,192,315677,1,0,0:0:0:0:
192,192,315784,128,0,315891:0:0:0:0:
320,192,315784,1,0,0:0:0:0:
448,192,315784,1,0,0:0:0:0:
320,192,315891,128,0,315998:0:0:0:0:
64,192,315891,1,0,0:0:0:0:
448,192,315998,128,0,316212:0:0:0:0:
192,192,315998,1,0,0:0:0:0:
192,192,316105,1,0,0:0:0:0:
64,192,316212,128,0,316319:0:0:0:0:
192,192,316212,1,0,0:0:0:0:
320,192,316212,1,0,0:0:0:0:
192,192,316319,128,0,316427:0:0:0:0:
448,192,316319,1,0,0:0:0:0:
320,192,316427,128,0,316534:0:0:0:0:
64,192,316427,1,0,0:0:0:0:
448,192,316534,128,0,316748:0:0:0:0:
192,192,316534,1,0,0:0:0:0:
64,192,316641,1,0,0:0:0:0:
320,192,316641,1,0,0:0:0:0:
320,192,316748,128,0,316802:0:0:0:0:
64,192,316748,1,0,0:0:0:0:
192,192,316802,128,0,316855:0:0:0:0:
320,192,316855,128,0,316962:0:0:0:0:
448,192,316855,1,0,0:0:0:0:
192,192,316962,128,0,317069:0:0:0:0:
64,192,316962,1,0,0:0:0:0:
64,192,317069,128,0,317391:0:0:0:0:
320,192,317069,1,0,0:0:0:0:
448,192,317069,1,0,0:0:0:0:
192,192,317177,1,0,0:0:0:0:
448,192,317284,1,0,0:0:0:0:
320,192,317391,128,0,317498:0:0:0:0:
192,192,317391,1,0,0:0:0:0:
192,192,317498,128,0,317605:0:0:0:0:
448,192,317498,1,0,0:0:0:0:
64,192,317498,1,0,0:0:0:0:
448,192,317605,128,0,317712:0:0:0:0:
64,192,317605,1,0,0:0:0:0:
320,192,317712,128,0,317819:0:0:0:0:
192,192,317712,1,0,0:0:0:0:
192,192,317819,128,0,317927:0:0:0:0:
448,192,317819,1,0,0:0:0:0:
64,192,317927,128,0,318034:0:0:0:0:
320,192,317927,1,0,0:0:0:0:
448,192,317927,1,0,0:0:0:0:
192,192,318034,128,0,318141:0:0:0:0:
320,192,318034,1,0,0:0:0:0:
64,192,318141,128,0,318355:0:0:0:0:
448,192,318141,1,0,0:0:0:0:
320,192,318248,1,0,0:0:0:0:
192,192,318355,128,0,318462:0:0:0:0:
448,192,318355,128,0,318462:0:0:0:0:
320,192,318355,128,0,318462:0:0:0:0:
320,192,318569,128,0,318677:0:0:0:0:
448,192,318569,128,0,318677:0:0:0:0:
64,192,318569,128,0,318677:0:0:0:0:
320,192,318784,128,0,318891:0:0:0:0:
64,192,318784,1,0,0:0:0:0:
448,192,318784,1,0,0:0:0:0:
192,192,318891,1,0,0:0:0:0:
64,192,318998,128,0,319105:0:0:0:0:
320,192,318998,1,0,0:0:0:0:
448,192,319105,1,0,0:0:0:0:
192,192,319212,128,0,319427:0:0:0:0:
320,192,319212,1,0,0:0:0:0:
64,192,319212,1,0,0:0:0:0:
448,192,319319,1,0,0:0:0:0:
320,192,319427,128,0,319748:0:0:0:0:
64,192,319427,1,0,0:0:0:0:
448,192,319534,1,0,0:0:0:0:
192,192,319641,1,0,0:0:0:0:
64,192,319641,1,0,0:0:0:0:
448,192,319748,128,0,320069:0:0:0:0:
192,192,319748,1,0,0:0:0:0:
320,192,319855,1,0,0:0:0:0:
64,192,319962,1,0,0:0:0:0:
320,192,320069,128,0,320177:0:0:0:0:
192,192,320069,1,0,0:0:0:0:
64,192,320069,1,0,0:0:0:0:
448,192,320177,128,0,320284:0:0:0:0:
192,192,320177,1,0,0:0:0:0:
64,192,320284,128,0,320391:0:0:0:0:
320,192,320284,1,0,0:0:0:0:
192,192,320391,128,0,320498:0:0:0:0:
448,192,320391,1,0,0:0:0:0:
320,192,320498,128,0,320569:0:0:0:0:
448,192,320498,1,0,0:0:0:0:
64,192,320569,128,0,320641:0:0:0:0:
192,192,320641,128,0,320712:0:0:0:0:
320,192,320712,128,0,320784:0:0:0:0:
448,192,320712,1,0,0:0:0:0:
192,192,320784,128,0,320855:0:0:0:0:
448,192,320855,128,0,320927:0:0:0:0:
320,192,320927,128,0,320998:0:0:0:0:
192,192,320927,1,0,0:0:0:0:
64,192,320998,128,0,321069:0:0:0:0:
192,192,321069,128,0,321141:0:0:0:0:
448,192,321141,128,0,321212:0:0:0:0:
320,192,321141,1,0,0:0:0:0:
192,192,321212,128,0,321284:0:0:0:0:
320,192,321284,128,0,321355:0:0:0:0:
448,192,321355,128,0,321427:0:0:0:0:
192,192,321355,1,0,0:0:0:0:
64,192,321427,128,0,321498:0:0:0:0:
192,192,321498,128,0,321569:0:0:0:0:
320,192,321569,128,0,321641:0:0:0:0:
448,192,321569,1,0,0:0:0:0:
192,192,321641,128,0,321712:0:0:0:0:
448,192,321712,128,0,321784:0:0:0:0:
320,192,321784,128,0,322212:0:0:0:0:
64,192,321784,128,0,322212:0:0:0:0:
192,192,321784,1,0,0:0:0:0:
448,192,321855,1,0,0:0:0:0:
192,192,321927,1,0,0:0:0:0:
448,192,321998,1,0,0:0:0:0:
192,192,322069,1,0,0:0:0:0:
448,192,322141,1,0,0:0:0:0:
192,192,322212,128,0,322319:0:0:0:0:
448,192,322212,1,0,0:0:0:0:
320,192,322319,1,0,0:0:0:0:
192,192,322427,128,0,322534:0:0:0:0:
64,192,322427,1,0,0:0:0:0:
320,192,322534,1,0,0:0:0:0:
192,192,322641,128,0,322694:0:0:0:0:
448,192,322641,1,0,0:0:0:0:
320,192,322641,1,0,0:0:0:0:
192,192,322748,128,0,322802:0:0:0:0:
64,192,322748,1,0,0:0:0:0:
192,192,322855,128,0,322909:0:0:0:0:
320,192,322855,1,0,0:0:0:0:
192,192,322962,128,0,323069:0:0:0:0:
64,192,322962,1,0,0:0:0:0:
320,192,323069,1,0,0:0:0:0:
448,192,323069,1,0,0:0:0:0:
192,192,323177,128,0,323284:0:0:0:0:
64,192,323177,1,0,0:0:0:0:
320,192,323284,1,0,0:0:0:0:
192,192,323391,128,0,323444:0:0:0:0:
448,192,323391,1,0,0:0:0:0:
192,192,323498,128,0,323552:0:0:0:0:
320,192,323498,1,0,0:0:0:0:
64,192,323498,1,0,0:0:0:0:
192,192,323605,128,0,323659:0:0:0:0:
448,192,323605,1,0,0:0:0:0:
192,192,323712,128,0,323819:0:0:0:0:
64,192,323712,1,0,0:0:0:0:
320,192,323819,1,0,0:0:0:0:
192,192,323927,128,0,324034:0:0:0:0:
448,192,323927,1,0,0:0:0:0:
64,192,323927,1,0,0:0:0:0:
320,192,324034,1,0,0:0:0:0:
192,192,324141,128,0,324194:0:0:0:0:
448,192,324141,1,0,0:0:0:0:
192,192,324248,128,0,324302:0:0:0:0:
320,192,324248,1,0,0:0:0:0:
192,192,324355,128,0,324409:0:0:0:0:
448,192,324355,1,0,0:0:0:0:
64,192,324355,1,0,0:0:0:0:
192,192,324462,128,0,324569:0:0:0:0:
320,192,324462,1,0,0:0:0:0:
448,192,324569,1,0,0:0:0:0:
192,192,324677,128,0,324784:0:0:0:0:
320,192,324677,1,0,0:0:0:0:
64,192,324784,1,0,0:0:0:0:
448,192,324784,128,0,324891:0:0:0:0:
192,192,324891,128,0,324998:0:0:0:0:
320,192,324891,1,0,0:0:0:0:
192,192,325105,128,0,325212:0:0:0:0:
448,192,325105,1,0,0:0:0:0:
320,192,325212,1,0,0:0:0:0:
64,192,325212,1,0,0:0:0:0:
192,192,325319,128,0,325427:0:0:0:0:
448,192,325319,1,0,0:0:0:0:
64,192,325427,128,0,325534:0:0:0:0:
320,192,325427,1,0,0:0:0:0:
192,192,325534,128,0,325641:0:0:0:0:
320,192,325534,1,0,0:0:0:0:
448,192,325534,1,0,0:0:0:0:
320,192,325641,128,0,325748:0:0:0:0:
448,192,325641,1,0,0:0:0:0:
64,192,325641,1,0,0:0:0:0:
192,192,325748,1,0,0:0:0:0:
320,192,325855,128,0,325962:0:0:0:0:
448,192,325855,1,0,0:0:0:0:
192,192,325962,1,0,0:0:0:0:
320,192,326069,128,0,326123:0:0:0:0:
64,192,326069,1,0,0:0:0:0:
448,192,326069,1,0,0:0:0:0:
320,192,326177,128,0,326230:0:0:0:0:
192,192,326177,1,0,0:0:0:0:
320,192,326284,128,0,326337:0:0:0:0:
64,192,326284,1,0,0:0:0:0:
320,192,326391,128,0,326498:0:0:0:0:
448,192,326391,1,0,0:0:0:0:
192,192,326498,1,0,0:0:0:0:
64,192,326498,1,0,0:0:0:0:
320,192,326605,128,0,326712:0:0:0:0:
448,192,326605,1,0,0:0:0:0:
192,192,326712,1,0,0:0:0:0:
320,192,326819,128,0,326873:0:0:0:0:
64,192,326819,1,0,0:0:0:0:
320,192,326927,128,0,326980:0:0:0:0:
192,192,326927,1,0,0:0:0:0:
448,192,326927,1,0,0:0:0:0:
320,192,327034,128,0,327087:0:0:0:0:
64,192,327034,1,0,0:0:0:0:
320,192,327141,128,0,327248:0:0:0:0:
192,192,327141,1,0,0:0:0:0:
448,192,327248,1,0,0:0:0:0:
320,192,327355,128,0,327462:0:0:0:0:
192,192,327355,1,0,0:0:0:0:
64,192,327355,1,0,0:0:0:0:
448,192,327462,1,0,0:0:0:0:
320,192,327569,128,0,327623:0:0:0:0:
192,192,327569,1,0,0:0:0:0:
320,192,327677,128,0,327730:0:0:0:0:
64,192,327677,1,0,0:0:0:0:
320,192,327784,128,0,327837:0:0:0:0:
192,192,327784,1,0,0:0:0:0:
448,192,327784,1,0,0:0:0:0:
320,192,327891,128,0,327998:0:0:0:0:
64,192,327891,1,0,0:0:0:0:
192,192,327998,1,0,0:0:0:0:
320,192,328105,128,0,328212:0:0:0:0:
448,192,328105,1,0,0:0:0:0:
64,192,328212,128,0,328319:0:0:0:0:
192,192,328212,1,0,0:0:0:0:
320,192,328319,128,0,328427:0:0:0:0:
448,192,328319,1,0,0:0:0:0:
320,192,328534,128,0,328641:0:0:0:0:
64,192,328534,1,0,0:0:0:0:
448,192,328534,1,0,0:0:0:0:
192,192,328641,1,0,0:0:0:0:
320,192,328748,128,0,328855:0:0:0:0:
192,192,328748,1,0,0:0:0:0:
64,192,328748,1,0,0:0:0:0:
448,192,328855,128,0,328962:0:0:0:0:
64,192,328962,128,0,329069:0:0:0:0:
192,192,328962,1,0,0:0:0:0:
320,192,328962,1,0,0:0:0:0:
448,192,329069,128,0,329177:0:0:0:0:
320,192,329069,1,0,0:0:0:0:
192,192,329069,1,0,0:0:0:0:
64,192,329177,1,0,0:0:0:0:
448,192,329284,128,0,329391:0:0:0:0:
192,192,329284,1,0,0:0:0:0:
320,192,329391,1,0,0:0:0:0:
448,192,329498,128,0,329552:0:0:0:0:
192,192,329498,1,0,0:0:0:0:
64,192,329498,1,0,0:0:0:0:
448,192,329605,128,0,329659:0:0:0:0:
320,192,329605,1,0,0:0:0:0:
448,192,329712,128,0,329766:0:0:0:0:
192,192,329712,1,0,0:0:0:0:
448,192,329819,128,0,329927:0:0:0:0:
320,192,329819,1,0,0:0:0:0:
192,192,329927,1,0,0:0:0:0:
64,192,329927,1,0,0:0:0:0:
448,192,330034,128,0,330141:0:0:0:0:
320,192,330034,1,0,0:0:0:0:
192,192,330141,1,0,0:0:0:0:
448,192,330248,128,0,330302:0:0:0:0:
64,192,330248,1,0,0:0:0:0:
448,192,330355,128,0,330409:0:0:0:0:
192,192,330355,1,0,0:0:0:0:
320,192,330355,1,0,0:0:0:0:
448,192,330462,128,0,330516:0:0:0:0:
64,192,330462,1,0,0:0:0:0:
448,192,330569,128,0,330677:0:0:0:0:
192,192,330569,1,0,0:0:0:0:
320,192,330677,1,0,0:0:0:0:
448,192,330784,128,0,330891:0:0:0:0:
192,192,330784,1,0,0:0:0:0:
64,192,330784,1,0,0:0:0:0:
320,192,330891,1,0,0:0:0:0:
448,192,330998,128,0,331052:0:0:0:0:
192,192,330998,1,0,0:0:0:0:
448,192,331105,128,0,331159:0:0:0:0:
320,192,331105,1,0,0:0:0:0:
448,192,331212,128,0,331266:0:0:0:0:
192,192,331212,1,0,0:0:0:0:
64,192,331212,1,0,0:0:0:0:
448,192,331319,128,0,331427:0:0:0:0:
320,192,331319,1,0,0:0:0:0:
192,192,331427,1,0,0:0:0:0:
448,192,331534,128,0,331641:0:0:0:0:
320,192,331534,1,0,0:0:0:0:
192,192,331641,128,0,331748:0:0:0:0:
64,192,331641,1,0,0:0:0:0:
320,192,331641,1,0,0:0:0:0:
448,192,331748,128,0,331855:0:0:0:0:
64,192,331748,1,0,0:0:0:0:
448,192,331962,128,0,332069:0:0:0:0:
192,192,331962,1,0,0:0:0:0:
64,192,332069,1,0,0:0:0:0:
320,192,332069,1,0,0:0:0:0:
448,192,332177,128,0,332284:0:0:0:0:
192,192,332177,1,0,0:0:0:0:
192,192,332284,128,0,332391:0:0:0:0:
64,192,332284,1,0,0:0:0:0:
448,192,332391,128,0,332498:0:0:0:0:
320,192,332391,1,0,0:0:0:0:
64,192,332391,1,0,0:0:0:0:
64,192,332498,128,0,332605:0:0:0:0:
192,192,332498,1,0,0:0:0:0:
320,192,332498,1,0,0:0:0:0:
448,192,332605,1,0,0:0:0:0:
64,192,332712,128,0,332819:0:0:0:0:
320,192,332712,1,0,0:0:0:0:
192,192,332819,1,0,0:0:0:0:
64,192,332927,128,0,332980:0:0:0:0:
320,192,332927,1,0,0:0:0:0:
448,192,332927,1,0,0:0:0:0:
64,192,333034,128,0,333087:0:0:0:0:
192,192,333034,1,0,0:0:0:0:
64,192,333141,128,0,333194:0:0:0:0:
320,192,333141,1,0,0:0:0:0:
64,192,333248,128,0,333355:0:0:0:0:
448,192,333248,1,0,0:0:0:0:
192,192,333355,1,0,0:0:0:0:
320,192,333355,1,0,0:0:0:0:
64,192,333462,128,0,333569:0:0:0:0:
448,192,333462,1,0,0:0:0:0:
320,192,333569,1,0,0:0:0:0:
64,192,333677,128,0,333730:0:0:0:0:
192,192,333677,1,0,0:0:0:0:
64,192,333784,128,0,333837:0:0:0:0:
448,192,333784,1,0,0:0:0:0:
320,192,333784,1,0,0:0:0:0:
64,192,333891,128,0,333944:0:0:0:0:
192,192,333891,1,0,0:0:0:0:
64,192,333998,128,0,334105:0:0:0:0:
448,192,333998,1,0,0:0:0:0:
320,192,334105,1,0,0:0:0:0:
64,192,334212,128,0,334319:0:0:0:0:
192,192,334212,1,0,0:0:0:0:
448,192,334212,1,0,0:0:0:0:
320,192,334319,1,0,0:0:0:0:
64,192,334427,128,0,334480:0:0:0:0:
448,192,334427,1,0,0:0:0:0:
64,192,334534,128,0,334587:0:0:0:0:
320,192,334534,1,0,0:0:0:0:
64,192,334641,128,0,334694:0:0:0:0:
192,192,334641,1,0,0:0:0:0:
448,192,334641,1,0,0:0:0:0:
64,192,334748,128,0,334855:0:0:0:0:
320,192,334748,1,0,0:0:0:0:
192,192,334855,1,0,0:0:0:0:
64,192,334962,128,0,335069:0:0:0:0:
320,192,334962,1,0,0:0:0:0:
448,192,335069,128,0,335284:0:0:0:0:
192,192,335069,1,0,0:0:0:0:
320,192,335069,1,0,0:0:0:0:
64,192,335177,128,0,335284:0:0:0:0:
320,192,335177,1,0,0:0:0:0:
64,192,335391,128,0,335498:0:0:0:0:
320,192,335391,128,0,335605:0:0:0:0:
192,192,335391,1,0,0:0:0:0:
448,192,335498,1,0,0:0:0:0:
192,192,335498,1,0,0:0:0:0:
64,192,335605,128,0,335712:0:0:0:0:
448,192,335605,1,0,0:0:0:0:
448,192,335712,128,0,335819:0:0:0:0:
192,192,335712,1,0,0:0:0:0:
320,192,335819,128,0,335927:0:0:0:0:
64,192,335819,1,0,0:0:0:0:
192,192,335819,1,0,0:0:0:0:
192,192,335927,128,0,336034:0:0:0:0:
448,192,335927,1,0,0:0:0:0:
64,192,335927,1,0,0:0:0:0:
320,192,336034,1,0,0:0:0:0:
192,192,336141,128,0,336248:0:0:0:0:
448,192,336141,1,0,0:0:0:0:
320,192,336248,1,0,0:0:0:0:
192,192,336355,128,0,336409:0:0:0:0:
448,192,336355,1,0,0:0:0:0:
64,192,336355,1,0,0:0:0:0:
192,192,336462,128,0,336516:0:0:0:0:
320,192,336462,1,0,0:0:0:0:
192,192,336569,128,0,336623:0:0:0:0:
64,192,336569,1,0,0:0:0:0:
192,192,336677,128,0,336784:0:0:0:0:
320,192,336677,1,0,0:0:0:0:
448,192,336784,1,0,0:0:0:0:
320,192,336784,1,0,0:0:0:0:
192,192,336891,128,0,336998:0:0:0:0:
64,192,336891,1,0,0:0:0:0:
320,192,336998,1,0,0:0:0:0:
192,192,337105,128,0,337159:0:0:0:0:
448,192,337105,1,0,0:0:0:0:
192,192,337212,128,0,337266:0:0:0:0:
320,192,337212,1,0,0:0:0:0:
64,192,337212,1,0,0:0:0:0:
192,192,337319,128,0,337373:0:0:0:0:
448,192,337319,1,0,0:0:0:0:
192,192,337427,128,0,337534:0:0:0:0:
320,192,337427,1,0,0:0:0:0:
64,192,337534,1,0,0:0:0:0:
192,192,337641,128,0,337748:0:0:0:0:
448,192,337641,1,0,0:0:0:0:
320,192,337641,1,0,0:0:0:0:
64,192,337748,1,0,0:0:0:0:
192,192,337855,128,0,337909:0:0:0:0:
320,192,337855,1,0,0:0:0:0:
192,192,337962,128,0,338016:0:0:0:0:
64,192,337962,1,0,0:0:0:0:
192,192,338069,128,0,338123:0:0:0:0:
320,192,338069,1,0,0:0:0:0:
448,192,338069,1,0,0:0:0:0:
192,192,338177,128,0,338230:0:0:0:0:
64,192,338177,1,0,0:0:0:0:
320,192,338284,1,0,0:0:0:0:
192,192,338391,128,0,338498:0:0:0:0:
64,192,338391,1,0,0:0:0:0:
320,192,338498,1,0,0:0:0:0:
448,192,338498,128,0,338605:0:0:0:0:
192,192,338605,128,0,338712:0:0:0:0:
64,192,338605,1,0,0:0:0:0:
192,192,338819,128,0,338927:0:0:0:0:
320,192,338819,1,0,0:0:0:0:
448,192,338927,1,0,0:0:0:0:
64,192,338927,1,0,0:0:0:0:
192,192,339034,128,0,339141:0:0:0:0:
320,192,339034,1,0,0:0:0:0:
64,192,339141,128,0,339248:0:0:0:0:
448,192,339141,1,0,0:0:0:0:
448,192,339248,128,0,339355:0:0:0:0:
320,192,339248,1,0,0:0:0:0:
192,192,339248,1,0,0:0:0:0:
320,192,339355,128,0,339462:0:0:0:0:
64,192,339355,128,0,339462:0:0:0:0:
192,192,339355,128,0,339462:0:0:0:0:
448,192,339462,1,0,0:0:0:0:
320,192,339569,1,0,0:0:0:0:
64,192,339677,128,0,339784:0:0:0:0:
320,192,339677,128,0,339784:0:0:0:0:
448,192,339677,128,0,339784:0:0:0:0:
192,192,339784,1,0,0:0:0:0:
320,192,339891,1,0,0:0:0:0:
192,192,339998,128,0,340105:0:0:0:0:
320,192,339998,128,0,340105:0:0:0:0:
448,192,339998,128,0,340105:0:0:0:0:
64,192,340105,1,0,0:0:0:0:
192,192,340212,1,0,0:0:0:0:
64,192,340319,128,0,340427:0:0:0:0:
192,192,340319,128,0,340427:0:0:0:0:
448,192,340319,128,0,340427:0:0:0:0:
320,192,340427,1,0,0:0:0:0:
448,192,340534,1,0,0:0:0:0:
64,192,340641,128,0,340748:0:0:0:0:
192,192,340641,128,0,340748:0:0:0:0:
320,192,340641,128,0,340748:0:0:0:0:
448,192,340748,1,0,0:0:0:0:
320,192,340855,128,0,340962:0:0:0:0:
192,192,340855,128,0,340962:0:0:0:0:
64,192,340855,128,0,340962:0:0:0:0:
448,192,340962,1,0,0:0:0:0:
64,192,341069,128,0,341177:0:0:0:0:
448,192,341069,128,0,341177:0:0:0:0:
320,192,341069,128,0,341177:0:0:0:0:
192,192,341177,1,0,0:0:0:0:
320,192,341284,1,0,0:0:0:0:
64,192,341391,128,0,341498:0:0:0:0:
192,192,341391,128,0,341498:0:0:0:0:
448,192,341391,128,0,341498:0:0:0:0:
320,192,341498,1,0,0:0:0:0:
64,192,341605,1,0,0:0:0:0:
192,192,341712,128,0,341819:0:0:0:0:
320,192,341712,128,0,341819:0:0:0:0:
448,192,341712,128,0,341819:0:0:0:0:
64,192,341819,1,0,0:0:0:0:
448,192,341927,1,0,0:0:0:0:
64,192,342034,128,0,342141:0:0:0:0:
192,192,342034,128,0,342141:0:0:0:0:
320,192,342034,128,0,342141:0:0:0:0:
448,192,342141,1,0,0:0:0:0:
192,192,342248,1,0,0:0:0:0:
64,192,342355,128,0,342462:0:0:0:0:
320,192,342355,128,0,342462:0:0:0:0:
448,192,342355,128,0,342462:0:0:0:0:
192,192,342462,1,0,0:0:0:0:
320,192,342569,128,0,342677:0:0:0:0:
448,192,342569,128,0,342677:0:0:0:0:
64,192,342569,128,0,342677:0:0:0:0:
192,192,342677,1,0,0:0:0:0:
320,192,342784,128,0,342891:0:0:0:0:
448,192,342784,128,0,342891:0:0:0:0:
192,192,342784,1,0,0:0:0:0:
64,192,342784,1,0,0:0:0:0:
192,192,342891,1,0,0:0:0:0:
320,192,342998,1,0,0:0:0:0:
64,192,343105,128,0,343212:0:0:0:0:
448,192,343105,128,0,343212:0:0:0:0:
320,192,343105,1,0,0:0:0:0:
192,192,343105,1,0,0:0:0:0:
320,192,343212,1,0,0:0:0:0:
192,192,343319,1,0,0:0:0:0:
192,192,343427,128,0,343534:0:0:0:0:
448,192,343427,128,0,343534:0:0:0:0:
64,192,343427,1,0,0:0:0:0:
320,192,343427,1,0,0:0:0:0:
64,192,343534,1,0,0:0:0:0:
192,192,343641,1,0,0:0:0:0:
320,192,343748,128,0,344069:0:0:0:0:
64,192,343748,128,0,344069:0:0:0:0:
448,192,343748,1,0,0:0:0:0:
192,192,343748,1,0,0:0:0:0:
192,192,343855,1,0,0:0:0:0:
448,192,343962,1,0,0:0:0:0:
192,192,344069,128,0,344498:0:0:0:0:
448,192,344069,128,0,344177:0:0:0:0:
448,192,344284,128,0,344391:0:0:0:0:
320,192,344391,128,0,345569:0:0:0:0:
64,192,344498,128,0,345569:0:0:0:0:
