osu file format v14

[General]
AudioFilename: audio.mp3
AudioLeadIn: 0
PreviewTime: 179127
Countdown: 0
SampleSet: Soft
StackLeniency: 0.7
Mode: 0
LetterboxInBreaks: 0
WidescreenStoryboard: 1

[Editor]
Bookmarks: 26273,35639,45005
DistanceSpacing: 1
BeatDivisor: 4
GridSize: 8
TimelineZoom: 2.2

[Metadata]
Title:Sarumane Isutori Game
TitleUnicode:猿マネ椅子盗りゲーム
Artist:D-ne (CV: Aizawa Mai)
ArtistUnicode:D音(CV: 相沢舞)
Creator:Nevo
Version:amb1's Insane
Source:終焉ノ栞プロジェクト
Tags:vocaloid IA cover Shuuen no Shiori dne 終焉-Re.act- bookmark demise project 150p japanese rock Aimless Imitation Chair Stealing Game aakki nymphe amb1d3x Hishiro Chizuru Vilippu Evil [-Evil-] kiyoshi guarden
BeatmapID:2340387
BeatmapSetID:1090804

[Difficulty]
HPDrainRate:6
CircleSize:3.8
OverallDifficulty:8
ApproachRate:9
SliderMultiplier:1.6
SliderTickRate:1

[Events]
//Background and Video events
0,0,"POG_PT_2.jpg",0,0
Video,-665,"This Is A Video.mp4"
//Break Periods
2,75678,81810
2,170313,177756
//Storyboard Layer 0 (Background)
//Storyboard Layer 1 (Fail)
//Storyboard Layer 2 (Pass)
//Storyboard Layer 3 (Foreground)
//Storyboard Layer 4 (Overlay)
//Storyboard Sound Samples

[TimingPoints]
12259,292.682926829268,4,2,1,80,1,0
26307,-100,4,2,1,70,0,0
45039,-133.333333333333,4,2,1,60,0,0
49722,-100,4,2,1,75,0,0
54405,-83.3333333333333,4,2,1,90,0,1
63332,-200,4,2,1,90,0,1
63624,-83.3333333333333,4,2,1,90,0,1
73137,-83.3333333333333,4,2,1,80,0,0
82502,-181.818181818181,4,2,1,60,0,0
83380,-133.333333333333,4,2,1,60,0,0
91868,-100,4,2,1,70,0,0
101234,-133.333333333333,4,2,1,60,0,0
105917,-100,4,2,1,75,0,0
110600,-83.3333333333333,4,2,1,90,0,1
119527,-200,4,2,1,90,0,1
119819,-83.3333333333333,4,2,1,90,0,1
129185,-83.3333333333333,4,2,1,80,0,0
130063,-83.3333333333333,4,2,1,50,0,0
130941,-83.3333333333333,4,2,1,60,0,0
131673,-83.3333333333333,4,2,1,70,0,0
141039,-71.4285714285714,4,2,1,80,0,1
148502,-66.6666666666667,4,2,1,80,0,1
150112,-33.3333333333333,4,2,1,80,0,0
150405,-83.3333333333333,4,2,1,90,0,1
159332,-100,4,2,1,90,0,1
159624,-83.3333333333333,4,2,1,90,0,1
160795,-62.5,4,2,1,90,0,1
162112,-71.4285714285714,4,2,1,90,0,1
167819,-285.714285714284,4,2,1,80,0,0
170307,-285.714285714284,4,2,1,50,0,0
178502,-285.714285714284,4,2,1,5,0,0
178649,-285.714285714284,4,2,1,50,0,0
178795,-285.714285714284,4,2,1,5,0,0
178942,-285.714285714284,4,2,1,50,0,0
179088,-285.714285714284,4,2,1,5,0,0
179235,-285.714285714284,4,2,1,50,0,0
179527,-79.9999999999999,4,2,1,90,0,1
188893,-74.0740740740741,4,2,1,90,0,1
199576,-181.818181818181,4,2,1,80,0,1
200746,-181.818181818181,4,2,1,70,0,0

[Colours]
Combo1 : 117,117,117
Combo2 : 254,207,22
Combo3 : 167,18,18
Combo4 : 88,19,183

[HitObjects]
23,29,15771,5,6,0:2:0:0:
30,44,16063,5,6,0:2:0:0:
1,141,16356,5,14,0:2:0:0:
63,210,16502,1,8,0:2:0:0:
86,207,16575,1,8,0:2:0:0:
110,205,16648,1,8,0:2:0:0:
263,158,16795,1,8,0:2:0:0:
240,155,16868,1,0,0:0:0:0:
216,153,16941,6,0,B|199:188|199:188|209:291,1,120,6|0,3:2|0:0,0:2:0:0:
219,292,17234,1,8,0:2:0:0:
378,247,17380,2,0,P|337:234|295:235,1,80,2|0,3:2|0:2,0:2:0:0:
148,299,17673,2,0,P|188:311|230:310,1,80,0|8,3:2|0:2,0:0:0:0:
378,247,17966,6,0,L|387:127,1,120,2|0,3:2|0:0,0:2:0:0:
362,91,18259,2,0,L|370:190,1,80,0|8,3:2|0:2,0:0:0:0:
458,258,18551,1,0,3:2:0:0:
512,156,18698,1,2,3:2:0:0:
343,73,18844,1,0,3:2:0:0:
211,201,18990,2,0,L|314:191,1,80,10|8,0:2|0:2,0:2:0:0:
74,18,19283,5,2,3:2:0:0:
74,18,19576,2,0,L|67:89,1,40,8|0,0:2|0:0,0:0:0:0:
11,185,19722,2,0,P|49:171|90:185,1,80,2|0,3:2|0:0,0:2:0:0:
214,240,20015,1,0,3:2:0:0:
151,305,20161,1,8,0:2:0:0:
167,120,20307,6,0,L|302:131,1,120,2|0,3:2|0:0,0:2:0:0:
327,150,20600,2,0,L|279:154,1,40,0|0,3:2|0:0,0:0:0:0:
360,46,20746,2,0,P|399:59|426:93,1,80,8|0,0:2|3:2,0:0:0:0:
381,225,21039,2,0,L|388:312,1,80,0|0,3:2|3:2,0:0:0:0:
457,366,21332,1,8,0:2:0:0:
23,377,21624,6,0,B|38:347|38:347|30:251,1,120,6|0,3:2|0:0,0:2:0:0:
22,237,21917,1,8,0:2:0:0:
62,121,22063,2,0,P|103:131|145:127,1,80,2|0,3:2|0:2,0:2:0:0:
287,83,22356,2,0,P|245:72|203:76,1,80,0|8,3:2|0:2,0:0:0:0:
280,286,22649,6,0,B|327:283|326:212|378:211,1,120,2|0,3:2|0:0,0:2:0:0:
410,217,22941,2,0,L|418:312,1,80,0|8,3:2|0:2,0:0:0:0:
229,358,23234,1,0,3:2:0:0:
315,384,23380,2,0,L|322:299,1,80,2|0,3:2|3:2,0:2:0:0:
142,238,23673,2,0,L|149:322,1,80,8|8,0:2|0:2,0:2:0:0:
0,139,23966,6,0,B|97:101|82:179|192:136,1,160,6|8,3:2|0:2,0:2:0:0:
260,99,24405,1,0,3:2:0:0:
260,99,24478,1,0,0:0:0:0:
260,99,24551,2,0,L|255:146,1,40,0|0,0:2|0:0,0:0:0:0:
347,241,24698,2,0,L|338:145,1,80,0|8,3:2|0:2,0:0:0:0:
502,68,24990,6,0,P|457:55|437:132,1,120,2|0,3:2|0:0,0:2:0:0:
453,143,25283,1,0,3:2:0:0:
420,270,25429,2,0,B|350:242|361:298|281:267,1,120,14|0,0:2|0:0,0:2:0:0:
281,261,25722,1,8,0:2:0:0:
164,327,25868,1,8,0:2:0:0:
187,324,25941,1,8,0:2:0:0:
211,322,26015,1,8,0:2:0:0:
95,252,26161,1,8,0:2:0:0:
72,249,26234,1,8,0:2:0:0:
48,247,26307,6,0,B|19:179|83:162|37:76,1,160,6|8,3:2|0:2,0:2:0:0:
44,91,26746,1,0,3:2:0:0:
355,22,27039,1,0,3:0:0:0:
355,22,27185,6,0,P|298:14|270:63,1,120,10|0,0:2|0:0,0:2:0:0:
299,91,27478,2,0,L|292:188,1,80,2|2,3:2|3:2,0:0:0:0:
378,241,27771,1,8,0:2:0:0:
378,241,27917,2,0,L|372:161,1,80,2|0,3:2|0:2,0:2:0:0:
372,161,28210,1,0,3:2:0:0:
443,108,28356,1,8,0:2:0:0:
443,108,28502,1,8,0:2:0:0:
510,233,28649,6,0,B|452:236|455:328|367:341,1,160,2|8,3:2|0:2,0:2:0:0:
392,334,29088,1,0,3:2:0:0:
148,306,29380,1,0,3:2:0:0:
226,270,29527,1,8,0:2:0:0:
63,232,29746,5,0,3:0:0:0:
63,232,29819,2,0,L|67:134,1,80,0|2,3:2|3:2,0:0:0:0:
238,84,30112,1,8,0:2:0:0:
150,57,30258,2,0,L|157:144,1,80,2|0,3:2|0:2,0:2:0:0:
219,255,30551,1,2,3:2:0:0:
219,255,30624,1,0,3:0:0:0:
219,255,30698,2,0,P|257:243|307:254,1,80,8|2,0:2|3:2,0:0:0:0:
408,374,30990,6,0,P|449:333|369:318,1,160,0|10,3:2|0:2,0:0:0:0:
380,301,31429,1,2,3:2:0:0:
172,382,31722,5,2,3:2:0:0:
172,382,31868,2,0,P|168:328|154:288,1,80,10|2,0:2|0:2,0:0:0:0:
70,193,32161,1,2,3:2:0:0:
70,193,32307,1,0,3:2:0:0:
25,268,32454,1,8,0:2:0:0:
162,171,32600,2,0,L|321:184,1,160,0|0,3:2|0:0,0:0:0:0:
321,184,33039,1,8,0:2:0:0:
512,18,33332,6,0,B|454:21|457:113|369:126,1,160,2|10,3:2|0:2,0:2:0:0:
394,119,33771,1,0,3:2:0:0:
221,3,34063,1,0,0:2:0:0:
158,64,34210,2,0,L|151:143,1,80,8|2,0:2|3:2,0:0:0:0:
10,13,34502,6,0,L|89:6,1,80,0|0,3:0|3:2,0:0:0:0:
151,143,34795,1,8,0:2:0:0:
72,99,34941,1,0,3:2:0:0:
119,267,35088,1,2,3:2:0:0:
198,223,35234,1,0,0:2:0:0:
225,226,35307,1,0,3:2:0:0:
252,228,35380,1,8,0:2:0:0:
316,285,35527,1,0,0:2:0:0:
438,185,35673,6,0,B|380:182|383:90|295:77,1,160,6|8,3:2|0:2,0:2:0:0:
320,83,36112,1,2,3:2:0:0:
236,130,36258,2,0,L|242:209,1,80,0|0,0:2|3:2,0:0:0:0:
127,186,36551,2,0,L|133:106,1,80,8|0,0:2|0:2,0:2:0:0:
28,286,36844,6,0,P|65:271|104:276,1,80,2|0,3:2|3:2,0:2:0:0:
243,326,37137,2,2,P|205:340|166:335,1,80,10|2,0:2|3:2,0:2:0:0:
328,260,37429,2,0,L|335:347,1,80,2|0,3:2|3:2,0:2:0:0:
434,288,37722,1,8,0:2:0:0:
434,288,37868,1,8,0:2:0:0:
375,149,38015,5,2,3:2:0:0:
295,185,38161,1,0,0:2:0:0:
221,92,38307,2,0,L|308:99,1,80,8|0,0:2|3:2,0:0:0:0:
163,186,38600,1,0,0:2:0:0:
116,106,38746,1,0,3:2:0:0:
116,106,38893,1,8,0:2:0:0:
25,213,39039,5,2,3:2:0:0:
23,235,39112,1,0,3:0:0:0:
20,253,39185,1,0,3:2:0:0:
99,368,39332,2,0,P|126:321|152:304,1,80,2|8,0:2|0:2,0:2:0:0:
315,331,39624,2,0,L|219:339,1,80,2|0,0:2|0:2,0:2:0:0:
393,273,39917,2,0,L|488:281,1,80,2|8,0:2|0:2,0:2:0:0:
457,134,40210,6,0,B|389:105|372:169|286:123,1,160,2|0,3:2|0:2,0:2:0:0:
139,66,40649,1,10,0:2:0:0:
139,66,40795,1,2,3:2:0:0:
214,23,40941,2,0,L|220:102,1,80,2|2,0:2|3:2,0:0:0:0:
134,234,41234,2,0,L|140:154,1,80,10|2,0:2|3:2,0:0:0:0:
47,31,41527,5,2,3:2:0:0:
47,31,41673,1,0,3:2:0:0:
0,111,41819,1,10,0:2:0:0:
0,111,41966,2,0,L|7:198,1,80,0|2,3:2|0:2,0:0:0:0:
6,190,42258,1,0,3:2:0:0:
84,288,42405,1,8,0:2:0:0:
19,345,42551,1,8,0:2:0:0:
172,279,42698,6,0,P|211:284|246:304,1,80,2|0,3:2|0:0,0:2:0:0:
403,338,42990,2,0,P|363:343|328:363,1,80,8|0,0:2|3:2,0:2:0:0:
310,191,43283,2,0,L|318:286,1,80,2|0,0:2|3:2,0:2:0:0:
316,270,43576,1,8,0:2:0:0:
465,194,43722,6,0,B|397:165|380:229|294:183,1,160,2|0,3:2|3:2,0:2:0:0:
278,59,44161,1,8,0:2:0:0:
342,116,44307,1,0,3:2:0:0:
105,171,44454,1,0,3:2:0:0:
140,68,44600,2,0,L|179:71,1,40,8|8,0:2|0:2,0:0:0:0:
197,82,44746,2,0,L|109:89,1,80,8|8,0:2|3:0,0:0:0:0:
12,222,45039,6,0,P|72:197|95:301,1,180.000006866455,6|0,3:2|0:2,0:2:0:0:
110,283,45624,1,2,3:2:0:0:
208,376,45917,2,0,L|295:368,1,60.0000022888184,2|0,3:2|0:0,0:2:0:0:
338,294,46210,2,0,L|250:286,2,60.0000022888184,2|0|0,3:2|0:0|3:0,0:2:0:0:
323,69,46795,6,0,P|297:99|202:93,1,120.000004577637,2|2,0:2|3:2,0:2:0:0:
220,105,47234,1,8,0:0:0:0:
110,18,47380,2,0,B|141:54|141:54|128:206,1,180.000006866455,2|2,3:2|0:2,0:2:0:0:
211,225,47966,2,0,L|223:81,1,120.000004577637,2|0,3:2|3:2,0:2:0:0:
221,105,48405,1,2,0:2:0:0:
321,173,48551,6,0,L|385:179,1,60.0000022888184,2|0,3:2|0:2,0:2:0:0:
392,169,48844,2,0,L|332:163,1,60.0000022888184,2|0,3:2|0:2,0:2:0:0:
277,279,49137,2,0,L|340:273,1,60.0000022888184,2|0,3:2|3:2,0:2:0:0:
347,283,49430,2,0,L|287:288,1,60.0000022888184,2|8,3:2|0:2,0:2:0:0:
157,361,49722,5,6,3:2:0:0:
150,281,49868,1,0,0:2:0:0:
143,201,50015,1,8,0:2:0:0:
136,121,50161,1,0,3:2:0:0:
335,55,50307,2,0,L|318:239,1,160,8|8,0:2|0:2,0:0:0:0:
321,214,50746,1,0,3:2:0:0:
120,107,50893,5,14,0:2:0:0:
127,187,51039,1,0,3:2:0:0:
134,267,51186,1,8,0:2:0:0:
141,347,51332,1,0,3:2:0:0:
335,383,51478,2,0,L|342:295,1,80,8|0,0:2|3:2,0:0:0:0:
351,133,51771,1,8,0:2:0:0:
346,218,51917,1,0,3:2:0:0:
289,67,52063,6,0,P|249:71|214:89,1,80,14|0,0:2|3:2,0:0:0:0:
82,200,52356,2,0,P|121:195|156:177,1,80,8|0,0:2|3:2,0:0:0:0:
33,111,52649,1,8,0:2:0:0:
0,275,52795,1,0,3:2:0:0:
168,183,52941,2,0,L|164:143,3,40,8|8|8|8,0:2|0:2|0:2|0:2,0:2:0:0:
181,198,53234,5,14,0:2:0:0:
256,192,53307,12,0,53966,0:0:0:0:
295,233,54112,5,2,0:2:0:0:
301,253,54258,1,0,0:2:0:0:
352,167,54405,5,6,3:2:0:0:
214,155,54551,1,0,0:0:0:0:
289,349,54698,2,0,P|327:297|273:225,1,143.999995605469,8|0,0:2|0:0,0:2:0:0:
268,245,54990,2,0,P|213:256|164:247,1,95.9999970703126,2|0,3:2|3:2,0:0:0:0:
19,177,55283,1,10,0:2:0:0:
67,274,55429,6,0,B|44:237|44:237|72:86,1,191.999994140625,6|2,3:2|3:2,0:2:0:0:
71,91,55868,1,8,0:0:0:0:
154,25,56015,2,0,L|257:34,1,95.9999970703126,6|0,3:2|0:2,0:2:0:0:
385,108,56307,2,0,L|289:116,1,95.9999970703126,2|8,3:2|0:2,0:2:0:0:
401,92,56600,1,0,3:2:0:0:
498,241,56746,6,0,P|442:234|369:305,1,143.999995605469,6|0,3:2|0:2,0:2:0:0:
375,311,57039,1,10,0:2:0:0:
264,267,57185,1,0,0:2:0:0:
152,358,57332,2,0,L|247:349,1,95.9999970703126,2|0,0:2|3:2,0:2:0:0:
135,342,57624,1,10,0:2:0:0:
296,185,57771,6,0,B|232:182|247:107|154:98,1,143.999995605469,2|0,3:2|0:0,0:2:0:0:
155,112,58063,2,0,L|145:215,1,95.9999970703126,2|8,3:2|0:2,0:2:0:0:
58,285,58356,2,0,L|48:181,1,95.9999970703126,2|0,3:2|0:0,0:2:0:0:
0,102,58649,1,0,3:2:0:0:
0,102,58722,1,0,3:0:0:0:
0,102,58795,1,10,0:2:0:0:
63,33,58941,1,0,3:2:0:0:
173,136,59088,6,0,P|226:143|312:95,1,143.999995605469,6|0,3:2|0:0,0:2:0:0:
313,79,59380,1,10,0:2:0:0:
401,157,59527,1,0,3:2:0:0:
301,256,59673,2,0,B|365:253|350:178|443:169,1,143.999995605469,6|0,3:2|0:0,0:2:0:0:
429,193,59966,1,8,0:2:0:0:
489,340,60112,6,0,P|416:317|349:352,1,143.999995605469,6|0,3:2|0:0,0:2:0:0:
348,363,60405,1,0,3:2:0:0:
272,274,60551,2,0,L|168:283,1,95.9999970703126,10|0,0:2|0:2,0:2:0:0:
32,348,60844,2,0,L|135:357,1,95.9999970703126,2|0,3:2|3:2,0:2:0:0:
201,202,61137,1,10,0:2:0:0:
201,202,61210,1,0,0:0:0:0:
201,202,61283,1,0,3:2:0:0:
72,262,61429,6,0,P|35:207|61:130,1,143.999995605469,6|0,3:2|0:0,0:0:0:0:
76,122,61722,2,0,P|94:73|78:22,1,95.9999970703126,10|0,0:2|3:2,0:0:0:0:
142,189,62015,1,10,0:2:0:0:
225,137,62161,2,0,L|272:141,3,47.9999985351563,8|8|8|8,0:2|0:2|0:2|0:2,0:0:0:0:
287,158,62454,5,6,3:2:0:0:
207,373,62746,5,6,3:2:0:0:
29,21,63039,5,6,3:2:0:0:
481,102,63332,6,0,L|417:107,1,60,6|0,3:2|0:0,0:0:0:0:
405,138,63624,6,0,B|341:141|356:216|263:225,1,143.999995605469,6|0,3:2|0:0,0:2:0:0:
262,213,63917,1,0,3:2:0:0:
143,120,64063,1,10,0:2:0:0:
68,224,64210,2,0,L|131:218,1,47.9999985351563,0|0,0:2|0:0,0:0:0:0:
131,208,64356,2,0,L|19:198,1,95.9999970703126,0|8,3:2|0:2,0:0:0:0:
19,212,64576,1,8,0:2:0:0:
6,232,64649,1,8,0:2:0:0:
3,255,64722,1,8,0:2:0:0:
8,278,64795,5,6,3:2:0:0:
305,27,65088,5,6,3:2:0:0:
447,370,65380,5,6,3:2:0:0:
35,199,65673,5,8,0:2:0:0:
35,199,65746,2,0,L|90:194,1,47.9999985351563,8|8,0:2|0:2,0:0:0:0:
156,252,65893,1,8,0:2:0:0:
174,255,65966,1,8,0:2:0:0:
192,257,66039,1,8,0:2:0:0:
210,261,66112,6,0,B|275:265|251:338|336:351,1,143.999995605469,6|0,3:2|0:0,0:2:0:0:
340,342,66405,1,10,0:2:0:0:
432,201,66551,1,0,0:2:0:0:
486,293,66698,2,0,P|443:279|364:302,1,95.9999970703126,2|0,3:2|3:2,0:0:0:0:
240,378,66990,1,10,0:2:0:0:
146,341,67137,6,0,B|166:300|166:300|155:202,1,143.999995605469,2|0,3:2|0:2,0:2:0:0:
129,170,67429,2,0,L|137:265,1,95.9999970703126,2|8,3:2|0:2,0:2:0:0:
219,133,67722,2,0,P|163:71|63:91,1,191.999994140625,2|0,3:2|3:2,0:2:0:0:
129,170,68161,1,10,0:2:0:0:
129,170,68307,1,0,3:2:0:0:
262,46,68454,6,0,B|312:35|312:35|419:66,1,143.999995605469,6|0,3:2|0:0,0:2:0:0:
416,76,68746,1,10,0:2:0:0:
440,239,68893,1,0,0:2:0:0:
498,179,69039,2,0,P|456:156|409:161,1,95.9999970703126,2|0,3:2|0:2,0:2:0:0:
197,348,69332,1,8,0:2:0:0:
343,288,69478,6,0,B|264:284|282:191|167:180,1,191.999994140625,6|0,3:2|3:2,0:2:0:0:
85,285,69917,1,10,0:2:0:0:
85,285,70063,1,0,0:2:0:0:
0,144,70210,2,0,P|54:99|124:102,1,143.999995605469,2|0,3:2|0:0,0:2:0:0:
149,126,70502,2,0,L|252:135,1,95.9999970703126,2|0,3:2|0:2,0:2:0:0:
385,39,70795,5,6,3:2:0:0:
385,39,70941,1,0,3:2:0:0:
390,120,71088,1,0,3:2:0:0:
402,203,71234,1,0,3:2:0:0:
275,243,71380,1,8,0:2:0:0:
320,170,71527,1,8,0:2:0:0:
409,290,71673,1,8,0:2:0:0:
266,252,71819,5,6,3:2:0:0:
445,16,72112,5,6,3:2:0:0:
89,140,72405,5,6,3:2:0:0:
381,381,72698,5,8,0:2:0:0:
310,345,72844,2,0,L|253:351,1,47.9999985351563,8|8,0:2|0:2,0:0:0:0:
191,384,72990,2,0,L|134:378,1,47.9999985351563,8|8,0:2|0:2,0:0:0:0:
81,328,73137,5,14,0:2:0:0:
256,192,73210,12,0,75478,0:0:0:0:
66,241,82502,5,6,3:2:0:0:
461,83,84844,5,6,3:2:0:0:
96,31,86746,5,8,3:3:0:0:
92,54,86893,1,8,3:3:0:0:
89,77,87039,1,8,3:3:0:0:
106,150,87185,6,0,L|95:30,1,120.000004577637,6|0,0:2|0:2,0:2:0:0:
96,31,87624,1,0,0:2:0:0:
189,112,87771,2,0,P|234:149|293:154,1,120.000004577637,10|2,0:2|0:2,0:2:0:0:
293,154,88210,1,0,3:2:0:0:
404,67,88356,6,0,B|387:80|387:80|381:138,1,60.0000022888184,6|8,0:2|0:2,0:2:0:0:
388,128,88576,1,8,0:2:0:0:
394,137,88649,1,8,0:2:0:0:
371,222,88795,1,8,0:2:0:0:
440,300,88941,2,0,P|396:295|360:321,1,90.0000034332277,6|8,3:2|0:2,0:2:0:0:
353,339,89234,1,8,0:2:0:0:
265,310,89380,1,8,0:2:0:0:
243,311,89454,1,8,0:2:0:0:
222,313,89527,1,10,0:2:0:0:
45,45,91868,6,0,L|124:51,1,80,6|0,3:2|0:0,0:2:0:0:
268,98,92161,2,0,L|188:104,1,80,8|0,0:2|3:2,0:0:0:0:
282,83,92454,1,2,0:2:0:0:
353,148,92600,1,0,3:2:0:0:
234,262,92746,1,10,0:2:0:0:
256,174,92893,1,0,0:2:0:0:
341,344,93039,6,0,P|402:334|433:292,1,80,2|0,3:2|3:0,0:0:0:0:
512,224,93332,2,0,P|512:263|493:298,1,80,10|0,0:0|3:0,0:0:0:0:
252,256,93624,2,0,L|244:343,2,80,2|0|8,0:0|3:2|0:2,0:0:0:0:
169,149,94063,1,8,0:2:0:0:
169,149,94210,6,0,P|173:212|116:286,1,160,2|8,3:2|0:2,0:2:0:0:
116,285,94649,1,0,3:2:0:0:
0,183,94795,2,0,L|87:190,1,80,2|0,0:2|3:2,0:2:0:0:
79,189,95088,1,8,0:2:0:0:
248,142,95234,6,0,L|152:150,1,80,2|0,3:2|3:2,0:2:0:0:
326,248,95527,2,0,L|230:239,1,80,2|8,3:2|0:2,0:2:0:0:
375,166,95819,2,0,P|406:190|424:225,1,80,2|8,3:2|0:2,0:2:0:0:
297,82,96112,2,0,P|265:106|247:141,1,80,2|8,3:2|0:2,0:2:0:0:
502,218,96405,1,2,3:2:0:0:
502,218,96698,6,0,P|462:215|423:225,1,80,2|10,0:2|0:2,0:0:0:0:
334,342,96990,2,0,P|271:306|309:245,1,160,2|2,3:2|3:2,0:0:0:0:
412,349,97429,2,0,P|372:351|333:341,1,80,10|2,0:2|0:2,0:0:0:0:
196,235,97722,6,0,P|126:235|71:302,1,160,2|8,3:2|0:2,0:2:0:0:
166,342,98161,1,0,3:2:0:0:
196,235,98307,2,0,L|189:155,1,80,2|0,3:2|3:0,0:2:0:0:
33,27,98600,1,8,0:2:0:0:
33,27,98893,6,0,P|77:42|136:25,1,80,2|0,3:2|0:2,0:2:0:0:
198,67,99185,2,0,P|234:52|274:53,1,80,10|0,0:2|3:2,0:2:0:0:
392,141,99478,2,0,P|449:131|401:54,1,160,2|8,3:2|0:2,0:2:0:0:
291,144,99917,2,0,L|304:234,2,80,2|0|0,3:2|0:0|3:2,0:2:0:0:
385,252,100356,1,8,0:2:0:0:
385,252,100502,1,0,0:2:0:0:
332,338,100649,1,2,3:2:0:0:
251,302,100795,1,0,3:2:0:0:
227,303,100868,1,0,3:2:0:0:
203,305,100941,1,8,0:2:0:0:
141,367,101088,1,0,0:2:0:0:
57,304,101234,6,0,B|147:299|126:193|258:180,1,240.000009155274,6|2,3:2|3:2,0:2:0:0:
512,82,102112,6,0,L|432:75,1,60.0000022888184,2|0,3:2|0:0,0:2:0:0:
356,19,102405,1,2,3:2:0:0:
356,19,102551,1,0,0:0:0:0:
302,87,102698,2,0,P|254:122|178:110,2,120.000004577637,0|2|2,0:0|0:2|3:2,0:0:0:0:
302,87,103429,1,0,0:0:0:0:
376,142,103576,6,0,B|395:180|395:180|370:377,1,240.000009155274,2|2,3:2|3:2,0:2:0:0:
32,291,104454,6,0,P|60:269|97:263,1,60.0000022888184,0|2,3:2|0:2,0:0:0:0:
165,297,104746,2,0,P|204:264|205:184,1,120.000004577637,2|2,3:2|3:2,0:2:0:0:
149,127,105185,1,0,0:2:0:0:
149,127,105258,1,0,0:0:0:0:
149,127,105332,2,0,L|77:133,2,60.0000022888184,2|0|2,3:2|3:2|3:2,0:2:0:0:
221,72,105771,1,8,0:2:0:0:
221,72,105844,1,8,0:2:0:0:
221,72,105917,6,0,L|260:75,3,40,6|0|0|0,3:2|0:0|0:2|0:0,0:2:0:0:
330,119,106210,2,0,L|369:115,3,40,8|0|0|0,0:2|0:0|3:2|0:0,0:0:0:0:
457,87,106502,2,0,L|453:126,3,40,8|0|0|0,0:2|0:0|3:2|0:0,0:0:0:0:
403,192,106795,2,0,L|406:231,3,40,8|0|0|0,0:2|0:0|3:2|0:0,0:0:0:0:
473,363,107088,6,0,L|417:358,3,40,14|0|0|0,0:2|0:0|3:2|0:0,0:0:0:0:
362,323,107380,2,0,L|306:327,3,40,8|0|0|0,0:2|0:0|3:2|0:0,0:0:0:0:
250,371,107673,2,0,L|211:369,3,40,8|0|0|0,0:2|0:0|3:2|0:0,0:0:0:0:
160,307,107966,2,0,L|121:311,3,40,8|0|0|0,0:2|0:0|3:2|0:0,0:0:0:0:
63,205,108258,6,0,L|58:260,1,40,14|0,0:2|0:0,0:0:0:0:
112,136,108405,2,0,L|148:119,1,40,0|0,3:2|0:0,0:0:0:0:
32,128,108551,2,0,L|0:105,1,40,8|0,0:2|0:0,0:0:0:0:
59,244,108698,6,0,L|63:205,1,40,0|0,3:2|0:0,0:0:0:0:
148,119,108845,2,0,L|112:136,1,40,8|0,0:2|0:0,0:0:0:0:
0,105,108990,2,0,L|32:128,1,40,0|0,3:2|0:0,0:0:0:0:
166,226,109137,5,8,0:2:0:0:
189,225,109210,1,8,0:2:0:0:
212,226,109283,1,8,0:2:0:0:
235,226,109356,1,8,0:2:0:0:
258,226,109429,6,0,B|266:198|285:180|285:180|262:137|262:137|282:103|279:66,1,160,14|8,0:2|0:0,0:0:0:0:
379,256,109868,1,8,0:0:0:0:
356,251,109941,1,8,0:0:0:0:
333,245,110015,1,10,0:0:0:0:
199,90,110307,5,8,0:0:0:0:
193,70,110453,1,0,0:0:0:0:
142,156,110600,5,6,3:2:0:0:
280,168,110746,1,0,0:0:0:0:
336,57,110893,2,0,L|188:69,1,143.999995605469,8|0,0:2|0:0,0:2:0:0:
158,50,111185,2,0,L|269:40,1,95.9999970703126,2|0,3:2|3:2,0:0:0:0:
389,123,111478,1,10,0:2:0:0:
460,80,111624,6,0,B|435:116|435:116|446:237,1,143.999995605469,6|0,3:2|0:2,0:2:0:0:
423,238,111917,2,0,L|414:142,1,95.9999970703126,2|0,3:2|0:0,0:2:0:0:
327,245,112210,2,0,P|286:269|239:274,1,95.9999970703126,6|0,3:2|0:2,0:2:0:0:
94,246,112502,2,0,P|121:284|163:307,1,95.9999970703126,2|8,3:2|0:2,0:2:0:0:
269,90,112795,1,0,3:2:0:0:
348,112,112941,6,0,B|280:104|296:224|190:228,1,191.999994140625,6|10,3:2|0:2,0:2:0:0:
206,226,113380,1,0,0:2:0:0:
97,135,113527,2,0,P|144:128|190:139,1,95.9999970703126,2|0,0:2|3:2,0:2:0:0:
332,348,113819,1,10,0:2:0:0:
385,277,113966,6,0,P|315:265|256:303,1,143.999995605469,2|0,3:2|0:0,0:2:0:0:
245,345,114258,2,0,P|176:348|128:324,1,95.9999970703126,2|8,3:2|0:2,0:2:0:0:
4,271,114551,2,0,B|72:279|56:159|162:155,1,191.999994140625,2|0,3:2|3:2,0:2:0:0:
226,215,114990,1,10,0:2:0:0:
226,215,115137,1,0,3:2:0:0:
373,102,115283,6,0,P|332:140|252:54,1,191.999994140625,6|10,3:2|0:2,0:2:0:0:
248,65,115722,1,0,3:2:0:0:
441,50,115868,2,0,B|462:87|462:87|448:187,1,143.999995605469,6|0,3:2|0:0,0:2:0:0:
436,205,116161,1,8,0:2:0:0:
505,299,116307,6,0,B|416:276|417:353|306:303,1,191.999994140625,6|0,3:2|3:2,0:2:0:0:
234,257,116746,1,10,0:2:0:0:
234,257,116893,1,0,0:2:0:0:
139,353,117039,2,0,P|148:303|112:212,1,143.999995605469,2|0,3:2|0:0,0:2:0:0:
85,189,117332,2,0,L|188:179,1,95.9999970703126,10|0,0:2|3:2,0:2:0:0:
284,99,117624,5,6,3:2:0:0:
284,99,117771,1,0,3:2:0:0:
328,178,117917,1,10,0:2:0:0:
328,178,118063,1,0,3:2:0:0:
486,52,118210,2,0,L|358:40,1,95.9999970703126,10|8,0:2|0:2,0:0:0:0:
379,52,118429,1,8,0:2:0:0:
373,65,118502,1,8,0:2:0:0:
373,79,118576,1,8,0:2:0:0:
376,92,118649,5,6,3:2:0:0:
490,373,118941,5,6,3:2:0:0:
45,202,119234,5,6,3:2:0:0:
486,52,119527,6,0,L|414:45,1,60,6|0,3:2|0:0,0:0:0:0:
396,73,119819,6,0,P|329:149|210:128,1,191.999994140625,6|0,3:2|3:2,0:2:0:0:
149,96,120258,2,0,L|154:159,1,47.9999985351563,10|0,0:2|0:0,0:2:0:0:
131,84,120405,2,0,L|136:147,1,47.9999985351563,0|0,0:2|0:0,0:0:0:0:
36,149,120551,2,0,L|30:212,1,47.9999985351563,0|0,3:2|0:0,0:0:0:0:
177,311,120698,1,8,0:2:0:0:
197,283,120771,1,8,0:2:0:0:
187,248,120844,1,8,0:2:0:0:
159,228,120917,1,8,0:2:0:0:
124,230,120990,5,6,3:2:0:0:
336,369,121283,5,6,3:2:0:0:
507,17,121576,5,6,3:2:0:0:
87,52,121868,5,8,0:2:0:0:
87,52,121941,2,0,L|142:56,1,47.9999985351563,8|8,0:2|0:2,0:0:0:0:
192,114,122088,1,8,0:2:0:0:
211,113,122161,1,8,0:2:0:0:
229,110,122234,1,8,0:2:0:0:
248,109,122307,6,0,P|302:126|294:276,1,191.999994140625,6|10,3:2|0:2,0:2:0:0:
224,216,122746,1,0,0:2:0:0:
368,147,122893,2,0,B|428:154|411:235|486:236,1,143.999995605469,2|0,3:2|0:0,0:0:0:0:
497,224,123185,1,10,0:2:0:0:
419,338,123332,6,0,L|267:324,1,143.999995605469,2|0,3:2|0:2,0:2:0:0:
253,349,123624,2,0,L|372:359,1,95.9999970703126,2|8,3:2|0:2,0:2:0:0:
161,192,123917,2,0,P|129:237|222:221,1,191.999994140625,2|0,3:2|3:2,0:2:0:0:
319,237,124356,1,10,0:2:0:0:
319,237,124502,1,0,3:2:0:0:
161,192,124649,6,0,P|126:154|141:57,1,143.999995605469,6|0,3:2|0:0,0:2:0:0:
151,54,124941,2,0,L|246:45,1,95.9999970703126,10|0,0:2|0:2,0:0:0:0:
344,143,125234,2,0,P|322:99|414:76,1,143.999995605469,2|0,3:2|0:0,0:2:0:0:
406,70,125527,1,8,0:2:0:0:
479,206,125673,6,0,B|399:215|422:321|323:323,1,191.999994140625,6|0,3:2|3:2,0:2:0:0:
244,288,126112,2,0,L|239:335,2,47.9999985351563,10|0|0,0:2|0:0|0:2,0:2:0:0:
172,209,126405,2,0,P|129:263|45:266,1,143.999995605469,2|0,3:2|0:0,0:2:0:0:
29,252,126698,2,0,L|19:355,1,95.9999970703126,10|0,0:2|0:2,0:2:0:0:
172,209,126990,6,0,L|162:105,1,95.9999970703126,6|0,3:2|3:2,0:0:0:0:
69,4,127283,2,0,L|60:99,1,95.9999970703126,0|0,3:2|3:2,0:0:0:0:
254,81,127576,1,8,0:2:0:0:
158,27,127722,1,8,0:2:0:0:
88,180,127868,1,8,0:2:0:0:
252,67,128015,5,6,3:2:0:0:
167,374,128307,5,6,3:2:0:0:
495,190,128600,5,6,3:2:0:0:
27,65,128893,6,0,L|129:73,1,95.9999970703126,8|8,0:2|0:2,0:0:0:0:
6,79,129185,1,14,0:2:0:0:
256,192,129258,12,8,131527,0:2:0:0:
67,68,131673,6,0,P|134:60|118:159,1,191.999994140625,6|8,3:2|0:2,0:2:0:0:
22,243,132112,2,0,B|100:219|96:280|169:242,1,143.999995605469,2|0,3:2|0:2,0:2:0:0:
187,230,132405,2,0,L|196:333,1,95.9999970703126,2|8,3:2|0:2,0:2:0:0:
301,376,132698,6,0,P|317:322|451:307,1,191.999994140625,2|0,0:2|0:0,0:0:0:0:
436,296,133137,1,8,0:2:0:0:
493,195,133283,2,0,B|461:211|461:211|301:179,1,191.999994140625,2|0,0:2|0:2,0:2:0:0:
307,180,133722,1,8,0:2:0:0:
384,103,133868,1,8,0:2:0:0:
283,17,134015,6,0,L|227:21,1,47.9999985351563,6|0,3:2|0:0,0:2:0:0:
156,68,134161,2,0,B|143:97|99:115|99:115|76:194|131:323,2,287.999991210938,0|2|0,0:2|3:2|0:2,0:0:0:0:
194,181,135185,6,0,P|245:203|299:92,1,191.999994140625,2|8,3:2|0:2,0:0:0:0:
416,61,135624,2,0,P|400:105|406:153,1,95.9999970703126,2|0,3:2|0:0,0:2:0:0:
474,255,135917,1,8,0:2:0:0:
465,336,136063,1,8,3:2:0:0:
388,372,136210,2,0,L|330:377,1,47.9999985351563,8|8,0:2|0:2,0:0:0:0:
253,299,136356,6,0,P|176:276|92:343,1,191.999994140625,6|8,3:2|0:2,0:2:0:0:
9,254,136795,2,0,P|52:225|21:102,1,191.999994140625,2|0,0:2|0:2,0:2:0:0:
26,104,137234,1,8,0:2:0:0:
90,38,137380,1,0,0:2:0:0:
178,127,137527,6,0,B|216:142|216:142|324:122,1,143.999995605469,6|0,3:2|0:0,0:2:0:0:
336,113,137819,1,8,0:2:0:0:
461,132,137966,2,0,P|432:174|441:240,1,95.9999970703126,2|0,3:2|0:0,0:2:0:0:
497,322,138258,1,0,0:2:0:0:
497,322,138405,1,8,0:2:0:0:
422,375,138551,1,8,0:2:0:0:
314,340,138698,6,0,L|308:276,1,47.9999985351563,2|0,3:2|0:0,0:2:0:0:
227,250,138844,2,0,B|240:216|240:216|219:-14,2,239.999992675781,0|0|2,0:2|0:0|3:2,0:0:0:0:
140,185,139722,5,0,0:2:0:0:
140,185,139795,1,8,0:2:0:0:
140,185,139868,1,8,0:2:0:0:
85,251,140015,1,8,0:2:0:0:
134,319,140161,1,8,0:2:0:0:
227,250,140307,2,0,L|282:254,5,47.9999985351563,8|8|8|8|8|8,0:2|0:2|0:2|0:2|0:2|0:2,0:0:0:0:
291,275,140746,1,8,0:2:0:0:
378,234,140893,1,8,0:2:0:0:
470,302,141039,6,0,P|455:219|471:137,1,167.999994873047,6|0,3:2|0:2,0:2:0:0:
489,120,141332,1,10,0:2:0:0:
427,32,141478,2,0,P|384:83|242:66,1,167.999994873047,0|0,0:2|0:0,0:0:0:0:
255,64,141771,2,0,P|160:70|142:93,1,111.999996582031,0|8,0:2|0:2,0:0:0:0:
65,232,142063,1,0,0:2:0:0:
45,152,142210,6,0,L|156:161,1,111.999996582031,8|0,0:2|0:2,0:2:0:0:
273,296,142502,1,8,0:2:0:0:
327,230,142649,2,0,P|248:211|192:268,1,167.999994873047,6|0,3:2|0:0,0:2:0:0:
189,304,142941,2,0,L|69:314,1,111.999996582031,0|8,0:2|0:2,0:0:0:0:
260,375,143234,6,0,L|387:386,1,111.999996582031,0|6,3:2|3:2,0:0:0:0:
462,205,143527,2,0,P|413:244|427:317,1,111.999996582031,0|8,0:2|0:2,0:0:0:0:
317,155,143819,2,0,P|312:84|271:48,1,111.999996582031,0|8,0:2|0:2,0:0:0:0:
150,132,144112,2,0,P|182:118|224:117,1,55.9999982910157,0|0,0:2|0:0,0:0:0:0:
232,132,144258,2,0,P|177:135|157:280,1,223.999993164063,8|6,0:2|3:2,0:0:0:0:
335,238,144698,6,0,L|255:244,1,55.9999982910157,0|8,0:2|0:2,0:0:0:0:
257,263,144844,2,0,L|312:258,1,55.9999982910157,8|0,0:2|0:0,0:2:0:0:
439,338,144990,2,0,P|366:325|303:360,1,111.999996582031,0|0,0:2|3:2,0:0:0:0:
176,378,145283,1,8,0:2:0:0:
246,323,145429,2,0,L|251:259,3,55.9999982910157,8|8|8|8,0:2|0:2|0:2|0:2,0:0:0:0:
224,237,145722,6,0,P|201:156|281:91,1,167.999994873047,6|0,3:2|0:2,0:2:0:0:
280,84,146015,2,0,L|224:79,1,55.9999982910157,2|0,0:2|0:0,0:0:0:0:
51,115,146161,6,0,P|110:162|67:280,1,167.999994873047,6|0,3:2|0:2,0:2:0:0:
87,263,146454,1,2,0:2:0:0:
158,335,146600,2,0,L|221:340,1,55.9999982910157,6|0,3:2|0:0,0:2:0:0:
181,319,146746,2,0,L|237:324,1,55.9999982910157,0|0,0:2|0:0,0:0:0:0:
350,334,146893,6,0,P|392:286|319:170,1,167.999994873047,6|0,3:2|0:2,0:2:0:0:
331,170,147185,2,0,L|410:163,1,55.9999982910157,2|0,0:2|0:0,0:0:0:0:
467,71,147332,2,0,B|387:45|391:104|296:71,1,167.999994873047,6|0,0:2|0:2,0:2:0:0:
269,53,147624,2,0,L|258:172,1,111.999996582031,2|0,0:2|0:2,0:2:0:0:
468,356,147917,6,0,B|364:314|366:413|236:348,1,223.999993164063,2|2,0:2|0:2,0:2:0:0:
461,137,148356,1,2,0:2:0:0:
461,137,148502,6,0,B|458:228|415:285|364:317|252:355|252:355|348:273|385:189|384:142|384:142|381:108|396:86|416:59|416:59|338:54|310:95|310:95|154:38|54:79|54:79|110:107|138:230|275:195,1,1320.00005035401,6|14,0:2|0:2,0:0:0:0:
272,195,150258,1,14,0:2:0:0:
466,112,150405,6,0,B|419:125|388:157|388:157|316:118|316:118|259:152|197:147,1,287.999991210938,6|0,3:2|0:2,0:2:0:0:
85,82,150990,1,0,3:2:0:0:
110,75,151137,1,0,3:2:0:0:
206,148,151283,1,0,3:2:0:0:
178,142,151429,6,0,L|168:245,1,95.9999970703126,2|0,0:2|0:2,0:2:0:0:
78,337,151722,2,0,L|69:241,1,95.9999970703126,2|0,0:2|0:2,0:2:0:0:
252,304,152015,2,0,B|296:309|330:292|330:292|349:319|349:319|390:294|444:301,1,191.999994140625,2|0,0:2|0:0,0:2:0:0:
472,167,152454,1,8,0:2:0:0:
485,195,152600,2,0,L|421:189,1,47.9999985351563,2|0,0:2|0:2,0:2:0:0:
340,108,152746,5,2,3:2:0:0:
321,181,152893,1,2,0:2:0:0:
259,282,153039,1,2,3:2:0:0:
232,211,153185,1,2,0:2:0:0:
121,136,153332,5,2,3:2:0:0:
197,141,153478,1,2,0:2:0:0:
397,176,153624,1,10,0:2:0:0:
321,181,153770,1,2,0:2:0:0:
264,12,153917,6,0,L|273:115,1,95.9999970703126,2|0,0:2|0:2,0:2:0:0:
193,253,154210,2,0,P|240:253|286:267,1,95.9999970703126,2|0,3:2|0:2,0:2:0:0:
369,237,154429,1,8,0:2:0:0:
369,237,154502,2,0,P|416:236|462:222,2,95.9999970703126,8|8|2,0:2|0:2|3:2,0:2:0:0:
218,164,154941,5,2,3:2:0:0:
218,164,155015,1,2,3:2:0:0:
218,164,155088,2,0,L|154:169,3,47.9999985351563,2|2|2|2,3:2|3:2|3:2|3:2,0:0:0:0:
113,221,155380,2,0,L|49:215,3,47.9999985351563,2|2|2|2,3:2|3:2|3:2|3:2,3:2:0:0:
0,300,155673,6,0,L|63:294,3,47.9999985351563,2|2|2|2,3:2|3:2|3:2|3:2,0:0:0:0:
107,360,155966,2,0,L|226:370,1,95.9999970703126,2|2,3:2|3:2,0:0:0:0:
351,319,156258,5,2,3:2:0:0:
265,300,156405,1,2,3:2:0:0:
265,300,156478,1,2,3:2:0:0:
265,300,156551,2,0,P|241:247|252:188,1,95.9999970703126,2|2,3:2|3:2,3:2:0:0:
353,107,156844,2,0,B|321:115|300:137|300:137|251:111|251:111|213:134|171:130,1,191.999994140625,2|0,3:2|3:2,0:0:0:0:
180,131,157283,1,0,0:2:0:0:
117,47,157429,5,10,0:2:0:0:
109,69,157576,1,0,0:2:0:0:
102,192,157722,1,8,0:2:0:0:
94,170,157869,1,0,3:2:0:0:
214,70,158015,1,0,3:2:0:0:
196,85,158162,1,0,3:2:0:0:
216,205,158307,1,8,0:2:0:0:
198,189,158454,1,0,3:2:0:0:
288,143,158600,6,0,L|391:152,1,95.9999970703126,2|0,0:2|3:2,0:2:0:0:
448,233,158893,1,0,3:2:0:0:
388,167,159039,2,0,L|292:158,1,95.9999970703126,2|0,0:2|3:2,0:2:0:0:
146,227,159332,6,0,P|206:260|198:328,1,120,2|0,0:2|0:2,0:2:0:0:
192,347,159624,6,0,B|181:310|156:286|156:286|187:230|187:230|160:185|164:137,1,191.999994140625,6|0,3:2|3:2,0:2:0:0:
209,87,160063,2,0,P|256:85|304:92,1,95.9999970703126,8|0,0:2|0:2,0:0:0:0:
128,20,160356,1,8,0:2:0:0:
98,29,160502,1,8,0:2:0:0:
12,118,160649,1,8,0:2:0:0:
42,109,160795,1,6,3:2:0:0:
171,226,160941,6,0,P|190:167|161:113,1,128,0|6,0:0|3:2,0:0:0:0:
154,240,161234,1,0,0:0:0:0:
243,333,161380,1,6,3:2:0:0:
249,311,161527,1,0,0:0:0:0:
381,188,161673,1,10,0:2:0:0:
421,264,161819,2,0,L|409:342,1,64,10|8,0:2|0:2,0:2:0:0:
330,367,161966,1,8,0:2:0:0:
330,367,162039,1,8,0:2:0:0:
329,366,162112,6,0,P|280:300|281:218,1,167.999994873047,6|0,3:2|0:2,0:2:0:0:
298,184,162405,2,0,P|261:235|180:234,1,111.999996582031,8|0,0:2|3:2,0:2:0:0:
71,175,162698,1,0,3:2:0:0:
106,170,162844,1,0,3:2:0:0:
215,245,162990,1,8,0:2:0:0:
184,242,163137,1,0,3:2:0:0:
163,82,163283,5,2,3:2:0:0:
187,160,163429,1,2,0:2:0:0:
82,248,163576,1,8,0:2:0:0:
106,170,163722,2,0,B|160:186|160:186|196:223|196:223|278:177|278:177|345:217|345:217|415:211,1,335.999989746094,2|8,3:2|0:2,0:2:0:0:
483,87,164307,6,0,P|431:61|359:61,1,111.999996582031,2|2,0:2|3:2,0:0:0:0:
283,117,164600,1,0,0:2:0:0:
283,117,164673,1,8,0:2:0:0:
283,117,164746,2,0,L|227:112,1,55.9999982910157,8|0,0:2|0:0,0:2:0:0:
103,59,164893,2,0,L|158:63,1,55.9999982910157,0|8,0:2|0:2,0:0:0:0:
200,190,165039,5,8,0:2:0:0:
186,264,165185,1,8,0:2:0:0:
124,357,165332,1,10,0:2:0:0:
105,280,165478,1,6,3:2:0:0:
259,315,165624,5,0,3:0:0:0:
331,344,165771,1,8,0:2:0:0:
422,244,165917,1,2,0:2:0:0:
345,261,166064,1,2,0:2:0:0:
192,367,166210,6,0,B|176:333|125:312|125:312|99:220|162:70,1,335.999989746094,2|0,0:2|0:2,0:0:0:0:
315,13,166795,5,8,0:2:0:0:
306,20,166868,1,8,0:2:0:0:
300,29,166941,2,0,L|305:92,1,55.9999982910157,8|8,0:2|0:2,0:0:0:0:
389,195,167088,6,8,L|393:139,1,55.9999982910157,8|8,0:2|0:2,0:0:0:0:
403,181,167234,2,8,L|408:126,1,55.9999982910157,8|8,0:2|0:2,0:0:0:0:
300,246,167380,2,8,L|295:190,1,55.9999982910157,8|8,0:2|0:2,0:0:0:0:
285,232,167526,2,8,L|280:176,1,55.9999982910157,8|8,0:2|0:2,0:2:0:0:
391,297,167673,2,8,P|423:298|459:308,1,55.9999982910157,8|8,0:2|0:2,0:2:0:0:
462,345,167819,6,0,B|413:315|341:340|341:340|288:352|243:318,1,223.999993164063,14|0,0:2|0:0,0:2:0:0:
483,30,178356,5,2,0:2:0:0:
479,45,178649,5,2,0:2:0:0:
475,60,178941,5,2,0:2:0:0:
422,128,179234,5,10,0:2:0:0:
422,128,179307,2,0,L|424:151,1,13.9999995727539,0|8,3:2|0:2,0:0:0:0:
512,295,179527,6,0,B|421:258|422:344|309:288,1,200,6|0,3:2|3:0,0:2:0:0:
155,243,179966,1,8,0:2:0:0:
155,243,180112,1,0,0:2:0:0:
230,199,180258,2,0,B|245:217|245:217|236:302,1,100,2|0,3:2|3:2,0:0:0:0:
231,300,180478,1,10,0:0:0:0:
223,307,180551,1,10,0:2:0:0:
215,313,180624,1,10,0:0:0:0:
208,320,180698,5,6,3:2:0:0:
30,52,180990,5,6,3:2:0:0:
470,115,181283,5,6,3:2:0:0:
291,370,181576,5,8,0:0:0:0:
291,370,181649,2,0,L|227:364,1,50,8|8,0:0|0:0,0:0:0:0:
168,308,181795,1,8,0:0:0:0:
148,309,181868,1,8,3:2:0:0:
128,311,181941,1,8,0:0:0:0:
107,313,182015,6,0,P|66:233|78:133,1,150,6|0,3:2|0:2,0:2:0:0:
78,158,182307,1,10,0:2:0:0:
172,188,182454,1,0,0:2:0:0:
274,79,182600,2,0,L|114:92,1,150,2|0,0:2|0:0,0:2:0:0:
102,76,182893,1,10,0:2:0:0:
289,90,183039,6,0,P|301:154|271:221,1,100,2|0,3:2|0:2,0:2:0:0:
151,308,183332,2,0,P|200:265|273:258,1,100,2|8,3:2|0:2,0:2:0:0:
408,318,183624,2,0,P|346:296|303:236,2,100,2|0|0,3:2|0:0|3:2,0:2:0:0:
479,135,184063,1,10,0:2:0:0:
479,135,184210,1,0,3:2:0:0:
418,199,184356,6,0,B|327:235|328:149|215:205,1,200,6|10,3:2|0:2,0:2:0:0:
225,201,184795,1,0,3:2:0:0:
138,301,184941,2,0,B|153:263|153:263|131:119,1,150,6|0,3:2|0:0,0:2:0:0:
120,142,185234,1,8,0:2:0:0:
53,30,185380,6,0,B|143:-6|142:79|255:23,1,200,6|0,3:2|3:2,0:2:0:0:
378,148,185819,1,10,0:2:0:0:
378,148,185966,1,0,0:2:0:0:
434,68,186112,2,0,P|352:57|292:114,1,150,2|0,3:2|0:0,0:2:0:0:
289,133,186405,2,0,P|244:155|195:152,1,100,10|0,0:2|3:2,0:2:0:0:
56,78,186698,6,0,B|75:114|75:114|62:232,1,150,6|0,3:2|0:0,0:0:0:0:
44,243,186990,2,0,L|53:354,1,100,10|0,0:2|3:2,0:0:0:0:
208,375,187283,1,10,0:2:0:0:
218,295,187429,1,8,0:2:0:0:
228,215,187576,1,8,0:2:0:0:
238,135,187722,5,6,3:2:0:0:
500,273,188015,5,6,3:2:0:0:
60,350,188307,5,6,3:2:0:0:
256,6,188600,5,6,3:2:0:0:
330,76,188746,5,0,3:0:0:0:
330,76,188819,1,0,3:0:0:0:
330,76,188893,2,0,B|247:90|257:190|152:202,1,216.000000823975,6|0,3:2|3:2,0:2:0:0:
187,97,189332,2,0,B|250:107|243:184|324:194,1,162.000000617981,10|0,0:2|0:0,0:2:0:0:
349,181,189624,2,0,L|358:288,1,108.000000411987,0|8,3:2|0:2,0:0:0:0:
370,302,189844,1,8,0:2:0:0:
382,316,189917,1,8,0:2:0:0:
395,330,189990,1,8,0:2:0:0:
406,344,190063,5,6,3:2:0:0:
12,194,190356,5,6,3:2:0:0:
464,70,190649,5,6,3:2:0:0:
70,4,190941,5,8,0:2:0:0:
68,20,191015,1,8,0:2:0:0:
65,36,191088,2,0,L|60:91,1,54.0000002059937,8|8,0:2|0:2,0:0:0:0:
127,142,191234,1,8,0:2:0:0:
129,158,191308,1,8,0:2:0:0:
132,174,191380,6,0,B|201:158|204:248|274:253,1,162.000000617981,6|0,3:2|0:0,0:2:0:0:
289,243,191673,1,10,0:2:0:0:
366,327,191819,1,0,0:2:0:0:
482,250,191966,2,0,P|434:228|382:240,1,108.000000411987,2|0,3:2|3:2,0:0:0:0:
246,365,192258,1,10,0:2:0:0:
154,338,192405,6,0,B|171:306|171:306|153:125,1,216.000000823975,2|2,3:2|3:2,0:2:0:0:
153,127,192844,1,8,0:2:0:0:
44,33,192990,2,0,B|154:-1|147:89|277:30,1,216.000000823975,2|0,3:2|3:2,0:2:0:0:
335,119,193429,1,10,0:2:0:0:
335,119,193576,1,0,3:2:0:0:
458,12,193722,6,0,B|441:44|441:44|459:225,1,216.000000823975,6|10,3:2|0:2,0:2:0:0:
458,222,194161,1,0,0:2:0:0:
316,311,194307,6,0,P|391:285|349:370,1,216.000000823975,2|8,3:2|0:2,0:2:0:0:
225,210,194746,6,0,P|121:212|66:301,1,216.000000823975,6|0,3:2|3:2,0:2:0:0:
189,329,195185,1,10,0:2:0:0:
189,329,195332,1,0,0:2:0:0:
241,206,195478,6,0,P|241:140|186:67,1,108.000000411987,2|0,3:2|3:2,0:2:0:0:
39,62,195771,2,0,P|92:69|137:98,1,108.000000411987,2|0,0:2|0:2,0:2:0:0:
321,303,196063,6,0,L|331:183,1,108.000000411987,6|0,3:2|3:2,0:0:0:0:
378,17,196356,2,0,L|387:124,1,108.000000411987,0|0,3:2|0:2,0:0:0:0:
237,194,196649,1,8,0:2:0:0:
300,85,196795,1,8,0:2:0:0:
428,192,196941,1,8,0:2:0:0:
226,177,197088,5,6,3:2:0:0:
436,376,197380,5,6,3:2:0:0:
495,33,197673,5,6,3:2:0:0:
122,199,197966,5,8,0:2:0:0:
122,199,198112,2,0,L|126:145,1,54.0000002059937,8|8,0:2|0:2,0:0:0:0:
54,73,198258,5,6,3:2:0:0:
509,191,198551,5,6,3:2:0:0:
225,16,198844,5,6,3:2:0:0:
88,352,199137,5,6,3:2:0:0:
88,352,199283,2,0,L|143:347,3,54.0000002059937,8|8|8|8,0:0|0:0|0:0|0:0,0:0:0:0:
256,192,199576,12,2,200600,0:0:0:0:
320,246,200746,5,14,0:0:0:0:
