osu file format v14

[General]
AudioFilename: audio.mp3
AudioLeadIn: 0
PreviewTime: 179127
Countdown: 0
SampleSet: Soft
StackLeniency: 0.7
Mode: 0
LetterboxInBreaks: 0
WidescreenStoryboard: 0

[Editor]
DistanceSpacing: 1
BeatDivisor: 4
GridSize: 8
TimelineZoom: 2.2

[Metadata]
Title:Sarumane Isutori Game
TitleUnicode:猿マネ椅子盗りゲーム
Artist:D-ne (CV: Aizawa Mai)
ArtistUnicode:D音(CV: 相沢舞)
Creator:Nevo
Version:Demise
Source:終焉ノ栞プロジェクト
Tags:vocaloid IA cover Shuuen no Shiori dne 終焉-Re.act- bookmark demise project 150p japanese rock Aimless Imitation Chair Stealing Game aakki nymphe amb1d3x Hishiro Chizuru Vilippu Evil [-Evil-] kiyoshi guarden
BeatmapID:2280371
BeatmapSetID:1090804

[Difficulty]
HPDrainRate:6
CircleSize:4
OverallDifficulty:9
ApproachRate:9.3
SliderMultiplier:1.7
SliderTickRate:1

[Events]
//Background and Video events
0,0,"POG_PT_2.jpg",0,0
Video,-665,"This Is A Video.mp4"
//Break Periods
2,73337,81948
2,170507,177802
//Storyboard Layer 0 (Background)
//Storyboard Layer 1 (Fail)
//Storyboard Layer 2 (Pass)
//Storyboard Layer 3 (Foreground)
//Storyboard Layer 4 (Overlay)
//Storyboard Sound Samples

[TimingPoints]
12259,292.682926829268,4,2,1,80,1,0
26307,-100,4,2,1,70,0,0
45039,-133.333333333333,4,2,1,60,0,0
49722,-100,4,2,1,75,0,0
54405,-83.3333333333333,4,2,1,90,0,1
73137,-83.3333333333333,4,2,1,80,0,0
82502,-181.818181818181,4,2,1,60,0,0
83380,-133.333333333333,4,2,1,60,0,0
91868,-100,4,2,1,70,0,0
101234,-133.333333333333,4,2,1,60,0,0
105917,-100,4,2,1,75,0,0
110600,-83.3333333333333,4,2,1,90,0,1
129185,-83.3333333333333,4,2,1,80,0,0
130063,-83.3333333333333,4,2,1,50,0,0
130941,-83.3333333333333,4,2,1,60,0,0
131673,-83.3333333333333,4,2,1,70,0,0
141039,-71.4285714285714,4,2,1,80,0,1
149234,-71.4285714285714,4,2,1,80,0,0
150405,-83.3333333333333,4,2,1,90,0,1
159332,-100,4,2,1,90,0,1
159624,-83.3333333333333,4,2,1,90,0,1
160795,-62.5,4,2,1,90,0,1
162112,-71.4285714285714,4,2,1,90,0,1
167819,-285.714285714284,4,2,1,80,0,0
170307,-285.714285714284,4,2,1,50,0,0
178502,-285.714285714284,4,2,1,5,0,0
178649,-285.714285714284,4,2,1,50,0,0
178795,-285.714285714284,4,2,1,5,0,0
178942,-285.714285714284,4,2,1,50,0,0
179088,-285.714285714284,4,2,1,5,0,0
179235,-285.714285714284,4,2,1,50,0,0
179527,-79.9999999999999,4,2,1,90,0,1
188893,-74.0740740740741,4,2,1,90,0,1
199576,-181.818181818181,4,2,1,80,0,1
200746,-181.818181818181,4,2,1,70,0,0

[Colours]
Combo1 : 117,117,117
Combo2 : 254,207,22
Combo3 : 167,18,18
Combo4 : 88,19,183

[HitObjects]
83,148,15771,5,6,0:2:0:0:
106,235,16063,1,6,0:2:0:0:
130,321,16356,1,14,0:2:0:0:
149,330,16429,1,8,0:2:0:0:
169,334,16502,1,8,0:2:0:0:
191,333,16575,1,8,0:2:0:0:
211,328,16648,1,8,0:2:0:0:
328,249,16795,1,8,0:2:0:0:
328,249,16868,1,8,0:2:0:0:
328,249,16941,6,0,L|317:339,1,85,6|0,3:2|0:2,0:2:0:0:
281,160,17234,1,8,0:2:0:0:
416,300,17380,2,0,L|405:390,1,85,2|0,3:2|0:2,0:2:0:0:
431,205,17673,1,0,3:2:0:0:
224,247,17819,1,8,0:2:0:0:
372,124,17966,6,0,P|372:62|352:31,1,85,2|0,3:2|3:2,0:2:0:0:
140,20,18259,1,0,3:2:0:0:
261,105,18405,1,8,0:2:0:0:
32,151,18551,1,0,3:2:0:0:
224,247,18698,2,0,P|236:284|235:331,1,85,2|0,3:2|3:2,0:2:0:0:
110,208,18990,2,0,L|121:123,1,85,10|8,0:2|0:2,0:2:0:0:
336,213,19283,6,0,B|381:227|381:227|427:211,1,85,2|0,3:2|0:2,0:2:0:0:
261,105,19576,1,8,0:2:0:0:
467,134,19722,2,0,L|448:322,1,170,2|0,3:2|3:2,0:2:0:0:
355,366,20161,1,8,0:2:0:0:
117,295,20307,6,0,L|11:305,1,85,2|0,3:2|3:2,0:2:0:0:
198,223,20600,1,0,3:2:0:0:
172,384,20746,1,8,0:2:0:0:
204,207,20893,1,0,3:2:0:0:
355,366,21039,1,0,3:2:0:0:
321,165,21185,1,0,3:2:0:0:
321,165,21259,1,0,3:2:0:0:
321,165,21332,1,8,0:2:0:0:
257,289,21478,1,8,0:2:0:0:
110,176,21624,6,0,B|81:106|118:48|118:48|142:84,1,170,6|8,3:2|0:2,0:2:0:0:
137,273,22063,2,0,P|83:273|33:247,1,85,2|0,3:2|0:2,0:2:0:0:
210,194,22356,1,0,3:2:0:0:
32,267,22502,1,8,0:2:0:0:
244,373,22649,2,0,L|256:288,1,85,2|0,3:2|3:2,0:2:0:0:
369,91,22941,5,0,3:2:0:0:
411,260,23088,1,8,0:2:0:0:
473,89,23234,1,0,3:2:0:0:
307,162,23380,2,0,P|249:160|219:147,1,85,2|0,3:2|3:2,0:2:0:0:
110,39,23673,2,0,L|122:132,1,85,8|8,0:2|0:2,0:2:0:0:
314,338,23966,6,0,L|326:245,1,85,6|0,3:2|0:2,0:2:0:0:
282,61,24258,1,8,0:2:0:0:
431,178,24405,1,0,3:2:0:0:
177,226,24551,1,0,0:2:0:0:
443,194,24697,1,0,3:2:0:0:
180,92,24844,1,8,0:2:0:0:
402,14,24990,6,0,P|461:30|486:43,1,85,2|0,3:2|3:2,0:2:0:0:
177,226,25283,1,0,3:2:0:0:
282,61,25429,2,0,L|299:166,1,85,14|0,0:2|0:2,0:2:0:0:
339,320,25722,1,8,0:2:0:0:
404,119,25868,1,8,0:2:0:0:
404,119,25941,1,8,0:2:0:0:
404,119,26015,1,8,0:2:0:0:
269,249,26161,1,8,0:2:0:0:
269,249,26234,1,8,0:2:0:0:
269,249,26307,6,0,B|233:273|184:251|184:251|138:235|84:262,1,170,6|8,3:2|0:2,0:2:0:0:
14,307,26746,1,0,3:2:0:0:
31,201,26893,2,0,P|30:149|22:108,1,85,2|0,0:2|3:2,0:2:0:0:
118,55,27185,2,0,P|119:107|127:148,1,85,10|0,0:2|0:2,0:2:0:0:
189,286,27478,5,2,3:2:0:0:
269,249,27624,2,0,L|353:255,1,85,2|8,3:2|0:2,0:2:0:0:
214,155,27917,2,0,L|298:161,1,85,2|0,3:2|0:2,0:2:0:0:
458,87,28210,1,0,3:2:0:0:
369,55,28356,1,8,0:2:0:0:
470,105,28502,1,8,0:2:0:0:
390,204,28649,6,0,P|382:255|392:313,1,85,2|0,3:2|0:2,0:2:0:0:
460,376,28941,1,8,0:2:0:0:
492,299,29088,1,0,3:2:0:0:
294,275,29234,2,0,P|302:316|320:354,1,85,2|0,0:2|3:2,0:2:0:0:
218,218,29527,1,8,0:2:0:0:
169,384,29673,6,0,P|187:345|195:304,1,85,2|0,3:2|3:2,0:2:0:0:
22,351,29966,2,0,P|62:337|98:314,1,85,2|8,3:2|0:2,0:2:0:0:
22,154,30258,2,0,B|8:190|8:190|18:242,1,85,2|0,3:2|0:2,0:2:0:0:
161,98,30551,2,0,B|175:134|175:134|165:186,1,85,2|8,3:2|0:2,0:2:0:0:
21,68,30844,6,0,P|79:39|109:40,1,85,2|0,3:2|3:2,0:2:0:0:
201,24,31137,1,2,0:2:0:0:
277,102,31284,5,10,0:2:0:0:
294,97,31430,1,2,3:2:0:0:
370,31,31576,5,2,0:2:0:0:
387,36,31722,1,2,3:2:0:0:
463,102,31869,5,10,0:2:0:0:
480,97,32015,1,2,0:2:0:0:
405,232,32161,6,0,P|383:162|382:135,1,85,2|0,3:2|3:2,0:2:0:0:
503,274,32454,2,0,P|496:315|480:355,1,85,8|0,0:2|3:2,0:2:0:0:
213,320,32746,2,0,B|262:302|298:317|298:317|340:333|386:317,1,170,2|8,3:2|0:2,0:2:0:0:
247,224,33185,1,8,0:2:0:0:
140,375,33332,6,0,L|39:363,1,85,2|0,3:2|0:2,0:2:0:0:
59,216,33624,2,0,P|97:255|115:311,1,85,10|0,0:2|3:2,0:2:0:0:
8,144,33917,2,0,P|48:131|90:133,1,85,2|0,3:2|0:2,0:2:0:0:
227,163,34210,1,8,0:2:0:0:
154,27,34356,6,0,B|131:73|131:73|151:201,1,170,2|0,3:2|3:2,0:2:0:0:
271,286,34795,2,0,P|289:234|325:194,1,85,8|0,0:2|0:2,0:2:0:0:
167,346,35088,2,0,P|149:294|113:254,1,85,2|0,3:2|3:2,0:2:0:0:
131,270,35307,1,0,3:2:0:0:
131,270,35380,1,8,0:2:0:0:
281,384,35527,1,0,0:2:0:0:
385,233,35673,6,0,B|415:212|415:212|444:230|444:230|504:225|518:170,1,170,6|8,3:2|0:2,0:2:0:0:
368,0,36112,2,0,P|367:38|386:96,1,85,2|0,3:2|0:2,0:2:0:0:
446,135,36405,1,0,3:2:0:0:
297,225,36551,2,0,P|308:184|308:141,1,85,8|0,0:2|0:2,0:2:0:0:
108,275,36844,6,0,L|205:283,1,85,2|0,3:2|3:2,0:2:0:0:
15,113,37137,2,2,L|112:105,1,85,10|2,0:2|3:2,0:2:0:0:
155,359,37429,2,0,L|252:367,1,85,2|0,3:2|3:2,0:2:0:0:
29,303,37722,1,8,0:2:0:0:
210,255,37868,1,8,0:2:0:0:
99,106,38015,6,0,B|83:132|83:132|99:201,1,85,2|0,3:2|0:2,0:2:0:0:
290,58,38307,1,8,0:2:0:0:
155,39,38454,1,0,3:2:0:0:
357,133,38600,1,0,0:2:0:0:
207,102,38746,1,0,3:2:0:0:
436,88,38893,1,8,0:2:0:0:
267,190,39039,6,0,P|266:252|290:295,1,85,2|0,0:2|3:2,0:2:0:0:
440,270,39332,2,0,P|410:300|372:317,1,85,2|8,0:2|0:2,0:2:0:0:
155,375,39624,2,0,L|70:365,1,85,2|0,0:2|0:2,0:2:0:0:
267,190,39917,2,0,L|351:180,1,85,2|8,0:2|0:2,0:2:0:0:
145,117,40210,6,0,B|115:172|115:172|132:282,1,170,2|0,3:2|0:2,0:2:0:0:
240,363,40649,5,10,0:2:0:0:
259,358,40795,1,2,3:2:0:0:
337,301,40941,5,2,0:2:0:0:
356,306,41087,1,2,3:2:0:0:
434,363,41234,5,10,0:2:0:0:
453,358,41380,1,2,3:2:0:0:
326,213,41527,6,0,P|283:230|257:263,1,85,2|0,3:2|3:2,0:2:0:0:
303,127,41819,2,0,P|344:124|383:141,1,85,10|0,0:2|3:2,0:2:0:0:
477,258,42112,2,0,L|466:154,1,85,2|0,0:2|3:2,0:2:0:0:
420,32,42405,1,8,0:2:0:0:
491,81,42551,1,8,0:2:0:0:
303,127,42698,6,0,B|210:110|210:110|173:130,1,127.5,2|0,3:2|0:2,0:2:0:0:
121,183,42990,2,0,P|133:119|121:83,1,85,8|0,0:2|3:2,0:2:0:0:
0,226,43283,2,0,L|12:326,1,85,2|0,0:2|3:2,0:2:0:0:
218,204,43576,1,8,0:2:0:0:
37,138,43722,6,0,L|47:53,1,85,2|0,3:2|3:2,0:2:0:0:
121,183,44015,1,0,3:2:0:0:
39,25,44161,1,8,0:2:0:0:
0,226,44307,1,0,3:2:0:0:
135,93,44453,1,0,3:2:0:0:
284,302,44600,1,8,0:2:0:0:
284,302,44673,1,8,0:2:0:0:
284,302,44746,1,8,0:2:0:0:
241,163,44893,1,8,3:0:0:0:
28,341,45039,6,0,P|87:296|207:338,1,191.250007295609,6|0,3:2|0:2,0:2:0:0:
276,351,45624,2,0,P|327:355|381:323,1,95.6250036478044,2|0,3:2|0:2,0:2:0:0:
362,325,45917,2,0,P|318:343|271:339,1,95.6250036478044,2|0,3:2|0:2,0:2:0:0:
244,257,46210,6,0,B|235:225|235:225|252:200|252:200|208:138|252:65,1,191.250007295609,2|0,3:2|0:2,0:2:0:0:
324,135,46795,6,0,L|419:125,1,95.6250036478044,2|0,0:2|0:2,0:2:0:0:
423,142,47088,2,0,L|327:151,1,95.6250036478044,2|0,3:2|0:2,0:2:0:0:
251,201,47380,6,0,P|176:185|106:192,1,127.500004863739,2|0,3:2|3:2,0:2:0:0:
322,291,47819,1,2,0:2:0:0:
322,291,47966,2,0,P|390:256|459:244,1,127.500004863739,2|0,3:2|3:2,0:2:0:0:
222,359,48405,1,2,0:2:0:0:
222,359,48552,2,0,P|185:319|156:303,1,63.7500024318696,2|0,3:2|0:2,0:2:0:0:
83,330,48844,2,0,P|85:275|75:243,1,63.7500024318696,2|0,3:2|0:2,0:2:0:0:
0,202,49137,2,0,P|40:165|56:136,1,63.7500024318696,2|0,3:2|3:2,0:2:0:0:
116,74,49429,2,0,L|131:146,1,63.7500024318696,2|8,3:2|0:2,0:2:0:0:
191,193,49649,1,8,0:2:0:0:
191,193,49722,6,0,L|178:291,1,85,6|0,3:2|0:2,0:2:0:0:
253,112,50015,5,8,0:2:0:0:
365,261,50161,1,0,3:2:0:0:
395,49,50307,5,8,0:2:0:0:
269,225,50454,1,0,3:2:0:0:
256,7,50600,5,8,0:2:0:0:
377,154,50746,1,0,3:2:0:0:
72,183,50893,5,14,0:2:0:0:
365,261,51039,1,0,3:2:0:0:
96,279,51185,5,8,0:2:0:0:
377,154,51332,1,0,3:2:0:0:
11,121,51478,5,8,0:2:0:0:
269,225,51624,1,0,3:2:0:0:
30,347,51771,6,0,P|3:300|5:242,1,85,10|0,0:0|3:0,0:0:0:0:
185,93,52063,5,14,0:2:0:0:
96,279,52210,1,0,3:2:0:0:
86,44,52356,5,8,0:2:0:0:
218,319,52502,1,0,3:2:0:0:
274,35,52649,5,8,0:2:0:0:
135,356,52795,1,0,3:2:0:0:
51,163,52941,6,0,L|60:204,1,42.5,8|8,0:2|0:2,0:2:0:0:
363,359,53088,2,0,L|369:317,1,42.5,8|8,0:2|0:2,0:2:0:0:
404,41,53234,5,14,0:2:0:0:
217,344,54112,2,0,L|130:331,1,85,2|0,0:2|0:2,0:2:0:0:
3,214,54405,6,0,P|70:214|128:109,1,152.999995330811,6|0,3:2|0:2,0:2:0:0:
161,78,54698,2,0,B|148:112|148:112|164:181,1,101.999996887207,8|0,0:2|0:2,0:2:0:0:
390,113,54990,1,2,3:2:0:0:
282,298,55137,1,0,3:2:0:0:
241,126,55283,1,10,0:2:0:0:
368,264,55429,6,0,P|418:225|398:136,1,152.999995330811,6|0,3:2|0:2,0:2:0:0:
343,190,55722,2,0,B|384:209|423:192|423:192|461:177|510:195,1,152.999995330811,2|0,3:2|0:2,0:2:0:0:
492,270,56015,2,0,P|449:322|405:341,1,101.999996887207,6|0,3:2|0:2,0:2:0:0:
182,259,56307,2,0,P|158:195|164:148,1,101.999996887207,2|8,3:2|0:2,0:2:0:0:
274,353,56600,1,0,3:2:0:0:
106,330,56746,6,0,B|66:313|14:340|14:340|7:296|36:250,1,152.999995330811,6|0,3:2|0:2,0:2:0:0:
57,206,57039,1,10,0:2:0:0:
184,357,57185,1,0,0:2:0:0:
45,194,57332,2,0,L|23:89,1,101.999996887207,2|0,0:2|3:2,0:2:0:0:
244,14,57624,1,10,0:2:0:0:
135,128,57771,6,0,B|189:104|189:104|248:116,1,101.999996887207,2|0,3:2|0:2,0:2:0:0:
302,285,58063,2,0,P|275:225|280:182,1,101.999996887207,2|8,3:2|0:2,0:2:0:0:
503,191,58356,2,0,B|526:233|526:233|367:223,1,203.999993774414,2|0,3:2|3:2,0:2:0:0:
430,101,58795,1,10,0:2:0:0:
441,313,58941,1,0,3:2:0:0:
331,145,59088,6,0,L|339:33,1,101.999996887207,6|0,3:2|0:2,0:2:0:0:
233,260,59380,1,10,0:2:0:0:
243,77,59526,1,0,3:2:0:0:
123,221,59673,6,0,L|131:333,1,101.999996887207,6|0,3:2|3:2,0:2:0:0:
41,127,59966,1,8,0:2:0:0:
206,170,60112,6,0,B|270:195|326:137|326:137|362:174|377:227,1,203.999993774414,6|0,3:2|3:2,0:2:0:0:
284,357,60551,2,0,P|289:280|307:246,1,101.999996887207,10|0,0:2|0:2,0:2:0:0:
480,332,60844,2,0,L|370:323,1,101.999996887207,2|0,3:2|3:2,0:2:0:0:
96,267,61137,2,0,L|206:258,1,101.999996887207,10|0,0:2|3:2,0:2:0:0:
369,100,61429,5,6,3:2:0:0:
297,250,61576,1,0,3:2:0:0:
235,61,61722,1,10,0:2:0:0:
329,174,61868,1,0,3:2:0:0:
354,8,62015,1,10,0:2:0:0:
203,151,62161,1,8,0:2:0:0:
166,168,62234,1,8,0:2:0:0:
126,172,62307,1,8,0:2:0:0:
87,162,62380,1,8,0:2:0:0:
54,139,62453,5,6,3:2:0:0:
406,82,62746,1,6,3:2:0:0:
114,302,63039,1,6,3:2:0:0:
421,353,63332,1,6,3:2:0:0:
246,96,63624,6,0,B|261:160|261:160|249:226|249:226|273:315,1,203.999993774414,6|0,3:2|3:2,0:2:0:0:
475,123,64063,2,0,P|428:96|370:99,1,101.999996887207,10|0,0:2|0:2,0:2:0:0:
128,164,64356,1,0,3:2:0:0:
348,273,64502,1,8,0:2:0:0:
373,270,64575,1,8,0:2:0:0:
398,267,64648,1,8,0:2:0:0:
424,264,64721,1,8,0:2:0:0:
449,261,64794,5,6,3:2:0:0:
144,193,65088,1,6,3:2:0:0:
381,104,65380,1,6,3:2:0:0:
157,26,65673,1,8,0:2:0:0:
132,19,65746,1,8,0:2:0:0:
107,21,65819,1,8,0:2:0:0:
83,30,65892,1,8,0:2:0:0:
61,49,65966,2,0,L|67:105,1,50.9999984436036,8|8,0:2|0:2,0:2:0:0:
128,164,66112,6,0,L|111:278,1,101.999996887207,6|0,3:2|0:2,0:2:0:0:
304,259,66405,2,0,B|260:234|260:234|202:237,1,101.999996887207,10|0,0:2|0:2,0:2:0:0:
50,350,66698,1,2,3:2:0:0:
246,324,66844,1,0,3:2:0:0:
30,233,66990,1,10,0:2:0:0:
266,338,67137,6,0,P|316:305|423:310,1,152.999995330811,2|0,3:2|0:2,0:2:0:0:
495,296,67429,2,0,P|424:284|390:262,1,101.999996887207,2|8,3:2|0:2,0:2:0:0:
443,87,67722,2,0,B|488:52|488:52|470:200,1,203.999993774414,2|0,3:2|3:2,0:2:0:0:
173,213,68161,1,10,0:2:0:0:
357,150,68307,1,0,3:2:0:0:
129,98,68454,6,0,L|6:86,1,101.999996887207,6|0,3:2|0:2,0:2:0:0:
257,54,68746,1,10,0:2:0:0:
62,182,68892,1,0,0:2:0:0:
310,266,69039,2,0,L|433:254,1,101.999996887207,2|0,3:2|0:2,0:2:0:0:
199,362,69332,1,8,0:2:0:0:
366,179,69478,6,0,P|410:249|349:357,1,203.999993774414,6|0,3:2|3:2,0:2:0:0:
214,197,69917,2,0,L|205:92,1,101.999996887207,10|0,0:2|0:2,0:2:0:0:
43,257,70210,2,0,L|34:362,1,101.999996887207,2|0,3:2|3:2,0:2:0:0:
291,126,70502,2,0,L|282:21,1,101.999996887207,10|0,0:2|0:2,0:2:0:0:
97,136,70795,5,6,3:2:0:0:
366,179,70941,1,0,3:2:0:0:
43,257,71088,1,0,3:2:0:0:
214,197,71234,1,0,3:2:0:0:
104,39,71380,2,0,B|85:75|85:75|99:151,1,101.999996887207,8|8,0:2|0:2,0:2:0:0:
246,292,71673,1,8,0:2:0:0:
233,68,71819,5,6,3:2:0:0:
141,341,72112,1,6,3:2:0:0:
104,39,72405,1,6,3:2:0:0:
363,214,72698,1,8,0:2:0:0:
402,203,72771,1,8,0:2:0:0:
434,178,72844,1,8,0:2:0:0:
454,143,72917,1,8,0:2:0:0:
460,103,72990,1,8,0:2:0:0:
451,64,73063,1,8,0:2:0:0:
390,7,73137,5,14,0:2:0:0:
334,285,82502,6,0,B|271:330|271:268|192:311|192:311|180:260|125:248,1,233.750007133484,6|0,3:2|0:2,0:2:0:0:
32,351,83380,2,0,L|106:341,1,63.7500024318696,2|0,0:2|0:2,0:2:0:0:
39,200,83673,6,0,P|40:235|51:272,1,63.7500024318696,2|0,0:2|0:2,0:2:0:0:
140,154,83966,2,0,P|132:185|132:217,1,63.7500024318696,2|0,0:2|0:2,0:2:0:0:
250,131,84258,2,0,P|235:158|226:189,1,63.7500024318696,2|0,0:2|0:2,0:2:0:0:
289,274,84551,1,2,0:2:0:0:
299,293,84698,1,2,0:2:0:0:
434,218,84844,6,0,B|456:176|456:176|383:151|311:196,1,191.250007295609,6|0,3:2|0:2,0:2:0:0:
181,94,85429,2,0,P|233:114|311:87,2,127.500004863739,2|2|0,0:2|0:2|0:2,0:2:0:0:
90,49,86161,2,0,L|96:122,1,63.7500024318696,2|0,0:2|0:2,0:2:0:0:
8,103,86454,2,0,L|14:176,1,63.7500024318696,2|0,0:2|0:2,0:2:0:0:
116,257,86746,1,8,3:3:0:0:
125,230,86893,1,8,3:3:0:0:
45,296,87039,1,8,3:3:0:0:
165,336,87185,6,0,P|214:308|300:323,1,127.500004863739,6|0,0:2|0:2,0:2:0:0:
362,354,87624,1,0,0:2:0:0:
418,273,87771,2,0,P|428:228|418:190,1,63.7500024318696,10|0,0:2|0:2,0:2:0:0:
340,160,88063,2,0,P|330:115|340:77,1,63.7500024318696,2|0,0:2|3:2,0:2:0:0:
483,21,88356,6,0,L|401:32,1,63.7500024318696,6|8,0:2|0:2,0:2:0:0:
407,37,88576,1,8,0:2:0:0:
391,38,88649,1,8,0:2:0:0:
286,0,88795,1,8,0:2:0:0:
197,115,88941,2,0,L|115:104,1,63.7500024318696,6|8,3:2|0:2,0:2:0:0:
125,98,89161,1,8,0:2:0:0:
109,99,89234,1,8,0:2:0:0:
32,224,89380,1,8,0:2:0:0:
33,249,89454,1,8,0:2:0:0:
47,272,89527,5,10,0:2:0:0:
349,349,91868,6,0,P|372:298|365:240,1,85,6|0,3:2|0:0,0:2:0:0:
284,158,92161,1,8,0:2:0:0:
224,222,92307,1,0,3:2:0:0:
369,182,92454,2,0,P|419:176|458:176,1,85,2|0,0:2|3:2,0:2:0:0:
243,63,92746,2,0,P|293:69|332:69,1,85,10|0,0:2|0:2,0:2:0:0:
173,9,93039,6,0,P|189:60|141:187,1,170,2|10,3:2|0:0,0:0:0:0:
74,244,93478,1,0,3:0:0:0:
161,307,93624,2,0,P|216:316|273:300,1,85,2|0,0:0|3:2,0:0:0:0:
374,258,93917,1,8,0:2:0:0:
335,361,94063,1,8,0:2:0:0:
381,239,94210,6,0,L|367:147,1,85,2|0,3:2|0:2,0:2:0:0:
349,51,94502,2,0,L|276:109,1,85,8|0,0:2|3:2,0:0:0:0:
203,173,94795,2,0,L|289:206,1,85,2|0,0:2|3:2,0:2:0:0:
100,215,95088,1,8,0:2:0:0:
100,215,95234,6,0,P|91:165|104:116,1,85,2|0,3:2|3:2,0:2:0:0:
11,17,95527,2,0,P|21:62|-6:134,1,85,2|8,3:2|0:2,0:2:0:0:
106,44,95819,2,0,P|161:31|219:33,1,85,2|8,3:2|0:2,0:2:0:0:
294,115,96112,2,0,P|349:128|407:126,1,85,2|8,3:2|0:2,0:2:0:0:
471,42,96405,6,0,B|451:70|451:70|465:129,1,85,2|0,3:2|3:2,0:2:0:0:
409,286,96698,2,0,L|422:188,1,85,2|10,0:2|0:2,0:0:0:0:
292,362,96990,2,0,L|279:264,1,85,2|2,3:2|0:2,0:0:0:0:
224,126,97283,1,2,3:2:0:0:
157,233,97429,1,10,0:2:0:0:
119,158,97576,1,2,0:2:0:0:
241,211,97722,6,0,B|282:233|282:233|398:205,1,127.5,2|0,3:2|0:0,0:2:0:0:
419,160,98015,2,0,L|316:186,1,85,8|0,0:2|3:2,0:2:0:0:
148,74,98307,2,0,L|45:48,1,85,2|0,3:2|3:0,0:2:0:0:
237,42,98600,1,8,0:2:0:0:
84,147,98746,1,8,0:2:0:0:
241,211,98893,6,0,P|250:151|238:102,1,85,2|0,3:2|0:2,0:2:0:0:
91,290,99185,2,0,P|125:265|166:252,1,85,10|0,0:2|3:2,0:2:0:0:
267,361,99478,2,0,L|172:348,1,85,2|0,3:2|0:2,0:2:0:0:
393,263,99771,1,8,0:2:0:0:
393,263,99917,2,0,L|298:276,1,85,2|0,3:2|0:0,0:2:0:0:
480,199,100210,5,0,3:2:0:0:
461,330,100356,1,8,0:2:0:0:
378,122,100502,1,0,0:2:0:0:
393,263,100649,1,2,3:2:0:0:
475,65,100795,1,0,3:2:0:0:
475,65,100868,1,0,3:2:0:0:
475,65,100941,1,8,0:2:0:0:
296,198,101088,1,8,0:2:0:0:
461,330,101234,6,0,B|408:313|408:313|364:332|364:332|279:309,1,191.250007295609,6|0,3:2|0:2,0:2:0:0:
184,197,101819,2,0,L|193:286,1,63.7500024318696,2|0,3:2|0:0,0:2:0:0:
98,181,102112,2,0,L|107:270,1,63.7500024318696,2|0,3:2|0:0,0:2:0:0:
45,110,102405,6,0,B|83:81|129:99|129:99|179:116|232:78,1,191.250007295609,2|0,3:2|0:2,0:2:0:0:
319,32,102990,2,0,L|310:121,1,63.7500024318696,2|0,0:2|0:0,0:2:0:0:
405,16,103283,2,0,L|396:105,1,63.7500024318696,2|0,3:2|0:0,0:2:0:0:
481,229,103576,6,0,P|437:173|326:191,1,191.250007295609,2|2,3:2|0:2,0:2:0:0:
393,256,104161,2,0,P|350:198|239:212,1,191.250007295609,2|2,3:2|0:2,0:2:0:0:
163,299,104746,2,0,L|173:363,1,63.7500024318696,2|0,3:2|0:2,0:2:0:0:
53,306,105039,2,0,L|62:243,1,63.7500024318696,2|0,3:2|0:2,0:2:0:0:
172,132,105332,2,0,P|147:164|109:185,1,63.7500024318696,2|0,3:2|3:2,0:2:0:0:
170,45,105624,2,0,P|210:50|247:73,1,63.7500024318696,2|8,3:2|0:2,0:2:0:0:
300,112,105844,1,8,0:2:0:0:
300,112,105917,6,0,L|408:101,1,85,6|0,3:2|0:2,0:2:0:0:
250,195,106210,5,8,0:2:0:0:
329,24,106356,1,0,3:2:0:0:
395,228,106502,5,8,0:2:0:0:
172,132,106649,1,0,3:2:0:0:
451,93,106795,5,8,0:2:0:0:
250,195,106941,1,0,3:2:0:0:
465,287,107088,6,0,P|491:229|479:182,1,85,14|0,0:2|3:2,0:0:0:0:
320,300,107380,2,0,L|325:399,1,85,8|0,0:2|3:2,0:0:0:0:
179,269,107673,5,8,0:2:0:0:
395,228,107819,1,0,3:2:0:0:
267,102,107966,5,8,0:2:0:0:
223,348,108112,1,0,3:2:0:0:
117,186,108258,6,0,P|168:160|220:165,1,85,14|0,0:2|3:2,0:0:0:0:
407,332,108551,2,0,P|365:327|329:305,1,85,8|0,0:2|3:2,0:0:0:0:
249,78,108844,5,8,0:2:0:0:
462,163,108990,1,0,3:2:0:0:
179,269,109137,5,8,0:2:0:0:
139,285,109210,1,8,0:2:0:0:
97,286,109283,1,8,0:2:0:0:
57,273,109356,1,8,0:2:0:0:
24,250,109429,5,14,0:2:0:0:
103,149,109576,2,0,L|111:205,2,42.5,8|8|8,0:0|0:0|0:0,0:0:0:0:
18,63,109868,2,0,L|24:20,2,42.5,8|8|10,0:0|0:0|0:0,0:0:0:0:
179,269,110307,2,0,B|203:283|203:283|284:267,1,85,8|0,0:0|0:0,0:0:0:0:
357,143,110600,6,0,P|335:206|385:279,1,152.999995330811,6|0,3:2|0:2,0:2:0:0:
446,316,110893,2,0,P|395:307|329:309,1,101.999996887207,8|0,0:2|0:2,0:2:0:0:
82,223,111185,2,0,P|143:238|222:167,1,152.999995330811,2|0,3:2|0:0,0:0:0:0:
251,111,111478,1,10,0:2:0:0:
21,141,111624,6,0,B|49:170|49:170|37:303,1,152.999995330811,6|0,3:2|0:2,0:2:0:0:
26,365,111917,2,0,B|74:376|111:332|111:332|151:333|179:368,1,152.999995330811,2|0,3:2|0:2,0:2:0:0:
235,384,112210,2,0,P|202:333|202:278,1,101.999996887207,6|0,3:2|0:2,0:2:0:0:
357,143,112502,2,0,P|390:194|390:249,1,101.999996887207,2|8,3:2|0:2,0:2:0:0:
251,111,112795,5,0,3:2:0:0:
488,33,112941,2,0,L|465:164,1,101.999996887207,6|0,3:2|0:0,0:2:0:0:
294,296,113234,1,10,0:2:0:0:
357,143,113380,1,0,0:2:0:0:
410,334,113527,2,0,L|387:203,1,101.999996887207,2|0,0:2|3:2,0:2:0:0:
196,73,113819,1,10,0:2:0:0:
84,265,113966,6,0,P|62:292|39:218,1,152.999995330811,2|0,3:2|0:0,0:2:0:0:
79,151,114258,2,0,B|122:137|156:159|156:159|198:182|249:156,1,152.999995330811,2|0,3:2|0:0,0:2:0:0:
196,73,114551,6,0,B|174:122|174:122|199:294,1,203.999993774414,2|0,3:2|3:2,0:2:0:0:
319,30,114990,1,10,0:2:0:0:
282,218,115137,1,0,3:2:0:0:
330,14,115283,6,0,L|358:147,1,101.999996887207,6|0,3:2|0:2,0:2:0:0:
471,234,115576,1,10,0:2:0:0:
434,46,115723,1,0,3:2:0:0:
482,250,115869,6,0,L|510:117,1,101.999996887207,6|0,3:2|3:2,0:2:0:0:
350,356,116161,1,8,0:2:0:0:
215,238,116307,6,0,P|151:205|50:259,1,152.999995330811,6|0,3:2|0:0,0:2:0:0:
7,280,116600,1,0,3:2:0:0:
124,162,116746,1,10,0:2:0:0:
155,340,116893,1,0,0:2:0:0:
121,138,117039,2,0,L|104:32,1,101.999996887207,2|0,3:2|3:2,0:2:0:0:
379,168,117332,2,0,L|362:274,1,101.999996887207,10|0,0:2|3:2,0:2:0:0:
281,70,117624,5,6,3:2:0:0:
489,153,117771,1,0,3:2:0:0:
226,212,117917,1,10,0:2:0:0:
391,55,118063,1,0,3:2:0:0:
453,265,118210,1,10,0:2:0:0:
195,119,118356,1,8,0:2:0:0:
160,109,118429,1,8,0:2:0:0:
125,108,118502,1,8,0:2:0:0:
90,116,118575,1,8,0:2:0:0:
58,132,118648,5,6,3:2:0:0:
371,228,118941,1,6,3:2:0:0:
0,270,119234,1,6,3:2:0:0:
333,369,119527,1,6,3:2:0:0:
192,83,119819,6,0,B|176:155|176:155|197:194|197:194|176:290,1,203.999993774414,6|0,3:2|3:2,0:2:0:0:
98,81,120258,1,10,0:2:0:0:
276,255,120405,1,0,0:2:0:0:
30,250,120551,1,0,3:2:0:0:
276,131,120698,1,8,0:2:0:0:
317,117,120771,1,8,0:2:0:0:
361,113,120844,1,8,0:2:0:0:
405,119,120917,1,8,0:2:0:0:
446,133,120990,5,6,3:2:0:0:
106,203,121283,1,6,3:2:0:0:
487,296,121576,1,6,3:2:0:0:
138,358,121868,1,8,0:2:0:0:
113,365,121941,1,8,0:2:0:0:
88,363,122014,1,8,0:2:0:0:
64,354,122087,1,8,0:2:0:0:
42,335,122161,2,0,L|48:279,1,50.9999984436036,8|8,0:2|0:2,0:2:0:0:
106,203,122307,6,0,L|89:89,1,101.999996887207,6|0,3:2|0:2,0:2:0:0:
367,26,122600,2,0,L|350:140,1,101.999996887207,10|0,0:2|0:2,0:2:0:0:
308,316,122893,1,2,3:2:0:0:
193,131,123039,1,0,3:2:0:0:
397,251,123185,1,10,0:2:0:0:
124,345,123332,6,0,P|101:309|118:184,1,152.999995330811,2|0,3:2|0:2,0:2:0:0:
193,131,123624,2,0,B|142:140|142:140|107:165|107:165|14:179,1,152.999995330811,2|0,3:2|0:0,0:2:0:0:
49,72,123917,2,0,L|155:55,1,101.999996887207,2|0,3:2|0:0,0:2:0:0:
305,0,124210,1,0,3:2:0:0:
271,187,124356,2,0,P|266:232|298:294,1,101.999996887207,10|0,0:2|3:2,0:0:0:0:
420,116,124649,6,0,L|404:12,1,101.999996887207,6|0,3:2|0:2,0:2:0:0:
193,131,124941,1,10,0:2:0:0:
371,211,125088,1,0,0:2:0:0:
155,338,125234,2,0,L|171:234,1,101.999996887207,2|0,3:2|0:2,0:2:0:0:
365,384,125527,1,8,0:2:0:0:
193,131,125673,6,0,L|216:318,1,152.999995330811,6|0,3:2|0:0,0:2:0:0:
273,334,125966,1,0,3:2:0:0:
115,224,126112,1,10,0:2:0:0:
302,196,126258,1,0,0:2:0:0:
102,321,126405,6,0,P|54:304|21:249,1,101.999996887207,2|0,3:2|3:2,0:2:0:0:
288,94,126698,2,0,L|304:214,1,101.999996887207,10|0,0:2|0:2,0:2:0:0:
207,30,126990,5,6,3:2:0:0:
388,132,127137,1,0,3:2:0:0:
172,199,127283,1,0,3:2:0:0:
331,18,127429,1,0,0:2:0:0:
421,253,127576,1,8,0:2:0:0:
268,176,127722,1,8,0:2:0:0:
248,378,127868,1,8,0:2:0:0:
388,132,128015,5,6,3:2:0:0:
67,243,128307,1,6,3:2:0:0:
417,359,128600,1,6,3:2:0:0:
278,73,128893,2,0,P|210:64|173:77,1,101.999996887207,8|8,0:2|0:2,0:0:0:0:
110,144,129185,5,14,0:2:0:0:
428,186,130063,2,8,L|424:236,11,50.9999984436036,8|8|8|8|8|8|8|8|8|8|8|8,0:2|0:2|0:2|0:2|0:2|0:2|0:2|0:2|0:2|0:2|0:2|0:2,0:2:0:0:
378,310,130942,5,8,0:2:0:0:
350,332,131015,1,8,0:2:0:0:
316,343,131088,1,8,0:2:0:0:
280,342,131161,1,8,0:2:0:0:
247,330,131234,1,8,0:2:0:0:
220,307,131308,1,8,0:2:0:0:
191,286,131381,1,8,0:2:0:0:
157,275,131454,1,8,0:2:0:0:
122,275,131527,1,8,0:2:0:0:
88,287,131600,1,8,0:2:0:0:
63,312,131673,6,0,P|87:238|62:124,1,152.999995330811,6|0,3:2|0:2,0:2:0:0:
32,97,131966,1,8,0:2:0:0:
188,173,132112,2,0,B|230:199|276:175|276:175|303:189|315:231,1,152.999995330811,2|0,3:2|0:2,0:2:0:0:
337,300,132405,2,0,P|335:239|348:192,1,101.999996887207,2|8,0:2|0:2,0:2:0:0:
471,51,132698,1,2,0:2:0:0:
231,96,132844,6,0,B|185:88|185:88|115:100|115:100|51:89,1,152.999995330811,6|0,3:2|0:2,0:2:0:0:
131,0,133137,1,8,0:2:0:0:
288,180,133283,2,0,P|332:115|259:0,1,203.999993774414,2|0,0:2|0:2,0:2:0:0:
181,203,133722,1,8,0:2:0:0:
375,106,133868,1,8,0:2:0:0:
375,106,133941,1,8,0:2:0:0:
375,106,134015,6,0,L|486:114,1,101.999996887207,6|0,3:2|0:2,0:2:0:0:
238,284,134307,2,0,L|349:276,1,101.999996887207,8|0,0:2|0:2,0:2:0:0:
142,81,134601,2,0,L|253:89,1,101.999996887207,2|0,3:2|0:2,0:2:0:0:
5,259,134893,2,0,L|116:251,1,101.999996887207,8|0,0:2|0:2,0:2:0:0:
277,183,135185,5,2,3:2:0:0:
64,350,135332,1,0,3:2:0:0:
108,166,135478,1,8,0:2:0:0:
243,340,135624,2,0,P|306:363|422:294,1,203.999993774414,2|8,3:2|0:2,0:2:0:0:
323,99,136063,1,8,0:2:0:0:
298,92,136136,1,8,0:2:0:0:
273,91,136209,1,8,0:2:0:0:
247,95,136282,1,8,0:2:0:0:
224,105,136356,6,0,B|241:213|241:213|185:268,1,152.999995330811,6|0,3:2|0:2,0:2:0:0:
137,291,136649,1,8,0:2:0:0:
58,126,136795,2,0,P|62:60|84:20,1,101.999996887207,2|0,0:2|3:2,0:2:0:0:
278,215,137088,1,0,0:2:0:0:
111,205,137234,1,8,0:2:0:0:
323,99,137380,1,0,0:2:0:0:
157,3,137527,6,0,L|166:109,1,101.999996887207,6|0,3:2|0:2,0:2:0:0:
185,304,137819,1,8,0:2:0:0:
365,175,137966,2,0,B|422:140|479:170|479:170|515:137|469:88,1,203.999993774414,2|0,3:2|0:2,0:2:0:0:
291,56,138405,1,8,0:2:0:0:
424,246,138551,1,8,0:2:0:0:
424,246,138624,1,8,0:2:0:0:
424,246,138698,6,0,L|404:358,1,101.999996887207,2|0,3:2|0:2,0:2:0:0:
153,197,138990,2,0,L|173:309,1,101.999996887207,2|0,3:2|0:2,0:2:0:0:
370,95,139283,2,0,L|350:207,1,101.999996887207,2|0,3:2|0:2,0:2:0:0:
56,54,139575,2,0,L|76:166,1,101.999996887207,2|0,3:2|0:2,0:2:0:0:
115,228,139795,1,8,0:2:0:0:
134,250,139868,5,8,0:2:0:0:
166,263,139941,1,8,0:2:0:0:
202,266,140014,1,8,0:2:0:0:
236,258,140087,1,8,0:2:0:0:
267,240,140160,1,8,0:2:0:0:
299,226,140235,1,8,0:2:0:0:
335,223,140308,1,8,0:2:0:0:
369,231,140381,1,8,0:2:0:0:
400,252,140454,5,8,0:2:0:0:
401,264,140527,1,8,0:2:0:0:
403,277,140600,1,8,0:2:0:0:
405,289,140673,1,8,0:2:0:0:
407,302,140746,1,8,0:2:0:0:
408,314,140819,1,8,0:2:0:0:
410,327,140893,1,8,0:2:0:0:
412,340,140966,1,8,0:2:0:0:
414,352,141039,6,0,L|432:167,1,178.499994552612,6|0,3:2|0:2,0:2:0:0:
451,86,141332,2,0,L|474:214,1,118.999996368408,10|0,0:2|0:2,0:2:0:0:
379,125,141551,1,8,0:2:0:0:
379,125,141624,2,0,P|309:94|237:98,1,118.999996368408,8|0,0:2|0:2,0:2:0:0:
235,187,141844,1,8,0:2:0:0:
235,187,141917,2,0,P|175:138|105:125,1,118.999996368408,8|0,0:2|0:2,0:2:0:0:
80,210,142137,1,8,0:2:0:0:
80,210,142210,2,0,P|34:148|-29:116,1,118.999996368408,8|0,0:2|0:2,0:2:0:0:
31,292,142502,1,8,0:2:0:0:
135,127,142649,6,0,B|112:210|112:210|134:272|134:272|112:377,1,237.999992736817,6|0,3:2|0:2,0:2:0:0:
251,160,143088,1,8,0:2:0:0:
329,355,143234,1,0,3:2:0:0:
329,355,143307,1,0,3:2:0:0:
329,355,143380,6,0,P|401:366|453:343,1,118.999996368408,6|0,3:2|0:2,0:2:0:0:
479,269,143600,1,8,0:2:0:0:
479,269,143673,2,0,L|459:143,1,118.999996368408,8|0,0:2|0:2,0:2:0:0:
363,176,143893,1,8,0:2:0:0:
363,176,143966,2,0,L|383:50,1,118.999996368408,8|0,0:2|0:2,0:2:0:0:
271,253,144258,1,8,0:2:0:0:
201,77,144405,1,8,0:2:0:0:
201,77,144478,1,8,0:2:0:0:
201,77,144551,6,0,P|123:62|67:70,1,118.999996368408,6|0,3:2|0:2,0:2:0:0:
22,141,144771,1,8,0:2:0:0:
22,141,144844,2,0,L|42:269,1,118.999996368408,8|0,0:2|0:2,0:2:0:0:
271,253,145137,1,0,3:2:0:0:
159,159,145283,1,8,0:2:0:0:
208,351,145429,1,8,0:2:0:0:
252,367,145502,1,8,0:2:0:0:
299,365,145575,1,8,0:2:0:0:
342,345,145648,1,8,0:2:0:0:
373,310,145722,6,0,B|395:172|395:172|336:217,1,178.499994552612,6|0,3:2|0:2,0:2:0:0:
271,253,146015,1,2,0:2:0:0:
438,91,146161,6,0,L|456:269,1,178.499994552612,6|0,3:2|0:2,0:2:0:0:
471,355,146454,1,2,0:2:0:0:
338,182,146600,2,0,P|262:157|211:174,1,118.999996368408,6|0,3:2|0:2,0:2:0:0:
3,284,146893,6,0,B|44:315|102:288|102:288|148:267|212:307,1,178.499994552612,6|0,3:2|0:2,0:2:0:0:
235,332,147185,1,2,0:2:0:0:
51,205,147332,6,0,B|36:134|36:134|56:91|56:91|43:20,1,178.499994552612,6|0,3:2|0:2,0:2:0:0:
132,18,147624,2,0,B|147:103|147:103|133:134,1,118.999996368408,2|0,0:2|0:2,0:2:0:0:
276,133,147917,2,0,L|261:61,1,59.4999981842042,2|0,0:2|0:2,0:2:0:0:
428,163,148063,5,4,3:2:0:0:
426,174,148137,1,0,3:2:0:0:
424,185,148210,1,0,3:2:0:0:
423,197,148283,1,0,3:2:0:0:
422,209,148356,1,0,3:2:0:0:
421,221,148429,1,0,3:2:0:0:
420,233,148502,1,4,3:2:0:0:
419,245,148576,1,0,3:2:0:0:
417,256,148649,1,0,3:2:0:0:
416,268,148722,1,0,3:2:0:0:
415,280,148795,1,0,3:2:0:0:
414,292,148868,1,0,3:2:0:0:
413,304,148941,1,4,3:2:0:0:
412,316,149015,1,0,3:2:0:0:
410,327,149088,1,0,3:2:0:0:
409,339,149161,1,0,3:2:0:0:
408,351,149234,5,12,3:2:0:0:
228,246,149380,1,12,3:2:0:0:
434,142,149527,1,12,3:2:0:0:
238,25,149673,1,12,3:2:0:0:
221,36,149966,5,14,0:2:0:0:
433,161,150112,1,14,0:2:0:0:
211,257,150258,1,14,0:2:0:0:
406,374,150405,6,0,B|348:343|302:370|302:370|251:397|188:364,1,203.999993774414,6|0,3:2|3:2,0:2:0:0:
38,303,150844,1,0,0:2:0:0:
211,257,150990,1,0,3:2:0:0:
64,166,151137,1,0,3:2:0:0:
54,142,151210,1,0,3:2:0:0:
50,117,151283,1,0,3:2:0:0:
51,91,151356,1,0,3:2:0:0:
56,66,151429,6,0,L|157:75,1,101.999996887207,0|0,3:2|3:2,3:2:0:0:
336,224,151722,2,0,L|437:214,1,101.999996887207,0|0,3:2|3:2,3:2:0:0:
246,10,152015,6,0,B|223:66|259:106|259:106|208:157|208:157|262:198|253:280,1,305.999990661621,2|8,0:2|0:2,0:2:0:0:
112,180,152600,2,0,P|112:151|126:116,1,50.9999984436036,2|0,0:2|0:2,0:2:0:0:
318,37,152746,5,2,3:2:0:0:
464,94,152893,1,2,0:2:0:0:
313,21,153039,1,0,3:2:0:0:
208,150,153185,1,0,3:2:0:0:
369,124,153332,5,0,3:2:0:0:
179,40,153478,1,2,0:2:0:0:
62,194,153624,1,10,0:2:0:0:
183,27,153771,1,2,0:2:0:0:
319,215,153917,6,0,P|342:275|338:327,1,101.999996887207,2|0,0:2|0:2,0:2:0:0:
369,124,154210,2,0,P|413:168|439:216,1,101.999996887207,2|0,3:2|0:2,0:2:0:0:
471,288,154429,1,8,0:2:0:0:
471,288,154502,2,0,L|400:278,1,50.9999984436036,8|8,0:2|0:2,0:2:0:0:
198,212,154649,1,8,0:2:0:0:
260,324,154795,2,0,L|266:379,3,50.9999984436036,2|2|2|2,3:2|3:2|3:2|3:2,3:2:0:0:
172,301,155088,5,2,3:2:0:0:
141,283,155161,1,2,3:2:0:0:
106,276,155234,1,2,3:2:0:0:
71,282,155307,1,2,3:2:0:0:
40,299,155380,6,0,L|16:249,1,50.9999984436036,2|2,3:2|3:2,3:2:0:0:
97,138,155527,2,0,L|87:188,1,50.9999984436036,2|2,3:2|3:2,3:2:0:0:
26,75,155673,5,2,3:2:0:0:
68,47,155746,1,2,3:2:0:0:
118,44,155819,1,2,3:2:0:0:
163,66,155892,1,2,3:2:0:0:
192,107,155965,1,2,3:2:0:0:
234,134,156039,1,2,3:2:0:0:
284,137,156112,1,2,3:2:0:0:
329,115,156185,1,2,3:2:0:0:
358,74,156258,6,0,L|370:147,1,50.9999984436036,2|2,3:2|3:2,3:2:0:0:
433,28,156405,2,0,L|445:101,1,50.9999984436036,2|2,3:2|3:2,3:2:0:0:
365,211,156551,6,0,L|377:284,1,50.9999984436036,2|2,3:2|3:2,3:2:0:0:
440,165,156698,2,0,L|452:238,1,50.9999984436036,2|2,3:2|3:2,3:2:0:0:
358,342,156844,5,2,3:2:0:0:
325,357,156917,1,2,3:2:0:0:
290,361,156990,1,2,3:2:0:0:
255,353,157063,1,2,3:2:0:0:
225,334,157137,2,0,P|151:313|96:338,1,101.999996887207,0|0,3:2|0:2,0:2:0:0:
46,348,157356,1,2,3:2:0:0:
46,348,157429,6,0,L|70:227,1,101.999996887207,10|0,0:2|0:2,0:2:0:0:
117,75,157722,1,8,0:2:0:0:
261,217,157868,1,0,3:2:0:0:
217,18,158015,1,0,3:2:0:0:
90,158,158161,1,0,3:2:0:0:
291,106,158307,1,8,0:2:0:0:
265,319,158454,1,0,3:2:0:0:
34,255,158600,6,0,L|149:246,1,101.999996887207,2|0,0:2|3:2,0:2:0:0:
372,177,158893,1,0,3:2:0:0:
186,74,159039,2,0,B|183:94|172:114|172:114|186:134|193:175,1,101.999996887207,2|0,0:2|3:2,0:2:0:0:
363,292,159332,2,0,B|357:262|342:243|342:243|367:215|378:143,1,127.5,2|0,0:2|0:2,0:2:0:0:
437,106,159624,6,0,B|400:160|321:143|321:143|312:122|293:112|293:112|282:135|246:141,1,203.999993774414,6|0,3:2|3:2,0:2:0:0:
86,104,160063,1,8,0:2:0:0:
263,237,160210,1,0,0:2:0:0:
18,239,160356,1,8,0:2:0:0:
292,154,160502,5,8,0:2:0:0:
317,150,160575,1,8,0:2:0:0:
342,146,160648,1,8,0:2:0:0:
367,143,160721,1,8,0:2:0:0:
392,139,160795,6,0,P|425:83|338:107,1,204,6|0,3:2|0:2,0:2:0:0:
382,94,161088,2,0,B|320:69|276:87|276:87|226:108|164:77,1,204,6|0,3:2|0:2,0:2:0:0:
116,23,161380,2,0,B|151:77|151:77|125:217,1,204,6|0,3:2|0:2,0:2:0:0:
46,318,161673,6,0,L|35:235,1,68,10|8,0:2|0:2,0:2:0:0:
229,149,161819,2,0,L|214:233,1,68,10|8,0:2|0:2,0:2:0:0:
138,356,161966,1,8,0:2:0:0:
134,332,162039,1,8,0:2:0:0:
130,304,162112,6,0,B|196:309|196:309|253:342|253:342|346:347,1,178.499994552612,6|0,3:2|0:2,0:2:0:0:
381,305,162405,2,0,L|248:326,1,118.999996368408,8|0,0:2|3:2,0:2:0:0:
435,183,162698,1,0,3:2:0:0:
471,363,162844,1,0,3:2:0:0:
499,108,162990,1,8,0:2:0:0:
338,212,163137,1,0,3:2:0:0:
334,46,163283,6,0,L|415:58,1,59.4999981842042,2|0,3:2|0:2,0:2:0:0:
167,125,163429,1,2,0:2:0:0:
224,20,163576,1,8,0:2:0:0:
310,154,163722,6,0,B|335:179|340:215|340:215|280:277|352:304|288:375,1,237.999992736817,2|0,3:2|0:2,0:2:0:0:
190,218,164161,1,8,0:2:0:0:
131,351,164307,1,2,0:2:0:0:
124,361,164380,1,2,0:2:0:0:
118,374,164454,6,0,L|-8:360,1,118.999996368408,2|0,3:2|0:2,0:2:0:0:
74,285,164673,1,8,0:2:0:0:
74,285,164746,2,0,P|100:209|61:137,1,118.999996368408,8|0,0:2|0:2,0:2:0:0:
19,115,164966,1,8,0:2:0:0:
19,115,165039,2,0,L|-7:191,1,59.4999981842042,8|8,0:2|0:2,0:2:0:0:
210,275,165185,2,0,L|184:199,1,59.4999981842042,8|8,0:2|0:2,0:2:0:0:
169,75,165332,1,10,0:2:0:0:
307,202,165478,6,0,P|386:232|509:130,1,237.999992736817,6|8,3:2|0:2,0:2:0:0:
486,67,165844,1,2,0:2:0:0:
486,67,165917,2,0,L|419:57,1,59.4999981842042,8|8,0:2|0:2,0:2:0:0:
296,7,166063,2,0,L|229:17,1,59.4999981842042,8|8,0:2|0:2,0:2:0:0:
94,101,166210,5,10,0:2:0:0:
67,132,166283,1,8,0:2:0:0:
54,171,166356,1,8,0:2:0:0:
56,213,166429,1,8,0:2:0:0:
74,250,166502,2,0,L|86:320,1,59.4999981842042,8|8,0:2|0:2,0:2:0:0:
219,176,166649,2,0,L|231:106,1,59.4999981842042,8|8,0:2|0:2,0:2:0:0:
303,235,166795,5,10,0:2:0:0:
284,259,166868,1,8,0:2:0:0:
257,275,166941,1,8,0:2:0:0:
227,281,167014,1,8,0:2:0:0:
196,274,167088,5,8,0:2:0:0:
246,257,167161,1,8,0:2:0:0:
297,271,167234,1,8,0:2:0:0:
334,309,167307,1,8,0:2:0:0:
388,327,167381,1,8,0:2:0:0:
439,314,167454,1,8,0:2:0:0:
476,276,167527,6,0,L|465:212,1,59.4999981842042,8|8,0:2|0:2,0:2:0:0:
377,128,167673,2,0,L|365:201,1,59.4999981842042,8|8,0:2|0:2,0:2:0:0:
438,49,167819,6,0,B|385:7|322:41|322:41|260:76|193:27,1,252.874992282868,14|0,0:2|0:2,0:2:0:0:
97,314,170307,5,2,0:2:0:0:
259,51,178356,6,0,L|254:91,1,29.7499990921021,2|0,0:2|0:2,0:2:0:0:
313,140,178649,2,0,L|308:180,1,29.7499990921021,2|0,0:2|0:2,0:2:0:0:
367,229,178941,2,0,L|362:269,1,29.7499990921021,2|0,0:2|0:2,0:2:0:0:
427,316,179234,2,0,L|424:341,2,14.874999546051,10|0|8,0:2|3:2|0:2,0:2:0:0:
417,129,179527,6,0,B|365:109|313:140|313:140|286:124|271:77,1,159.375,6|0,3:2|0:2,0:2:0:0:
201,29,179819,1,0,3:0:0:0:
367,229,179966,1,8,0:2:0:0:
414,27,180112,1,0,0:2:0:0:
361,247,180258,1,2,3:2:0:0:
205,140,180405,1,0,3:2:0:0:
157,116,180478,1,8,0:0:0:0:
105,113,180551,1,10,0:2:0:0:
55,131,180624,1,8,0:0:0:0:
17,167,180697,5,6,3:2:0:0:
417,129,180990,1,6,3:2:0:0:
103,360,181283,1,6,3:2:0:0:
384,316,181576,1,8,0:0:0:0:
419,306,181649,1,8,0:0:0:0:
447,282,181722,1,8,0:0:0:0:
463,249,181795,1,8,0:0:0:0:
462,212,181868,2,0,L|441:160,1,53.125,8|8,3:2|0:0,0:0:0:0:
352,73,182015,6,0,B|337:123|337:123|355:174|355:174|329:257,1,159.375,6|0,3:2|0:2,0:2:0:0:
279,277,182307,1,10,0:2:0:0:
226,48,182454,1,0,0:2:0:0:
78,175,182600,1,2,0:2:0:0:
252,166,182746,1,0,3:2:0:0:
45,59,182893,1,10,0:2:0:0:
53,279,183039,6,0,P|118:272|163:229,1,106.25,2|0,3:2|0:2,0:2:0:0:
434,370,183332,2,0,P|369:363|324:320,1,106.25,2|8,3:2|0:2,0:2:0:0:
377,70,183624,2,0,P|395:124|411:278,1,212.5,2|0,3:2|3:2,0:2:0:0:
151,341,184063,1,10,0:2:0:0:
324,213,184210,1,0,3:2:0:0:
105,157,184356,6,0,L|-34:138,1,106.25,6|0,3:2|0:2,0:2:0:0:
241,116,184649,1,10,0:2:0:0:
33,270,184796,1,0,3:2:0:0:
296,336,184941,6,0,L|422:319,1,106.25,6|0,3:2|3:2,0:2:0:0:
190,226,185234,1,8,0:2:0:0:
447,113,185380,6,0,B|391:83|336:108|336:108|278:134|206:105,1,212.5,6|0,3:2|3:2,0:2:0:0:
121,24,185819,2,0,L|141:139,1,106.25,10|0,0:2|0:2,0:2:0:0:
364,306,186112,2,0,L|384:191,1,106.25,2|0,3:2|3:2,0:2:0:0:
79,209,186405,2,0,P|146:233|232:169,1,159.375,10|0,0:2|0:0,0:2:0:0:
272,106,186698,6,0,B|251:144|251:144|279:222,1,106.25,6|0,3:2|3:2,0:0:0:0:
424,70,186990,1,10,0:2:0:0:
214,20,187137,1,0,3:2:0:0:
448,185,187283,1,10,0:2:0:0:
139,128,187429,1,8,0:2:0:0:
334,0,187576,1,8,0:2:0:0:
342,282,187722,5,6,3:2:0:0:
214,20,188015,1,6,3:2:0:0:
51,317,188307,1,6,3:2:0:0:
122,0,188600,1,6,3:2:0:0:
192,194,188746,1,8,0:0:0:0:
192,194,188819,1,8,0:0:0:0:
192,194,188893,6,0,B|319:173|319:173|377:198,1,172.125000656605,6|0,3:2|0:0,0:2:0:0:
431,242,189185,1,0,3:2:0:0:
233,91,189332,1,10,0:2:0:0:
176,287,189478,1,0,0:2:0:0:
325,137,189624,1,0,3:2:0:0:
84,118,189771,5,8,0:2:0:0:
51,147,189844,1,8,0:2:0:0:
33,187,189917,1,8,0:2:0:0:
28,231,189990,1,8,0:2:0:0:
41,272,190063,5,6,3:2:0:0:
162,49,190356,1,6,3:2:0:0:
278,326,190649,1,6,3:2:0:0:
295,76,190941,1,8,0:2:0:0:
330,58,191014,1,8,0:2:0:0:
370,52,191087,1,8,0:2:0:0:
409,60,191160,1,8,0:2:0:0:
444,79,191234,2,0,L|465:137,1,57.3750002188683,8|8,0:2|0:2,0:2:0:0:
497,235,191380,6,0,P|432:215|373:212,1,114.750000437737,6|0,3:2|0:2,0:2:0:0:
174,285,191673,1,10,0:2:0:0:
425,327,191819,1,0,0:2:0:0:
263,212,191966,2,0,L|280:344,1,114.750000437737,2|0,3:2|3:2,0:0:0:0:
135,138,192258,1,10,0:2:0:0:
400,97,192405,6,0,L|383:229,1,114.750000437737,2|0,3:2|0:0,0:2:0:0:
320,30,192698,1,2,3:2:0:0:
483,180,192844,1,8,0:2:0:0:
235,91,192990,2,0,B|168:65|114:98|114:98|59:131|2:110,1,229.500000875473,2|0,3:2|3:2,0:2:0:0:
122,0,193429,1,10,0:2:0:0:
181,181,193576,1,0,3:2:0:0:
320,30,193722,6,0,L|451:20,1,114.750000437737,6|0,3:2|0:2,0:2:0:0:
235,91,194015,1,10,0:2:0:0:
480,159,194162,1,0,0:2:0:0:
227,286,194308,6,0,L|112:277,1,114.750000437737,2|0,3:2|0:2,0:2:0:0:
323,158,194600,1,8,0:2:0:0:
355,372,194746,2,0,P|439:379|458:243,1,229.500000875473,6|0,3:2|3:2,0:2:0:0:
249,92,195185,2,0,B|227:139|227:139|243:199,1,114.750000437737,10|0,0:2|0:2,0:2:0:0:
494,134,195478,2,0,B|516:87|516:87|500:27,1,114.750000437737,2|0,3:2|3:2,0:2:0:0:
180,11,195771,1,2,0:2:0:0:
394,85,195917,1,0,0:2:0:0:
79,187,196063,5,6,3:2:0:0:
280,47,196210,1,0,3:2:0:0:
283,282,196356,1,0,3:2:0:0:
183,125,196502,1,0,0:2:0:0:
394,223,196649,1,8,0:2:0:0:
157,328,196795,1,8,0:2:0:0:
294,165,196941,1,8,0:2:0:0:
338,383,197088,5,6,3:2:0:0:
280,47,197380,1,6,3:2:0:0:
79,260,197673,1,6,3:2:0:0:
175,8,197966,1,8,0:2:0:0:
262,138,198112,1,8,0:2:0:0:
262,138,198185,1,8,0:2:0:0:
262,138,198258,5,6,3:2:0:0:
48,165,198551,1,6,3:2:0:0:
309,318,198844,1,6,3:2:0:0:
81,354,199137,1,6,3:2:0:0:
67,328,199210,1,8,0:0:0:0:
59,301,199283,1,8,0:0:0:0:
59,272,199356,1,8,0:0:0:0:
67,245,199429,1,8,0:0:0:0:
81,220,199502,1,8,0:0:0:0:
101,199,199576,6,0,P|144:150|136:88,1,116.875003566742,2|2,0:0|0:0,0:0:0:0:
98,33,200015,2,0,L|103:9,9,23.3750007133484,2|2|2|2|2|2|2|2|2|2,0:0|0:0|0:0|0:0|0:0|0:0|0:0|0:0|0:0|0:0,0:0:0:0:
52,116,200746,5,14,0:0:0:0:
