osu file format v14

[General]
AudioFilename: audio.mp3
AudioLeadIn: 0
PreviewTime: 179127
Countdown: 0
SampleSet: Soft
StackLeniency: 0.7
Mode: 0
LetterboxInBreaks: 0
WidescreenStoryboard: 1

[Editor]
Bookmarks: 26273,35639,45005,88322,129151,136761,200712
DistanceSpacing: 1
BeatDivisor: 4
GridSize: 16
TimelineZoom: 2.2

[Metadata]
Title:Sarumane Isutori Game
TitleUnicode:猿マネ椅子盗りゲーム
Artist:D-ne (CV: Aizawa Mai)
ArtistUnicode:D音(CV: 相沢舞)
Creator:Nevo
Version:Collab Hard
Source:終焉ノ栞プロジェクト
Tags:vocaloid IA cover Shuuen no Shiori dne 終焉-Re.act- bookmark demise project 150p japanese rock Aimless Imitation Chair Stealing Game aakki nymphe amb1d3x Hishiro Chizuru Vilippu Evil [-Evil-] kiyoshi guarden
BeatmapID:2510705
BeatmapSetID:1090804

[Difficulty]
HPDrainRate:5
CircleSize:3.7
OverallDifficulty:7
ApproachRate:8
SliderMultiplier:1.4
SliderTickRate:1

[Events]
//Background and Video events
0,0,"POG_PT_2.jpg",0,0
Video,-665,"This Is A Video.mp4"
//Break Periods
2,73336,81752
2,129677,130923
2,170307,176874
//Storyboard Layer 0 (Background)
//Storyboard Layer 1 (Fail)
//Storyboard Layer 2 (Pass)
//Storyboard Layer 3 (Foreground)
//Storyboard Layer 4 (Overlay)
//Storyboard Sound Samples

[TimingPoints]
12259,292.682926829268,4,2,1,80,1,0
26307,-100,4,2,1,70,0,0
45039,-133.333333333333,4,2,1,60,0,0
49722,-100,4,2,1,75,0,0
54405,-83.3333333333333,4,2,1,90,0,1
63332,-200,4,2,1,90,0,1
63624,-83.3333333333333,4,2,1,90,0,1
73137,-83.3333333333333,4,2,1,80,0,0
82502,-181.818181818181,4,2,1,60,0,0
87185,-133.333333333333,4,2,1,60,0,0
91868,-100,4,2,1,70,0,0
101234,-133.333333333333,4,2,1,60,0,0
105917,-100,4,2,1,75,0,0
110600,-83.3333333333333,4,2,1,90,0,1
119527,-200,4,2,1,90,0,1
119819,-83.3333333333333,4,2,1,90,0,1
129185,-100,4,2,1,80,0,0
130063,-100,4,2,1,50,0,0
130941,-100,4,2,1,60,0,0
131673,-100,4,2,1,70,0,0
141039,-100,4,2,1,80,0,0
150405,-100,4,2,1,90,0,0
167819,-100,4,2,1,80,0,0
170307,-100,4,2,1,50,0,0
177624,-111.111111111111,4,2,1,50,0,0
178502,-111.111111111111,4,2,1,5,0,0
178649,-111.111111111111,4,2,1,50,0,0
178795,-111.111111111111,4,2,1,5,0,0
178942,-111.111111111111,4,2,1,50,0,0
179088,-111.111111111111,4,2,1,5,0,0
179235,-111.111111111111,4,2,1,50,0,0
179527,-83.3333333333333,4,2,1,90,0,1
199576,-133.333333333333,4,2,1,80,0,1
200746,-100,4,2,1,70,0,0

[Colours]
Combo1 : 117,117,117
Combo2 : 254,207,22
Combo3 : 167,18,18
Combo4 : 88,19,183

[HitObjects]
300,320,16941,6,0,P|307:328|331:259,1,140,6|8,3:2|0:2,0:2:0:0:
266,221,17380,2,0,P|193:219|114:228,1,140,2|0,3:2|3:2,0:2:0:0:
39,251,17819,1,8,0:2:0:0:
4,162,17966,6,0,P|-5:117|45:39,1,140,2|0,3:2|3:2,0:2:0:0:
131,71,18405,2,0,L|228:65,1,70,8|0,0:2|3:2,0:0:0:0:
288,12,18698,1,2,3:2:0:0:
427,92,18990,1,10,0:2:0:0:
333,227,19283,6,0,P|285:225|335:186,1,140,2|8,3:2|0:2,0:2:0:0:
425,210,19722,2,0,L|404:355,1,140,2|0,3:2|3:2,0:2:0:0:
329,379,20161,1,8,0:2:0:0:
250,332,20307,6,0,P|197:317|96:343,1,140,2|0,3:2|3:2,0:2:0:0:
38,383,20746,2,0,P|25:341|42:297,1,70,8|0,0:2|3:2,0:0:0:0:
95,249,21039,2,0,P|110:214|91:167,1,70,0|0,3:2|3:2,0:0:0:0:
49,118,21332,1,8,0:2:0:0:
213,162,21624,6,0,B|253:156|253:156|316:164|316:164|383:149,1,140,6|8,3:2|0:2,0:2:0:0:
426,115,22063,2,0,P|399:78|375:70,1,70,2|0,3:2|0:2,0:2:0:0:
303,26,22356,1,0,3:2:0:0:
234,80,22502,1,8,0:2:0:0:
169,35,22649,6,0,L|22:20,1,140,2|0,3:2|3:2,0:2:0:0:
28,105,23088,2,0,L|40:185,1,70,8|0,0:2|3:2,0:0:0:0:
131,215,23380,1,2,3:2:0:0:
46,326,23673,1,8,0:2:0:0:
165,368,23966,6,0,P|217:374|243:362,1,70,6|0,3:2|0:2,0:2:0:0:
293,315,24258,2,0,P|329:301|374:309,1,70,8|0,0:2|3:2,0:0:0:0:
448,363,24551,1,0,0:2:0:0:
448,363,24698,1,0,3:2:0:0:
475,273,24844,1,8,0:2:0:0:
407,199,24990,6,0,P|384:149|406:57,1,140,2|0,3:2|3:2,0:2:0:0:
482,15,25429,1,14,0:2:0:0:
282,114,25722,2,0,L|240:105,3,35,8|0|8|8,0:2|0:0|0:2|0:2,0:0:0:0:
207,143,26015,2,0,L|165:134,3,35,8|0|8|8,0:2|0:0|0:2|0:2,0:0:0:0:
135,97,26307,6,0,P|121:57|193:-6,1,140,6|8,3:2|0:2,0:2:0:0:
267,47,26746,1,0,3:2:0:0:
267,47,26893,2,0,L|367:36,1,70,2|0,0:2|3:2,0:2:0:0:
384,106,27185,2,0,L|453:113,1,70,10|0,0:2|0:2,0:2:0:0:
505,185,27478,5,2,3:2:0:0:
431,240,27624,1,2,3:2:0:0:
478,336,27771,1,8,0:2:0:0:
478,336,27917,2,0,P|433:325|324:335,1,140,2|0,3:2|3:2,0:2:0:0:
235,363,28356,2,0,L|147:354,1,70,8|8,0:2|0:2,0:0:0:0:
42,314,28649,6,0,P|94:294|111:209,1,140,2|8,3:2|0:2,0:2:0:0:
56,136,29088,1,0,3:2:0:0:
56,136,29234,2,0,P|107:189|195:189,1,140,2|8,0:2|0:2,0:2:0:0:
242,139,29673,6,0,L|323:132,1,70,2|0,3:2|3:2,0:2:0:0:
359,47,29966,2,0,L|278:40,1,70,2|8,3:2|0:2,0:2:0:0:
169,59,30258,2,0,P|146:100|152:137,1,70,2|0,3:2|0:2,0:2:0:0:
195,191,30551,2,0,P|210:229|211:266,1,70,2|8,3:2|0:2,0:2:0:0:
210,355,30844,6,0,P|285:329|301:330,1,70,2|0,3:2|3:2,0:2:0:0:
408,352,31137,2,0,L|487:365,2,70,2|10|2,0:2|0:2|3:2,0:0:0:0:
339,298,31576,2,0,L|326:217,1,70,2|2,0:2|3:2,0:0:0:0:
265,166,31868,2,0,L|278:85,1,70,10|2,0:2|0:2,0:0:0:0:
332,31,32161,5,2,3:2:0:0:
414,8,32307,1,0,3:2:0:0:
481,60,32454,2,0,P|499:97|496:133,1,70,8|0,0:2|3:2,0:2:0:0:
442,201,32746,2,0,L|353:196,1,70,2|0,3:2|0:0,0:2:0:0:
265,166,33039,1,8,0:2:0:0:
265,166,33185,1,8,0:2:0:0:
189,244,33332,6,0,P|103:268|57:239,2,140,2|10|2,3:2|0:2|3:2,0:2:0:0:
119,109,34210,1,8,0:2:0:0:
118,108,34356,6,0,L|129:188,1,70,2|0,3:2|3:0,0:2:0:0:
203,247,34649,1,0,3:2:0:0:
181,329,34795,1,8,0:2:0:0:
95,354,34941,1,0,3:2:0:0:
31,286,35088,2,0,P|77:261|119:262,1,70,2|0,3:2|0:2,0:2:0:0:
127,177,35380,2,0,P|177:191|206:222,1,70,8|0,0:2|0:2,0:0:0:0:
260,277,35673,6,0,P|318:290|407:255,1,140,6|8,3:2|0:2,0:2:0:0:
448,198,36112,2,0,L|425:359,1,140,2|0,3:2|3:2,0:2:0:0:
318,193,36551,2,0,L|307:105,1,70,8|0,0:2|0:2,0:2:0:0:
256,46,36844,6,0,P|203:32|183:37,1,70,2|0,3:2|3:2,0:2:0:0:
127,117,37137,2,2,P|141:169|155:184,1,70,10|2,0:2|3:2,0:2:0:0:
236,235,37429,1,2,3:2:0:0:
80,371,37722,2,0,L|-11:356,1,70,8|8,0:2|0:2,0:0:0:0:
100,285,38015,6,0,L|240:265,1,140,2|8,3:2|0:2,0:2:0:0:
327,216,38454,1,0,3:2:0:0:
327,216,38600,2,0,P|339:183|335:149,1,70,0|0,0:2|3:2,0:0:0:0:
284,68,38893,1,8,0:2:0:0:
364,23,39039,6,0,L|445:36,1,70,2|0,3:2|3:2,0:2:0:0:
491,104,39332,2,0,L|478:182,1,70,2|8,0:2|0:2,0:2:0:0:
397,215,39624,2,0,L|316:228,1,70,2|0,0:2|0:2,0:2:0:0:
270,296,39917,2,0,L|283:374,1,70,2|8,0:2|0:2,0:2:0:0:
163,335,40210,6,0,L|171:186,1,140,2|0,3:2|0:2,0:2:0:0:
146,111,40649,2,0,P|92:93|60:99,1,70,10|2,0:2|3:2,0:0:0:0:
25,159,40941,2,0,L|34:262,1,70,2|2,0:2|3:2,0:0:0:0:
64,317,41234,1,10,0:2:0:0:
64,317,41380,1,2,3:2:0:0:
156,266,41527,6,0,P|218:250|252:251,1,70,2|0,3:2|3:2,0:2:0:0:
313,287,41819,2,0,P|360:287|406:274,1,70,10|0,0:2|3:2,0:2:0:0:
465,223,42112,2,0,P|489:172|454:68,1,140,2|8,0:2|0:2,0:2:0:0:
417,21,42551,1,8,0:2:0:0:
344,75,42698,6,0,L|245:68,1,70,2|0,3:2|0:0,0:2:0:0:
208,139,42990,2,0,L|109:132,1,70,8|0,0:2|3:2,0:2:0:0:
75,197,43283,2,0,P|60:242|77:278,1,70,2|0,0:2|3:2,0:2:0:0:
133,318,43576,1,8,0:2:0:0:
225,278,43722,6,0,P|287:261|374:256,1,140,2|0,3:2|3:2,0:2:0:0:
456,272,44161,2,0,L|437:342,1,70,8|0,0:2|3:2,0:0:0:0:
359,382,44454,1,0,3:2:0:0:
276,346,44600,2,0,L|273:306,2,35,8|8|8,0:2|0:2|0:2,0:0:0:0:
194,384,44893,1,8,3:0:0:0:
84,318,45039,6,0,P|56:256|105:131,1,210.000008010865,6|2,3:2|3:2,0:2:0:0:
199,70,45917,1,2,3:2:0:0:
273,151,46210,6,0,B|322:118|370:140|370:140|431:169|476:139,1,210.000008010865,2|2,3:2|0:2,0:2:0:0:
416,62,47088,1,2,3:2:0:0:
306,232,47380,6,0,P|299:273|325:341,1,105.000004005432,2|0,3:2|3:2,0:2:0:0:
202,198,47966,2,0,P|209:239|183:307,1,105.000004005432,2|0,3:2|3:2,0:2:0:0:
304,131,48551,5,2,3:2:0:0:
153,81,48844,1,2,3:2:0:0:
28,201,49137,1,2,3:2:0:0:
196,251,49429,1,2,3:2:0:0:
156,339,49576,1,8,0:2:0:0:
156,339,49649,1,8,0:2:0:0:
156,339,49722,6,0,L|74:330,1,70,6|0,3:2|0:2,0:2:0:0:
20,270,50015,2,0,L|29:188,1,70,8|0,0:2|3:2,0:0:0:0:
106,155,50307,2,0,L|188:146,1,70,8|0,0:2|3:2,0:0:0:0:
242,86,50600,2,0,L|233:4,1,70,8|0,0:2|3:2,0:0:0:0:
327,44,50893,6,0,P|375:47|403:60,1,70,14|0,0:2|3:2,0:0:0:0:
455,135,51185,2,0,P|407:138|379:151,1,70,8|0,0:2|3:2,0:0:0:0:
312,227,51478,2,0,P|360:230|388:243,1,70,8|0,0:2|3:2,0:0:0:0:
440,318,51770,2,0,P|392:321|364:334,1,70,8|0,0:2|3:2,0:0:0:0:
280,379,52063,6,0,P|221:376|143:331,1,140,14|8,0:2|0:2,0:0:0:0:
95,256,52502,1,0,3:2:0:0:
146,181,52649,1,8,0:2:0:0:
121,93,52795,1,0,3:2:0:0:
27,91,52941,2,0,L|42:147,4,35,8|8|8|8|14,0:2|0:2|0:2|0:2|0:2,0:2:0:0:
304,322,54112,2,0,P|348:333|391:332,1,70,2|0,0:2|0:2,0:2:0:0:
448,299,54405,6,0,P|467:231|425:139,1,167.999994873047,6|8,3:2|0:2,0:2:0:0:
346,88,54844,1,0,0:2:0:0:
346,88,54990,2,0,L|167:75,1,167.999994873047,2|10,3:2|0:2,0:0:0:0:
90,125,55429,6,0,P|73:180|87:235,1,83.9999974365235,6|0,3:2|0:0,0:2:0:0:
166,251,55722,2,0,L|257:234,1,83.9999974365235,2|8,3:2|0:0,0:2:0:0:
348,250,56015,2,0,P|365:305|351:360,1,83.9999974365235,6|0,3:2|0:2,0:2:0:0:
267,384,56308,2,0,L|176:367,1,83.9999974365235,2|8,3:2|0:2,0:2:0:0:
89,335,56600,1,0,3:2:0:0:
27,265,56746,6,0,P|17:192|78:102,2,167.999994873047,6|10|2,3:2|0:2|0:2,0:2:0:0:
89,335,57478,2,0,L|178:318,1,83.9999974365235,0|10,3:2|0:2,0:0:0:0:
262,274,57771,6,0,P|303:270|343:283,1,83.9999974365235,2|0,3:2|0:2,0:2:0:0:
437,319,58063,2,0,L|426:227,1,83.9999974365235,2|8,3:2|0:2,0:2:0:0:
405,136,58356,2,0,B|365:107|324:124|324:124|283:143|228:114,1,167.999994873047,2|0,3:2|3:2,0:2:0:0:
155,85,58795,1,10,0:2:0:0:
155,85,58941,1,0,3:2:0:0:
55,105,59088,6,0,L|74:218,1,83.9999974365235,6|0,3:2|0:2,0:2:0:0:
89,272,59380,1,10,0:2:0:0:
89,272,59527,1,0,3:2:0:0:
182,250,59673,6,0,L|201:137,1,83.9999974365235,6|0,3:2|3:2,0:2:0:0:
248,93,59966,1,8,0:2:0:0:
341,80,60112,6,0,B|402:99|452:60|452:60|439:136,1,167.999994873047,6|0,3:2|3:2,0:2:0:0:
373,172,60551,2,0,L|390:260,1,83.9999974365235,10|0,0:2|0:2,0:2:0:0:
451,326,60844,2,0,P|407:304|354:314,1,83.9999974365235,2|0,3:2|3:2,0:2:0:0:
291,357,61137,2,0,P|241:370|197:364,1,83.9999974365235,10|0,0:2|3:2,0:2:0:0:
125,311,61429,6,0,L|104:214,1,83.9999974365235,6|0,3:2|3:2,0:0:0:0:
48,158,61722,1,10,0:2:0:0:
48,158,61868,1,0,3:2:0:0:
116,93,62015,2,0,P|177:70|203:72,1,83.9999974365235,10|8,0:2|0:2,0:0:0:0:
260,134,62307,6,0,L|254:187,2,41.9999987182618,8|8|6,0:2|0:2|3:2,0:0:0:0:
447,61,62746,1,6,3:2:0:0:
504,233,63039,1,6,3:2:0:0:
318,300,63332,1,6,3:2:0:0:
381,191,63624,6,0,L|359:364,1,167.999994873047,6|0,3:2|3:2,0:2:0:0:
270,379,64063,2,0,P|228:366|184:369,1,83.9999974365235,10|0,0:2|0:2,0:2:0:0:
97,365,64356,2,0,P|60:318|93:204,1,167.999994873047,0|8,3:2|0:2,0:0:0:0:
190,188,64795,6,0,B|315:199|315:199|365:156,2,167.999994873047,6|6|6,3:2|3:2|3:2,0:0:0:0:
112,122,65673,2,0,P|95:83|104:43,1,83.9999974365235,8|8,0:2|0:2,0:0:0:0:
202,51,65966,1,8,0:2:0:0:
282,124,66112,6,0,P|268:206|257:290,1,167.999994873047,6|10,3:2|0:2,0:2:0:0:
348,338,66551,1,0,0:2:0:0:
348,338,66698,2,0,P|382:313|405:274,1,83.9999974365235,2|0,3:2|3:2,0:0:0:0:
442,196,66990,1,10,0:2:0:0:
376,132,67137,6,0,P|301:120|207:157,1,167.999994873047,2|2,3:2|3:2,0:2:0:0:
71,251,67722,2,0,P|25:195|45:92,1,167.999994873047,2|0,3:2|3:2,0:2:0:0:
132,85,68161,2,0,L|111:180,1,83.9999974365235,10|0,0:2|3:2,0:0:0:0:
218,237,68454,6,0,L|210:139,1,83.9999974365235,6|0,3:2|0:2,0:2:0:0:
261,63,68746,1,10,0:2:0:0:
261,63,68893,1,0,0:2:0:0:
355,97,69039,6,0,L|347:195,1,83.9999974365235,2|0,3:2|0:2,0:2:0:0:
409,244,69332,1,8,0:2:0:0:
384,332,69478,6,0,P|309:339|248:256,1,167.999994873047,6|0,3:2|3:2,0:2:0:0:
226,163,69917,2,0,L|215:69,1,83.9999974365235,10|0,0:2|0:2,0:2:0:0:
122,25,70210,2,0,L|111:119,1,83.9999974365235,2|0,3:2|3:2,0:2:0:0:
49,175,70502,2,0,L|55:274,1,83.9999974365235,2|0,3:2|0:2,0:2:0:0:
111,329,70795,5,6,3:2:0:0:
111,329,70941,1,0,3:2:0:0:
191,284,71088,2,0,P|229:265|295:276,1,83.9999974365235,0|0,3:2|0:2,0:0:0:0:
346,309,71380,2,0,P|384:328|450:317,1,83.9999974365235,8|8,0:2|0:2,0:2:0:0:
501,274,71673,1,8,0:2:0:0:
512,185,71819,5,6,3:2:0:0:
318,218,72112,1,6,3:2:0:0:
277,49,72405,1,6,3:2:0:0:
484,10,72698,1,8,0:2:0:0:
436,90,72844,6,0,L|373:81,4,41.9999987182618,8|8|8|8|14,0:2|0:2|0:2|0:2|0:2,0:0:0:0:
425,253,82502,6,0,P|376:209|354:296,1,192.500005874634,6|0,3:2|0:2,0:2:0:0:
70,320,84844,6,0,P|119:276|141:363,1,192.500005874634,6|0,3:2|0:0,0:2:0:0:
242,202,86746,2,0,L|251:257,2,38.5000011749268,8|8|8,3:3|3:3|3:3,0:0:0:0:
161,122,87185,6,0,P|109:111|56:135,1,105.000004005432,6|0,0:2|0:2,0:2:0:0:
15,201,87624,1,0,0:2:0:0:
15,201,87771,2,0,L|31:271,1,52.5000020027161,10|0,0:2|0:2,0:2:0:0:
107,286,88063,2,0,L|123:356,1,52.5000020027161,2|0,0:2|3:2,0:2:0:0:
208,384,88356,5,6,0:2:0:0:
208,384,88502,1,8,0:2:0:0:
216,288,88649,2,0,L|223:220,1,52.5000020027161,8|8,0:2|0:2,0:0:0:0:
288,176,88941,2,0,L|294:105,1,52.5000020027161,6|8,3:2|0:2,0:2:0:0:
376,72,89234,1,8,0:2:0:0:
376,72,89307,1,0,0:0:0:0:
376,72,89380,2,0,L|374:132,1,52.5000020027161,8|10,0:2|0:2,0:0:0:0:
480,232,91868,6,0,P|443:295|443:374,1,140,6|8,3:2|0:2,0:2:0:0:
352,320,92307,1,0,3:2:0:0:
352,320,92454,2,0,L|264:312,1,70,2|0,0:2|3:2,0:2:0:0:
208,368,92746,2,0,L|136:376,1,70,10|0,0:2|0:2,0:2:0:0:
21,366,93039,5,2,3:2:0:0:
21,366,93185,2,0,L|20:271,1,70,0|10,3:0|0:0,0:0:0:0:
48,208,93478,1,0,3:0:0:0:
8,120,93624,2,0,B|30:93|30:93|66:77,1,70,2|0,0:0|3:2,0:0:0:0:
128,16,93917,2,0,L|200:24,1,70,8|8,0:2|0:2,0:0:0:0:
272,72,94210,6,0,P|279:136|248:206,1,140,2|8,3:2|0:2,0:2:0:0:
183,277,94649,1,0,3:2:0:0:
183,277,94795,2,0,P|210:306|253:325,1,70,2|0,0:2|3:2,0:2:0:0:
328,288,95088,2,0,L|325:239,2,35,8|0|2,0:2|0:0|3:2,0:0:0:0:
336,368,95380,1,0,3:2:0:0:
416,320,95527,6,0,P|412:280|415:233,1,70,2|8,3:2|0:2,0:2:0:0:
491,199,95819,2,0,P|494:164|494:129,1,70,2|8,3:2|0:2,0:2:0:0:
465,36,96112,2,0,P|430:32|395:32,1,70,2|8,3:2|0:2,0:2:0:0:
336,112,96405,2,0,P|301:115|266:115,1,70,2|0,3:2|3:2,0:2:0:0:
208,40,96698,6,0,L|120:45,1,70,2|10,0:2|0:2,0:0:0:0:
48,80,96990,2,0,B|41:118|41:118|48:168,1,70,2|2,3:2|0:2,0:0:0:0:
112,224,97283,1,2,3:2:0:0:
112,224,97429,2,0,L|208:232,1,70,10|2,0:2|0:2,0:0:0:0:
272,248,97722,6,0,P|280:288|272:328,1,70,2|0,3:2|3:2,0:2:0:0:
192,368,98015,2,0,L|104:376,1,70,8|0,0:2|3:2,0:2:0:0:
32,384,98307,2,0,B|0:329|0:329|0:311|0:311|32:256,1,140,2|8,3:2|0:2,0:2:0:0:
80,191,98746,1,8,0:2:0:0:
160,224,98893,6,0,P|192:233|240:224,1,70,2|0,3:2|0:2,0:2:0:0:
288,152,99185,2,0,P|288:118|268:74,1,70,10|0,0:2|3:2,0:2:0:0:
328,7,99478,2,0,P|352:25|417:22,1,70,2|0,3:2|0:2,0:2:0:0:
486,14,99771,1,8,0:2:0:0:
443,99,99917,6,0,B|411:154|411:154|411:172|411:172|443:227,1,140,2|0,3:2|3:2,0:2:0:0:
504,279,100356,2,0,L|499:353,1,70,8|0,0:2|0:2,0:2:0:0:
417,320,100649,1,2,3:2:0:0:
334,284,100795,2,0,L|331:244,2,35,0|0|8,3:2|3:2|0:2,0:0:0:0:
252,322,101088,1,0,0:2:0:0:
176,368,101234,6,0,P|102:306|16:374,1,210.000008010865,6|2,3:2|3:2,0:2:0:0:
0,264,102112,1,2,3:2:0:0:
63,192,102405,6,0,B|127:120|127:120|127:104|127:104|63:0,1,210.000008010865,2|2,3:2|0:2,0:2:0:0:
10,102,103283,1,2,3:2:0:0:
63,192,103576,6,0,P|117:206|173:166,1,105.000004005432,2|0,3:2|3:2,0:2:0:0:
289,54,104161,2,0,P|242:32|192:47,1,105.000004005432,2|0,3:2|3:2,0:2:0:0:
236,152,104746,5,2,3:2:0:0:
333,31,105039,1,2,3:2:0:0:
385,168,105332,1,2,3:2:0:0:
281,294,105624,1,2,3:2:0:0:
371,351,105771,1,8,0:2:0:0:
371,351,105844,1,8,0:2:0:0:
371,351,105917,6,0,L|446:356,1,70,6|0,3:2|0:2,0:2:0:0:
489,275,106210,2,0,L|419:270,1,70,8|0,0:2|3:2,0:0:0:0:
348,183,106502,2,0,L|423:188,1,70,8|0,0:2|3:2,0:0:0:0:
466,107,106795,2,0,L|396:102,1,70,8|0,0:2|3:2,0:0:0:0:
342,40,107088,6,0,B|306:23|306:23|248:33,1,70,14|0,0:2|3:2,0:0:0:0:
245,107,107380,2,0,B|208:120|208:120|178:111,1,70,8|0,0:2|3:2,0:0:0:0:
146,30,107673,2,0,L|68:19,1,70,8|0,0:2|3:2,0:0:0:0:
21,90,107966,2,0,L|10:167,1,70,8|0,0:2|3:2,0:0:0:0:
0,248,108258,6,0,B|24:232|64:240|80:256|120:264|144:248,1,140,14|8,0:2|0:2,0:0:0:0:
203,192,108698,1,0,3:2:0:0:
127,141,108844,1,8,0:2:0:0:
209,102,108990,1,0,3:2:0:0:
291,60,109137,2,0,L|285:5,2,35,8|8|8,0:2|0:2|0:2,0:2:0:0:
352,112,109429,2,0,L|355:146,2,35,14|0|8,0:2|0:0|0:0,0:0:0:0:
402,50,109722,2,0,P|440:31|508:105,1,140,8|10,0:0|0:0,0:0:0:0:
504,232,110307,2,0,L|419:247,1,70,8|0,0:0|0:0,0:0:0:0:
384,312,110600,6,0,B|344:296|344:296|296:309,1,83.9999974365235,6|0,3:2|0:0,0:2:0:0:
232,352,110893,2,0,B|192:376|112:376|64:344,1,167.999994873047,8|2,0:2|3:2,0:2:0:0:
8,288,111332,1,0,3:2:0:0:
89,248,111478,1,10,0:2:0:0:
48,168,111624,6,0,L|45:82,1,83.9999974365235,6|0,3:2|0:0,0:2:0:0:
0,8,111917,2,0,L|92:6,1,83.9999974365235,2|0,3:2|0:0,0:2:0:0:
184,16,112210,2,0,L|186:99,1,83.9999974365235,6|0,3:2|0:2,0:2:0:0:
256,159,112502,2,0,L|348:157,1,83.9999974365235,2|8,3:2|0:2,0:2:0:0:
392,80,112795,1,0,3:2:0:0:
464,8,112941,6,0,B|486:85|486:85|486:93|486:93|464:176,1,167.999994873047,6|10,3:2|0:2,0:2:0:0:
432,256,113380,1,0,0:2:0:0:
492,342,113527,2,0,P|447:336|385:364,1,83.9999974365235,2|0,0:2|3:2,0:2:0:0:
326,306,113819,1,10,0:2:0:0:
280,371,113966,6,0,L|176:375,1,83.9999974365235,2|0,3:2|0:2,0:2:0:0:
143,316,114258,2,0,L|39:320,1,83.9999974365235,2|8,3:2|0:2,0:2:0:0:
5,238,114551,2,0,L|176:230,1,167.999994873047,2|0,3:2|3:2,0:2:0:0:
238,293,114990,5,10,0:2:0:0:
238,293,115137,1,0,3:2:0:0:
313,246,115283,2,0,L|308:134,1,83.9999974365235,6|0,3:2|0:2,0:2:0:0:
255,97,115576,5,10,0:2:0:0:
255,97,115722,1,0,3:2:0:0:
314,29,115868,2,0,L|416:23,1,83.9999974365235,6|0,3:2|3:2,0:2:0:0:
487,17,116161,1,8,0:2:0:0:
512,103,116307,6,0,P|527:148|474:261,1,167.999994873047,6|0,3:2|3:2,0:2:0:0:
408,205,116746,1,10,0:2:0:0:
375,285,116893,1,0,0:2:0:0:
406,372,117039,2,0,B|353:367|353:367|297:383|297:383|233:375,1,167.999994873047,2|10,3:2|0:2,0:2:0:0:
147,345,117478,1,0,3:2:0:0:
58,365,117624,6,0,B|48:327|48:327|58:274,1,83.9999974365235,6|0,3:2|3:2,0:0:0:0:
136,240,117917,2,0,L|133:133,1,83.9999974365235,10|0,0:2|3:2,0:0:0:0:
72,96,118210,2,0,L|14:102,2,41.9999987182618,10|0|8,0:2|0:0|0:2,0:0:0:0:
137,37,118502,1,8,0:2:0:0:
211,69,118649,2,0,P|236:118|222:236,2,167.999994873047,6|6|6,3:2|3:2|3:2,0:0:0:0:
112,160,119527,5,6,3:2:0:0:
24,264,119819,6,0,B|130:264|82:294|192:295,1,167.999994873047,6|0,3:2|3:2,0:2:0:0:
258,348,120258,2,0,P|300:354|340:372,1,83.9999974365235,10|0,0:2|0:2,0:2:0:0:
423,343,120551,2,0,P|465:348|508:341,1,83.9999974365235,0|8,3:2|0:2,0:0:0:0:
465,259,120844,1,8,0:2:0:0:
401,213,120990,2,0,P|380:126|439:46,2,167.999994873047,6|6|6,3:2|3:2|3:2,0:0:0:0:
304,146,121868,5,8,0:2:0:0:
304,146,122015,2,0,L|211:147,1,83.9999974365235,8|8,0:2|0:2,0:0:0:0:
152,200,122307,2,0,L|163:369,1,167.999994873047,6|10,3:2|0:2,0:2:0:0:
84,375,122746,1,0,0:2:0:0:
84,375,122893,2,0,L|80:289,1,83.9999974365235,2|0,3:2|3:2,0:0:0:0:
10,243,123185,1,10,0:2:0:0:
3,158,123332,6,0,L|-1:72,1,83.9999974365235,2|0,3:2|0:0,0:2:0:0:
71,22,123624,2,0,B|111:10|111:10|172:26,1,83.9999974365235,2|8,3:2|0:2,0:2:0:0:
200,96,123917,2,0,B|232:112|264:96|328:64|391:100,1,167.999994873047,2|0,3:2|3:2,0:2:0:0:
438,37,124356,5,10,0:2:0:0:
438,37,124502,1,0,3:2:0:0:
455,116,124649,2,0,L|470:214,1,83.9999974365235,6|0,3:2|0:2,0:2:0:0:
488,288,124941,5,10,0:2:0:0:
488,288,125088,1,0,0:2:0:0:
504,376,125234,2,0,P|464:368|416:376,1,83.9999974365235,2|0,3:2|0:2,0:2:0:0:
354,320,125527,1,8,0:2:0:0:
282,373,125673,6,0,B|250:341|250:341|256:192,1,167.999994873047,6|0,3:2|3:2,0:2:0:0:
264,128,126112,1,10,0:2:0:0:
272,40,126259,1,0,0:2:0:0:
189,6,126405,2,0,P|124:19|94:117,1,167.999994873047,2|10,3:2|0:2,0:2:0:0:
150,174,126844,1,0,0:2:0:0:
213,238,126990,6,0,B|234:283|199:331,1,83.9999974365235,6|0,3:2|3:2,0:0:0:0:
143,380,127283,2,0,L|32:375,1,83.9999974365235,0|0,3:2|0:2,0:0:0:0:
42,289,127576,2,0,L|-18:287,2,41.9999987182618,8|0|8,0:2|0:0|0:2,0:2:0:0:
117,243,127868,1,8,0:2:0:0:
192,192,128015,2,0,P|273:208|350:179,2,167.999994873047,6|6|6,3:2|3:2|3:2,0:0:0:0:
72,108,128893,5,8,0:2:0:0:
72,108,129039,1,8,0:2:0:0:
136,52,129185,2,0,B|184:12|184:12|277:25,1,140,14|0,0:2|0:0,0:0:0:0:
141,335,131673,6,0,P|118:294|130:192,1,140,6|8,3:2|0:2,0:2:0:0:
217,159,132112,2,0,L|56:179,1,140,2|2,3:2|0:2,0:2:0:0:
104,82,132551,2,0,L|201:70,1,70,8|2,0:2|0:2,0:0:0:0:
278,48,132844,6,0,P|341:58|361:69,1,70,6|0,3:2|0:0,0:2:0:0:
433,119,133137,2,0,P|467:155|464:268,2,140,8|0|8,0:2|0:0|0:2,0:0:0:0:
346,140,133868,1,8,0:2:0:0:
346,140,134015,6,0,L|327:241,1,70,6|0,3:2|0:2,0:2:0:0:
257,258,134307,2,0,L|244:189,1,70,8|0,0:2|0:2,0:2:0:0:
169,123,134600,2,0,L|150:224,1,70,2|0,3:2|0:2,0:2:0:0:
86,264,134892,2,0,L|73:195,1,70,8|0,0:2|0:2,0:2:0:0:
100,54,135185,6,0,B|133:22|133:22|246:32,1,140,2|8,3:2|0:2,0:0:0:0:
315,64,135624,2,0,B|328:109|314:139|314:139|300:169|325:221,1,140,2|8,3:2|3:2,0:2:0:0:
394,245,136063,2,0,L|378:327,1,70,8|8,3:2|0:2,0:0:0:0:
300,339,136356,6,0,B|263:370|263:370|170:362,1,140,6|8,3:2|0:2,0:2:0:0:
100,316,136795,2,0,P|135:285|128:187,1,140,2|0,0:2|0:2,0:2:0:0:
100,120,137234,1,8,0:2:0:0:
33,170,137380,1,0,0:2:0:0:
8,89,137527,6,0,P|52:42|146:30,1,140,6|8,3:2|0:2,0:2:0:0:
195,70,137966,2,0,B|229:91|229:91|349:65,1,140,2|0,3:2|0:2,0:2:0:0:
402,32,138405,1,8,0:2:0:0:
465,86,138551,1,8,0:2:0:0:
390,126,138698,2,0,P|385:175|389:286,2,140,2|2|2,3:2|3:2|3:2,0:2:0:0:
243,43,139576,1,2,3:2:0:0:
179,98,139722,1,0,0:2:0:0:
179,98,139868,6,0,L|190:193,1,70,8|8,0:2|0:2,0:0:0:0:
167,249,140161,1,8,0:2:0:0:
250,237,140307,2,0,B|287:232|304:200|304:200|324:170|364:161,1,140,8|8,0:2|0:2,0:0:0:0:
449,148,140746,1,8,0:2:0:0:
449,148,140893,1,8,0:2:0:0:
415,224,141039,6,0,L|409:365,1,140,6|10,3:2|0:2,0:2:0:0:
332,328,141478,1,0,0:2:0:0:
255,361,141624,2,0,P|220:367|186:359,1,70,8|0,0:2|0:2,0:2:0:0:
133,294,141917,1,8,0:2:0:0:
200,244,142063,1,0,0:2:0:0:
200,244,142210,6,0,L|192:160,1,70,8|0,0:2|0:2,0:2:0:0:
141,108,142502,1,8,0:2:0:0:
62,138,142649,2,0,P|96:178|128:189,1,70,6|0,3:2|0:0,0:2:0:0:
193,174,142941,2,0,P|227:134|259:123,2,70,0|8|0,0:2|0:2|3:2,0:0:0:0:
263,220,143380,5,6,3:2:0:0:
326,164,143527,2,0,L|314:80,1,70,0|8,0:2|0:2,0:0:0:0:
382,28,143819,2,0,B|414:54|414:54|427:151,1,140,0|0,0:2|0:2,0:0:0:0:
386,229,144258,2,0,P|345:249|300:246,1,70,8|8,0:2|0:2,0:0:0:0:
255,197,144551,6,0,P|214:177|169:180,1,70,6|0,3:2|0:2,0:2:0:0:
131,236,144844,1,8,0:2:0:0:
60,191,144990,2,0,B|29:219|29:219|51:327,1,140,0|8,0:2|0:2,0:0:0:0:
123,354,145429,2,0,L|130:319,2,35,8|8|8,0:2|0:2|0:2,0:0:0:0:
206,363,145722,6,0,B|241:375|276:349|276:349|310:327|347:338,1,140,6|2,3:2|0:2,0:2:0:0:
417,306,146161,2,0,B|401:288|387:266|387:266|393:215|410:154,1,140,6|2,3:2|0:2,0:2:0:0:
448,106,146600,1,6,3:2:0:0:
448,106,146746,1,0,0:2:0:0:
373,45,146893,6,0,B|310:40|310:40|296:47|296:47|232:42,1,140,6|2,3:2|0:2,0:2:0:0:
138,19,147332,2,0,P|142:74|94:140,1,140,6|2,0:2|0:2,0:2:0:0:
18,92,147771,1,0,0:2:0:0:
54,16,147917,1,2,0:2:0:0:
256,192,148063,12,14,149966,0:2:0:0:
54,317,150405,6,0,P|43:261|35:151,1,140,6|0,3:2|3:2,0:2:0:0:
178,90,150990,2,0,P|189:34|191:-8,2,70,0|0|0,3:2|3:2|3:2,0:0:0:0:
208,168,151429,2,0,P|246:148|284:148,1,70,2|0,0:2|0:2,0:2:0:0:
346,187,151722,2,0,P|384:207|422:207,1,70,2|0,0:2|0:2,0:2:0:0:
481,163,152015,2,0,B|489:233|489:233|496:244|496:244|503:302,1,140,2|0,0:2|0:0,0:2:0:0:
456,370,152454,1,8,0:2:0:0:
395,312,152600,6,0,P|354:297|319:300,1,70,2|2,0:2|3:2,0:2:0:0:
258,345,152893,1,2,0:2:0:0:
205,279,153039,2,0,L|215:207,1,70,2|2,3:2|0:2,0:0:0:0:
287,166,153332,2,0,L|277:94,1,70,2|2,3:2|0:2,0:0:0:0:
216,38,153624,1,10,0:2:0:0:
216,38,153771,1,2,0:2:0:0:
137,66,153917,6,0,P|92:77|54:69,2,70,2|0|2,0:2|0:2|3:2,0:2:0:0:
216,38,154356,1,0,0:2:0:0:
260,109,154502,2,0,P|281:180|252:253,1,140,8|2,0:2|3:2,0:2:0:0:
218,313,154941,1,2,3:2:0:0:
218,313,155015,1,2,3:2:0:0:
218,313,155088,6,0,L|223:364,2,35,6|2|2,3:2|3:2|3:2,0:0:0:0:
169,244,155380,2,0,L|174:193,2,35,2|2|2,3:2|3:2|3:2,3:2:0:0:
91,276,155673,2,0,L|86:327,2,35,2|2|2,3:2|3:2|3:2,0:0:0:0:
56,199,155966,2,0,L|47:120,1,70,2|2,3:2|3:2,0:0:0:0:
92,58,156258,6,0,P|128:30|170:25,1,70,2|2,3:2|3:2,3:2:0:0:
187,46,156478,1,2,3:2:0:0:
187,46,156551,2,0,L|245:56,2,35,2|2|2,3:2|3:2|3:2,3:2:0:0:
208,127,156844,2,0,B|246:138|280:112|280:112|310:90|342:96,1,140,2|0,3:2|3:2,0:0:0:0:
415,133,157283,1,0,0:2:0:0:
362,198,157429,6,0,L|372:276,1,70,10|0,0:2|0:2,0:2:0:0:
296,306,157722,2,0,L|286:384,1,70,8|0,0:2|3:2,0:0:0:0:
202,368,158015,2,0,P|149:350|114:346,1,70,0|0,3:2|3:2,0:0:0:0:
83,281,158307,2,0,P|136:263|171:259,1,70,8|0,0:2|3:2,0:0:0:0:
222,218,158600,6,0,L|211:139,1,70,2|0,0:2|3:2,0:2:0:0:
177,71,158893,1,0,3:2:0:0:
111,122,159039,2,0,B|86:168|86:168|109:262,1,140,2|2,0:2|0:2,0:2:0:0:
164,315,159478,1,0,0:0:0:0:
164,315,159551,1,0,0:2:0:0:
164,315,159624,6,0,B|205:310|235:329|235:329|266:348|301:341,1,140,6|0,3:2|3:2,0:2:0:0:
378,314,160063,2,0,P|353:277|322:263,1,70,8|0,0:2|0:2,0:0:0:0:
344,182,160356,2,0,P|299:185|271:204,1,70,8|8,0:2|0:2,0:0:0:0:
196,241,160649,1,8,0:2:0:0:
153,161,160795,6,0,L|143:88,1,70,6|2,3:2|3:2,0:2:0:0:
69,50,161088,2,0,L|59:123,1,70,6|2,3:2|3:2,0:2:0:0:
28,200,161380,2,0,P|73:229|106:225,1,70,6|0,3:2|0:0,0:2:0:0:
153,161,161673,2,0,P|214:149|240:160,1,70,10|10,0:2|0:2,0:2:0:0:
317,184,161966,1,8,0:2:0:0:
317,184,162112,6,0,P|355:185|397:144,1,70,6|0,3:2|0:0,0:2:0:0:
433,90,162405,2,0,L|441:14,2,70,8|0|0,0:2|3:2|3:2,0:2:0:0:
490,160,162844,2,0,L|498:236,1,70,0|8,3:2|0:2,0:0:0:0:
450,299,163137,1,0,3:2:0:0:
380,251,163283,6,0,P|330:227|291:223,2,70,2|2|8,3:2|0:2|0:2,0:2:0:0:
329,318,163722,2,0,B|273:322|273:322|260:333|260:333|170:341,1,140,2|0,3:2|0:2,0:2:0:0:
123,290,164161,1,8,0:2:0:0:
170,221,164307,6,0,P|190:177|155:82,1,140,2|0,0:2|0:2,0:0:0:0:
86,62,164746,2,0,L|-5:71,1,70,8|0,0:2|0:2,0:2:0:0:
36,150,165039,2,0,L|127:159,1,70,8|8,0:2|0:2,0:2:0:0:
165,92,165332,1,10,0:2:0:0:
209,162,165478,1,6,3:2:0:0:
271,106,165624,6,0,P|308:75|357:67,1,70,0|8,3:0|0:2,0:0:0:0:
410,88,165917,2,0,P|447:119|496:127,1,70,2|2,0:2|0:2,0:2:0:0:
505,200,166210,2,8,P|510:257|498:358,1,140,8|8,0:2|0:2,0:0:0:0:
423,307,166649,1,8,0:2:0:0:
423,307,166722,1,8,0:2:0:0:
423,307,166795,6,8,L|414:258,7,35,8|8|8|8|8|8|8|8,0:2|0:2|0:2|0:2|0:2|0:2|0:2|0:2,0:0:0:0:
386,243,167380,2,8,L|395:194,5,35,8|8|8|8|8|8,0:2|0:2|0:2|0:2|0:2|0:2,0:0:0:0:
371,171,167819,1,12,0:2:0:0:
256,192,167966,12,0,169137,0:0:0:0:
173,64,177624,6,0,P|127:44|157:155,1,251.999992309571
414,60,179380,5,8,0:2:0:0:
471,133,179527,2,0,B|488:193|491:257|491:257|482:276|465:297,1,167.999994873047,6|0,3:2|3:0,0:2:0:0:
399,354,179966,2,0,P|367:316|334:298,1,83.9999974365235,8|0,0:2|0:2,0:2:0:0:
256,255,180258,1,2,3:2:0:0:
195,325,180405,2,0,L|201:373,2,41.9999987182618,0|0|10,3:2|0:0|0:2,0:0:0:0:
137,252,180698,5,6,3:2:0:0:
291,151,180990,1,6,3:2:0:0:
116,89,181283,1,6,3:2:0:0:
288,22,181576,2,0,L|337:33,2,41.9999987182618,8|8|8,0:0|0:0|0:0,0:0:0:0:
223,87,181868,1,8,3:2:0:0:
160,18,182015,6,0,B|99:39|99:39|-2:13,1,167.999994873047,6|10,3:2|0:2,0:2:0:0:
5,105,182454,1,0,0:2:0:0:
88,144,182600,2,0,P|103:200|94:242,1,83.9999974365235,2|0,0:2|3:2,0:2:0:0:
31,288,182893,1,10,0:2:0:0:
108,337,183039,6,0,L|201:318,1,83.9999974365235,2|0,3:2|0:2,0:2:0:0:
260,259,183332,2,0,L|353:278,1,83.9999974365235,2|8,3:2|0:2,0:2:0:0:
406,341,183624,2,0,B|442:301|442:301|410:158,1,167.999994873047,2|0,3:2|3:2,0:2:0:0:
373,107,184063,5,10,0:2:0:0:
373,107,184210,1,0,3:2:0:0:
301,165,184356,2,0,P|237:182|203:172,1,83.9999974365235,6|0,3:2|0:2,0:2:0:0:
145,125,184649,5,10,0:2:0:0:
145,125,184795,1,0,3:2:0:0:
214,64,184941,2,0,P|278:47|312:57,1,83.9999974365235,6|0,3:2|3:2,0:2:0:0:
373,107,185234,1,8,0:2:0:0:
426,31,185380,6,0,P|471:92|425:186,1,167.999994873047,6|0,3:2|3:2,0:2:0:0:
364,222,185819,2,0,L|380:318,1,83.9999974365235,10|0,0:2|0:2,0:2:0:0:
460,346,186112,2,0,L|476:250,1,83.9999974365235,2|0,3:2|3:2,0:2:0:0:
443,173,186405,2,0,P|407:142|344:129,1,83.9999974365235,10|0,0:2|3:2,0:2:0:0:
290,172,186698,6,0,P|254:203|191:216,1,83.9999974365235,6|0,3:2|3:2,0:0:0:0:
136,176,186990,1,10,0:2:0:0:
136,176,187137,1,0,3:2:0:0:
183,97,187283,2,0,L|170:4,1,83.9999974365235,10|8,0:2|0:2,0:0:0:0:
88,56,187576,6,0,L|77:125,2,41.9999987182618,8|8|6,0:2|0:2|3:2,0:0:0:0:
227,176,188015,1,6,3:2:0:0:
315,14,188307,1,6,3:2:0:0:
471,113,188600,1,6,3:2:0:0:
397,282,188893,6,0,B|359:294|322:267|322:267|277:238|234:258,1,167.999994873047,6|0,3:2|3:2,0:2:0:0:
147,277,189332,2,0,B|166:235|166:235|131:98,1,167.999994873047,10|0,0:2|3:2,0:2:0:0:
99,31,189771,6,0,P|82:43|69:60,2,41.9999987182618,8|8|8,0:2|0:2|0:2,0:0:0:0:
189,48,190063,1,6,3:2:0:0:
301,195,190356,1,6,3:2:0:0:
135,116,190649,1,6,3:2:0:0:
319,111,190941,1,8,0:2:0:0:
224,269,191234,5,8,0:2:0:0:
297,325,191380,2,0,B|378:315|378:315|386:304|386:304|460:297,1,167.999994873047,6|10,3:2|0:2,0:2:0:0:
501,215,191819,1,0,0:2:0:0:
423,164,191966,2,0,P|346:143|323:148,1,83.9999974365235,2|0,3:2|3:2,0:0:0:0:
263,188,192258,1,10,0:2:0:0:
210,111,192405,6,0,B|184:100|163:94|163:94|104:98|39:117,1,167.999994873047,2|2,3:2|3:2,0:2:0:0:
93,195,192844,1,8,0:2:0:0:
1,209,192990,2,0,L|22:383,1,167.999994873047,2|0,3:2|3:2,0:2:0:0:
99,325,193429,5,10,0:2:0:0:
99,325,193576,1,0,3:2:0:0:
175,375,193722,2,0,P|225:377|271:358,1,83.9999974365235,6|0,3:2|0:2,0:2:0:0:
306,289,194015,5,10,0:2:0:0:
306,289,194162,1,0,0:2:0:0:
230,239,194308,2,0,P|180:237|134:256,1,83.9999974365235,2|0,3:2|0:2,0:2:0:0:
76,189,194600,1,8,0:2:0:0:
153,139,194746,6,0,B|201:152|234:126|234:126|272:100|315:108,1,167.999994873047,6|0,3:2|3:2,0:2:0:0:
380,171,195185,2,0,P|404:106|390:60,1,83.9999974365235,10|0,0:2|0:2,0:2:0:0:
487,17,195478,2,0,P|490:86|521:123,1,83.9999974365235,2|0,3:2|3:2,0:2:0:0:
498,190,195771,6,0,L|483:309,1,83.9999974365235,2|0,0:2|0:2,0:2:0:0:
422,339,196063,2,0,P|368:369|327:369,1,83.9999974365235,6|0,3:2|3:2,0:0:0:0:
272,315,196356,1,0,3:2:0:0:
272,315,196502,1,0,0:2:0:0:
187,353,196649,2,0,L|91:362,2,83.9999974365235,8|8|8,0:2|0:2|0:2,0:2:0:0:
149,268,197088,5,6,3:2:0:0:
303,167,197380,1,6,3:2:0:0:
140,78,197673,1,6,3:2:0:0:
238,234,197966,1,8,0:2:0:0:
231,49,198258,5,6,3:2:0:0:
395,134,198551,1,6,3:2:0:0:
238,234,198844,1,6,3:2:0:0:
324,70,199137,5,6,3:2:0:0:
395,134,199283,2,0,P|408:191|401:237,1,83.9999974365235,8|8,0:0|0:0,0:0:0:0:
350,277,199576,6,0,B|287:312|259:369|259:369|262:305|212:243,1,262.500010013581,2|2,0:0|0:0,0:0:0:0:
183,183,200454,2,0,L|195:135,2,26.2500010013581,2|2|2,0:0|0:0|0:0,0:0:0:0:
