osu file format v14

[General]
AudioFilename: audio.mp3
AudioLeadIn: 0
PreviewTime: 179127
Countdown: 0
SampleSet: Soft
StackLeniency: 0.4
Mode: 0
LetterboxInBreaks: 0
WidescreenStoryboard: 1

[Editor]
Bookmarks: 91834,129151
DistanceSpacing: 1
BeatDivisor: 4
GridSize: 8
TimelineZoom: 2.2

[Metadata]
Title:Sarumane Isutori Game
TitleUnicode:猿マネ椅子盗りゲーム
Artist:D-ne (CV: Aizawa Mai)
ArtistUnicode:D音(CV: 相沢舞)
Creator:Nevo
Version:Aakki, Nevo & Nymphe's Extra
Source:終焉ノ栞プロジェクト
Tags:vocaloid IA cover Shuuen no Shiori dne 終焉-Re.act- bookmark demise project 150p japanese rock Aimless Imitation Chair Stealing Game aakki nymphe amb1d3x Hishiro Chizuru Vilippu Evil [-Evil-] kiyoshi guarden
BeatmapID:2521404
BeatmapSetID:1090804

[Difficulty]
HPDrainRate:5.2
CircleSize:4
OverallDifficulty:8.8
ApproachRate:9.2
SliderMultiplier:1.72
SliderTickRate:1

[Events]
//Background and Video events
0,0,"POG_PT_2.jpg",0,0
Video,-665,"This Is A Video.mp4"
//Break Periods
2,73336,81932
2,170313,177786
//Storyboard Layer 0 (Background)
//Storyboard Layer 1 (Fail)
//Storyboard Layer 2 (Pass)
//Storyboard Layer 3 (Foreground)
//Storyboard Layer 4 (Overlay)
//Storyboard Sound Samples

[TimingPoints]
12259,292.682926829268,4,2,1,80,1,0
12259,-90.9090909090909,4,2,1,80,0,0
26307,-100,4,2,1,70,0,0
45039,-133.333333333333,4,2,1,60,0,0
49722,-100,4,2,1,75,0,0
53234,-200,4,2,1,75,0,0
54112,-100,4,2,1,75,0,0
54405,-83.3333333333333,4,2,1,90,0,1
63332,-222.222222222221,4,2,1,90,0,1
63624,-83.3333333333333,4,2,1,90,0,1
73137,-83.3333333333333,4,2,1,80,0,0
82502,-285.714285714284,4,2,1,60,0,0
83380,-133.333333333333,4,2,1,60,0,0
84844,-250,4,2,1,60,0,0
87185,-133.333333333333,4,2,1,60,0,0
89527,-666.666666666667,4,2,1,60,0,0
91576,-100,4,2,1,60,0,0
91868,-100,4,2,1,70,0,0
101234,-133.333333333333,4,2,1,60,0,0
105917,-100,4,2,1,75,0,0
110600,-83.3333333333333,4,2,1,90,0,1
129185,-142.857142857143,4,2,1,80,0,0
130063,-83.3333333333333,4,2,1,50,0,0
130941,-83.3333333333333,4,2,1,60,0,0
131673,-83.3333333333333,4,2,1,70,0,0
141039,-71.4285714285714,4,2,1,80,0,1
149234,-71.4285714285714,4,2,1,80,0,0
150405,-83.3333333333333,4,2,1,90,0,1
159332,-100,4,2,1,90,0,1
159624,-83.3333333333333,4,2,1,90,0,1
160795,-62.5,4,2,1,90,0,1
162112,-71.4285714285714,4,2,1,90,0,1
167819,-285.714285714284,4,2,1,80,0,0
170307,-285.714285714284,4,2,1,50,0,0
178356,-285.714285714286,4,2,1,50,0,0
178502,-285.714285714284,4,2,1,5,0,0
178649,-285.714285714284,4,2,1,50,0,0
178795,-285.714285714284,4,2,1,5,0,0
178942,-285.714285714284,4,2,1,50,0,0
179088,-285.714285714284,4,2,1,5,0,0
179235,-285.714285714284,4,2,1,50,0,0
179527,-79.9999999999999,4,2,1,90,0,1
188893,-74.0740740740741,4,2,1,90,0,1
199576,-181.818181818181,4,2,1,80,0,1
200746,-181.818181818181,4,2,1,70,0,0

[Colours]
Combo1 : 117,117,117
Combo2 : 254,207,22
Combo3 : 167,18,18
Combo4 : 88,19,183

[HitObjects]
151,360,15771,5,6,0:2:0:0:
154,337,16063,1,6,0:2:0:0:
157,310,16356,5,14,0:2:0:0:
342,365,16502,1,8,0:2:0:0:
342,365,16576,1,8,0:2:0:0:
342,365,16649,1,8,0:2:0:0:
153,221,16795,2,0,P|125:227|104:239,1,47.3000014434815,8|0,0:2|0:0,0:0:0:0:
343,268,16941,6,0,L|361:164,1,94.600002886963,6|0,3:2|0:2,0:2:0:0:
273,123,17234,1,8,0:2:0:0:
454,367,17380,2,0,L|437:263,1,94.600002886963,2|0,3:2|0:2,0:2:0:0:
236,225,17673,2,0,L|251:318,1,94.600002886963,0|8,3:2|0:2,0:0:0:0:
455,124,17966,6,0,B|391:100|391:100|247:127,1,189.200005773926,2|0,3:2|3:2,0:2:0:0:
95,157,18405,1,8,0:2:0:0:
236,225,18551,1,0,3:2:0:0:
133,73,18698,1,2,3:2:0:0:
76,248,18844,1,0,3:2:0:0:
192,140,18990,1,10,0:2:0:0:
145,320,19137,2,0,B|166:324|166:324|171:333|171:333|195:339,1,47.3000014434815,8|0,0:2|0:0,0:0:0:0:
310,363,19283,6,0,B|354:368|398:339|371:318|430:285|499:301,1,189.200005773926,2|8,3:2|0:2,0:2:0:0:
305,177,19722,2,0,P|286:211|293:288,1,94.600002886963,2|0,3:2|0:0,0:2:0:0:
438,162,20015,2,0,P|438:115|417:73,1,94.600002886963,0|8,3:2|0:2,0:0:0:0:
139,122,20307,6,0,B|170:166|170:166|314:177,1,189.200005773926,2|0,3:2|3:2,0:2:0:0:
76,9,20746,2,0,B|32:42|32:42|66:90|61:144,1,141.900004330444,8|0,0:2|0:0,0:0:0:0:
88,244,21039,2,0,P|60:249|34:195,1,94.600002886963,0|0,3:2|3:2,0:0:0:0:
301,324,21332,2,0,B|254:318|254:318|215:340|215:340|139:324,1,141.900004330444,8|0,0:2|0:0,0:0:0:0:
316,239,21624,6,0,B|366:255|381:305|381:305|425:280|474:301,1,189.200005773926,6|8,3:2|0:2,0:2:0:0:
341,107,22063,2,0,L|229:121,1,94.600002886963,2|0,3:2|0:2,0:2:0:0:
88,244,22356,2,0,L|181:232,1,94.600002886963,0|8,3:2|0:2,0:0:0:0:
111,19,22649,6,0,B|58:2|58:2|-10:19|0:123,1,189.200005773926,2|0,3:2|3:2,0:2:0:0:
88,244,23088,1,8,0:2:0:0:
147,105,23234,1,0,3:2:0:0:
82,329,23380,1,2,3:2:0:0:
78,164,23526,1,0,3:2:0:0:
172,341,23673,1,8,0:2:0:0:
233,138,23819,2,0,B|256:143|256:143|262:149|262:149|283:153,1,47.3000014434815,8|0,0:2|0:0,0:0:0:0:
487,186,23966,6,0,B|373:202|460:257|314:281,1,189.200005773926,6|8,3:2|0:2,0:2:0:0:
140,155,24405,1,0,3:2:0:0:
327,202,24551,1,0,0:2:0:0:
186,235,24698,2,0,L|196:338,1,94.600002886963,0|8,3:2|0:2,0:0:0:0:
178,65,24990,6,0,P|118:62|46:183,1,189.200005773926,2|0,3:2|3:2,0:2:0:0:
374,252,25429,2,0,P|396:211|325:205,1,141.900004330444,14|0,0:2|0:0,0:2:0:0:
296,291,25722,1,8,0:2:0:0:
452,358,25868,1,8,0:2:0:0:
452,358,25941,1,8,0:2:0:0:
452,358,26015,1,8,0:2:0:0:
245,164,26161,2,0,B|234:177|234:177|246:219,1,47.3000014434815,8|8,0:2|0:2,0:0:0:0:
273,59,26307,6,0,B|236:74|201:65|201:65|178:90|178:90|137:80|107:101,1,172,6|8,3:2|0:2,0:2:0:0:
144,247,26746,1,0,3:2:0:0:
144,247,26893,2,0,L|153:155,1,86,2|0,0:2|3:2,0:2:0:0:
70,298,27185,2,0,B|99:335|99:335|137:343|185:331,1,129,10|0,0:2|0:0,0:2:0:0:
252,287,27478,5,2,3:2:0:0:
252,287,27624,2,0,P|289:278|346:293,1,86,2|8,3:2|0:2,0:2:0:0:
488,370,27917,2,0,P|451:379|394:364,1,86,2|0,3:2|0:2,0:2:0:0:
428,176,28210,1,0,3:2:0:0:
492,228,28356,1,8,0:2:0:0:
442,290,28502,1,8,0:2:0:0:
378,238,28649,6,0,B|340:215|290:236|290:236|261:209|230:212,1,129,2|0,3:2|0:0,0:2:0:0:
186,258,28941,2,0,P|129:253|98:223,1,86,8|0,0:2|3:2,0:0:0:0:
189,99,29234,2,0,P|184:156|154:187,1,86,2|0,0:2|3:2,0:2:0:0:
23,200,29527,1,8,0:2:0:0:
105,49,29673,1,2,3:2:0:0:
105,49,29746,1,0,3:0:0:0:
105,49,29819,6,0,B|141:13|141:13|194:3,1,86,0|2,3:2|3:2,0:0:0:0:
288,109,30112,1,8,0:2:0:0:
167,177,30258,2,0,B|127:168|127:168|96:134,1,86,2|0,3:2|0:2,0:2:0:0:
266,27,30551,1,2,3:2:0:0:
266,27,30624,1,0,3:0:0:0:
266,27,30698,1,8,0:2:0:0:
311,188,30844,1,2,3:2:0:0:
411,66,30990,6,0,B|467:86|467:86|498:132|496:201,1,172,0|10,3:2|0:2,0:0:0:0:
438,297,31429,1,2,3:2:0:0:
438,297,31576,2,0,P|388:317|341:303,1,86,2|2,0:2|3:2,0:0:0:0:
230,202,31868,2,0,P|268:183|310:187,1,86,10|2,0:2|0:2,0:0:0:0:
212,294,32161,5,2,3:2:0:0:
143,232,32307,1,0,3:2:0:0:
22,350,32454,2,0,B|74:369|74:369|113:353|132:316,1,129,8|0,0:2|0:0,0:2:0:0:
57,201,32746,2,0,L|64:299,1,86,2|0,3:2|0:0,0:2:0:0:
173,157,33039,1,8,0:2:0:0:
80,76,33185,1,8,0:2:0:0:
143,232,33332,6,0,B|196:246|232:214|232:214|236:232|256:244,1,129,2|0,3:2|0:0,0:2:0:0:
335,306,33624,2,0,P|363:267|361:227,1,86,10|0,0:2|3:2,0:2:0:0:
276,100,33917,2,0,P|276:142|303:175,1,86,2|0,3:2|0:2,0:2:0:0:
453,224,34210,1,8,0:2:0:0:
384,65,34356,1,2,3:2:0:0:
384,65,34429,1,0,3:0:0:0:
384,65,34502,6,0,L|376:160,1,86,0|0,3:0|3:2,0:0:0:0:
335,306,34795,1,8,0:2:0:0:
225,227,34941,1,0,3:2:0:0:
114,360,35088,1,2,3:2:0:0:
315,220,35234,1,0,0:2:0:0:
315,220,35307,1,0,3:2:0:0:
315,220,35380,1,8,0:2:0:0:
107,96,35527,1,0,0:2:0:0:
335,306,35673,6,0,B|449:291|449:291|499:338,1,172,6|8,3:2|0:2,0:2:0:0:
260,379,36112,2,0,L|244:269,1,86,2|0,3:2|0:2,0:2:0:0:
327,134,36405,1,0,3:2:0:0:
327,134,36551,2,0,L|314:219,1,86,8|0,0:2|0:2,0:2:0:0:
53,76,36844,6,0,B|107:55|107:55|136:79|196:91,1,129,2|0,3:2|0:0,0:2:0:0:
248,58,37137,2,2,B|224:96|224:96|235:158,1,86,10|2,0:2|3:2,0:2:0:0:
212,339,37429,2,0,B|156:343|117:320|117:320|146:288|172:297,1,129,2|0,3:2|0:0,0:2:0:0:
264,274,37722,2,0,P|293:314|291:366,1,86,8|8,0:2|0:2,0:0:0:0:
98,196,38015,6,0,L|188:209,1,86,2|0,3:2|0:2,0:2:0:0:
290,165,38307,1,8,0:2:0:0:
225,100,38454,1,0,3:2:0:0:
264,274,38600,1,0,0:2:0:0:
264,274,38746,2,0,P|309:286|352:268,1,86,0|8,3:2|0:2,0:0:0:0:
441,147,39039,1,2,3:2:0:0:
441,147,39112,1,0,3:0:0:0:
441,147,39185,6,0,L|453:239,1,86,0|2,3:2|0:2,0:0:0:0:
390,354,39478,1,8,0:2:0:0:
264,274,39624,2,0,L|252:366,1,86,2|0,0:2|0:2,0:2:0:0:
361,179,39917,2,0,L|373:271,1,86,2|8,0:2|0:2,0:2:0:0:
221,108,40210,2,0,L|209:200,1,86,2|0,3:2|0:0,0:2:0:0:
72,320,40502,5,0,0:2:0:0:
29,234,40649,1,10,0:2:0:0:
117,193,40795,1,2,3:2:0:0:
161,277,40941,2,0,B|192:261|192:261|292:292,1,129,2|0,0:2|0:0,0:0:0:0:
364,232,41234,2,0,L|273:206,1,86,10|2,0:2|3:2,0:0:0:0:
429,302,41527,1,2,3:2:0:0:
429,302,41673,6,0,L|455:211,1,86,0|10,3:2|0:2,0:0:0:0:
396,144,41966,1,0,3:2:0:0:
451,11,42112,2,0,B|483:42|497:101|483:145,1,129,2|0,0:2|0:0,0:2:0:0:
396,144,42405,2,0,B|364:127|364:127|294:140,1,86,8|8,0:2|0:2,0:0:0:0:
154,64,42698,6,0,B|194:91|194:91|236:60|271:62,1,129,2|0,3:2|0:2,0:2:0:0:
315,136,42990,2,0,L|303:227,1,86,8|0,0:2|3:2,0:2:0:0:
187,310,43283,2,0,L|175:224,1,86,2|0,0:2|3:2,0:2:0:0:
154,64,43576,1,8,0:2:0:0:
48,204,43722,1,2,3:2:0:0:
48,204,43795,1,0,3:0:0:0:
48,204,43868,5,0,3:2:0:0:
232,122,44015,1,0,3:2:0:0:
26,12,44161,2,0,L|35:116,1,86,8|0,0:2|3:2,0:0:0:0:
65,346,44454,1,0,3:2:0:0:
199,249,44600,1,8,0:2:0:0:
199,249,44673,1,8,0:2:0:0:
199,249,44746,1,8,0:2:0:0:
133,159,44893,1,8,3:0:0:0:
187,336,45039,6,0,B|208:333|236:353|236:353|264:318|327:314,1,129.00000492096,6|0,3:2|0:0,0:2:0:0:
401,337,45478,1,0,0:2:0:0:
401,337,45624,2,0,P|405:291|415:267,1,64.5000024604798,2|0,3:2|0:0,0:2:0:0:
358,190,45917,2,0,P|354:144|344:120,1,64.5000024604798,2|0,3:2|0:0,0:2:0:0:
438,52,46210,6,0,P|428:82|427:114,1,64.5000024604798,2|0,3:2|0:0,0:2:0:0:
346,27,46502,2,0,P|306:15|223:54,1,129.00000492096,0|2,3:0|0:2,0:0:0:0:
163,136,46941,1,0,0:0:0:0:
163,136,47088,2,0,P|151:88|132:61,1,64.5000024604798,2|8,3:2|0:0,0:2:0:0:
78,177,47380,6,0,P|133:228|207:224,1,129.00000492096,2|0,3:2|3:2,0:2:0:0:
256,169,47819,1,2,0:2:0:0:
256,169,47966,2,0,P|299:123|362:114,1,129.00000492096,2|0,3:2|3:2,0:2:0:0:
453,160,48405,1,2,0:2:0:0:
453,160,48551,6,0,P|446:197|442:232,1,64.5000024604798,2|0,3:2|0:2,0:2:0:0:
379,321,48844,2,0,P|374:289|368:257,1,64.5000024604798,2|0,3:2|0:2,0:2:0:0:
189,350,49137,2,0,P|232:366|276:364,1,64.5000024604798,2|0,3:2|3:2,0:2:0:0:
185,169,49429,1,2,3:2:0:0:
47,293,49576,1,8,0:2:0:0:
47,293,49649,1,8,0:2:0:0:
47,293,49722,6,0,L|138:283,1,86,6|0,3:2|0:2,0:2:0:0:
112,75,50015,1,8,0:2:0:0:
55,182,50161,1,0,3:2:0:0:
276,127,50307,2,0,P|227:86|175:84,1,86,8|0,0:2|3:2,0:0:0:0:
292,240,50600,2,0,P|332:225|361:194,1,86,8|0,0:2|3:2,0:0:0:0:
371,66,50893,5,14,0:2:0:0:
276,127,51039,1,0,3:2:0:0:
452,113,51185,1,8,0:2:0:0:
291,24,51332,1,0,3:2:0:0:
361,194,51478,1,8,0:2:0:0:
443,22,51624,1,0,3:2:0:0:
450,251,51771,1,8,0:2:0:0:
371,66,51917,1,0,3:2:0:0:
315,312,52063,5,14,0:2:0:0:
361,194,52210,1,0,3:2:0:0:
425,335,52356,1,8,0:2:0:0:
276,219,52502,1,0,3:2:0:0:
484,150,52649,1,8,0:2:0:0:
354,384,52795,1,0,3:2:0:0:
225,119,52941,1,8,0:2:0:0:
225,119,53015,1,8,0:2:0:0:
225,119,53088,2,0,P|217:138|215:174,1,43,8|8,0:2|0:2,0:2:0:0:
301,56,53234,6,0,P|276:36|122:117,1,236.5,14|0,0:2|0:0,0:0:0:0:
113,137,54112,6,0,B|108:120|108:120|111:110|111:110|102:89,1,43,2|0,0:2|0:0,0:2:0:0:
23,214,54258,2,0,B|29:201|29:201|26:191|26:191|31:174,1,43,0|0,0:2|0:0,0:0:0:0:
44,309,54405,6,0,L|171:295,1,103.199996850586,6|0,3:2|0:0,0:2:0:0:
284,137,54698,2,0,B|236:165|236:165|223:205|261:288,1,154.799995275879,8|0,0:2|0:0,0:2:0:0:
310,356,54990,2,0,P|357:308|356:253,1,103.199996850586,2|0,3:2|3:2,0:0:0:0:
233,75,55283,1,10,0:2:0:0:
45,309,55429,6,0,B|103:295|140:335|140:335|170:295|229:292,1,206.399993701172,6|2,3:2|3:2,0:2:0:0:
401,172,55868,1,8,0:0:0:0:
138,12,56015,2,0,P|151:51|171:152,1,103.199996850586,6|0,3:2|0:2,0:2:0:0:
373,271,56307,2,0,P|384:220|400:171,1,103.199996850586,2|8,3:2|0:2,0:2:0:0:
140,332,56600,1,0,3:2:0:0:
336,96,56746,6,0,P|386:77|499:191,1,206.399993701172,6|10,3:2|0:2,0:2:0:0:
431,348,57185,1,0,0:2:0:0:
261,146,57332,2,0,P|248:63|274:26,1,103.199996850586,2|0,0:2|3:2,0:2:0:0:
466,255,57624,1,10,0:2:0:0:
257,363,57771,6,0,B|146:375|193:291|39:310,2,206.399993701172,2|2|2,3:2|3:2|3:2,0:2:0:0:
382,308,58502,1,0,0:0:0:0:
235,263,58649,1,0,3:2:0:0:
235,263,58722,1,0,3:0:0:0:
235,263,58795,1,10,0:2:0:0:
365,168,58941,1,0,3:2:0:0:
233,58,59088,6,0,B|169:69|113:38|113:38|68:65|79:117,1,206.399993701172,6|10,3:2|0:2,0:2:0:0:
145,315,59527,1,0,3:2:0:0:
306,124,59673,2,0,B|320:64|320:64|303:17,1,103.199996850586,6|0,3:2|3:2,0:2:0:0:
64,210,59966,1,8,0:2:0:0:
262,338,60112,6,0,B|316:326|368:372|368:372|396:328|459:310,1,206.399993701172,6|0,3:2|3:2,0:2:0:0:
216,143,60551,2,0,L|238:276,1,103.199996850586,10|0,0:2|0:2,0:2:0:0:
456,75,60844,2,0,L|434:208,1,103.199996850586,2|0,3:2|3:2,0:2:0:0:
271,22,61137,2,0,B|228:23|194:1|194:1|155:34|164:97,1,154.799995275879,10|0,0:2|0:0,0:2:0:0:
216,143,61429,5,6,3:2:0:0:
227,165,61722,1,10,0:2:0:0:
153,361,61868,1,0,3:2:0:0:
83,161,62015,1,10,0:2:0:0:
282,358,62161,1,8,0:2:0:0:
332,363,62234,1,8,0:2:0:0:
376,338,62307,1,8,0:2:0:0:
397,292,62380,1,8,0:2:0:0:
387,242,62454,6,0,B|339:264|314:253|314:253|269:280|220:264,1,154.799995275879,6|0,3:2|0:0,0:0:0:0:
154,157,62746,2,0,B|185:208|185:208|145:260|168:303,1,154.799995275879,6|0,3:2|0:0,0:0:0:0:
266,194,63039,2,0,B|222:127|222:127|237:93|267:45,1,154.799995275879,6|0,3:2|0:0,0:0:0:0:
441,16,63332,6,0,B|437:38|437:38|433:43|433:43|427:79,1,58.0499982284546,6|0,3:2|0:0,0:0:0:0:
430,161,63624,6,0,B|304:129|375:69|238:59,1,206.399993701172,6|0,3:2|3:2,0:2:0:0:
87,188,64063,1,10,0:2:0:0:
256,148,64210,1,0,0:2:0:0:
66,70,64356,1,0,3:2:0:0:
178,283,64502,1,8,0:2:0:0:
228,278,64575,1,8,0:2:0:0:
266,244,64648,1,8,0:2:0:0:
276,194,64721,1,8,0:2:0:0:
256,148,64795,6,0,B|318:183|318:183|326:234|353:272,1,154.799995275879,6|0,3:2|0:0,0:0:0:0:
449,349,65088,2,0,P|498:305|447:237,1,154.799995275879,6|0,3:2|0:0,0:0:0:0:
302,361,65380,2,0,B|369:356|369:356|394:337|394:337|469:353,1,154.799995275879,6|0,3:2|0:0,0:0:0:0:
178,283,65673,6,0,B|181:306|181:306|187:316|187:316|191:339,1,51.599998425293,8|8,0:2|0:2,0:0:0:0:
227,188,65819,1,8,0:2:0:0:
175,164,65893,1,8,0:2:0:0:
124,171,65966,1,8,0:2:0:0:
92,211,66039,1,8,0:2:0:0:
83,261,66112,6,0,B|146:235|176:282|176:282|211:304|244:288,1,154.799995275879,6|0,3:2|0:0,0:2:0:0:
341,212,66405,2,0,B|325:251|325:251|351:333,1,103.199996850586,10|0,0:2|0:2,0:2:0:0:
461,129,66698,2,0,L|354:110,1,103.199996850586,2|0,3:2|3:2,0:0:0:0:
146,77,66990,1,10,0:2:0:0:
341,212,67137,6,0,L|360:105,1,103.199996850586,2|0,3:2|0:0,0:2:0:0:
62,29,67429,2,0,L|80:130,1,103.199996850586,2|8,3:2|0:2,0:2:0:0:
171,376,67722,2,0,L|189:274,1,103.199996850586,2|0,3:2|0:0,0:2:0:0:
231,102,68015,1,0,3:2:0:0:
231,102,68088,1,0,3:0:0:0:
231,102,68162,1,10,0:2:0:0:
112,229,68307,1,0,3:2:0:0:
316,317,68454,6,0,B|377:333|406:300|406:300|439:312|476:299,1,154.799995275879,6|0,3:2|0:0,0:2:0:0:
418,167,68746,2,0,P|370:207|356:248,1,103.199996850586,10|0,0:2|0:2,0:0:0:0:
481,94,69039,2,0,B|368:65|368:65|336:27,1,154.799995275879,2|0,3:2|0:0,0:2:0:0:
278,3,69332,1,8,0:2:0:0:
139,187,69478,6,0,B|170:227|170:227|236:216|250:142|212:84,1,206.399993701172,6|0,3:2|3:2,0:2:0:0:
123,7,69917,1,10,0:2:0:0:
139,187,70063,1,0,0:2:0:0:
278,3,70210,2,0,B|343:22|343:22|371:69|371:116,1,154.799995275879,2|0,3:2|0:0,0:2:0:0:
365,206,70502,2,0,P|310:176|290:132,1,103.199996850586,2|0,3:2|0:2,0:2:0:0:
472,93,70795,5,6,3:2:0:0:
422,309,70941,1,0,3:2:0:0:
365,206,71088,1,0,3:2:0:0:
502,319,71234,1,0,3:2:0:0:
394,122,71380,1,8,0:2:0:0:
357,353,71527,1,8,0:2:0:0:
465,176,71673,1,8,0:2:0:0:
221,273,71819,6,0,B|186:316|186:316|222:362|293:358,1,154.799995275879,6|0,3:2|0:0,0:0:0:0:
309,278,72112,2,0,P|290:215|172:196,1,154.799995275879,6|0,3:2|0:0,0:0:0:0:
57,220,72405,2,0,B|90:243|90:243|160:232,1,103.199996850586,6|0,3:2|0:0,0:0:0:0:
31,20,72698,6,0,B|37:40|37:40|37:50|37:50|46:82,1,51.599998425293,8|8,0:2|0:2,0:0:0:0:
255,146,72844,1,8,0:2:0:0:
245,95,72917,1,8,0:2:0:0:
214,55,72990,1,8,0:2:0:0:
167,34,73063,1,8,0:2:0:0:
116,36,73136,1,14,0:2:0:0:
94,342,82502,6,0,B|215:363|319:296|306:159|177:118|115:212|170:275,1,421.399987139893,6|2,3:2|0:2,0:2:0:0:
468,62,84844,6,0,B|458:82|448:100|440:105|426:116|408:122|385:125|372:126|349:120|340:113|321:101|311:86|299:64|290:50|285:37|275:34|268:29|257:24|234:21|221:18|212:17|196:19|189:21|180:23|166:26|158:32|151:38|146:44|141:52|137:60|134:68|129:77|126:88,1,412.8,6|0,3:2|0:2,0:2:0:0:
101,169,86746,1,8,3:3:0:0:
175,230,86893,1,8,3:3:0:0:
259,190,87039,1,8,3:3:0:0:
131,73,87185,5,6,0:2:0:0:
14,154,87332,2,0,L|26:231,1,64.5000024604798,0|0,0:0|0:2,0:0:0:0:
51,317,87624,1,0,0:2:0:0:
175,230,87771,2,0,L|163:307,1,64.5000024604798,10|0,0:2|0:2,0:2:0:0:
272,369,88063,2,0,L|262:305,1,64.5000024604798,2|0,0:2|3:2,0:2:0:0:
259,190,88356,6,0,P|303:188|343:209,1,64.5000024604798,6|8,0:2|0:2,0:2:0:0:
343,231,88576,2,0,P|374:234|405:226,1,64.5000024604798,8|0,0:2|0:0,0:0:0:0:
438,193,88795,2,0,B|447:169|447:169|442:158,1,32.2500012302399,8|0,0:2|0:0,0:0:0:0:
411,29,88941,2,0,B|387:35|387:35|377:41|377:41|349:50,1,64.5000024604798,6|8,3:2|0:2,0:2:0:0:
320,62,89161,1,8,0:2:0:0:
320,62,89234,2,0,B|326:79|326:79|317:118,1,32.2500012302399,8|0,0:2|0:0,0:0:0:0:
150,293,89380,1,8,0:2:0:0:
147,267,89454,1,8,0:2:0:0:
146,232,89527,6,0,B|228:209|223:264|315:243,1,167.699994882202,10|0,0:2|0:0,0:0:0:0:
406,87,91576,6,0,B|386:82|386:82|382:81|382:81|379:78|374:86|374:86|361:88|359:92|359:92|353:91|353:91|361:83|361:83|348:87|350:92|350:92|346:96|346:96|340:96|340:96|338:90|330:93|330:93|322:89|322:89|310:95|310:95|309:102|309:102|299:108|299:108|286:99,1,129
277,114,91868,6,0,L|181:99,1,86,6|0,3:2|0:0,0:2:0:0:
67,39,92161,2,0,P|101:82|115:123,1,86,8|0,0:2|3:2,0:0:0:0:
77,209,92454,1,2,0:2:0:0:
54,183,92600,1,0,3:2:0:0:
174,196,92746,2,0,L|150:297,1,86,10|0,0:2|0:2,0:2:0:0:
348,384,93039,6,0,P|300:351|183:371,2,172,2|10|2,3:2|0:0|0:0,0:0:0:0:
446,350,93771,1,0,3:2:0:0:
361,199,93917,2,0,L|376:298,1,86,8|8,0:2|0:2,0:0:0:0:
470,154,94210,6,0,L|490:56,1,86,2|0,3:2|0:2,0:2:0:0:
310,31,94502,1,8,0:2:0:0:
386,78,94649,1,0,3:2:0:0:
240,153,94795,2,0,L|220:55,1,86,2|0,0:2|3:2,0:2:0:0:
96,33,95088,1,8,0:2:0:0:
136,219,95234,6,0,B|204:185|265:195|265:195|303:243,2,172,2|2|2,3:2|3:2|3:2,0:2:0:0:
91,314,95966,1,8,0:2:0:0:
171,360,96112,2,0,P|231:356|259:332,1,86,2|8,3:2|0:2,0:2:0:0:
378,193,96405,6,0,L|362:303,1,86,2|0,3:2|3:2,0:2:0:0:
480,181,96698,2,0,P|469:134|429:102,1,86,2|10,0:2|0:2,0:0:0:0:
269,90,96990,2,0,P|309:104|351:95,1,86,2|2,3:2|0:2,0:0:0:0:
224,2,97283,1,2,3:2:0:0:
171,83,97429,2,0,L|189:189,1,86,10|2,0:2|0:2,0:0:0:0:
17,279,97722,6,0,P|69:246|185:266,2,172,2|8|2,3:2|0:2|3:2,0:2:0:0:
97,344,98454,1,0,3:0:0:0:
199,371,98600,2,0,L|294:358,1,86,8|8,0:2|0:2,0:0:0:0:
336,190,98893,6,0,P|315:253|322:295,1,86,2|0,3:2|0:2,0:2:0:0:
474,298,99185,1,10,0:2:0:0:
402,246,99332,1,0,3:2:0:0:
473,126,99478,2,0,P|494:189|487:231,1,86,2|0,3:2|0:2,0:2:0:0:
396,82,99771,1,8,0:2:0:0:
512,51,99917,6,0,L|338:32,1,172,2|0,3:2|3:2,0:2:0:0:
218,130,100356,2,0,L|323:118,1,86,8|0,0:2|0:2,0:2:0:0:
177,61,100649,1,2,3:2:0:0:
159,205,100795,1,0,3:2:0:0:
159,205,100868,1,0,3:2:0:0:
159,205,100941,1,8,0:2:0:0:
84,47,101088,1,0,0:2:0:0:
23,326,101234,6,0,P|64:265|239:270,1,258.000009841919,6|2,3:2|3:2,0:2:0:0:
313,330,102112,1,2,3:2:0:0:
414,117,102405,6,0,P|405:200|411:388,1,258.000009841919,2|2,3:2|0:2,0:2:0:0:
503,302,103283,1,2,3:2:0:0:
303,190,103576,6,0,P|251:173|165:210,1,129.00000492096,2|0,3:2|3:2,0:2:0:0:
119,103,104161,2,0,P|182:98|236:130,1,129.00000492096,2|0,3:2|3:2,0:2:0:0:
102,249,104746,6,0,L|85:163,1,64.5000024604798,2|0,3:2|0:2,0:2:0:0:
185,290,105039,2,0,L|202:204,1,64.5000024604798,2|0,3:2|0:2,0:2:0:0:
283,340,105332,2,0,L|266:254,1,64.5000024604798,2|0,3:2|3:2,0:2:0:0:
365,384,105625,2,0,L|382:298,1,64.5000024604798,2|8,3:2|0:2,0:2:0:0:
390,298,105844,1,8,0:2:0:0:
390,298,105917,6,0,L|374:211,1,86,6|0,3:2|0:2,0:2:0:0:
459,65,106210,2,0,P|431:126|398:140,1,86,8|0,0:2|3:2,0:0:0:0:
275,63,106502,1,8,0:2:0:0:
372,57,106649,1,0,3:2:0:0:
256,159,106795,1,8,0:2:0:0:
179,36,106941,1,0,3:2:0:0:
348,148,107088,6,0,L|331:273,1,86,14|0,0:2|3:2,0:0:0:0:
164,262,107380,2,0,L|152:176,1,86,8|0,0:2|3:2,0:0:0:0:
246,308,107673,1,8,0:2:0:0:
66,237,107819,1,0,3:2:0:0:
249,209,107966,1,8,0:2:0:0:
163,362,108112,1,0,3:2:0:0:
346,343,108258,6,0,P|411:329|460:330,1,86,14|0,0:2|3:2,0:0:0:0:
249,209,108551,2,0,P|184:195|135:196,1,86,8|0,0:2|3:2,0:0:0:0:
363,115,108844,1,8,0:2:0:0:
388,231,108990,1,0,3:2:0:0:
288,49,109137,1,8,0:2:0:0:
288,49,109210,1,8,0:2:0:0:
288,49,109283,2,0,L|271:108,1,43,8|8,0:2|0:2,0:2:0:0:
204,135,109429,6,0,P|165:118|122:112,1,86,14|8,0:2|0:0,0:0:0:0:
122,111,109649,1,8,0:0:0:0:
123,110,109722,2,0,P|112:167|116:223,1,86,8|8,0:0|0:0,0:0:0:0:
165,332,110015,1,10,0:0:0:0:
413,318,110307,2,0,P|426:267|417:229,1,86,8|0,0:0|0:0,0:0:0:0:
327,109,110600,6,0,L|312:230,1,103.199996850586,6|0,3:2|0:0,0:2:0:0:
417,75,110893,1,8,0:2:0:0:
220,123,111039,1,0,0:2:0:0:
410,178,111185,2,0,P|468:164|503:134,1,103.199996850586,2|0,3:2|3:2,0:0:0:0:
331,12,111478,1,10,0:2:0:0:
225,223,111624,6,0,P|139:217|93:185,1,103.199996850586,6|0,3:2|0:0,0:2:0:0:
171,35,111917,2,0,L|188:145,1,103.199996850586,2|0,3:2|0:0,0:2:0:0:
35,126,112210,2,0,L|18:236,1,103.199996850586,6|0,3:2|0:2,0:2:0:0:
181,371,112502,2,0,L|155:262,1,103.199996850586,2|8,3:2|0:2,0:2:0:0:
291,143,112795,1,0,3:2:0:0:
418,299,112941,6,0,P|331:275|279:271,1,103.199996850586,6|0,3:2|0:0,0:2:0:0:
108,298,113234,1,10,0:2:0:0:
311,364,113380,1,0,0:2:0:0:
85,283,113527,2,0,P|172:259|224:255,1,103.199996850586,2|0,0:2|3:2,0:2:0:0:
384,199,113819,1,10,0:2:0:0:
279,43,113966,6,0,P|282:126|309:165,1,103.199996850586,2|0,3:2|0:2,0:2:0:0:
479,129,114258,2,0,P|406:90|358:94,1,103.199996850586,2|8,3:2|0:2,0:2:0:0:
304,259,114551,2,0,P|374:215|395:172,1,103.199996850586,2|0,3:2|0:0,0:2:0:0:
222,196,114844,1,0,3:2:0:0:
197,302,114990,1,10,0:2:0:0:
69,173,115137,1,0,3:2:0:0:
97,374,115283,6,0,L|82:255,1,103.199996850586,6|0,3:2|0:2,0:2:0:0:
197,90,115576,1,10,0:2:0:0:
222,196,115722,1,0,3:2:0:0:
327,26,115868,6,0,L|314:128,1,103.199996850586,6|0,3:2|3:2,0:2:0:0:
377,291,116161,1,8,0:2:0:0:
489,206,116307,6,0,P|428:187|380:191,1,103.199996850586,6|0,3:2|0:0,0:2:0:0:
268,297,116600,1,0,3:2:0:0:
456,355,116746,1,10,0:2:0:0:
175,360,116893,1,0,0:2:0:0:
377,291,117039,2,0,L|390:181,1,103.199996850586,2|0,3:2|3:2,0:2:0:0:
110,110,117332,2,0,L|123:220,1,103.199996850586,10|0,0:2|3:2,0:2:0:0:
347,101,117624,5,6,3:2:0:0:
232,39,117771,1,0,3:2:0:0:
446,32,117917,1,10,0:2:0:0:
272,176,118063,1,0,3:2:0:0:
338,3,118210,1,10,0:2:0:0:
440,164,118356,1,8,0:2:0:0:
440,164,118429,1,8,0:2:0:0:
440,164,118502,1,8,0:2:0:0:
172,120,118649,5,6,3:2:0:0:
461,296,118941,1,6,3:2:0:0:
60,350,119234,1,6,3:2:0:0:
308,220,119527,1,6,3:2:0:0:
80,46,119819,6,0,P|100:111|120:254,1,206.399993701172,6|0,3:2|3:2,0:2:0:0:
60,350,120258,1,10,0:2:0:0:
246,297,120405,1,0,0:2:0:0:
119,247,120551,2,0,P|58:245|11:266,1,103.199996850586,0|8,3:2|0:2,0:0:0:0:
181,372,120844,1,8,0:2:0:0:
287,161,120990,6,0,P|373:167|419:199,1,103.199996850586,6|0,3:2|0:0,0:0:0:0:
341,349,121283,2,0,L|324:239,1,103.199996850586,6|0,3:2|0:0,0:0:0:0:
477,258,121576,2,0,L|494:148,1,103.199996850586,6|0,3:2|0:0,0:0:0:0:
413,40,121868,1,8,0:2:0:0:
378,28,121941,1,8,0:2:0:0:
343,22,122014,1,8,0:2:0:0:
307,23,122087,1,8,0:2:0:0:
271,30,122160,1,8,0:2:0:0:
98,166,122307,6,0,P|185:142|237:138,1,103.199996850586,6|0,3:2|0:2,0:2:0:0:
386,154,122600,1,10,0:2:0:0:
230,267,122746,1,0,0:2:0:0:
437,321,122893,2,0,P|350:297|298:293,1,103.199996850586,2|0,3:2|3:2,0:0:0:0:
129,261,123185,1,10,0:2:0:0:
241,366,123332,6,0,P|238:283|211:244,1,103.199996850586,2|0,3:2|0:0,0:2:0:0:
11,311,123624,2,0,P|84:350|132:346,1,103.199996850586,2|8,3:2|0:2,0:2:0:0:
176,96,123917,2,0,P|106:140|85:183,1,103.199996850586,2|0,3:2|0:0,0:2:0:0:
272,176,124210,1,0,3:2:0:0:
292,58,124356,1,10,0:2:0:0:
445,210,124503,1,0,3:2:0:0:
415,10,124649,6,0,L|430:129,1,103.199996850586,6|0,3:2|0:2,0:2:0:0:
304,268,124942,1,10,0:2:0:0:
479,319,125088,1,0,0:2:0:0:
291,370,125234,6,0,L|304:268,1,103.199996850586,2|0,3:2|0:2,0:2:0:0:
272,124,125527,1,8,0:2:0:0:
84,281,125673,6,0,P|145:300|193:296,1,103.199996850586,6|0,3:2|0:0,0:2:0:0:
54,188,125966,1,0,3:2:0:0:
0,330,126112,1,10,0:2:0:0:
186,204,126259,1,0,0:2:0:0:
66,85,126405,2,0,L|53:195,1,103.199996850586,2|0,3:2|3:2,0:2:0:0:
262,108,126698,2,0,L|249:-2,1,103.199996850586,10|0,0:2|0:2,0:2:0:0:
186,204,126990,5,6,3:2:0:0:
376,259,127137,1,0,3:2:0:0:
134,312,127283,1,0,3:2:0:0:
342,152,127429,1,0,3:2:0:0:
277,333,127576,1,8,0:2:0:0:
150,105,127722,1,8,0:2:0:0:
150,105,127795,1,0,0:0:0:0:
150,105,127868,1,8,0:2:0:0:
289,231,128015,5,6,3:2:0:0:
85,182,128307,1,6,3:2:0:0:
296,51,128600,1,6,3:2:0:0:
442,256,128893,2,0,P|499:208|513:171,1,103.199996850586,8|8,0:2|0:2,0:0:0:0:
490,52,129185,6,0,B|480:47|394:-25|344:78|338:89|338:89|347:93|415:105|409:178,1,300.999990814209,14|0,0:2|0:0,0:0:0:0:
294,212,130063,2,8,P|317:178|362:158,11,51.599998425293,8|8|8|8|8|8|8|8|8|8|8|8,0:2|0:2|0:2|0:2|0:2|0:2|0:2|0:2|0:2|0:2|0:2|0:2,0:2:0:0:
334,288,130941,5,8,0:2:0:0:
308,305,131014,1,8,0:2:0:0:
278,312,131087,1,8,0:2:0:0:
248,308,131160,1,8,0:2:0:0:
221,293,131233,1,8,0:2:0:0:
202,270,131307,1,8,0:2:0:0:
176,252,131380,1,8,0:2:0:0:
146,245,131453,1,8,0:2:0:0:
116,249,131526,1,8,0:2:0:0:
89,264,131599,1,8,0:2:0:0:
71,282,131673,6,0,P|56:325|86:387,1,103.199996850586,6|0,3:2|0:0,0:2:0:0:
273,207,131966,2,0,P|292:160|277:111,1,103.199996850586,8|2,0:2|3:2,0:0:0:0:
107,62,132258,2,0,B|163:84|214:60|181:15|256:-7|329:20,1,206.399993701172,0|8,0:0|0:2,0:0:0:0:
295,11,132698,1,2,0:2:0:0:
434,147,132844,6,0,L|443:36,1,103.199996850586,6|0,3:2|0:0,0:2:0:0:
321,244,133137,1,8,0:2:0:0:
280,111,133283,1,2,0:2:0:0:
421,245,133429,2,0,L|402:346,1,103.199996850586,0|0,0:0|0:2,0:0:0:0:
218,232,133722,1,8,0:2:0:0:
349,159,133868,1,8,0:2:0:0:
269,339,134015,6,0,P|211:349|163:315,1,103.199996850586,6|0,3:2|0:2,0:2:0:0:
0,248,134307,2,0,P|45:226|95:237,1,103.199996850586,8|0,0:2|0:2,0:2:0:0:
122,384,134600,2,0,L|141:167,1,206.399993701172,2|8,3:2|0:2,0:2:0:0:
47,331,135039,1,0,0:2:0:0:
218,232,135185,6,0,B|267:182|326:213|326:213|354:263|424:254,1,206.399993701172,2|8,3:2|0:2,0:0:0:0:
422,90,135624,1,2,3:2:0:0:
422,90,135698,1,0,3:0:0:0:
422,90,135771,2,0,P|406:130|403:180,1,51.599998425293,0|0,3:0|3:0,3:0:0:0:
311,70,135917,2,0,P|304:45|293:21,1,51.599998425293,8|0,3:2|0:0,0:0:0:0:
207,122,136063,1,8,3:2:0:0:
177,135,136137,1,8,0:2:0:0:
141,135,136210,1,8,0:2:0:0:
106,112,136283,1,8,0:2:0:0:
91,81,136356,6,0,P|151:113|121:252,1,206.399993701172,6|8,3:2|0:2,0:2:0:0:
8,364,136795,2,0,P|42:306|88:298,1,103.199996850586,2|0,0:2|3:2,0:2:0:0:
167,362,137088,1,0,0:2:0:0:
52,213,137234,2,0,P|119:213|149:249,1,103.199996850586,8|0,0:2|0:2,0:0:0:0:
390,360,137527,6,0,B|331:370|285:329|325:302|260:267|208:291,1,206.399993701172,6|8,3:2|0:2,0:2:0:0:
347,138,137966,2,0,P|363:193|323:259,1,103.199996850586,2|0,3:2|0:0,0:2:0:0:
235,184,138258,1,0,0:2:0:0:
340,47,138405,2,0,P|395:60|432:128,1,103.199996850586,8|8,0:2|0:2,0:0:0:0:
243,279,138698,6,0,L|136:256,1,103.199996850586,2|0,3:2|0:2,0:2:0:0:
0,133,138990,2,0,L|107:110,1,103.199996850586,2|0,3:2|0:2,0:2:0:0:
253,8,139283,2,0,B|199:50|199:50|242:210,1,206.399993701172,2|2,3:2|3:2,0:2:0:0:
365,249,139722,1,0,0:2:0:0:
365,249,139795,1,8,0:2:0:0:
365,249,139868,6,0,L|337:174,3,51.599998425293,8|8|8|8,0:2|0:2|0:2|0:2,0:0:0:0:
454,271,140161,2,0,L|435:319,3,51.599998425293,8|8|8|8,0:2|0:2|0:2|0:2,0:0:0:0:
330,344,140454,1,8,0:2:0:0:
310,350,140527,1,8,0:2:0:0:
290,355,140600,1,8,0:2:0:0:
266,357,140673,1,8,0:2:0:0:
241,359,140746,2,0,L|168:333,1,51.599998425293,8|8,0:2|0:2,0:0:0:0:
54,366,140893,2,0,L|102:383,1,51.599998425293,8|8,0:2|0:2,0:0:0:0:
263,256,141039,6,0,B|185:239|185:239|114:266|114:266|21:239,1,240.799992651367,6|10,3:2|0:2,0:2:0:0:
24,78,141478,1,0,0:2:0:0:
24,78,141551,1,8,0:2:0:0:
24,78,141624,2,0,B|87:67|87:67|169:104,1,120.399996325684,8|0,0:2|0:2,0:2:0:0:
177,162,141844,1,8,0:2:0:0:
177,162,141917,2,0,B|239:177|239:177|321:144,1,120.399996325684,8|0,0:2|0:2,0:2:0:0:
365,115,142137,1,8,0:2:0:0:
365,115,142210,6,0,L|355:258,1,120.399996325684,8|0,0:2|0:2,0:2:0:0:
249,71,142502,1,8,0:2:0:0:
457,57,142649,2,0,L|438:336,1,240.799992651367,6|0,3:2|0:2,0:2:0:0:
250,204,143088,1,8,0:2:0:0:
367,352,143234,1,0,3:2:0:0:
367,352,143307,1,0,3:2:0:0:
367,352,143380,6,0,B|305:371|305:371|237:346,1,120.399996325684,6|0,3:2|0:2,0:2:0:0:
200,298,143600,1,8,0:2:0:0:
200,298,143673,2,0,B|138:279|138:279|70:304,1,120.399996325684,8|0,0:2|0:2,0:2:0:0:
28,348,143893,1,8,0:2:0:0:
28,348,143966,2,0,B|-14:300|-14:300|8:211,1,120.399996325684,8|0,0:2|0:2,0:2:0:0:
144,370,144258,1,8,0:2:0:0:
84,208,144405,1,8,0:2:0:0:
84,208,144478,1,8,0:2:0:0:
84,208,144551,6,0,L|95:89,1,120.399996325684,6|0,3:2|0:2,0:2:0:0:
146,8,144771,1,8,0:2:0:0:
146,8,144844,2,0,L|133:147,1,120.399996325684,8|0,0:2|0:2,0:2:0:0:
165,246,145137,1,0,3:2:0:0:
8,155,145283,1,8,0:2:0:0:
224,61,145429,1,8,0:2:0:0:
251,50,145502,1,8,0:2:0:0:
287,48,145576,1,8,0:2:0:0:
320,61,145649,1,8,0:2:0:0:
350,80,145722,6,0,B|336:215|336:215|296:180,1,180.599994488526,6|0,3:2|0:2,0:2:0:0:
267,161,146015,1,2,0:2:0:0:
385,0,146161,2,0,B|444:50|444:50|422:242,1,240.799992651367,6|2,3:2|0:2,0:2:0:0:
311,339,146600,1,6,3:2:0:0:
251,245,146746,1,0,0:2:0:0:
380,293,146893,5,6,3:2:0:0:
233,384,147039,1,0,0:0:0:0:
267,161,147185,1,2,0:2:0:0:
406,362,147332,2,0,P|467:367|517:323,1,120.399996325684,6|0,0:2|0:0,0:2:0:0:
251,245,147624,2,0,B|197:200|120:230|144:277|69:301|21:248,1,240.799992651367,2|2,0:2|0:2,0:2:0:0:
259,77,148063,5,4,3:2:0:0:
287,73,148137,1,0,3:2:0:0:
319,82,148210,1,0,3:2:0:0:
345,108,148283,1,0,3:2:0:0:
359,138,148356,2,0,L|353:210,1,60.1999981628419,0|0,3:2|3:2,3:2:0:0:
140,100,148502,5,4,3:2:0:0:
136,72,148576,1,0,3:2:0:0:
145,40,148649,1,0,3:2:0:0:
171,14,148722,1,0,3:2:0:0:
200,0,148795,2,0,L|272:6,1,60.1999981628419,0|0,3:2|3:2,3:2:0:0:
169,214,148941,5,4,3:2:0:0:
141,218,149015,1,0,3:2:0:0:
109,209,149088,1,0,3:2:0:0:
83,183,149161,1,0,3:2:0:0:
70,154,149234,5,12,3:2:0:0:
140,326,149380,1,10,0:2:0:0:
257,121,149527,1,10,0:2:0:0:
219,362,149673,1,10,0:2:0:0:
224,376,149966,5,10,0:2:0:0:
267,110,150112,1,10,0:2:0:0:
132,341,150258,1,10,0:2:0:0:
61,127,150405,6,0,P|101:69|191:92,1,154.799995275879,6|0,3:2|0:0,0:2:0:0:
184,110,150698,2,0,P|165:164|166:228,1,103.199996850586,0|0,3:2|0:2,0:0:0:0:
339,293,150990,1,0,3:2:0:0:
264,218,151137,1,0,3:2:0:0:
262,344,151283,1,0,3:2:0:0:
384,166,151429,6,0,B|430:213|430:213|410:363,1,206.399993701172,2|2,0:2|0:2,0:2:0:0:
208,132,151868,1,0,3:2:0:0:
208,132,152015,2,0,B|257:151|314:114|286:91|328:46|417:79,1,206.399993701172,2|0,0:2|0:0,0:2:0:0:
242,228,152454,1,8,0:2:0:0:
137,33,152600,1,2,0:2:0:0:
137,33,152673,1,0,0:2:0:0:
141,37,152746,5,2,3:2:0:0:
108,131,152893,1,2,0:2:0:0:
229,49,153039,1,2,3:2:0:0:
199,151,153185,1,2,0:2:0:0:
318,51,153332,2,0,L|293:155,1,103.199996850586,2|2,3:2|0:2,0:0:0:0:
162,334,153624,2,0,L|187:220,1,103.199996850586,10|2,0:2|0:2,0:0:0:0:
253,356,153917,5,2,0:2:0:0:
89,260,154063,1,0,0:2:0:0:
273,254,154210,1,2,3:2:0:0:
114,159,154356,1,0,0:2:0:0:
114,159,154429,1,8,0:2:0:0:
114,159,154502,1,8,0:2:0:0:
293,279,154649,1,8,0:2:0:0:
32,355,154795,1,2,3:2:0:0:
32,355,154868,1,2,3:2:0:0:
32,355,154941,1,2,3:2:0:0:
32,355,155015,1,2,3:2:0:0:
32,355,155088,6,0,P|25:306|14:278,3,51.599998425293,2|2|2|2,3:2|3:2|3:2|3:2,0:0:0:0:
118,245,155380,2,0,P|112:270|110:295,3,51.599998425293,2|2|2|2,3:2|3:2|3:2|3:2,3:2:0:0:
202,365,155673,2,0,P|200:339|194:314,3,51.599998425293,2|2|2|2,3:2|3:2|3:2|3:2,0:0:0:0:
260,234,155966,2,0,B|303:214|358:243|321:263|362:296|422:285,1,154.799995275879,2|2,3:2|3:2,0:0:0:0:
457,243,156258,5,2,3:2:0:0:
457,243,156332,1,2,3:2:0:0:
457,243,156405,2,0,L|465:163,1,51.599998425293,2|2,3:2|3:2,3:2:0:0:
365,86,156551,1,2,3:2:0:0:
365,86,156625,1,2,3:2:0:0:
365,86,156698,2,0,L|357:166,1,51.599998425293,2|2,3:2|3:2,3:2:0:0:
290,309,156844,2,0,B|159:237|159:237|91:280,1,206.399993701172,2|0,3:2|3:2,0:0:0:0:
166,347,157283,1,0,0:2:0:0:
32,137,157429,5,10,0:2:0:0:
11,243,157576,1,0,0:2:0:0:
129,153,157722,1,8,0:2:0:0:
104,253,157868,1,0,3:2:0:0:
225,109,158015,2,0,L|197:280,1,154.799995275879,0|0,3:2|0:0,0:0:0:0:
217,340,158307,2,0,L|235:224,1,103.199996850586,8|0,0:2|3:2,0:0:0:0:
311,108,158600,5,2,0:2:0:0:
129,153,158746,1,0,3:2:0:0:
327,209,158893,1,0,3:2:0:0:
289,25,159039,1,2,0:2:0:0:
232,229,159185,1,0,3:2:0:0:
435,183,159332,2,0,L|455:290,1,86,2|0,0:2|0:0,0:2:0:0:
328,321,159624,6,0,B|268:289|206:318|238:357|173:376|113:342,1,206.399993701172,6|0,3:2|3:2,0:2:0:0:
99,139,160063,2,0,P|141:169|158:227,1,103.199996850586,8|0,0:2|0:2,0:0:0:0:
28,381,160356,2,0,P|49:318|95:283,1,103.199996850586,8|8,0:2|0:2,0:0:0:0:
76,241,160576,1,8,0:2:0:0:
76,241,160649,2,0,P|47:267|29:312,1,51.599998425293,8|8,0:2|0:2,0:0:0:0:
134,381,160795,5,6,3:2:0:0:
137,372,161088,5,6,3:2:0:0:
139,360,161380,5,6,3:2:0:0:
140,344,161673,5,10,0:2:0:0:
146,325,161746,1,8,0:2:0:0:
159,307,161819,1,10,0:2:0:0:
180,295,161893,1,8,0:2:0:0:
206,290,161966,1,8,0:2:0:0:
226,297,162039,1,8,0:2:0:0:
243,312,162112,6,0,P|301:344|362:320,1,120.399996325684,6|0,3:2|0:0,0:2:0:0:
458,139,162405,2,0,B|410:186|410:186|452:369,1,240.799992651367,8|0,0:2|3:2,0:2:0:0:
356,94,162844,1,0,3:2:0:0:
500,218,162990,1,8,0:2:0:0:
293,231,163137,6,0,L|165:205,1,120.399996325684,0|2,3:2|3:2,0:0:0:0:
15,147,163429,1,2,0:2:0:0:
135,55,163576,1,8,0:2:0:0:
62,309,163722,2,0,L|96:181,1,120.399996325684,2|0,3:2|0:0,0:2:0:0:
213,8,164015,1,0,3:2:0:0:
31,90,164161,1,8,0:2:0:0:
186,295,164307,1,2,0:2:0:0:
186,295,164380,1,2,0:2:0:0:
186,295,164454,6,0,P|253:307|295:259,1,120.399996325684,2|0,3:2|0:2,0:2:0:0:
292,244,164673,1,8,0:2:0:0:
292,244,164746,1,8,0:2:0:0:
182,141,164893,1,0,0:2:0:0:
182,141,164966,1,8,0:2:0:0:
182,141,165039,2,0,L|170:223,1,60.1999981628419,8|8,0:2|0:2,0:2:0:0:
298,136,165185,1,8,0:2:0:0:
298,136,165258,1,8,0:2:0:0:
298,136,165331,2,0,L|286:54,1,60.1999981628419,10|0,0:2|0:0,0:0:0:0:
170,17,165478,1,6,3:2:0:0:
371,184,165624,6,8,L|465:168,3,60.1999981628419,8|8|8|8,3:0|0:0|0:2|0:2,0:0:0:0:
308,256,165917,2,8,L|248:245,3,60.1999981628419,8|8|8|8,0:2|0:2|0:2|0:2,0:2:0:0:
403,288,166210,1,8,0:2:0:0:
403,298,166283,1,8,0:2:0:0:
400,310,166356,1,8,0:2:0:0:
396,323,166429,1,8,0:2:0:0:
393,337,166502,2,8,B|332:360|332:360|264:329,1,120.399996325684,8|8,0:2|0:2,0:2:0:0:
171,223,166795,5,8,0:2:0:0:
178,192,166868,1,8,0:2:0:0:
200,167,166941,1,8,0:2:0:0:
234,157,167015,1,8,0:2:0:0:
271,164,167088,5,8,0:2:0:0:
234,181,167161,1,8,0:2:0:0:
196,158,167234,1,8,0:2:0:0:
178,124,167307,1,8,0:2:0:0:
183,92,167380,6,8,L|197:30,1,60.1999981628419,8|8,0:2|0:2,0:0:0:0:
323,234,167527,2,8,L|309:296,1,60.1999981628419,8|8,0:2|0:2,0:2:0:0:
98,85,167673,2,8,L|117:-10,1,60.1999981628419,8|8,0:2|0:2,0:2:0:0:
223,277,167819,1,12,0:2:0:0:
256,192,167893,12,0,169063,0:2:0:0:
402,137,178356,6,0,L|364:133,1,30.0999990814209,2|0,0:2|0:2,0:2:0:0:
259,111,178649,2,0,L|301:119,1,30.0999990814209,2|0,0:2|0:2,0:2:0:0:
347,28,178941,2,0,L|342:69,1,30.0999990814209,2|0,0:2|0:2,0:2:0:0:
310,234,179234,5,10,0:2:0:0:
319,224,179307,2,0,L|322:183,1,30.0999990814209,0|0,3:2|0:0,0:0:0:0:
390,280,179527,6,0,B|335:250|276:264|298:307|225:330|161:278,1,215,6|0,3:2|3:0,0:2:0:0:
70,203,179966,1,8,0:2:0:0:
173,72,180112,2,0,P|217:111|224:188,1,107.5,0|2,0:2|3:2,0:0:0:0:
97,332,180405,1,0,3:2:0:0:
83,109,180551,1,10,0:2:0:0:
223,330,180698,5,6,3:2:0:0:
227,340,180990,5,6,3:2:0:0:
230,351,181283,5,6,3:2:0:0:
233,365,181576,5,8,0:0:0:0:
247,375,181649,1,8,0:0:0:0:
270,380,181722,1,8,0:0:0:0:
294,375,181795,1,8,0:0:0:0:
314,363,181868,2,0,P|328:332|325:285,1,53.75,8|8,3:2|0:0,0:0:0:0:
155,166,182015,6,0,B|105:213|105:213|140:371,1,215,6|10,3:2|0:2,0:2:0:0:
263,258,182454,1,0,0:2:0:0:
172,80,182600,2,0,L|203:222,1,107.5,2|0,0:2|3:2,0:2:0:0:
307,142,182893,1,10,0:2:0:0:
86,0,183039,6,0,L|71:149,1,107.5,2|0,3:2|0:2,0:2:0:0:
49,297,183332,1,2,3:2:0:0:
0,172,183479,1,8,0:2:0:0:
175,305,183624,2,0,B|260:301|260:301|306:257|306:257|404:252,1,215,2|0,3:2|3:2,0:2:0:0:
209,191,184063,1,10,0:2:0:0:
334,350,184210,1,0,3:2:0:0:
257,126,184356,6,0,P|177:92|99:205,1,215,6|10,3:2|0:2,0:2:0:0:
193,221,184795,1,0,3:2:0:0:
345,145,184941,2,0,P|340:83|281:39,1,107.5,6|0,3:2|3:2,0:2:0:0:
242,288,185234,1,8,0:2:0:0:
512,201,185380,6,0,B|454:167|394:193|422:227|371:261|294:229,1,215,6|0,3:2|3:2,0:2:0:0:
213,163,185819,1,10,0:2:0:0:
297,349,185966,1,0,0:2:0:0:
343,144,186112,2,0,P|352:91|374:43,1,107.5,2|0,3:2|3:2,0:2:0:0:
162,257,186405,2,0,P|183:305|192:358,1,107.5,10|0,0:2|3:2,0:2:0:0:
0,110,186698,6,0,B|59:60|145:94|145:94|102:97|75:131,1,215,6|10,3:2|0:2,0:0:0:0:
262,240,187137,1,0,3:2:0:0:
343,36,187283,1,10,0:2:0:0:
148,173,187429,1,8,0:2:0:0:
366,297,187576,1,8,0:2:0:0:
248,71,187722,5,6,3:2:0:0:
243,57,188015,5,6,3:2:0:0:
237,39,188307,5,6,3:2:0:0:
231,25,188600,5,6,3:2:0:0:
212,15,188673,1,0,3:0:0:0:
185,12,188746,1,0,3:0:0:0:
159,22,188819,1,0,3:0:0:0:
138,37,188893,6,0,B|154:119|154:119|139:181|139:181|161:274,1,232.200000885773,6|0,3:2|3:2,0:2:0:0:
286,335,189332,2,0,L|253:212,1,116.100000442886,10|0,0:2|0:2,0:2:0:0:
342,55,189624,2,0,L|372:167,1,116.100000442886,0|8,3:2|0:2,0:0:0:0:
435,221,189844,1,8,0:2:0:0:
435,221,189917,2,0,L|414:146,1,58.0500002214432,8|8,0:2|0:2,0:0:0:0:
241,57,190063,5,6,3:2:0:0:
233,69,190356,5,6,3:2:0:0:
225,84,190649,5,6,3:2:0:0:
215,98,190941,5,8,0:2:0:0:
200,134,191014,1,8,0:2:0:0:
209,172,191087,1,8,0:2:0:0:
242,200,191161,1,8,0:2:0:0:
285,210,191234,2,0,P|320:201|343:155,1,58.0500002214432,8|8,0:2|0:2,0:2:0:0:
512,90,191380,6,0,B|453:120|378:71|425:37|360:3|286:30,1,232.200000885773,6|10,3:2|0:2,0:2:0:0:
167,126,191819,1,0,0:2:0:0:
336,295,191966,2,0,P|350:222|309:161,1,116.100000442886,2|0,3:2|3:2,0:0:0:0:
181,212,192258,1,10,0:2:0:0:
308,375,192405,2,0,P|379:371|422:303,1,116.100000442886,2|0,3:2|0:0,0:2:0:0:
279,130,192698,5,2,3:2:0:0:
189,319,192844,1,8,0:2:0:0:
85,79,192990,2,0,L|94:210,1,116.100000442886,2|0,3:2|0:0,0:2:0:0:
138,384,193283,1,0,3:2:0:0:
260,218,193429,1,10,0:2:0:0:
41,305,193576,1,0,3:2:0:0:
345,258,193722,6,0,P|357:195|316:145,1,116.100000442886,6|0,3:2|0:2,0:2:0:0:
166,262,194015,1,10,0:2:0:0:
298,364,194161,1,0,0:2:0:0:
191,170,194307,2,0,L|57:145,1,116.100000442886,2|0,3:2|0:2,0:2:0:0:
216,329,194600,1,8,0:2:0:0:
259,86,194746,6,0,B|347:83|347:83|399:123|399:123|495:118,1,232.200000885773,6|0,3:2|3:2,0:2:0:0:
311,194,195185,1,10,0:2:0:0:
440,31,195332,1,0,0:2:0:0:
424,314,195478,2,0,L|402:186,1,116.100000442886,2|0,3:2|3:2,0:2:0:0:
234,65,195771,2,0,L|215:180,1,116.100000442886,2|0,0:2|0:2,0:2:0:0:
120,317,196063,5,6,3:2:0:0:
259,265,196210,1,0,3:2:0:0:
72,211,196356,1,0,3:2:0:0:
192,372,196502,1,0,0:2:0:0:
155,136,196649,1,8,0:2:0:0:
3,304,196795,1,8,0:2:0:0:
216,197,196941,1,8,0:2:0:0:
76,51,197088,5,6,3:2:0:0:
66,60,197380,5,6,3:2:0:0:
56,69,197673,5,6,3:2:0:0:
41,84,197966,5,8,0:2:0:0:
174,55,198112,2,0,L|139:107,1,58.0500002214432,8|8,0:2|0:2,0:0:0:0:
62,228,198258,5,6,3:2:0:0:
69,220,198551,5,6,3:2:0:0:
76,210,198844,5,6,3:2:0:0:
86,194,199137,5,6,3:2:0:0:
104,338,199283,2,0,L|137:271,1,58.0500002214432,8|8,0:0|0:0,0:0:0:0:
172,176,199429,1,8,0:0:0:0:
172,176,199502,1,8,0:0:0:0:
172,176,199576,2,0,P|228:158|291:221,1,141.900004330444,2|2,0:0|0:0,0:0:0:0:
376,337,200161,5,2,0:0:0:0:
380,313,200234,1,2,0:0:0:0:
384,290,200307,1,2,0:0:0:0:
388,267,200380,1,2,0:0:0:0:
393,243,200453,1,2,0:0:0:0:
397,220,200526,1,2,0:0:0:0:
401,197,200600,1,2,0:0:0:0:
406,174,200673,1,2,0:0:0:0:
378,126,200746,5,14,0:0:0:0:
