osu file format v14

[General]
AudioFilename: audio.mp3
AudioLeadIn: 0
PreviewTime: 133354
Countdown: 0
SampleSet: Normal
StackLeniency: 0.7
Mode: 3
LetterboxInBreaks: 0
SpecialStyle: 0
WidescreenStoryboard: 0

[Editor]
DistanceSpacing: 1
BeatDivisor: 4
GridSize: 16
TimelineZoom: 2.6

[Metadata]
Title:Catch the Glory
TitleUnicode:Catch the Glory
Artist:D-D-Dice vs. siromaru
ArtistUnicode:打打だいず vs. siromaru
Creator:Toaph Daddy
Version:Grand Finale
Source:osu!catch World Cup 2022
Tags:FA Featured Artist CWC 2022 Grand Finals tiebreaker GFTB poca_p0ca INNOCENT NOIZE Ryo Sakata hardcore schranz music game electronic instrumental hybrid LN rice long note thetoaphster mwc 2023
BeatmapID:4303123
BeatmapSetID:2058832

[Difficulty]
HPDrainRate:8
CircleSize:4
OverallDifficulty:8
ApproachRate:5
SliderMultiplier:1.4
SliderTickRate:1

[Events]
//Background and Video events
0,0,"img.jpg",0,0
//Break Periods
//Storyboard Layer 0 (Background)
//Storyboard Layer 1 (Fail)
//Storyboard Layer 2 (Pass)
//Storyboard Layer 3 (Foreground)
//Storyboard Layer 4 (Overlay)
//Storyboard Sound Samples

[TimingPoints]
1142,285.714285714286,4,1,1,35,1,0
44570,-100,4,1,1,65,0,0
49142,-100,4,1,1,35,0,0
51427,-100,4,1,1,65,0,0
74284,-100,4,1,1,65,0,1
92570,-100,4,1,1,60,0,0
101713,-100,4,1,1,60,0,1
109714,300,4,1,1,55,1,0
109714,-95.2380952380952,4,1,1,55,0,0
110014,315.789473684211,4,1,1,50,1,0
110014,-90.4977375565611,4,1,1,50,0,0
110329,333.333333333333,4,1,1,45,1,0
110329,-85.7142857632653,4,1,1,45,0,0
110662,352.941176470588,4,1,1,40,1,0
110662,-80.9519954666882,4,1,1,40,0,0
111014,375,4,1,1,35,1,0
111014,-76.1904761904762,4,1,1,35,0,0
123014,352.941176470588,4,1,1,40,1,0
123014,-80.9519954666882,4,1,1,40,0,0
125837,333.333333333333,4,1,1,45,1,0
125837,-85.7191839533688,4,1,1,45,0,0
128503,315.789473684211,4,1,1,50,1,0
128503,-90.4977375565611,4,1,1,50,0,0
131029,300,4,1,1,55,1,0
131029,-95.2380952380952,4,1,1,55,0,0
133429,285.714285714286,4,1,1,65,1,0
133429,-100,4,1,1,65,0,1
170000,-100,4,1,1,55,0,0
188286,375,4,1,1,65,1,0
188286,-76.1904761904762,4,1,1,45,0,0
200286,-76.1904761904762,4,1,1,65,0,1
224286,352.941176470588,4,1,1,65,1,0
224286,-80.9519954666882,4,1,1,65,0,0
227109,333.333333333333,4,1,1,65,1,0
227109,-85.7142906122452,4,1,1,65,0,0
229775,315.789473684211,4,1,1,65,1,0
229775,-90.4977375565611,4,1,1,65,0,0
232301,300,4,1,1,65,1,0
232301,-95.2380952380952,4,1,1,65,0,0
234701,285.714285714286,4,1,1,65,1,0
234701,-100,4,1,1,65,0,0
243843,-100,4,1,1,65,0,1
262129,-100,4,1,1,55,0,0
271272,-100,4,1,1,65,0,1
298701,-100,4,1,1,35,0,0
337558,-100,4,1,1,65,0,1
369558,-100,4,1,1,35,0,0

[HitObjects]
64,192,1142,5,0,0:0:0:0:
192,192,1142,1,0,0:0:0:0:
64,192,1570,1,0,0:0:0:0:
448,192,1713,128,0,2570:0:0:0:0:
320,192,2570,128,0,2856:0:0:0:0:
192,192,2856,128,0,3142:0:0:0:0:
320,192,3142,128,0,3427:0:0:0:0:
448,192,3427,128,0,3856:0:0:0:0:
64,192,3856,128,0,5142:0:0:0:0:
320,192,4856,1,0,0:0:0:0:
64,192,5713,1,0,0:0:0:0:
448,192,5713,1,0,0:0:0:0:
192,192,5856,1,0,0:0:0:0:
320,192,5999,1,0,0:0:0:0:
64,192,6142,1,0,0:0:0:0:
192,192,6284,1,0,0:0:0:0:
320,192,6427,1,0,0:0:0:0:
64,192,6570,1,0,0:0:0:0:
448,192,6713,1,0,0:0:0:0:
64,192,6856,1,0,0:0:0:0:
192,192,6999,1,0,0:0:0:0:
320,192,7142,1,0,0:0:0:0:
64,192,7284,1,0,0:0:0:0:
192,192,7427,1,0,0:0:0:0:
320,192,7570,1,0,0:0:0:0:
64,192,7713,1,0,0:0:0:0:
448,192,7856,1,0,0:0:0:0:
192,192,7999,1,0,0:0:0:0:
448,192,8142,1,0,0:0:0:0:
320,192,8284,1,0,0:0:0:0:
192,192,8427,1,0,0:0:0:0:
64,192,8570,1,0,0:0:0:0:
320,192,8713,1,0,0:0:0:0:
192,192,8856,1,0,0:0:0:0:
448,192,8999,1,0,0:0:0:0:
192,192,9142,1,0,0:0:0:0:
64,192,9284,1,0,0:0:0:0:
448,192,9427,1,0,0:0:0:0:
64,192,9570,1,0,0:0:0:0:
320,192,9713,1,0,0:0:0:0:
64,192,9856,1,0,0:0:0:0:
448,192,9999,1,0,0:0:0:0:
320,192,10142,1,0,0:0:0:0:
64,192,10284,1,0,0:0:0:0:
192,192,10284,1,0,0:0:0:0:
64,192,10713,1,0,0:0:0:0:
448,192,10856,128,0,11713:0:0:0:0:
320,192,11713,128,0,11999:0:0:0:0:
192,192,11999,128,0,12284:0:0:0:0:
320,192,12284,128,0,12570:0:0:0:0:
448,192,12570,128,0,12999:0:0:0:0:
64,192,12999,128,0,14284:0:0:0:0:
320,192,13999,1,0,0:0:0:0:
64,192,14856,1,0,0:0:0:0:
448,192,14856,1,0,0:0:0:0:
192,192,14999,1,0,0:0:0:0:
320,192,15142,1,0,0:0:0:0:
64,192,15284,1,0,0:0:0:0:
192,192,15427,1,0,0:0:0:0:
320,192,15570,1,0,0:0:0:0:
64,192,15713,1,0,0:0:0:0:
448,192,15856,1,0,0:0:0:0:
320,192,15999,1,0,0:0:0:0:
192,192,16142,1,0,0:0:0:0:
448,192,16284,1,0,0:0:0:0:
64,192,16427,1,0,0:0:0:0:
320,192,16570,1,0,0:0:0:0:
192,192,16713,1,0,0:0:0:0:
64,192,16856,1,0,0:0:0:0:
448,192,16999,1,0,0:0:0:0:
64,192,17142,1,0,0:0:0:0:
192,192,17237,1,0,0:0:0:0:
448,192,17332,1,0,0:0:0:0:
64,192,17427,1,0,0:0:0:0:
320,192,17522,1,0,0:0:0:0:
448,192,17618,1,0,0:0:0:0:
64,192,17713,1,0,0:0:0:0:
320,192,17808,1,0,0:0:0:0:
64,192,17903,1,0,0:0:0:0:
448,192,17999,1,0,0:0:0:0:
192,192,18094,1,0,0:0:0:0:
448,192,18189,1,0,0:0:0:0:
320,192,18284,1,0,0:0:0:0:
64,192,18284,1,0,0:0:0:0:
192,192,18570,1,0,0:0:0:0:
448,192,18665,1,0,0:0:0:0:
64,192,18761,1,0,0:0:0:0:
448,192,18856,1,0,0:0:0:0:
192,192,18927,1,0,0:0:0:0:
448,192,18999,1,0,0:0:0:0:
64,192,19070,1,0,0:0:0:0:
320,192,19142,1,0,0:0:0:0:
64,192,19213,1,0,0:0:0:0:
448,192,19284,1,0,0:0:0:0:
192,192,19356,1,0,0:0:0:0:
448,192,19427,1,0,0:0:0:0:
320,192,19427,1,0,0:0:0:0:
64,192,19427,128,0,19856:0:0:0:0:
192,192,19713,1,0,0:0:0:0:
448,192,19856,128,0,20856:0:0:0:0:
320,192,19999,1,0,0:0:0:0:
64,192,20284,1,0,0:0:0:0:
192,192,20570,1,0,0:0:0:0:
192,192,20713,1,0,0:0:0:0:
320,192,20856,128,0,21142:0:0:0:0:
64,192,20856,1,0,0:0:0:0:
192,192,21142,128,0,21427:0:0:0:0:
448,192,21142,1,0,0:0:0:0:
448,192,21284,1,0,0:0:0:0:
320,192,21427,128,0,21713:0:0:0:0:
64,192,21427,1,0,0:0:0:0:
64,192,21570,1,0,0:0:0:0:
448,192,21713,128,0,22142:0:0:0:0:
192,192,21713,1,0,0:0:0:0:
320,192,21999,1,0,0:0:0:0:
64,192,22142,128,0,22856:0:0:0:0:
192,192,22284,1,0,0:0:0:0:
448,192,22570,1,0,0:0:0:0:
192,192,22856,1,0,0:0:0:0:
64,192,23142,128,0,23427:0:0:0:0:
448,192,23142,1,0,0:0:0:0:
320,192,23427,128,0,23713:0:0:0:0:
192,192,23427,1,0,0:0:0:0:
64,192,23713,128,0,23999:0:0:0:0:
448,192,23713,1,0,0:0:0:0:
192,192,23856,1,0,0:0:0:0:
448,192,23999,128,0,24427:0:0:0:0:
320,192,23999,1,0,0:0:0:0:
64,192,24284,1,0,0:0:0:0:
320,192,24427,128,0,24856:0:0:0:0:
192,192,24570,1,0,0:0:0:0:
192,192,24856,128,0,25570:0:0:0:0:
448,192,24856,1,0,0:0:0:0:
64,192,25142,1,0,0:0:0:0:
448,192,25142,1,0,0:0:0:0:
448,192,25284,1,0,0:0:0:0:
64,192,25427,1,0,0:0:0:0:
320,192,25570,128,0,25999:0:0:0:0:
192,192,25713,1,0,0:0:0:0:
64,192,25999,128,0,26284:0:0:0:0:
448,192,25999,1,0,0:0:0:0:
448,192,26142,1,0,0:0:0:0:
192,192,26284,128,0,28570:0:0:0:0:
320,192,26284,1,0,0:0:0:0:
448,192,26570,1,0,0:0:0:0:
320,192,26713,1,0,0:0:0:0:
64,192,26856,1,0,0:0:0:0:
448,192,27142,1,0,0:0:0:0:
64,192,27427,1,0,0:0:0:0:
320,192,27570,1,0,0:0:0:0:
448,192,27713,1,0,0:0:0:0:
64,192,27999,1,0,0:0:0:0:
320,192,27999,1,0,0:0:0:0:
448,192,28284,1,0,0:0:0:0:
448,192,28427,1,0,0:0:0:0:
448,192,28570,1,0,0:0:0:0:
320,192,28570,1,0,0:0:0:0:
64,192,28570,128,0,28999:0:0:0:0:
192,192,28856,1,0,0:0:0:0:
448,192,28999,128,0,29999:0:0:0:0:
320,192,29142,1,0,0:0:0:0:
64,192,29427,1,0,0:0:0:0:
320,192,29427,1,0,0:0:0:0:
64,192,29570,1,0,0:0:0:0:
192,192,29713,1,0,0:0:0:0:
320,192,29713,1,0,0:0:0:0:
192,192,29856,1,0,0:0:0:0:
320,192,29999,128,0,30284:0:0:0:0:
64,192,29999,1,0,0:0:0:0:
64,192,30142,1,0,0:0:0:0:
192,192,30284,128,0,30570:0:0:0:0:
448,192,30284,1,0,0:0:0:0:
320,192,30570,128,0,30856:0:0:0:0:
64,192,30570,1,0,0:0:0:0:
64,192,30713,1,0,0:0:0:0:
448,192,30856,128,0,31284:0:0:0:0:
192,192,30856,1,0,0:0:0:0:
64,192,30927,1,0,0:0:0:0:
192,192,30999,1,0,0:0:0:0:
320,192,31142,1,0,0:0:0:0:
192,192,31213,1,0,0:0:0:0:
64,192,31284,128,0,31999:0:0:0:0:
320,192,31284,1,0,0:0:0:0:
448,192,31427,1,0,0:0:0:0:
448,192,31570,1,0,0:0:0:0:
192,192,31642,1,0,0:0:0:0:
448,192,31784,1,0,0:0:0:0:
192,192,31856,1,0,0:0:0:0:
320,192,31999,1,0,0:0:0:0:
192,192,32070,1,0,0:0:0:0:
320,192,32142,1,0,0:0:0:0:
64,192,32284,128,0,32570:0:0:0:0:
448,192,32284,1,0,0:0:0:0:
320,192,32356,1,0,0:0:0:0:
448,192,32427,1,0,0:0:0:0:
320,192,32570,128,0,32856:0:0:0:0:
192,192,32570,1,0,0:0:0:0:
64,192,32856,128,0,33142:0:0:0:0:
448,192,32856,1,0,0:0:0:0:
192,192,32999,1,0,0:0:0:0:
192,192,33142,128,0,33427:0:0:0:0:
320,192,33142,128,0,33427:0:0:0:0:
448,192,33142,128,0,33427:0:0:0:0:
64,192,33284,128,0,33427:0:0:0:0:
448,192,33570,1,0,0:0:0:0:
64,192,33999,1,0,0:0:0:0:
64,192,34284,128,0,34570:0:0:0:0:
192,192,34284,128,0,34570:0:0:0:0:
320,192,34284,128,0,34570:0:0:0:0:
448,192,34427,128,0,34570:0:0:0:0:
64,192,34713,1,0,0:0:0:0:
448,192,34856,1,0,0:0:0:0:
192,192,34927,1,0,0:0:0:0:
448,192,34999,1,0,0:0:0:0:
192,192,35070,1,0,0:0:0:0:
320,192,35142,1,0,0:0:0:0:
64,192,35213,1,0,0:0:0:0:
320,192,35284,1,0,0:0:0:0:
64,192,35356,1,0,0:0:0:0:
320,192,35427,1,0,0:0:0:0:
192,192,35427,1,0,0:0:0:0:
448,192,35427,1,0,0:0:0:0:
448,192,35570,1,0,0:0:0:0:
192,192,35713,1,0,0:0:0:0:
448,192,35856,1,0,0:0:0:0:
64,192,35999,128,0,36499:0:0:0:0:
320,192,35999,128,0,36784:0:0:0:0:
448,192,36142,1,0,0:0:0:0:
192,192,36284,1,0,0:0:0:0:
448,192,36427,1,0,0:0:0:0:
192,192,36570,128,0,37642:0:0:0:0:
448,192,36570,128,0,37070:0:0:0:0:
64,192,36570,128,0,36642:0:0:0:0:
64,192,36713,128,0,36927:0:0:0:0:
320,192,36856,128,0,37356:0:0:0:0:
64,192,36999,128,0,37213:0:0:0:0:
448,192,37142,128,0,37642:0:0:0:0:
64,192,37284,128,0,37499:0:0:0:0:
320,192,37427,128,0,37642:0:0:0:0:
64,192,37570,128,0,37642:0:0:0:0:
192,192,37713,1,0,0:0:0:0:
320,192,37713,1,0,0:0:0:0:
64,192,37713,1,0,0:0:0:0:
64,192,37856,1,0,0:0:0:0:
320,192,37999,1,0,0:0:0:0:
64,192,38142,1,0,0:0:0:0:
448,192,38284,128,0,38784:0:0:0:0:
192,192,38284,128,0,39070:0:0:0:0:
64,192,38427,1,0,0:0:0:0:
320,192,38570,1,0,0:0:0:0:
64,192,38713,1,0,0:0:0:0:
320,192,38856,128,0,39927:0:0:0:0:
64,192,38856,128,0,39356:0:0:0:0:
448,192,38856,128,0,38927:0:0:0:0:
448,192,38999,128,0,39213:0:0:0:0:
192,192,39142,128,0,39642:0:0:0:0:
448,192,39284,128,0,39499:0:0:0:0:
64,192,39427,128,0,39927:0:0:0:0:
448,192,39570,128,0,39784:0:0:0:0:
192,192,39713,128,0,39927:0:0:0:0:
448,192,39856,128,0,39927:0:0:0:0:
64,192,39999,1,0,0:0:0:0:
192,192,39999,1,0,0:0:0:0:
320,192,39999,1,0,0:0:0:0:
64,192,40142,1,0,0:0:0:0:
448,192,40142,1,0,0:0:0:0:
64,192,40284,1,0,0:0:0:0:
320,192,40284,1,0,0:0:0:0:
64,192,40427,1,0,0:0:0:0:
448,192,40427,1,0,0:0:0:0:
64,192,40570,128,0,41142:0:0:0:0:
192,192,40570,128,0,40642:0:0:0:0:
448,192,40713,1,0,0:0:0:0:
192,192,40713,128,0,40784:0:0:0:0:
320,192,40856,1,0,0:0:0:0:
192,192,40856,128,0,40927:0:0:0:0:
448,192,40999,1,0,0:0:0:0:
192,192,40999,128,0,41142:0:0:0:0:
448,192,41142,128,0,41642:0:0:0:0:
320,192,41142,1,0,0:0:0:0:
64,192,41284,128,0,41499:0:0:0:0:
320,192,41284,1,0,0:0:0:0:
192,192,41427,128,0,41927:0:0:0:0:
320,192,41427,1,0,0:0:0:0:
64,192,41570,128,0,41784:0:0:0:0:
320,192,41570,1,0,0:0:0:0:
320,192,41713,128,0,42284:0:0:0:0:
448,192,41713,128,0,41784:0:0:0:0:
448,192,41856,128,0,41927:0:0:0:0:
64,192,41856,128,0,42070:0:0:0:0:
448,192,41999,128,0,42070:0:0:0:0:
192,192,41999,128,0,42213:0:0:0:0:
448,192,42142,128,0,42284:0:0:0:0:
64,192,42142,128,0,42213:0:0:0:0:
64,192,42284,1,0,0:0:0:0:
192,192,42284,128,0,42356:0:0:0:0:
448,192,42356,1,0,0:0:0:0:
64,192,42356,1,0,0:0:0:0:
320,192,42427,128,0,42499:0:0:0:0:
64,192,42499,1,0,0:0:0:0:
192,192,42570,1,0,0:0:0:0:
320,192,42570,128,0,42642:0:0:0:0:
192,192,42642,1,0,0:0:0:0:
448,192,42642,1,0,0:0:0:0:
320,192,42713,128,0,42784:0:0:0:0:
192,192,42784,1,0,0:0:0:0:
320,192,42856,1,0,0:0:0:0:
448,192,42856,128,0,42927:0:0:0:0:
64,192,42927,1,0,0:0:0:0:
320,192,42927,1,0,0:0:0:0:
192,192,42999,128,0,43070:0:0:0:0:
320,192,43070,1,0,0:0:0:0:
448,192,43142,1,0,0:0:0:0:
448,192,43213,1,0,0:0:0:0:
64,192,43284,1,0,0:0:0:0:
192,192,43284,128,0,43356:0:0:0:0:
320,192,43356,1,0,0:0:0:0:
448,192,43356,1,0,0:0:0:0:
192,192,43427,128,0,43570:0:0:0:0:
64,192,43427,128,0,43570:0:0:0:0:
320,192,43499,128,0,43642:0:0:0:0:
448,192,43570,128,0,43642:0:0:0:0:
192,192,43642,128,0,43784:0:0:0:0:
448,192,43713,128,0,43856:0:0:0:0:
64,192,43784,128,0,43856:0:0:0:0:
320,192,43856,128,0,43927:0:0:0:0:
64,192,43927,128,0,44070:0:0:0:0:
192,192,43999,128,0,44142:0:0:0:0:
448,192,44070,128,0,44142:0:0:0:0:
320,192,44142,128,0,44213:0:0:0:0:
64,192,44213,128,0,44284:0:0:0:0:
448,192,44284,128,0,44427:0:0:0:0:
320,192,44356,128,0,44427:0:0:0:0:
192,192,44427,128,0,44499:0:0:0:0:
64,192,44499,128,0,44570:0:0:0:0:
192,192,44570,128,0,44642:0:0:0:0:
320,192,44570,128,0,44642:0:0:0:0:
448,192,44570,128,0,44784:0:0:0:0:
320,192,44713,128,0,44784:0:0:0:0:
192,192,44713,128,0,44927:0:0:0:0:
64,192,44713,128,0,44784:0:0:0:0:
64,192,44856,128,0,44927:0:0:0:0:
320,192,44856,128,0,45070:0:0:0:0:
448,192,44856,128,0,44927:0:0:0:0:
448,192,44999,128,0,45070:0:0:0:0:
192,192,44999,128,0,45070:0:0:0:0:
64,192,44999,128,0,45142:0:0:0:0:
192,192,45142,128,0,45284:0:0:0:0:
320,192,45142,128,0,45213:0:0:0:0:
448,192,45142,128,0,45284:0:0:0:0:
64,192,45213,128,0,45284:0:0:0:0:
320,192,45284,1,0,0:0:0:0:
320,192,45356,1,0,0:0:0:0:
64,192,45427,128,0,45570:0:0:0:0:
192,192,45427,128,0,45499:0:0:0:0:
448,192,45427,128,0,45570:0:0:0:0:
320,192,45499,128,0,45570:0:0:0:0:
192,192,45570,1,0,0:0:0:0:
192,192,45642,1,0,0:0:0:0:
64,192,45713,128,0,45856:0:0:0:0:
320,192,45713,128,0,45784:0:0:0:0:
448,192,45713,128,0,45784:0:0:0:0:
320,192,45856,1,0,0:0:0:0:
448,192,45856,1,0,0:0:0:0:
448,192,45927,1,0,0:0:0:0:
192,192,45927,1,0,0:0:0:0:
64,192,45999,128,0,46070:0:0:0:0:
192,192,45999,128,0,46070:0:0:0:0:
320,192,45999,128,0,46142:0:0:0:0:
64,192,46142,1,0,0:0:0:0:
192,192,46142,1,0,0:0:0:0:
64,192,46213,1,0,0:0:0:0:
320,192,46213,1,0,0:0:0:0:
192,192,46284,128,0,46427:0:0:0:0:
320,192,46284,128,0,46356:0:0:0:0:
448,192,46284,128,0,46356:0:0:0:0:
448,192,46427,1,0,0:0:0:0:
320,192,46427,1,0,0:0:0:0:
192,192,46499,1,0,0:0:0:0:
448,192,46499,1,0,0:0:0:0:
320,192,46570,1,0,0:0:0:0:
192,192,46570,128,0,46642:0:0:0:0:
64,192,46642,1,0,0:0:0:0:
448,192,46642,128,0,46713:0:0:0:0:
192,192,46713,128,0,46784:0:0:0:0:
448,192,46784,1,0,0:0:0:0:
320,192,46784,128,0,46856:0:0:0:0:
64,192,46856,128,0,46927:0:0:0:0:
192,192,46856,128,0,47070:0:0:0:0:
448,192,46856,128,0,46927:0:0:0:0:
320,192,46999,128,0,47070:0:0:0:0:
448,192,46999,128,0,47070:0:0:0:0:
64,192,46999,128,0,47213:0:0:0:0:
192,192,47142,128,0,47213:0:0:0:0:
320,192,47142,128,0,47213:0:0:0:0:
448,192,47142,128,0,47356:0:0:0:0:
64,192,47284,128,0,47356:0:0:0:0:
192,192,47284,128,0,47356:0:0:0:0:
320,192,47284,128,0,47427:0:0:0:0:
64,192,47427,128,0,47499:0:0:0:0:
192,192,47427,128,0,47570:0:0:0:0:
448,192,47427,128,0,47570:0:0:0:0:
320,192,47499,128,0,47570:0:0:0:0:
64,192,47570,1,0,0:0:0:0:
64,192,47642,1,0,0:0:0:0:
192,192,47713,128,0,47856:0:0:0:0:
320,192,47713,128,0,47856:0:0:0:0:
448,192,47713,128,0,47784:0:0:0:0:
64,192,47784,128,0,47856:0:0:0:0:
448,192,47856,1,0,0:0:0:0:
448,192,47927,1,0,0:0:0:0:
64,192,47999,128,0,48142:0:0:0:0:
192,192,47999,128,0,48070:0:0:0:0:
320,192,47999,128,0,48070:0:0:0:0:
192,192,48142,1,0,0:0:0:0:
320,192,48142,1,0,0:0:0:0:
192,192,48213,1,0,0:0:0:0:
448,192,48213,1,0,0:0:0:0:
64,192,48284,128,0,48427:0:0:0:0:
320,192,48284,128,0,48356:0:0:0:0:
448,192,48284,128,0,48356:0:0:0:0:
192,192,48427,1,0,0:0:0:0:
320,192,48427,1,0,0:0:0:0:
320,192,48499,1,0,0:0:0:0:
64,192,48499,1,0,0:0:0:0:
192,192,48570,1,0,0:0:0:0:
448,192,48570,128,0,48713:0:0:0:0:
64,192,48606,1,0,0:0:0:0:
320,192,48642,128,0,48784:0:0:0:0:
192,192,48713,128,0,48856:0:0:0:0:
64,192,48784,128,0,48856:0:0:0:0:
448,192,48856,1,0,0:0:0:0:
320,192,48856,128,0,48927:0:0:0:0:
192,192,48927,1,0,0:0:0:0:
64,192,48927,128,0,48999:0:0:0:0:
192,192,48999,1,0,0:0:0:0:
448,192,48999,128,0,49070:0:0:0:0:
320,192,49070,1,0,0:0:0:0:
64,192,49070,128,0,49142:0:0:0:0:
192,192,49142,1,0,0:0:0:0:
448,192,49284,1,0,0:0:0:0:
320,192,49427,1,0,0:0:0:0:
448,192,49570,1,0,0:0:0:0:
192,192,49713,1,0,0:0:0:0:
448,192,49856,1,0,0:0:0:0:
64,192,49999,1,0,0:0:0:0:
448,192,50142,1,0,0:0:0:0:
320,192,50284,1,0,0:0:0:0:
448,192,50427,1,0,0:0:0:0:
64,192,50570,1,0,0:0:0:0:
448,192,50713,1,0,0:0:0:0:
192,192,50856,1,0,0:0:0:0:
448,192,50999,1,0,0:0:0:0:
320,192,51142,1,0,0:0:0:0:
448,192,51284,1,0,0:0:0:0:
192,192,51427,1,0,0:0:0:0:
64,192,51427,1,0,0:0:0:0:
320,192,51427,128,0,51522:0:0:0:0:
192,192,51522,1,0,0:0:0:0:
64,192,51522,1,0,0:0:0:0:
320,192,51618,1,0,0:0:0:0:
448,192,51618,1,0,0:0:0:0:
192,192,51618,128,0,51713:0:0:0:0:
320,192,51713,1,0,0:0:0:0:
448,192,51713,1,0,0:0:0:0:
192,192,51808,1,0,0:0:0:0:
64,192,51808,1,0,0:0:0:0:
320,192,51808,128,0,51903:0:0:0:0:
64,192,51903,1,0,0:0:0:0:
192,192,51903,1,0,0:0:0:0:
64,192,51999,128,0,52094:0:0:0:0:
320,192,51999,128,0,52094:0:0:0:0:
448,192,51999,128,0,52094:0:0:0:0:
64,192,52284,128,0,52380:0:0:0:0:
192,192,52284,128,0,52380:0:0:0:0:
448,192,52284,128,0,52380:0:0:0:0:
64,192,52570,1,0,0:0:0:0:
192,192,52570,1,0,0:0:0:0:
448,192,52570,1,0,0:0:0:0:
192,192,52665,1,0,0:0:0:0:
64,192,52665,1,0,0:0:0:0:
320,192,52665,1,0,0:0:0:0:
64,192,52761,1,0,0:0:0:0:
192,192,52761,1,0,0:0:0:0:
448,192,52761,1,0,0:0:0:0:
64,192,52856,128,0,53046:0:0:0:0:
192,192,52856,128,0,53046:0:0:0:0:
320,192,52856,128,0,53046:0:0:0:0:
448,192,53142,1,0,0:0:0:0:
320,192,53142,1,0,0:0:0:0:
64,192,53142,1,0,0:0:0:0:
192,192,53237,1,0,0:0:0:0:
320,192,53237,1,0,0:0:0:0:
448,192,53237,1,0,0:0:0:0:
64,192,53332,1,0,0:0:0:0:
448,192,53332,1,0,0:0:0:0:
320,192,53332,1,0,0:0:0:0:
64,192,53427,128,0,53618:0:0:0:0:
192,192,53427,128,0,53618:0:0:0:0:
448,192,53427,128,0,53618:0:0:0:0:
320,192,53713,1,0,0:0:0:0:
192,192,53713,128,0,53808:0:0:0:0:
448,192,53713,128,0,53808:0:0:0:0:
320,192,53808,1,0,0:0:0:0:
192,192,53903,1,0,0:0:0:0:
448,192,53903,128,0,53999:0:0:0:0:
64,192,53903,128,0,53999:0:0:0:0:
192,192,53999,1,0,0:0:0:0:
448,192,54094,1,0,0:0:0:0:
64,192,54094,128,0,54189:0:0:0:0:
320,192,54094,128,0,54189:0:0:0:0:
448,192,54189,1,0,0:0:0:0:
64,192,54284,1,0,0:0:0:0:
192,192,54284,128,0,54380:0:0:0:0:
320,192,54284,128,0,54380:0:0:0:0:
448,192,54332,1,0,0:0:0:0:
64,192,54380,1,0,0:0:0:0:
192,192,54475,1,0,0:0:0:0:
448,192,54475,1,0,0:0:0:0:
320,192,54570,1,0,0:0:0:0:
64,192,54570,128,0,54665:0:0:0:0:
448,192,54570,128,0,54665:0:0:0:0:
320,192,54665,1,0,0:0:0:0:
64,192,54761,1,0,0:0:0:0:
448,192,54761,1,0,0:0:0:0:
320,192,54856,1,0,0:0:0:0:
192,192,54856,128,0,54951:0:0:0:0:
448,192,54856,128,0,54951:0:0:0:0:
64,192,54927,1,0,0:0:0:0:
320,192,54999,1,0,0:0:0:0:
64,192,55070,1,0,0:0:0:0:
320,192,55142,1,0,0:0:0:0:
448,192,55142,1,0,0:0:0:0:
192,192,55189,1,0,0:0:0:0:
64,192,55237,1,0,0:0:0:0:
448,192,55284,1,0,0:0:0:0:
320,192,55332,1,0,0:0:0:0:
192,192,55380,1,0,0:0:0:0:
448,192,55427,1,0,0:0:0:0:
64,192,55427,1,0,0:0:0:0:
320,192,55499,1,0,0:0:0:0:
448,192,55570,1,0,0:0:0:0:
320,192,55642,1,0,0:0:0:0:
192,192,55642,1,0,0:0:0:0:
64,192,55713,1,0,0:0:0:0:
448,192,55713,1,0,0:0:0:0:
192,192,55784,1,0,0:0:0:0:
64,192,55856,1,0,0:0:0:0:
320,192,55856,1,0,0:0:0:0:
192,192,55927,1,0,0:0:0:0:
320,192,55999,128,0,56284:0:0:0:0:
64,192,56284,128,0,56356:0:0:0:0:
192,192,56284,128,0,56356:0:0:0:0:
448,192,56284,128,0,56427:0:0:0:0:
320,192,56380,1,0,0:0:0:0:
192,192,56427,1,0,0:0:0:0:
64,192,56475,1,0,0:0:0:0:
320,192,56534,1,0,0:0:0:0:
192,192,56570,1,0,0:0:0:0:
448,192,56606,1,0,0:0:0:0:
64,192,56642,1,0,0:0:0:0:
192,192,56677,1,0,0:0:0:0:
320,192,56713,1,0,0:0:0:0:
64,192,56749,1,0,0:0:0:0:
448,192,56784,1,0,0:0:0:0:
192,192,56820,1,0,0:0:0:0:
320,192,56856,1,0,0:0:0:0:
64,192,56892,1,0,0:0:0:0:
448,192,56927,1,0,0:0:0:0:
192,192,56963,1,0,0:0:0:0:
320,192,56999,1,0,0:0:0:0:
448,192,57034,1,0,0:0:0:0:
64,192,57070,1,0,0:0:0:0:
192,192,57106,1,0,0:0:0:0:
320,192,57142,1,0,0:0:0:0:
448,192,57142,1,0,0:0:0:0:
448,192,57213,1,0,0:0:0:0:
64,192,57284,1,0,0:0:0:0:
320,192,57284,1,0,0:0:0:0:
64,192,57356,1,0,0:0:0:0:
320,192,57427,1,0,0:0:0:0:
448,192,57427,1,0,0:0:0:0:
192,192,57427,1,0,0:0:0:0:
320,192,57499,1,0,0:0:0:0:
192,192,57570,1,0,0:0:0:0:
64,192,57570,1,0,0:0:0:0:
192,192,57642,1,0,0:0:0:0:
448,192,57713,1,0,0:0:0:0:
64,192,57713,1,0,0:0:0:0:
448,192,57784,1,0,0:0:0:0:
192,192,57856,1,0,0:0:0:0:
320,192,57856,1,0,0:0:0:0:
192,192,57927,1,0,0:0:0:0:
320,192,57999,1,0,0:0:0:0:
448,192,57999,1,0,0:0:0:0:
64,192,57999,1,0,0:0:0:0:
320,192,58070,1,0,0:0:0:0:
64,192,58142,1,0,0:0:0:0:
192,192,58142,1,0,0:0:0:0:
64,192,58213,1,0,0:0:0:0:
192,192,58284,128,0,58427:0:0:0:0:
320,192,58284,128,0,58499:0:0:0:0:
448,192,58284,128,0,58356:0:0:0:0:
448,192,58427,1,0,0:0:0:0:
192,192,58499,1,0,0:0:0:0:
448,192,58570,1,0,0:0:0:0:
320,192,58570,1,0,0:0:0:0:
64,192,58570,1,0,0:0:0:0:
192,192,58665,1,0,0:0:0:0:
320,192,58713,1,0,0:0:0:0:
448,192,58761,1,0,0:0:0:0:
192,192,58820,1,0,0:0:0:0:
320,192,58856,1,0,0:0:0:0:
64,192,58892,1,0,0:0:0:0:
448,192,58927,1,0,0:0:0:0:
320,192,58963,1,0,0:0:0:0:
192,192,58999,1,0,0:0:0:0:
448,192,59034,1,0,0:0:0:0:
64,192,59070,1,0,0:0:0:0:
320,192,59106,1,0,0:0:0:0:
192,192,59142,1,0,0:0:0:0:
448,192,59177,1,0,0:0:0:0:
64,192,59213,1,0,0:0:0:0:
320,192,59249,1,0,0:0:0:0:
192,192,59284,1,0,0:0:0:0:
64,192,59320,1,0,0:0:0:0:
448,192,59356,1,0,0:0:0:0:
320,192,59392,1,0,0:0:0:0:
192,192,59427,1,0,0:0:0:0:
64,192,59427,1,0,0:0:0:0:
64,192,59499,1,0,0:0:0:0:
448,192,59570,1,0,0:0:0:0:
192,192,59570,1,0,0:0:0:0:
448,192,59642,1,0,0:0:0:0:
192,192,59713,1,0,0:0:0:0:
64,192,59713,1,0,0:0:0:0:
320,192,59713,1,0,0:0:0:0:
192,192,59784,1,0,0:0:0:0:
320,192,59856,1,0,0:0:0:0:
448,192,59856,1,0,0:0:0:0:
320,192,59927,1,0,0:0:0:0:
64,192,59999,1,0,0:0:0:0:
192,192,59999,1,0,0:0:0:0:
448,192,60034,1,0,0:0:0:0:
192,192,60070,1,0,0:0:0:0:
64,192,60070,1,0,0:0:0:0:
320,192,60142,1,0,0:0:0:0:
448,192,60142,1,0,0:0:0:0:
64,192,60213,1,0,0:0:0:0:
192,192,60213,1,0,0:0:0:0:
64,192,60284,1,0,0:0:0:0:
448,192,60284,1,0,0:0:0:0:
320,192,60284,1,0,0:0:0:0:
320,192,60356,1,0,0:0:0:0:
64,192,60427,1,0,0:0:0:0:
192,192,60427,1,0,0:0:0:0:
192,192,60499,1,0,0:0:0:0:
64,192,60570,128,0,60784:0:0:0:0:
320,192,60570,128,0,60713:0:0:0:0:
448,192,60570,128,0,60642:0:0:0:0:
448,192,60713,1,0,0:0:0:0:
192,192,60784,1,0,0:0:0:0:
448,192,60856,1,0,0:0:0:0:
320,192,60856,1,0,0:0:0:0:
64,192,60856,1,0,0:0:0:0:
192,192,60951,1,0,0:0:0:0:
320,192,60999,1,0,0:0:0:0:
448,192,61046,1,0,0:0:0:0:
192,192,61106,1,0,0:0:0:0:
320,192,61142,1,0,0:0:0:0:
64,192,61177,1,0,0:0:0:0:
448,192,61213,1,0,0:0:0:0:
320,192,61249,1,0,0:0:0:0:
192,192,61284,1,0,0:0:0:0:
448,192,61320,1,0,0:0:0:0:
64,192,61356,1,0,0:0:0:0:
320,192,61392,1,0,0:0:0:0:
192,192,61427,1,0,0:0:0:0:
448,192,61463,1,0,0:0:0:0:
64,192,61499,1,0,0:0:0:0:
320,192,61534,1,0,0:0:0:0:
192,192,61570,1,0,0:0:0:0:
64,192,61606,1,0,0:0:0:0:
448,192,61642,1,0,0:0:0:0:
320,192,61677,1,0,0:0:0:0:
192,192,61713,1,0,0:0:0:0:
64,192,61713,1,0,0:0:0:0:
64,192,61784,1,0,0:0:0:0:
448,192,61856,1,0,0:0:0:0:
192,192,61856,1,0,0:0:0:0:
448,192,61927,1,0,0:0:0:0:
192,192,61999,1,0,0:0:0:0:
64,192,61999,1,0,0:0:0:0:
320,192,61999,1,0,0:0:0:0:
192,192,62070,1,0,0:0:0:0:
320,192,62142,1,0,0:0:0:0:
448,192,62142,1,0,0:0:0:0:
320,192,62213,1,0,0:0:0:0:
64,192,62284,1,0,0:0:0:0:
448,192,62284,1,0,0:0:0:0:
64,192,62356,1,0,0:0:0:0:
320,192,62427,1,0,0:0:0:0:
192,192,62427,1,0,0:0:0:0:
320,192,62499,1,0,0:0:0:0:
192,192,62570,1,0,0:0:0:0:
64,192,62570,1,0,0:0:0:0:
448,192,62570,1,0,0:0:0:0:
192,192,62642,1,0,0:0:0:0:
448,192,62713,1,0,0:0:0:0:
320,192,62713,1,0,0:0:0:0:
448,192,62784,1,0,0:0:0:0:
64,192,62856,128,0,63070:0:0:0:0:
192,192,62856,128,0,62927:0:0:0:0:
320,192,62856,128,0,62999:0:0:0:0:
192,192,62999,1,0,0:0:0:0:
320,192,63070,1,0,0:0:0:0:
64,192,63142,1,0,0:0:0:0:
192,192,63142,1,0,0:0:0:0:
448,192,63142,1,0,0:0:0:0:
320,192,63237,1,0,0:0:0:0:
192,192,63284,1,0,0:0:0:0:
64,192,63332,1,0,0:0:0:0:
320,192,63392,1,0,0:0:0:0:
192,192,63427,1,0,0:0:0:0:
448,192,63463,1,0,0:0:0:0:
64,192,63499,1,0,0:0:0:0:
192,192,63534,1,0,0:0:0:0:
320,192,63570,1,0,0:0:0:0:
64,192,63606,1,0,0:0:0:0:
448,192,63642,1,0,0:0:0:0:
192,192,63677,1,0,0:0:0:0:
320,192,63713,1,0,0:0:0:0:
64,192,63749,1,0,0:0:0:0:
448,192,63784,1,0,0:0:0:0:
192,192,63820,1,0,0:0:0:0:
320,192,63856,1,0,0:0:0:0:
448,192,63892,1,0,0:0:0:0:
192,192,63927,1,0,0:0:0:0:
320,192,63963,1,0,0:0:0:0:
448,192,63999,1,0,0:0:0:0:
64,192,63999,128,0,64046:0:0:0:0:
192,192,64046,128,0,64094:0:0:0:0:
64,192,64094,128,0,64142:0:0:0:0:
320,192,64142,128,0,64189:0:0:0:0:
192,192,64189,128,0,64237:0:0:0:0:
448,192,64237,128,0,64284:0:0:0:0:
320,192,64284,128,0,64332:0:0:0:0:
448,192,64332,128,0,64380:0:0:0:0:
192,192,64380,128,0,64427:0:0:0:0:
320,192,64427,1,0,0:0:0:0:
64,192,64427,128,0,64475:0:0:0:0:
192,192,64475,128,0,64522:0:0:0:0:
448,192,64522,128,0,64570:0:0:0:0:
320,192,64570,128,0,64618:0:0:0:0:
192,192,64618,128,0,64665:0:0:0:0:
448,192,64665,128,0,64713:0:0:0:0:
320,192,64713,128,0,64761:0:0:0:0:
448,192,64761,128,0,64808:0:0:0:0:
192,192,64808,128,0,64856:0:0:0:0:
320,192,64856,1,0,0:0:0:0:
64,192,64856,128,0,64903:0:0:0:0:
192,192,64903,128,0,64951:0:0:0:0:
448,192,64951,128,0,64999:0:0:0:0:
320,192,64999,128,0,65046:0:0:0:0:
192,192,65046,128,0,65094:0:0:0:0:
448,192,65094,128,0,65142:0:0:0:0:
64,192,65142,128,0,65356:0:0:0:0:
320,192,65142,128,0,65284:0:0:0:0:
192,192,65142,128,0,65213:0:0:0:0:
192,192,65284,1,0,0:0:0:0:
320,192,65356,1,0,0:0:0:0:
64,192,65427,128,0,65499:0:0:0:0:
192,192,65427,128,0,65499:0:0:0:0:
448,192,65427,128,0,65570:0:0:0:0:
320,192,65522,1,0,0:0:0:0:
192,192,65570,128,0,65642:0:0:0:0:
64,192,65618,1,0,0:0:0:0:
320,192,65677,1,0,0:0:0:0:
192,192,65713,1,0,0:0:0:0:
448,192,65749,1,0,0:0:0:0:
64,192,65784,1,0,0:0:0:0:
192,192,65820,1,0,0:0:0:0:
320,192,65856,1,0,0:0:0:0:
64,192,65892,1,0,0:0:0:0:
448,192,65927,1,0,0:0:0:0:
192,192,65963,1,0,0:0:0:0:
320,192,65999,128,0,66070:0:0:0:0:
64,192,66034,1,0,0:0:0:0:
448,192,66070,1,0,0:0:0:0:
192,192,66106,1,0,0:0:0:0:
320,192,66142,1,0,0:0:0:0:
448,192,66177,1,0,0:0:0:0:
64,192,66213,1,0,0:0:0:0:
192,192,66249,1,0,0:0:0:0:
320,192,66284,1,0,0:0:0:0:
448,192,66284,1,0,0:0:0:0:
448,192,66356,1,0,0:0:0:0:
64,192,66427,1,0,0:0:0:0:
320,192,66427,128,0,66499:0:0:0:0:
64,192,66499,1,0,0:0:0:0:
320,192,66570,1,0,0:0:0:0:
448,192,66570,1,0,0:0:0:0:
192,192,66570,1,0,0:0:0:0:
320,192,66642,1,0,0:0:0:0:
192,192,66713,1,0,0:0:0:0:
64,192,66713,1,0,0:0:0:0:
192,192,66784,1,0,0:0:0:0:
448,192,66856,1,0,0:0:0:0:
64,192,66856,128,0,66927:0:0:0:0:
448,192,66927,1,0,0:0:0:0:
192,192,66999,1,0,0:0:0:0:
320,192,66999,1,0,0:0:0:0:
192,192,67070,1,0,0:0:0:0:
320,192,67142,1,0,0:0:0:0:
64,192,67142,1,0,0:0:0:0:
448,192,67142,128,0,67213:0:0:0:0:
320,192,67213,1,0,0:0:0:0:
64,192,67284,1,0,0:0:0:0:
192,192,67284,1,0,0:0:0:0:
64,192,67356,1,0,0:0:0:0:
192,192,67427,128,0,67570:0:0:0:0:
320,192,67427,128,0,67642:0:0:0:0:
448,192,67427,128,0,67499:0:0:0:0:
448,192,67570,1,0,0:0:0:0:
192,192,67642,1,0,0:0:0:0:
448,192,67713,1,0,0:0:0:0:
320,192,67713,1,0,0:0:0:0:
64,192,67713,1,0,0:0:0:0:
192,192,67808,1,0,0:0:0:0:
320,192,67856,128,0,67927:0:0:0:0:
448,192,67903,1,0,0:0:0:0:
192,192,67963,1,0,0:0:0:0:
320,192,67999,1,0,0:0:0:0:
64,192,68034,1,0,0:0:0:0:
448,192,68070,1,0,0:0:0:0:
320,192,68106,1,0,0:0:0:0:
192,192,68142,1,0,0:0:0:0:
448,192,68177,1,0,0:0:0:0:
64,192,68213,1,0,0:0:0:0:
320,192,68249,1,0,0:0:0:0:
192,192,68284,128,0,68356:0:0:0:0:
448,192,68320,1,0,0:0:0:0:
64,192,68356,1,0,0:0:0:0:
320,192,68392,1,0,0:0:0:0:
192,192,68427,1,0,0:0:0:0:
64,192,68463,1,0,0:0:0:0:
448,192,68499,1,0,0:0:0:0:
320,192,68534,1,0,0:0:0:0:
192,192,68570,1,0,0:0:0:0:
64,192,68570,1,0,0:0:0:0:
64,192,68642,1,0,0:0:0:0:
448,192,68713,1,0,0:0:0:0:
192,192,68713,128,0,68784:0:0:0:0:
448,192,68784,1,0,0:0:0:0:
192,192,68856,1,0,0:0:0:0:
64,192,68856,1,0,0:0:0:0:
320,192,68856,1,0,0:0:0:0:
192,192,68927,1,0,0:0:0:0:
320,192,68999,1,0,0:0:0:0:
448,192,68999,1,0,0:0:0:0:
320,192,69070,1,0,0:0:0:0:
192,192,69142,1,0,0:0:0:0:
64,192,69142,1,0,0:0:0:0:
448,192,69177,1,0,0:0:0:0:
192,192,69213,1,0,0:0:0:0:
64,192,69213,1,0,0:0:0:0:
320,192,69284,1,0,0:0:0:0:
448,192,69284,1,0,0:0:0:0:
64,192,69356,1,0,0:0:0:0:
192,192,69356,1,0,0:0:0:0:
64,192,69427,1,0,0:0:0:0:
320,192,69427,1,0,0:0:0:0:
448,192,69427,128,0,69499:0:0:0:0:
320,192,69499,1,0,0:0:0:0:
64,192,69570,1,0,0:0:0:0:
192,192,69570,1,0,0:0:0:0:
192,192,69642,1,0,0:0:0:0:
64,192,69713,1,0,0:0:0:0:
320,192,69713,1,0,0:0:0:0:
448,192,69713,1,0,0:0:0:0:
192,192,69784,1,0,0:0:0:0:
448,192,69856,1,0,0:0:0:0:
448,192,69927,1,0,0:0:0:0:
64,192,69999,128,0,70213:0:0:0:0:
320,192,69999,128,0,70070:0:0:0:0:
192,192,69999,128,0,70189:0:0:0:0:
448,192,70094,1,0,0:0:0:0:
320,192,70142,1,0,0:0:0:0:
448,192,70189,1,0,0:0:0:0:
320,192,70249,1,0,0:0:0:0:
192,192,70284,1,0,0:0:0:0:
64,192,70320,1,0,0:0:0:0:
448,192,70356,1,0,0:0:0:0:
192,192,70392,1,0,0:0:0:0:
320,192,70427,1,0,0:0:0:0:
448,192,70463,1,0,0:0:0:0:
64,192,70499,1,0,0:0:0:0:
192,192,70534,1,0,0:0:0:0:
320,192,70570,128,0,70642:0:0:0:0:
448,192,70570,128,0,70713:0:0:0:0:
64,192,70642,1,0,0:0:0:0:
192,192,70677,1,0,0:0:0:0:
320,192,70713,1,0,0:0:0:0:
64,192,70749,1,0,0:0:0:0:
448,192,70784,1,0,0:0:0:0:
192,192,70820,1,0,0:0:0:0:
320,192,70856,1,0,0:0:0:0:
64,192,70856,1,0,0:0:0:0:
320,192,70927,1,0,0:0:0:0:
192,192,70999,1,0,0:0:0:0:
448,192,70999,1,0,0:0:0:0:
192,192,71070,1,0,0:0:0:0:
448,192,71142,1,0,0:0:0:0:
64,192,71142,128,0,71213:0:0:0:0:
320,192,71142,128,0,71213:0:0:0:0:
448,192,71213,1,0,0:0:0:0:
64,192,71284,1,0,0:0:0:0:
192,192,71284,1,0,0:0:0:0:
64,192,71356,1,0,0:0:0:0:
320,192,71427,1,0,0:0:0:0:
448,192,71427,1,0,0:0:0:0:
448,192,71499,1,0,0:0:0:0:
64,192,71570,1,0,0:0:0:0:
320,192,71570,1,0,0:0:0:0:
64,192,71642,1,0,0:0:0:0:
320,192,71713,1,0,0:0:0:0:
448,192,71713,128,0,71784:0:0:0:0:
192,192,71713,128,0,71784:0:0:0:0:
320,192,71784,1,0,0:0:0:0:
64,192,71856,1,0,0:0:0:0:
64,192,71927,1,0,0:0:0:0:
448,192,71999,1,0,0:0:0:0:
320,192,71999,1,0,0:0:0:0:
320,192,72070,1,0,0:0:0:0:
64,192,72142,1,0,0:0:0:0:
192,192,72142,1,0,0:0:0:0:
64,192,72213,1,0,0:0:0:0:
320,192,72284,1,0,0:0:0:0:
192,192,72284,128,0,72356:0:0:0:0:
448,192,72284,128,0,72356:0:0:0:0:
320,192,72356,1,0,0:0:0:0:
192,192,72427,1,0,0:0:0:0:
64,192,72427,1,0,0:0:0:0:
192,192,72499,1,0,0:0:0:0:
64,192,72570,1,0,0:0:0:0:
320,192,72570,128,0,72642:0:0:0:0:
448,192,72570,128,0,72642:0:0:0:0:
64,192,72642,1,0,0:0:0:0:
192,192,72642,1,0,0:0:0:0:
320,192,72713,1,0,0:0:0:0:
448,192,72713,1,0,0:0:0:0:
320,192,72784,1,0,0:0:0:0:
192,192,72856,1,0,0:0:0:0:
64,192,72856,128,0,72927:0:0:0:0:
448,192,72856,128,0,72927:0:0:0:0:
320,192,72927,1,0,0:0:0:0:
192,192,72927,1,0,0:0:0:0:
448,192,72999,1,0,0:0:0:0:
64,192,72999,1,0,0:0:0:0:
448,192,73070,1,0,0:0:0:0:
64,192,73142,1,0,0:0:0:0:
192,192,73142,1,0,0:0:0:0:
320,192,73142,1,0,0:0:0:0:
64,192,73237,1,0,0:0:0:0:
320,192,73237,1,0,0:0:0:0:
448,192,73237,1,0,0:0:0:0:
64,192,73332,1,0,0:0:0:0:
192,192,73332,1,0,0:0:0:0:
320,192,73332,1,0,0:0:0:0:
192,192,73427,1,0,0:0:0:0:
448,192,73427,1,0,0:0:0:0:
320,192,73427,1,0,0:0:0:0:
64,192,73522,1,0,0:0:0:0:
448,192,73522,1,0,0:0:0:0:
64,192,73618,1,0,0:0:0:0:
192,192,73618,1,0,0:0:0:0:
192,192,73713,1,0,0:0:0:0:
320,192,73713,1,0,0:0:0:0:
320,192,73808,1,0,0:0:0:0:
448,192,73808,1,0,0:0:0:0:
448,192,73903,1,0,0:0:0:0:
192,192,73903,1,0,0:0:0:0:
64,192,73999,1,0,0:0:0:0:
192,192,74039,1,0,0:0:0:0:
64,192,74080,1,0,0:0:0:0:
320,192,74121,1,0,0:0:0:0:
192,192,74162,1,0,0:0:0:0:
448,192,74203,1,0,0:0:0:0:
320,192,74244,1,0,0:0:0:0:
64,192,74284,1,0,0:0:0:0:
192,192,74284,128,0,74356:0:0:0:0:
448,192,74284,128,0,74356:0:0:0:0:
64,192,74356,128,0,74642:0:0:0:0:
192,192,74427,128,0,74642:0:0:0:0:
448,192,74427,128,0,74642:0:0:0:0:
448,192,74713,1,0,0:0:0:0:
64,192,74713,128,0,74784:0:0:0:0:
320,192,74713,128,0,74784:0:0:0:0:
448,192,74784,128,0,75070:0:0:0:0:
320,192,74856,128,0,75070:0:0:0:0:
64,192,74856,128,0,75070:0:0:0:0:
64,192,75142,1,0,0:0:0:0:
192,192,75142,128,0,75213:0:0:0:0:
448,192,75142,128,0,75213:0:0:0:0:
64,192,75213,128,0,75499:0:0:0:0:
192,192,75284,128,0,75499:0:0:0:0:
448,192,75284,128,0,75499:0:0:0:0:
64,192,75570,1,0,0:0:0:0:
320,192,75570,128,0,75642:0:0:0:0:
448,192,75570,128,0,75642:0:0:0:0:
64,192,75642,1,0,0:0:0:0:
448,192,75713,1,0,0:0:0:0:
192,192,75713,1,0,0:0:0:0:
320,192,75761,1,0,0:0:0:0:
64,192,75808,1,0,0:0:0:0:
448,192,75856,1,0,0:0:0:0:
192,192,75856,1,0,0:0:0:0:
64,192,75903,1,0,0:0:0:0:
320,192,75951,1,0,0:0:0:0:
64,192,75999,1,0,0:0:0:0:
192,192,75999,1,0,0:0:0:0:
320,192,76046,1,0,0:0:0:0:
448,192,76094,1,0,0:0:0:0:
192,192,76142,1,0,0:0:0:0:
320,192,76189,1,0,0:0:0:0:
64,192,76237,1,0,0:0:0:0:
192,192,76284,1,0,0:0:0:0:
448,192,76284,1,0,0:0:0:0:
64,192,76332,1,0,0:0:0:0:
320,192,76380,1,0,0:0:0:0:
192,192,76427,1,0,0:0:0:0:
448,192,76475,1,0,0:0:0:0:
320,192,76522,1,0,0:0:0:0:
192,192,76570,1,0,0:0:0:0:
64,192,76570,128,0,76642:0:0:0:0:
448,192,76570,128,0,76642:0:0:0:0:
192,192,76642,128,0,76927:0:0:0:0:
64,192,76713,128,0,76927:0:0:0:0:
448,192,76713,128,0,76927:0:0:0:0:
320,192,76999,1,0,0:0:0:0:
64,192,76999,128,0,77070:0:0:0:0:
448,192,76999,128,0,77070:0:0:0:0:
320,192,77070,128,0,77356:0:0:0:0:
64,192,77142,128,0,77356:0:0:0:0:
448,192,77142,128,0,77356:0:0:0:0:
192,192,77427,1,0,0:0:0:0:
64,192,77427,128,0,77499:0:0:0:0:
448,192,77427,128,0,77499:0:0:0:0:
192,192,77499,128,0,77784:0:0:0:0:
448,192,77570,128,0,77784:0:0:0:0:
64,192,77570,128,0,77784:0:0:0:0:
448,192,77856,1,0,0:0:0:0:
192,192,77856,128,0,77927:0:0:0:0:
320,192,77856,128,0,77927:0:0:0:0:
448,192,77927,1,0,0:0:0:0:
64,192,77999,1,0,0:0:0:0:
320,192,77999,1,0,0:0:0:0:
192,192,78046,1,0,0:0:0:0:
448,192,78094,1,0,0:0:0:0:
64,192,78142,1,0,0:0:0:0:
320,192,78142,1,0,0:0:0:0:
448,192,78189,1,0,0:0:0:0:
192,192,78237,1,0,0:0:0:0:
448,192,78284,1,0,0:0:0:0:
320,192,78284,1,0,0:0:0:0:
64,192,78320,1,0,0:0:0:0:
192,192,78356,1,0,0:0:0:0:
448,192,78356,1,0,0:0:0:0:
320,192,78427,1,0,0:0:0:0:
64,192,78427,1,0,0:0:0:0:
192,192,78475,1,0,0:0:0:0:
448,192,78522,1,0,0:0:0:0:
320,192,78570,1,0,0:0:0:0:
64,192,78570,1,0,0:0:0:0:
448,192,78618,1,0,0:0:0:0:
192,192,78665,1,0,0:0:0:0:
320,192,78713,1,0,0:0:0:0:
64,192,78761,1,0,0:0:0:0:
192,192,78808,1,0,0:0:0:0:
448,192,78856,1,0,0:0:0:0:
320,192,78856,1,0,0:0:0:0:
64,192,78856,1,0,0:0:0:0:
320,192,78999,1,0,0:0:0:0:
64,192,79070,1,0,0:0:0:0:
448,192,79142,1,0,0:0:0:0:
192,192,79142,128,0,79284:0:0:0:0:
320,192,79142,128,0,79213:0:0:0:0:
448,192,79213,128,0,79356:0:0:0:0:
320,192,79284,128,0,79356:0:0:0:0:
192,192,79356,128,0,79427:0:0:0:0:
320,192,79427,1,0,0:0:0:0:
64,192,79427,128,0,79570:0:0:0:0:
448,192,79427,128,0,79499:0:0:0:0:
320,192,79499,128,0,79642:0:0:0:0:
192,192,79570,128,0,79642:0:0:0:0:
64,192,79642,128,0,79713:0:0:0:0:
192,192,79713,1,0,0:0:0:0:
320,192,79713,128,0,79927:0:0:0:0:
448,192,79713,128,0,79856:0:0:0:0:
192,192,79784,128,0,79927:0:0:0:0:
64,192,79856,128,0,79927:0:0:0:0:
448,192,79927,128,0,79999:0:0:0:0:
64,192,79999,1,0,0:0:0:0:
320,192,79999,128,0,80213:0:0:0:0:
192,192,79999,128,0,80070:0:0:0:0:
64,192,80070,128,0,80142:0:0:0:0:
448,192,80142,128,0,80213:0:0:0:0:
64,192,80213,128,0,80284:0:0:0:0:
448,192,80284,1,0,0:0:0:0:
192,192,80284,128,0,80427:0:0:0:0:
320,192,80284,128,0,80356:0:0:0:0:
448,192,80356,128,0,80499:0:0:0:0:
320,192,80427,128,0,80499:0:0:0:0:
192,192,80499,128,0,80570:0:0:0:0:
320,192,80570,1,0,0:0:0:0:
64,192,80570,128,0,80784:0:0:0:0:
448,192,80570,128,0,80642:0:0:0:0:
320,192,80642,128,0,80713:0:0:0:0:
192,192,80713,128,0,80784:0:0:0:0:
320,192,80784,128,0,80856:0:0:0:0:
64,192,80856,1,0,0:0:0:0:
192,192,80856,128,0,80927:0:0:0:0:
448,192,80856,128,0,81070:0:0:0:0:
64,192,80927,128,0,81070:0:0:0:0:
320,192,80999,128,0,81070:0:0:0:0:
192,192,81070,128,0,81142:0:0:0:0:
64,192,81142,128,0,81213:0:0:0:0:
320,192,81142,128,0,81213:0:0:0:0:
448,192,81142,128,0,81213:0:0:0:0:
64,192,81356,128,0,81427:0:0:0:0:
192,192,81356,128,0,81427:0:0:0:0:
448,192,81356,128,0,81427:0:0:0:0:
64,192,81570,128,0,81642:0:0:0:0:
320,192,81570,128,0,81642:0:0:0:0:
448,192,81570,128,0,81642:0:0:0:0:
448,192,81713,128,0,81784:0:0:0:0:
192,192,81713,128,0,81784:0:0:0:0:
320,192,81713,128,0,81784:0:0:0:0:
64,192,81999,128,0,82070:0:0:0:0:
192,192,81999,128,0,82070:0:0:0:0:
448,192,81999,128,0,82070:0:0:0:0:
64,192,82284,1,0,0:0:0:0:
448,192,82284,128,0,82356:0:0:0:0:
64,192,82427,1,0,0:0:0:0:
320,192,82427,128,0,82499:0:0:0:0:
64,192,82570,1,0,0:0:0:0:
448,192,82570,128,0,82642:0:0:0:0:
448,192,82713,1,0,0:0:0:0:
192,192,82713,128,0,82784:0:0:0:0:
64,192,82784,1,0,0:0:0:0:
320,192,82784,128,0,82856:0:0:0:0:
192,192,82856,1,0,0:0:0:0:
448,192,82856,128,0,82999:0:0:0:0:
320,192,82927,1,0,0:0:0:0:
192,192,82999,1,0,0:0:0:0:
448,192,83070,128,0,83142:0:0:0:0:
320,192,83142,1,0,0:0:0:0:
64,192,83142,128,0,83356:0:0:0:0:
192,192,83213,1,0,0:0:0:0:
448,192,83284,1,0,0:0:0:0:
192,192,83356,1,0,0:0:0:0:
448,192,83427,1,0,0:0:0:0:
320,192,83427,128,0,83499:0:0:0:0:
64,192,83427,128,0,83499:0:0:0:0:
448,192,83499,128,0,83784:0:0:0:0:
320,192,83570,128,0,83784:0:0:0:0:
64,192,83570,128,0,83784:0:0:0:0:
64,192,83856,1,0,0:0:0:0:
448,192,83856,128,0,83927:0:0:0:0:
192,192,83856,128,0,83927:0:0:0:0:
64,192,83927,128,0,84213:0:0:0:0:
192,192,83999,128,0,84213:0:0:0:0:
448,192,83999,128,0,84213:0:0:0:0:
448,192,84284,1,0,0:0:0:0:
320,192,84284,128,0,84356:0:0:0:0:
64,192,84284,128,0,84356:0:0:0:0:
448,192,84356,128,0,84642:0:0:0:0:
320,192,84427,128,0,84642:0:0:0:0:
64,192,84427,128,0,84642:0:0:0:0:
448,192,84713,1,0,0:0:0:0:
192,192,84713,128,0,84784:0:0:0:0:
64,192,84713,128,0,84784:0:0:0:0:
448,192,84784,1,0,0:0:0:0:
64,192,84856,1,0,0:0:0:0:
320,192,84856,1,0,0:0:0:0:
192,192,84903,1,0,0:0:0:0:
448,192,84951,1,0,0:0:0:0:
64,192,84999,1,0,0:0:0:0:
320,192,84999,1,0,0:0:0:0:
448,192,85046,1,0,0:0:0:0:
192,192,85094,1,0,0:0:0:0:
448,192,85142,1,0,0:0:0:0:
320,192,85142,1,0,0:0:0:0:
192,192,85189,1,0,0:0:0:0:
64,192,85237,1,0,0:0:0:0:
320,192,85284,1,0,0:0:0:0:
192,192,85332,1,0,0:0:0:0:
448,192,85380,1,0,0:0:0:0:
320,192,85427,1,0,0:0:0:0:
64,192,85427,1,0,0:0:0:0:
448,192,85475,1,0,0:0:0:0:
192,192,85522,1,0,0:0:0:0:
320,192,85570,1,0,0:0:0:0:
64,192,85618,1,0,0:0:0:0:
192,192,85665,1,0,0:0:0:0:
320,192,85713,1,0,0:0:0:0:
448,192,85713,128,0,85784:0:0:0:0:
64,192,85713,128,0,85784:0:0:0:0:
320,192,85784,128,0,86070:0:0:0:0:
448,192,85856,128,0,86070:0:0:0:0:
64,192,85856,128,0,86070:0:0:0:0:
192,192,86142,1,0,0:0:0:0:
448,192,86142,128,0,86213:0:0:0:0:
64,192,86142,128,0,86213:0:0:0:0:
192,192,86213,128,0,86499:0:0:0:0:
448,192,86284,128,0,86499:0:0:0:0:
64,192,86284,128,0,86499:0:0:0:0:
320,192,86570,1,0,0:0:0:0:
448,192,86570,128,0,86642:0:0:0:0:
64,192,86570,128,0,86642:0:0:0:0:
320,192,86642,128,0,86927:0:0:0:0:
64,192,86713,128,0,86927:0:0:0:0:
448,192,86713,128,0,86927:0:0:0:0:
64,192,86999,1,0,0:0:0:0:
320,192,86999,128,0,87070:0:0:0:0:
192,192,86999,128,0,87070:0:0:0:0:
64,192,87070,1,0,0:0:0:0:
448,192,87142,1,0,0:0:0:0:
192,192,87142,1,0,0:0:0:0:
320,192,87189,1,0,0:0:0:0:
64,192,87237,1,0,0:0:0:0:
448,192,87284,1,0,0:0:0:0:
192,192,87284,1,0,0:0:0:0:
64,192,87332,1,0,0:0:0:0:
320,192,87380,1,0,0:0:0:0:
64,192,87427,1,0,0:0:0:0:
192,192,87427,1,0,0:0:0:0:
448,192,87463,1,0,0:0:0:0:
320,192,87499,1,0,0:0:0:0:
64,192,87499,1,0,0:0:0:0:
192,192,87570,1,0,0:0:0:0:
448,192,87570,1,0,0:0:0:0:
320,192,87618,1,0,0:0:0:0:
64,192,87665,1,0,0:0:0:0:
192,192,87713,1,0,0:0:0:0:
448,192,87713,1,0,0:0:0:0:
64,192,87761,1,0,0:0:0:0:
320,192,87808,1,0,0:0:0:0:
192,192,87856,1,0,0:0:0:0:
448,192,87903,1,0,0:0:0:0:
320,192,87951,1,0,0:0:0:0:
64,192,87999,1,0,0:0:0:0:
192,192,87999,1,0,0:0:0:0:
448,192,87999,1,0,0:0:0:0:
192,192,88142,1,0,0:0:0:0:
448,192,88213,1,0,0:0:0:0:
64,192,88284,1,0,0:0:0:0:
320,192,88284,128,0,88427:0:0:0:0:
192,192,88284,128,0,88356:0:0:0:0:
64,192,88356,128,0,88499:0:0:0:0:
192,192,88427,128,0,88499:0:0:0:0:
320,192,88499,128,0,88570:0:0:0:0:
192,192,88570,1,0,0:0:0:0:
448,192,88570,128,0,88713:0:0:0:0:
64,192,88570,128,0,88642:0:0:0:0:
192,192,88642,128,0,88784:0:0:0:0:
320,192,88713,128,0,88784:0:0:0:0:
448,192,88784,128,0,88856:0:0:0:0:
320,192,88856,1,0,0:0:0:0:
192,192,88856,128,0,89070:0:0:0:0:
64,192,88856,128,0,88999:0:0:0:0:
320,192,88927,128,0,89070:0:0:0:0:
448,192,88999,128,0,89070:0:0:0:0:
64,192,89070,128,0,89142:0:0:0:0:
448,192,89142,1,0,0:0:0:0:
192,192,89142,128,0,89356:0:0:0:0:
320,192,89142,128,0,89213:0:0:0:0:
448,192,89213,128,0,89284:0:0:0:0:
64,192,89284,128,0,89356:0:0:0:0:
448,192,89356,128,0,89427:0:0:0:0:
64,192,89427,1,0,0:0:0:0:
320,192,89427,128,0,89570:0:0:0:0:
192,192,89427,128,0,89499:0:0:0:0:
64,192,89499,128,0,89642:0:0:0:0:
192,192,89570,128,0,89642:0:0:0:0:
320,192,89642,128,0,89713:0:0:0:0:
192,192,89713,1,0,0:0:0:0:
448,192,89713,128,0,89927:0:0:0:0:
64,192,89713,128,0,89784:0:0:0:0:
192,192,89784,128,0,89856:0:0:0:0:
320,192,89856,128,0,89927:0:0:0:0:
192,192,89927,128,0,89999:0:0:0:0:
448,192,89999,1,0,0:0:0:0:
320,192,89999,128,0,90070:0:0:0:0:
64,192,89999,128,0,90142:0:0:0:0:
448,192,90070,128,0,90213:0:0:0:0:
192,192,90142,128,0,90213:0:0:0:0:
64,192,90213,128,0,90284:0:0:0:0:
320,192,90284,1,0,0:0:0:0:
448,192,90284,1,0,0:0:0:0:
192,192,90284,128,0,90380:0:0:0:0:
320,192,90380,1,0,0:0:0:0:
448,192,90380,1,0,0:0:0:0:
64,192,90475,1,0,0:0:0:0:
192,192,90475,1,0,0:0:0:0:
320,192,90475,128,0,90570:0:0:0:0:
192,192,90570,1,0,0:0:0:0:
64,192,90570,1,0,0:0:0:0:
320,192,90665,1,0,0:0:0:0:
448,192,90665,1,0,0:0:0:0:
192,192,90665,128,0,90761:0:0:0:0:
448,192,90761,1,0,0:0:0:0:
320,192,90761,1,0,0:0:0:0:
64,192,90856,128,0,90951:0:0:0:0:
192,192,90856,128,0,90951:0:0:0:0:
448,192,90856,128,0,90951:0:0:0:0:
64,192,91142,128,0,91237:0:0:0:0:
320,192,91142,128,0,91237:0:0:0:0:
448,192,91142,128,0,91237:0:0:0:0:
320,192,91427,1,0,0:0:0:0:
192,192,91427,1,0,0:0:0:0:
64,192,91427,1,0,0:0:0:0:
448,192,91522,1,0,0:0:0:0:
192,192,91522,1,0,0:0:0:0:
64,192,91522,1,0,0:0:0:0:
192,192,91618,1,0,0:0:0:0:
64,192,91618,1,0,0:0:0:0:
320,192,91618,1,0,0:0:0:0:
64,192,91713,128,0,91903:0:0:0:0:
192,192,91713,128,0,91903:0:0:0:0:
448,192,91713,128,0,91903:0:0:0:0:
448,192,91999,1,0,0:0:0:0:
320,192,91999,1,0,0:0:0:0:
192,192,91999,1,0,0:0:0:0:
320,192,92094,1,0,0:0:0:0:
448,192,92094,1,0,0:0:0:0:
64,192,92094,1,0,0:0:0:0:
448,192,92189,1,0,0:0:0:0:
320,192,92189,1,0,0:0:0:0:
192,192,92189,1,0,0:0:0:0:
64,192,92284,128,0,92475:0:0:0:0:
192,192,92284,128,0,92475:0:0:0:0:
448,192,92284,128,0,92475:0:0:0:0:
64,192,92570,1,0,0:0:0:0:
448,192,92570,1,0,0:0:0:0:
192,192,92570,1,0,0:0:0:0:
320,192,92642,1,0,0:0:0:0:
448,192,92713,1,0,0:0:0:0:
64,192,92713,1,0,0:0:0:0:
192,192,92784,1,0,0:0:0:0:
320,192,92856,1,0,0:0:0:0:
448,192,92856,1,0,0:0:0:0:
64,192,92913,1,0,0:0:0:0:
192,192,92970,1,0,0:0:0:0:
320,192,93027,1,0,0:0:0:0:
64,192,93084,1,0,0:0:0:0:
320,192,93142,1,0,0:0:0:0:
192,192,93142,1,0,0:0:0:0:
448,192,93142,1,0,0:0:0:0:
64,192,93189,1,0,0:0:0:0:
320,192,93237,1,0,0:0:0:0:
192,192,93284,1,0,0:0:0:0:
448,192,93332,1,0,0:0:0:0:
320,192,93380,1,0,0:0:0:0:
192,192,93427,1,0,0:0:0:0:
64,192,93475,1,0,0:0:0:0:
448,192,93542,1,0,0:0:0:0:
64,192,93599,1,0,0:0:0:0:
192,192,93656,1,0,0:0:0:0:
448,192,93713,1,0,0:0:0:0:
320,192,93713,128,0,93856:0:0:0:0:
448,192,93856,128,0,93999:0:0:0:0:
192,192,93927,1,0,0:0:0:0:
320,192,93927,1,0,0:0:0:0:
64,192,93999,128,0,94070:0:0:0:0:
64,192,94142,128,0,94284:0:0:0:0:
192,192,94284,1,0,0:0:0:0:
320,192,94284,1,0,0:0:0:0:
448,192,94284,128,0,94427:0:0:0:0:
64,192,94427,128,0,94499:0:0:0:0:
64,192,94570,1,0,0:0:0:0:
320,192,94570,128,0,94713:0:0:0:0:
192,192,94713,128,0,94856:0:0:0:0:
64,192,94856,1,0,0:0:0:0:
448,192,94856,1,0,0:0:0:0:
320,192,94903,1,0,0:0:0:0:
448,192,94951,1,0,0:0:0:0:
64,192,94999,1,0,0:0:0:0:
192,192,95046,1,0,0:0:0:0:
448,192,95094,1,0,0:0:0:0:
320,192,95142,1,0,0:0:0:0:
64,192,95142,1,0,0:0:0:0:
192,192,95189,1,0,0:0:0:0:
64,192,95237,1,0,0:0:0:0:
448,192,95284,1,0,0:0:0:0:
192,192,95332,1,0,0:0:0:0:
320,192,95380,1,0,0:0:0:0:
448,192,95427,1,0,0:0:0:0:
64,192,95427,1,0,0:0:0:0:
320,192,95475,1,0,0:0:0:0:
192,192,95522,1,0,0:0:0:0:
448,192,95570,1,0,0:0:0:0:
320,192,95618,1,0,0:0:0:0:
192,192,95665,1,0,0:0:0:0:
448,192,95713,1,0,0:0:0:0:
64,192,95713,1,0,0:0:0:0:
192,192,95770,1,0,0:0:0:0:
448,192,95827,1,0,0:0:0:0:
320,192,95884,1,0,0:0:0:0:
192,192,95942,1,0,0:0:0:0:
64,192,95999,1,0,0:0:0:0:
448,192,95999,128,0,96070:0:0:0:0:
64,192,96142,128,0,96284:0:0:0:0:
192,192,96213,1,0,0:0:0:0:
320,192,96213,1,0,0:0:0:0:
448,192,96284,128,0,96427:0:0:0:0:
320,192,96427,128,0,96570:0:0:0:0:
192,192,96570,1,0,0:0:0:0:
448,192,96570,1,0,0:0:0:0:
64,192,96570,128,0,96713:0:0:0:0:
320,192,96713,128,0,96784:0:0:0:0:
320,192,96856,128,0,96999:0:0:0:0:
64,192,96927,1,0,0:0:0:0:
448,192,96999,1,0,0:0:0:0:
192,192,96999,128,0,97142:0:0:0:0:
448,192,97142,1,0,0:0:0:0:
64,192,97142,1,0,0:0:0:0:
192,192,97189,1,0,0:0:0:0:
64,192,97237,1,0,0:0:0:0:
448,192,97284,1,0,0:0:0:0:
320,192,97332,1,0,0:0:0:0:
64,192,97380,1,0,0:0:0:0:
192,192,97427,1,0,0:0:0:0:
448,192,97427,1,0,0:0:0:0:
320,192,97475,1,0,0:0:0:0:
448,192,97522,1,0,0:0:0:0:
64,192,97570,1,0,0:0:0:0:
320,192,97618,1,0,0:0:0:0:
192,192,97665,1,0,0:0:0:0:
64,192,97713,1,0,0:0:0:0:
448,192,97713,1,0,0:0:0:0:
192,192,97761,1,0,0:0:0:0:
320,192,97808,1,0,0:0:0:0:
64,192,97856,1,0,0:0:0:0:
192,192,97903,1,0,0:0:0:0:
320,192,97951,1,0,0:0:0:0:
64,192,97999,1,0,0:0:0:0:
448,192,97999,1,0,0:0:0:0:
320,192,98056,1,0,0:0:0:0:
64,192,98113,1,0,0:0:0:0:
192,192,98170,1,0,0:0:0:0:
320,192,98227,1,0,0:0:0:0:
448,192,98284,1,0,0:0:0:0:
64,192,98284,128,0,98356:0:0:0:0:
448,192,98427,128,0,98570:0:0:0:0:
192,192,98499,1,0,0:0:0:0:
320,192,98499,1,0,0:0:0:0:
64,192,98570,128,0,98713:0:0:0:0:
192,192,98713,128,0,98856:0:0:0:0:
448,192,98856,1,0,0:0:0:0:
64,192,98856,1,0,0:0:0:0:
320,192,98856,128,0,98999:0:0:0:0:
192,192,98999,128,0,99070:0:0:0:0:
192,192,99142,1,0,0:0:0:0:
448,192,99142,128,0,99284:0:0:0:0:
64,192,99284,128,0,99427:0:0:0:0:
320,192,99427,128,0,99499:0:0:0:0:
192,192,99427,128,0,99642:0:0:0:0:
448,192,99427,128,0,99642:0:0:0:0:
320,192,99570,1,0,0:0:0:0:
448,192,99713,1,0,0:0:0:0:
64,192,99713,128,0,99761:0:0:0:0:
192,192,99761,128,0,99856:0:0:0:0:
64,192,99808,128,0,99903:0:0:0:0:
320,192,99856,128,0,99951:0:0:0:0:
192,192,99903,128,0,99951:0:0:0:0:
448,192,99951,128,0,99999:0:0:0:0:
320,192,99999,1,0,0:0:0:0:
192,192,99999,1,0,0:0:0:0:
64,192,99999,1,0,0:0:0:0:
448,192,100046,1,0,0:0:0:0:
64,192,100094,1,0,0:0:0:0:
192,192,100142,1,0,0:0:0:0:
320,192,100189,1,0,0:0:0:0:
64,192,100237,1,0,0:0:0:0:
192,192,100284,1,0,0:0:0:0:
448,192,100284,128,0,100332:0:0:0:0:
320,192,100332,128,0,100427:0:0:0:0:
448,192,100380,128,0,100475:0:0:0:0:
192,192,100427,128,0,100522:0:0:0:0:
320,192,100475,128,0,100522:0:0:0:0:
64,192,100522,128,0,100570:0:0:0:0:
192,192,100570,128,0,100713:0:0:0:0:
320,192,100570,128,0,100642:0:0:0:0:
448,192,100570,128,0,100642:0:0:0:0:
320,192,100713,1,0,0:0:0:0:
448,192,100713,1,0,0:0:0:0:
320,192,100784,1,0,0:0:0:0:
64,192,100784,1,0,0:0:0:0:
64,192,100856,128,0,100927:0:0:0:0:
192,192,100856,128,0,100927:0:0:0:0:
64,192,100999,128,0,101142:0:0:0:0:
192,192,100999,128,0,101070:0:0:0:0:
192,192,101142,1,0,0:0:0:0:
320,192,101142,1,0,0:0:0:0:
448,192,101142,1,0,0:0:0:0:
448,192,101213,1,0,0:0:0:0:
64,192,101284,1,0,0:0:0:0:
64,192,101356,1,0,0:0:0:0:
448,192,101427,1,0,0:0:0:0:
320,192,101427,1,0,0:0:0:0:
448,192,101499,1,0,0:0:0:0:
192,192,101570,1,0,0:0:0:0:
192,192,101642,1,0,0:0:0:0:
64,192,101713,1,0,0:0:0:0:
320,192,101713,128,0,101856:0:0:0:0:
448,192,101713,128,0,101856:0:0:0:0:
192,192,101784,1,0,0:0:0:0:
64,192,101856,1,0,0:0:0:0:
320,192,101927,128,0,101999:0:0:0:0:
448,192,101927,128,0,101999:0:0:0:0:
192,192,101999,1,0,0:0:0:0:
448,192,102070,1,0,0:0:0:0:
320,192,102070,128,0,102142:0:0:0:0:
192,192,102142,1,0,0:0:0:0:
448,192,102142,128,0,102284:0:0:0:0:
320,192,102213,1,0,0:0:0:0:
64,192,102284,128,0,102427:0:0:0:0:
192,192,102284,128,0,102427:0:0:0:0:
320,192,102356,1,0,0:0:0:0:
448,192,102427,1,0,0:0:0:0:
64,192,102499,128,0,102570:0:0:0:0:
192,192,102499,128,0,102570:0:0:0:0:
320,192,102570,1,0,0:0:0:0:
64,192,102642,1,0,0:0:0:0:
192,192,102642,128,0,102713:0:0:0:0:
320,192,102713,1,0,0:0:0:0:
64,192,102713,128,0,102784:0:0:0:0:
192,192,102784,1,0,0:0:0:0:
64,192,102856,128,0,102999:0:0:0:0:
320,192,102856,128,0,102999:0:0:0:0:
448,192,102927,1,0,0:0:0:0:
192,192,102999,1,0,0:0:0:0:
320,192,103070,128,0,103142:0:0:0:0:
64,192,103070,128,0,103142:0:0:0:0:
448,192,103142,1,0,0:0:0:0:
320,192,103213,1,0,0:0:0:0:
64,192,103213,128,0,103356:0:0:0:0:
448,192,103284,1,0,0:0:0:0:
320,192,103284,128,0,103356:0:0:0:0:
192,192,103356,1,0,0:0:0:0:
64,192,103427,128,0,103570:0:0:0:0:
448,192,103427,128,0,103570:0:0:0:0:
192,192,103499,1,0,0:0:0:0:
320,192,103570,1,0,0:0:0:0:
192,192,103642,128,0,103713:0:0:0:0:
448,192,103642,128,0,103713:0:0:0:0:
64,192,103713,1,0,0:0:0:0:
192,192,103784,1,0,0:0:0:0:
448,192,103784,128,0,103927:0:0:0:0:
320,192,103856,1,0,0:0:0:0:
192,192,103856,128,0,103927:0:0:0:0:
64,192,103927,1,0,0:0:0:0:
320,192,103999,1,0,0:0:0:0:
192,192,103999,128,0,104142:0:0:0:0:
448,192,103999,128,0,104142:0:0:0:0:
64,192,104070,1,0,0:0:0:0:
320,192,104142,1,0,0:0:0:0:
64,192,104213,128,0,104284:0:0:0:0:
448,192,104213,128,0,104284:0:0:0:0:
448,192,104356,1,0,0:0:0:0:
64,192,104356,128,0,104499:0:0:0:0:
320,192,104427,1,0,0:0:0:0:
448,192,104427,128,0,104499:0:0:0:0:
64,192,104570,1,0,0:0:0:0:
192,192,104570,128,0,104713:0:0:0:0:
64,192,104642,128,0,104784:0:0:0:0:
320,192,104642,128,0,104784:0:0:0:0:
448,192,104713,128,0,104784:0:0:0:0:
192,192,104784,128,0,104856:0:0:0:0:
448,192,104856,1,0,0:0:0:0:
320,192,104856,128,0,104999:0:0:0:0:
192,192,104927,128,0,105070:0:0:0:0:
448,192,104927,128,0,105070:0:0:0:0:
64,192,104999,128,0,105070:0:0:0:0:
320,192,105070,128,0,105142:0:0:0:0:
64,192,105142,1,0,0:0:0:0:
192,192,105142,128,0,105284:0:0:0:0:
448,192,105142,128,0,105284:0:0:0:0:
320,192,105213,1,0,0:0:0:0:
64,192,105284,1,0,0:0:0:0:
320,192,105356,128,0,105427:0:0:0:0:
192,192,105356,128,0,105427:0:0:0:0:
192,192,105499,1,0,0:0:0:0:
320,192,105499,128,0,105642:0:0:0:0:
64,192,105570,1,0,0:0:0:0:
192,192,105570,128,0,105642:0:0:0:0:
320,192,105713,1,0,0:0:0:0:
448,192,105713,128,0,105856:0:0:0:0:
192,192,105749,1,0,0:0:0:0:
64,192,105784,128,0,105927:0:0:0:0:
320,192,105856,128,0,105927:0:0:0:0:
192,192,105856,128,0,105927:0:0:0:0:
448,192,105927,128,0,105999:0:0:0:0:
192,192,105999,1,0,0:0:0:0:
64,192,105999,128,0,106142:0:0:0:0:
448,192,106070,128,0,106142:0:0:0:0:
320,192,106142,128,0,106213:0:0:0:0:
192,192,106142,128,0,106213:0:0:0:0:
448,192,106213,128,0,106284:0:0:0:0:
64,192,106213,1,0,0:0:0:0:
192,192,106284,1,0,0:0:0:0:
320,192,106284,128,0,106427:0:0:0:0:
64,192,106284,128,0,106427:0:0:0:0:
448,192,106356,1,0,0:0:0:0:
192,192,106427,1,0,0:0:0:0:
448,192,106499,128,0,106570:0:0:0:0:
64,192,106499,128,0,106570:0:0:0:0:
64,192,106642,1,0,0:0:0:0:
448,192,106642,128,0,106784:0:0:0:0:
192,192,106713,1,0,0:0:0:0:
64,192,106713,128,0,106784:0:0:0:0:
448,192,106856,1,0,0:0:0:0:
320,192,106856,128,0,106999:0:0:0:0:
448,192,106927,128,0,107070:0:0:0:0:
64,192,106999,128,0,107070:0:0:0:0:
192,192,106999,128,0,107070:0:0:0:0:
320,192,107070,128,0,107142:0:0:0:0:
64,192,107142,1,0,0:0:0:0:
192,192,107142,128,0,107284:0:0:0:0:
448,192,107177,1,0,0:0:0:0:
320,192,107213,128,0,107356:0:0:0:0:
448,192,107284,128,0,107356:0:0:0:0:
64,192,107284,128,0,107356:0:0:0:0:
192,192,107356,128,0,107427:0:0:0:0:
64,192,107427,128,0,107570:0:0:0:0:
320,192,107427,128,0,107570:0:0:0:0:
192,192,107499,1,0,0:0:0:0:
448,192,107570,1,0,0:0:0:0:
192,192,107642,128,0,107713:0:0:0:0:
320,192,107642,128,0,107713:0:0:0:0:
320,192,107784,1,0,0:0:0:0:
192,192,107784,128,0,107927:0:0:0:0:
448,192,107856,1,0,0:0:0:0:
320,192,107856,128,0,107927:0:0:0:0:
192,192,107999,1,0,0:0:0:0:
64,192,107999,128,0,108142:0:0:0:0:
192,192,108070,128,0,108213:0:0:0:0:
448,192,108070,128,0,108213:0:0:0:0:
320,192,108142,128,0,108213:0:0:0:0:
64,192,108213,128,0,108284:0:0:0:0:
448,192,108284,128,0,108427:0:0:0:0:
320,192,108284,128,0,108427:0:0:0:0:
192,192,108320,1,0,0:0:0:0:
64,192,108356,128,0,108499:0:0:0:0:
192,192,108427,128,0,108499:0:0:0:0:
448,192,108499,128,0,108570:0:0:0:0:
192,192,108570,1,0,0:0:0:0:
64,192,108570,128,0,108642:0:0:0:0:
320,192,108570,128,0,108642:0:0:0:0:
448,192,108642,128,0,108784:0:0:0:0:
320,192,108713,128,0,108784:0:0:0:0:
64,192,108713,128,0,108784:0:0:0:0:
192,192,108784,128,0,108856:0:0:0:0:
320,192,108856,1,0,0:0:0:0:
448,192,108856,1,0,0:0:0:0:
64,192,108856,1,0,0:0:0:0:
192,192,108999,1,0,0:0:0:0:
64,192,108999,128,0,109070:0:0:0:0:
448,192,108999,128,0,109070:0:0:0:0:
320,192,109070,1,0,0:0:0:0:
192,192,109070,128,0,109142:0:0:0:0:
64,192,109142,128,0,109213:0:0:0:0:
320,192,109142,128,0,109284:0:0:0:0:
448,192,109142,128,0,109284:0:0:0:0:
192,192,109213,128,0,109356:0:0:0:0:
64,192,109284,128,0,109427:0:0:0:0:
320,192,109356,128,0,109427:0:0:0:0:
448,192,109427,1,0,0:0:0:0:
192,192,109427,128,0,109499:0:0:0:0:
448,192,109499,1,0,0:0:0:0:
320,192,109499,128,0,109570:0:0:0:0:
64,192,109570,1,0,0:0:0:0:
192,192,109570,128,0,109642:0:0:0:0:
320,192,109642,1,0,0:0:0:0:
64,192,109642,128,0,109713:0:0:0:0:
320,192,109713,128,0,109789:0:0:0:0:
448,192,109714,5,0,0:0:0:0:
192,192,109714,1,0,0:0:0:0:
64,192,109789,1,0,0:0:0:0:
448,192,109789,128,0,109864:0:0:0:0:
192,192,109864,128,0,109939:0:0:0:0:
320,192,109939,1,0,0:0:0:0:
448,192,109939,128,0,110014:0:0:0:0:
64,192,110014,1,0,0:0:0:0:
320,192,110014,1,0,0:0:0:0:
192,192,110014,128,0,110092:0:0:0:0:
448,192,110092,1,0,0:0:0:0:
64,192,110092,128,0,110171:0:0:0:0:
320,192,110171,128,0,110250:0:0:0:0:
64,192,110250,1,0,0:0:0:0:
192,192,110250,128,0,110329:0:0:0:0:
64,192,110329,1,0,0:0:0:0:
320,192,110329,1,0,0:0:0:0:
448,192,110329,128,0,110412:0:0:0:0:
192,192,110412,128,0,110495:0:0:0:0:
320,192,110412,1,0,0:0:0:0:
448,192,110495,128,0,110579:0:0:0:0:
64,192,110579,1,0,0:0:0:0:
320,192,110579,128,0,110662:0:0:0:0:
192,192,110662,1,0,0:0:0:0:
448,192,110662,1,0,0:0:0:0:
64,192,110662,128,0,110750:0:0:0:0:
320,192,110750,1,0,0:0:0:0:
192,192,110750,128,0,110838:0:0:0:0:
64,192,110838,1,0,0:0:0:0:
320,192,110838,128,0,110926:0:0:0:0:
192,192,110926,128,0,111014:0:0:0:0:
448,192,110926,1,0,0:0:0:0:
64,192,111014,128,0,114014:0:0:0:0:
448,192,111014,1,0,0:0:0:0:
320,192,111389,1,0,0:0:0:0:
192,192,111576,1,0,0:0:0:0:
320,192,111951,1,0,0:0:0:0:
448,192,112326,1,0,0:0:0:0:
320,192,112514,1,0,0:0:0:0:
192,192,112514,1,0,0:0:0:0:
320,192,112889,1,0,0:0:0:0:
192,192,113076,1,0,0:0:0:0:
320,192,113451,1,0,0:0:0:0:
448,192,113826,1,0,0:0:0:0:
192,192,114014,1,0,0:0:0:0:
320,192,114014,1,0,0:0:0:0:
64,192,114389,1,0,0:0:0:0:
448,192,114576,1,0,0:0:0:0:
192,192,114951,1,0,0:0:0:0:
448,192,115326,1,0,0:0:0:0:
448,192,115889,128,0,116264:0:0:0:0:
192,192,116264,128,0,116639:0:0:0:0:
64,192,116264,1,0,0:0:0:0:
320,192,116545,1,0,0:0:0:0:
64,192,116639,128,0,117014:0:0:0:0:
448,192,116826,1,0,0:0:0:0:
320,192,117014,128,0,119264:0:0:0:0:
192,192,117014,1,0,0:0:0:0:
448,192,118139,1,0,0:0:0:0:
64,192,118326,1,0,0:0:0:0:
192,192,118889,1,0,0:0:0:0:
192,192,119264,128,0,120014:0:0:0:0:
448,192,119264,1,0,0:0:0:0:
320,192,119639,1,0,0:0:0:0:
448,192,120014,128,0,121514:0:0:0:0:
64,192,120014,1,0,0:0:0:0:
320,192,120764,1,0,0:0:0:0:
192,192,121326,1,0,0:0:0:0:
64,192,121514,1,0,0:0:0:0:
64,192,121607,1,0,0:0:0:0:
320,192,121701,1,0,0:0:0:0:
320,192,121795,1,0,0:0:0:0:
192,192,121889,1,0,0:0:0:0:
192,192,121982,1,0,0:0:0:0:
448,192,122076,1,0,0:0:0:0:
448,192,122170,1,0,0:0:0:0:
320,192,122264,1,0,0:0:0:0:
192,192,122264,1,0,0:0:0:0:
64,192,122357,1,0,0:0:0:0:
448,192,122451,1,0,0:0:0:0:
192,192,122545,1,0,0:0:0:0:
320,192,122639,1,0,0:0:0:0:
64,192,122732,1,0,0:0:0:0:
448,192,122826,1,0,0:0:0:0:
64,192,122920,1,0,0:0:0:0:
192,192,123014,128,0,123102:0:0:0:0:
320,192,123014,128,0,123190:0:0:0:0:
448,192,123014,128,0,123102:0:0:0:0:
448,192,123190,1,0,0:0:0:0:
192,192,123190,128,0,123278:0:0:0:0:
448,192,123278,128,0,123366:0:0:0:0:
64,192,123366,128,0,123543:0:0:0:0:
192,192,123366,128,0,123455:0:0:0:0:
320,192,123455,128,0,123543:0:0:0:0:
448,192,123455,128,0,123543:0:0:0:0:
192,192,123543,1,0,0:0:0:0:
448,192,123631,128,0,123808:0:0:0:0:
192,192,123631,128,0,123808:0:0:0:0:
64,192,123719,128,0,123808:0:0:0:0:
320,192,123719,128,0,123808:0:0:0:0:
320,192,123896,1,0,0:0:0:0:
192,192,123896,128,0,124161:0:0:0:0:
320,192,123984,128,0,124161:0:0:0:0:
64,192,123984,128,0,124161:0:0:0:0:
448,192,124072,128,0,124161:0:0:0:0:
64,192,124249,1,0,0:0:0:0:
192,192,124249,128,0,124337:0:0:0:0:
64,192,124337,128,0,124425:0:0:0:0:
448,192,124337,128,0,124425:0:0:0:0:
192,192,124425,128,0,124514:0:0:0:0:
320,192,124425,128,0,124602:0:0:0:0:
448,192,124602,1,0,0:0:0:0:
192,192,124602,128,0,124690:0:0:0:0:
448,192,124690,128,0,124778:0:0:0:0:
64,192,124778,128,0,124955:0:0:0:0:
192,192,124778,128,0,124866:0:0:0:0:
448,192,124866,128,0,124955:0:0:0:0:
320,192,124866,1,0,0:0:0:0:
192,192,124955,1,0,0:0:0:0:
320,192,124955,1,0,0:0:0:0:
448,192,125043,128,0,125219:0:0:0:0:
192,192,125043,128,0,125219:0:0:0:0:
64,192,125131,128,0,125219:0:0:0:0:
320,192,125131,128,0,125219:0:0:0:0:
320,192,125308,1,0,0:0:0:0:
192,192,125308,128,0,125572:0:0:0:0:
64,192,125396,128,0,125572:0:0:0:0:
320,192,125396,128,0,125572:0:0:0:0:
448,192,125484,128,0,125572:0:0:0:0:
64,192,125661,1,0,0:0:0:0:
192,192,125661,128,0,125749:0:0:0:0:
64,192,125749,128,0,125837:0:0:0:0:
448,192,125749,128,0,125837:0:0:0:0:
192,192,125837,128,0,126003:0:0:0:0:
320,192,125837,128,0,125920:0:0:0:0:
64,192,126003,1,0,0:0:0:0:
320,192,126003,128,0,126087:0:0:0:0:
64,192,126087,128,0,126170:0:0:0:0:
320,192,126170,128,0,126253:0:0:0:0:
448,192,126170,128,0,126337:0:0:0:0:
64,192,126253,128,0,126337:0:0:0:0:
192,192,126253,1,0,0:0:0:0:
320,192,126337,1,0,0:0:0:0:
192,192,126337,1,0,0:0:0:0:
64,192,126420,128,0,126587:0:0:0:0:
320,192,126420,128,0,126587:0:0:0:0:
192,192,126503,128,0,126587:0:0:0:0:
448,192,126503,128,0,126587:0:0:0:0:
192,192,126670,1,0,0:0:0:0:
320,192,126670,128,0,126920:0:0:0:0:
192,192,126753,128,0,126920:0:0:0:0:
448,192,126753,128,0,126920:0:0:0:0:
64,192,126837,128,0,126920:0:0:0:0:
448,192,127003,1,0,0:0:0:0:
320,192,127003,128,0,127087:0:0:0:0:
64,192,127087,128,0,127170:0:0:0:0:
448,192,127087,128,0,127170:0:0:0:0:
192,192,127170,128,0,127337:0:0:0:0:
320,192,127170,128,0,127253:0:0:0:0:
64,192,127337,1,0,0:0:0:0:
320,192,127337,128,0,127420:0:0:0:0:
64,192,127420,128,0,127503:0:0:0:0:
320,192,127503,128,0,127587:0:0:0:0:
448,192,127503,128,0,127670:0:0:0:0:
192,192,127587,128,0,127670:0:0:0:0:
64,192,127587,128,0,127670:0:0:0:0:
320,192,127670,1,0,0:0:0:0:
64,192,127753,128,0,127920:0:0:0:0:
320,192,127753,128,0,127837:0:0:0:0:
192,192,127837,128,0,127920:0:0:0:0:
448,192,127837,128,0,128087:0:0:0:0:
320,192,127920,128,0,128087:0:0:0:0:
192,192,128003,1,0,0:0:0:0:
64,192,128003,128,0,128087:0:0:0:0:
192,192,128087,128,0,128170:0:0:0:0:
320,192,128170,128,0,128253:0:0:0:0:
448,192,128170,128,0,128337:0:0:0:0:
64,192,128253,128,0,128420:0:0:0:0:
320,192,128337,1,0,0:0:0:0:
192,192,128337,128,0,128420:0:0:0:0:
320,192,128420,128,0,128503:0:0:0:0:
448,192,128503,1,0,0:0:0:0:
64,192,128503,128,0,128581:0:0:0:0:
192,192,128503,128,0,128739:0:0:0:0:
448,192,128660,1,0,0:0:0:0:
64,192,128660,128,0,128818:0:0:0:0:
448,192,128739,1,0,0:0:0:0:
320,192,128818,128,0,128897:0:0:0:0:
192,192,128818,128,0,128976:0:0:0:0:
64,192,128976,1,0,0:0:0:0:
320,192,128976,128,0,129055:0:0:0:0:
64,192,129055,1,0,0:0:0:0:
192,192,129134,128,0,129213:0:0:0:0:
320,192,129134,128,0,129292:0:0:0:0:
448,192,129292,1,0,0:0:0:0:
192,192,129292,128,0,129371:0:0:0:0:
448,192,129371,1,0,0:0:0:0:
64,192,129371,128,0,129529:0:0:0:0:
192,192,129450,128,0,129608:0:0:0:0:
320,192,129450,128,0,129529:0:0:0:0:
448,192,129529,128,0,129687:0:0:0:0:
64,192,129608,1,0,0:0:0:0:
320,192,129608,1,0,0:0:0:0:
64,192,129687,128,0,129766:0:0:0:0:
192,192,129766,128,0,129845:0:0:0:0:
320,192,129766,128,0,129924:0:0:0:0:
64,192,129845,128,0,130003:0:0:0:0:
448,192,129924,1,0,0:0:0:0:
192,192,129924,128,0,130003:0:0:0:0:
448,192,130003,1,0,0:0:0:0:
192,192,130081,128,0,130239:0:0:0:0:
320,192,130081,128,0,130160:0:0:0:0:
448,192,130160,128,0,130318:0:0:0:0:
64,192,130239,1,0,0:0:0:0:
320,192,130239,128,0,130318:0:0:0:0:
64,192,130318,1,0,0:0:0:0:
192,192,130397,128,0,130555:0:0:0:0:
320,192,130397,128,0,130476:0:0:0:0:
64,192,130476,128,0,130634:0:0:0:0:
448,192,130555,1,0,0:0:0:0:
320,192,130555,1,0,0:0:0:0:
448,192,130634,128,0,130713:0:0:0:0:
192,192,130713,128,0,130871:0:0:0:0:
320,192,130713,128,0,130792:0:0:0:0:
448,192,130792,128,0,130950:0:0:0:0:
64,192,130871,1,0,0:0:0:0:
320,192,130871,128,0,130950:0:0:0:0:
64,192,130950,1,0,0:0:0:0:
192,192,131029,128,0,131179:0:0:0:0:
320,192,131029,128,0,131104:0:0:0:0:
448,192,131104,1,0,0:0:0:0:
320,192,131179,1,0,0:0:0:0:
64,192,131179,128,0,131254:0:0:0:0:
320,192,131254,1,0,0:0:0:0:
64,192,131329,128,0,131404:0:0:0:0:
448,192,131329,128,0,131479:0:0:0:0:
320,192,131404,128,0,131554:0:0:0:0:
192,192,131479,1,0,0:0:0:0:
64,192,131479,1,0,0:0:0:0:
192,192,131554,1,0,0:0:0:0:
64,192,131629,128,0,131704:0:0:0:0:
448,192,131629,128,0,131779:0:0:0:0:
192,192,131704,128,0,131854:0:0:0:0:
320,192,131779,1,0,0:0:0:0:
64,192,131779,128,0,131854:0:0:0:0:
320,192,131854,1,0,0:0:0:0:
64,192,131929,128,0,132079:0:0:0:0:
448,192,131929,128,0,132004:0:0:0:0:
320,192,132004,128,0,132154:0:0:0:0:
192,192,132079,1,0,0:0:0:0:
448,192,132079,128,0,132154:0:0:0:0:
192,192,132154,128,0,132229:0:0:0:0:
448,192,132229,5,0,0:0:0:0:
320,192,132229,1,0,0:0:0:0:
64,192,132271,1,0,0:0:0:0:
192,192,132314,1,0,0:0:0:0:
320,192,132357,1,0,0:0:0:0:
448,192,132400,1,0,0:0:0:0:
192,192,132443,1,0,0:0:0:0:
64,192,132486,1,0,0:0:0:0:
448,192,132529,1,0,0:0:0:0:
320,192,132571,1,0,0:0:0:0:
64,192,132614,1,0,0:0:0:0:
192,192,132657,1,0,0:0:0:0:
448,192,132700,1,0,0:0:0:0:
320,192,132743,1,0,0:0:0:0:
64,192,132786,1,0,0:0:0:0:
448,192,132829,1,0,0:0:0:0:
192,192,132829,1,0,0:0:0:0:
320,192,132871,1,0,0:0:0:0:
64,192,132914,1,0,0:0:0:0:
192,192,132957,1,0,0:0:0:0:
448,192,133000,1,0,0:0:0:0:
320,192,133043,1,0,0:0:0:0:
192,192,133086,1,0,0:0:0:0:
448,192,133129,5,0,0:0:0:0:
64,192,133129,1,0,0:0:0:0:
320,192,133171,1,0,0:0:0:0:
192,192,133214,1,0,0:0:0:0:
448,192,133257,1,0,0:0:0:0:
64,192,133300,1,0,0:0:0:0:
320,192,133343,1,0,0:0:0:0:
192,192,133386,1,0,0:0:0:0:
64,192,133429,128,0,133643:0:0:0:0:
320,192,133429,128,0,133571:0:0:0:0:
448,192,133429,128,0,133486:0:0:0:0:
192,192,133486,1,0,0:0:0:0:
448,192,133543,128,0,133600:0:0:0:0:
192,192,133600,128,0,133657:0:0:0:0:
320,192,133657,1,0,0:0:0:0:
64,192,133714,128,0,133771:0:0:0:0:
192,192,133714,128,0,133829:0:0:0:0:
448,192,133714,128,0,133886:0:0:0:0:
320,192,133771,1,0,0:0:0:0:
64,192,133829,128,0,133886:0:0:0:0:
192,192,133886,128,0,133943:0:0:0:0:
320,192,133929,1,0,0:0:0:0:
192,192,134000,1,0,0:0:0:0:
448,192,134000,128,0,134071:0:0:0:0:
64,192,134071,128,0,134143:0:0:0:0:
320,192,134071,128,0,134214:0:0:0:0:
192,192,134143,128,0,134214:0:0:0:0:
448,192,134214,1,0,0:0:0:0:
64,192,134214,128,0,134286:0:0:0:0:
448,192,134286,128,0,134357:0:0:0:0:
320,192,134286,128,0,134357:0:0:0:0:
192,192,134357,128,0,134429:0:0:0:0:
64,192,134429,128,0,134524:0:0:0:0:
448,192,134429,1,0,0:0:0:0:
192,192,134476,128,0,134524:0:0:0:0:
320,192,134524,128,0,134571:0:0:0:0:
192,192,134571,128,0,134743:0:0:0:0:
64,192,134571,128,0,134629:0:0:0:0:
448,192,134571,128,0,134686:0:0:0:0:
320,192,134629,128,0,134743:0:0:0:0:
64,192,134686,128,0,134743:0:0:0:0:
448,192,134743,1,0,0:0:0:0:
192,192,134800,1,0,0:0:0:0:
320,192,134857,128,0,134971:0:0:0:0:
448,192,134857,128,0,134914:0:0:0:0:
64,192,134857,128,0,135029:0:0:0:0:
192,192,134914,1,0,0:0:0:0:
448,192,134971,128,0,135029:0:0:0:0:
192,192,135029,128,0,135086:0:0:0:0:
320,192,135071,1,0,0:0:0:0:
448,192,135143,1,0,0:0:0:0:
64,192,135143,128,0,135214:0:0:0:0:
192,192,135214,128,0,135286:0:0:0:0:
64,192,135286,1,0,0:0:0:0:
448,192,135286,128,0,135357:0:0:0:0:
320,192,135357,128,0,135429:0:0:0:0:
448,192,135429,1,0,0:0:0:0:
192,192,135429,128,0,135500:0:0:0:0:
320,192,135500,1,0,0:0:0:0:
64,192,135500,128,0,135571:0:0:0:0:
448,192,135571,1,0,0:0:0:0:
192,192,135571,128,0,135643:0:0:0:0:
448,192,135643,1,0,0:0:0:0:
64,192,135714,128,0,135829:0:0:0:0:
192,192,135714,128,0,135771:0:0:0:0:
320,192,135714,128,0,135943:0:0:0:0:
448,192,135771,128,0,135829:0:0:0:0:
192,192,135829,128,0,135886:0:0:0:0:
64,192,135929,1,0,0:0:0:0:
320,192,136000,1,0,0:0:0:0:
448,192,136000,128,0,136143:0:0:0:0:
192,192,136000,1,0,0:0:0:0:
64,192,136071,128,0,136143:0:0:0:0:
192,192,136143,1,0,0:0:0:0:
64,192,136190,128,0,136286:0:0:0:0:
320,192,136238,128,0,136286:0:0:0:0:
192,192,136286,128,0,136429:0:0:0:0:
448,192,136286,128,0,136357:0:0:0:0:
320,192,136357,128,0,136500:0:0:0:0:
64,192,136357,128,0,136500:0:0:0:0:
448,192,136429,128,0,136571:0:0:0:0:
192,192,136500,128,0,136643:0:0:0:0:
320,192,136571,1,0,0:0:0:0:
64,192,136571,128,0,136643:0:0:0:0:
448,192,136643,128,0,136714:0:0:0:0:
192,192,136714,1,0,0:0:0:0:
64,192,136714,128,0,136786:0:0:0:0:
320,192,136762,128,0,136857:0:0:0:0:
192,192,136809,128,0,136905:0:0:0:0:
64,192,136857,128,0,136952:0:0:0:0:
448,192,136857,1,0,0:0:0:0:
320,192,136905,1,0,0:0:0:0:
192,192,136952,1,0,0:0:0:0:
64,192,137000,128,0,137071:0:0:0:0:
448,192,137000,128,0,137143:0:0:0:0:
320,192,137071,128,0,137214:0:0:0:0:
192,192,137143,128,0,137214:0:0:0:0:
64,192,137143,128,0,137214:0:0:0:0:
448,192,137214,128,0,137357:0:0:0:0:
320,192,137286,1,0,0:0:0:0:
64,192,137286,128,0,137476:0:0:0:0:
192,192,137333,128,0,137429:0:0:0:0:
320,192,137381,128,0,137476:0:0:0:0:
448,192,137429,128,0,137524:0:0:0:0:
192,192,137476,128,0,137571:0:0:0:0:
320,192,137524,128,0,137571:0:0:0:0:
448,192,137571,1,0,0:0:0:0:
64,192,137571,1,0,0:0:0:0:
192,192,137643,1,0,0:0:0:0:
320,192,137643,1,0,0:0:0:0:
64,192,137714,1,0,0:0:0:0:
448,192,137714,128,0,137786:0:0:0:0:
320,192,137786,1,0,0:0:0:0:
192,192,137786,128,0,137857:0:0:0:0:
448,192,137857,1,0,0:0:0:0:
320,192,137857,128,0,137929:0:0:0:0:
64,192,137929,1,0,0:0:0:0:
192,192,137929,128,0,138000:0:0:0:0:
64,192,138000,128,0,138214:0:0:0:0:
320,192,138000,128,0,138114:0:0:0:0:
448,192,138000,128,0,138057:0:0:0:0:
192,192,138057,128,0,138114:0:0:0:0:
448,192,138114,128,0,138171:0:0:0:0:
320,192,138171,128,0,138229:0:0:0:0:
192,192,138214,1,0,0:0:0:0:
64,192,138286,128,0,138357:0:0:0:0:
448,192,138286,128,0,138357:0:0:0:0:
320,192,138286,128,0,138429:0:0:0:0:
192,192,138357,128,0,138405:0:0:0:0:
64,192,138429,128,0,138571:0:0:0:0:
448,192,138429,128,0,138500:0:0:0:0:
192,192,138476,128,0,138524:0:0:0:0:
320,192,138524,128,0,138571:0:0:0:0:
192,192,138571,1,0,0:0:0:0:
448,192,138571,128,0,138714:0:0:0:0:
64,192,138643,1,0,0:0:0:0:
192,192,138714,1,0,0:0:0:0:
320,192,138714,1,0,0:0:0:0:
448,192,138786,1,0,0:0:0:0:
64,192,138857,128,0,139000:0:0:0:0:
320,192,138857,128,0,139000:0:0:0:0:
192,192,138929,128,0,139000:0:0:0:0:
448,192,139000,128,0,139071:0:0:0:0:
64,192,139048,128,0,139143:0:0:0:0:
192,192,139095,128,0,139238:0:0:0:0:
320,192,139143,128,0,139286:0:0:0:0:
448,192,139143,128,0,139200:0:0:0:0:
64,192,139200,128,0,139257:0:0:0:0:
448,192,139257,128,0,139371:0:0:0:0:
192,192,139314,1,0,0:0:0:0:
320,192,139371,1,0,0:0:0:0:
64,192,139429,128,0,139500:0:0:0:0:
192,192,139429,128,0,139500:0:0:0:0:
448,192,139429,128,0,139571:0:0:0:0:
320,192,139500,128,0,139571:0:0:0:0:
64,192,139571,128,0,139643:0:0:0:0:
192,192,139571,128,0,139643:0:0:0:0:
320,192,139619,128,0,139714:0:0:0:0:
448,192,139667,128,0,139714:0:0:0:0:
192,192,139714,1,0,0:0:0:0:
64,192,139714,1,0,0:0:0:0:
448,192,139786,1,0,0:0:0:0:
320,192,139786,1,0,0:0:0:0:
192,192,139857,1,0,0:0:0:0:
64,192,139929,1,0,0:0:0:0:
448,192,139929,128,0,140000:0:0:0:0:
64,192,140000,128,0,140071:0:0:0:0:
192,192,140000,1,0,0:0:0:0:
320,192,140071,128,0,140143:0:0:0:0:
448,192,140143,128,0,140214:0:0:0:0:
64,192,140143,1,0,0:0:0:0:
320,192,140214,1,0,0:0:0:0:
192,192,140214,128,0,140286:0:0:0:0:
64,192,140286,128,0,140500:0:0:0:0:
320,192,140286,128,0,140500:0:0:0:0:
448,192,140286,128,0,140500:0:0:0:0:
192,192,140571,128,0,140643:0:0:0:0:
320,192,140571,128,0,140714:0:0:0:0:
192,192,140714,128,0,140929:0:0:0:0:
64,192,140732,128,0,140929:0:0:0:0:
448,192,140732,128,0,140929:0:0:0:0:
320,192,141000,128,0,141143:0:0:0:0:
192,192,141000,128,0,141143:0:0:0:0:
448,192,141000,128,0,141071:0:0:0:0:
448,192,141143,1,0,0:0:0:0:
448,192,141214,1,0,0:0:0:0:
64,192,141286,128,0,141571:0:0:0:0:
192,192,141286,128,0,141571:0:0:0:0:
320,192,141286,128,0,141500:0:0:0:0:
320,192,141571,1,0,0:0:0:0:
448,192,141571,128,0,141714:0:0:0:0:
64,192,141643,128,0,141714:0:0:0:0:
320,192,141714,1,0,0:0:0:0:
192,192,141714,128,0,141857:0:0:0:0:
64,192,141786,128,0,141857:0:0:0:0:
320,192,141857,1,0,0:0:0:0:
448,192,141857,128,0,142000:0:0:0:0:
64,192,141929,128,0,142000:0:0:0:0:
320,192,142000,1,0,0:0:0:0:
192,192,142000,128,0,142143:0:0:0:0:
64,192,142071,128,0,142143:0:0:0:0:
320,192,142143,1,0,0:0:0:0:
448,192,142143,128,0,142286:0:0:0:0:
192,192,142214,128,0,142286:0:0:0:0:
64,192,142286,1,0,0:0:0:0:
320,192,142286,128,0,142357:0:0:0:0:
64,192,142357,128,0,142429:0:0:0:0:
448,192,142429,1,0,0:0:0:0:
192,192,142429,128,0,142500:0:0:0:0:
320,192,142500,128,0,142571:0:0:0:0:
448,192,142571,128,0,142786:0:0:0:0:
64,192,142571,128,0,142714:0:0:0:0:
192,192,142571,128,0,142629:0:0:0:0:
320,192,142629,1,0,0:0:0:0:
192,192,142686,128,0,142743:0:0:0:0:
320,192,142743,128,0,142800:0:0:0:0:
64,192,142804,1,0,0:0:0:0:
448,192,142857,128,0,142914:0:0:0:0:
320,192,142857,128,0,142971:0:0:0:0:
192,192,142857,128,0,143024:0:0:0:0:
64,192,142911,1,0,0:0:0:0:
448,192,142971,128,0,143029:0:0:0:0:
320,192,143029,128,0,143086:0:0:0:0:
64,192,143071,1,0,0:0:0:0:
320,192,143143,1,0,0:0:0:0:
192,192,143143,128,0,143214:0:0:0:0:
448,192,143214,128,0,143286:0:0:0:0:
64,192,143214,128,0,143357:0:0:0:0:
320,192,143286,128,0,143357:0:0:0:0:
192,192,143357,1,0,0:0:0:0:
448,192,143357,128,0,143429:0:0:0:0:
192,192,143429,128,0,143500:0:0:0:0:
64,192,143429,128,0,143500:0:0:0:0:
320,192,143500,128,0,143571:0:0:0:0:
448,192,143571,128,0,143667:0:0:0:0:
192,192,143571,1,0,0:0:0:0:
320,192,143619,128,0,143667:0:0:0:0:
64,192,143667,128,0,143714:0:0:0:0:
320,192,143714,128,0,143886:0:0:0:0:
448,192,143714,128,0,143771:0:0:0:0:
192,192,143714,128,0,143829:0:0:0:0:
64,192,143771,128,0,143886:0:0:0:0:
448,192,143829,128,0,143886:0:0:0:0:
192,192,143886,128,0,143943:0:0:0:0:
320,192,143943,1,0,0:0:0:0:
64,192,144000,128,0,144057:0:0:0:0:
192,192,144000,128,0,144057:0:0:0:0:
448,192,144000,128,0,144171:0:0:0:0:
320,192,144057,1,0,0:0:0:0:
64,192,144114,128,0,144171:0:0:0:0:
320,192,144171,128,0,144229:0:0:0:0:
192,192,144214,1,0,0:0:0:0:
64,192,144286,1,0,0:0:0:0:
448,192,144286,128,0,144357:0:0:0:0:
320,192,144357,128,0,144429:0:0:0:0:
448,192,144429,1,0,0:0:0:0:
192,192,144429,128,0,144500:0:0:0:0:
64,192,144500,128,0,144571:0:0:0:0:
192,192,144571,1,0,0:0:0:0:
320,192,144571,128,0,144643:0:0:0:0:
64,192,144643,1,0,0:0:0:0:
448,192,144643,128,0,144714:0:0:0:0:
192,192,144714,1,0,0:0:0:0:
320,192,144714,128,0,144786:0:0:0:0:
192,192,144786,1,0,0:0:0:0:
448,192,144857,128,0,144971:0:0:0:0:
320,192,144857,128,0,144914:0:0:0:0:
64,192,144857,128,0,145029:0:0:0:0:
192,192,144914,128,0,144971:0:0:0:0:
320,192,144971,128,0,145029:0:0:0:0:
448,192,145071,1,0,0:0:0:0:
320,192,145143,128,0,145214:0:0:0:0:
192,192,145143,1,0,0:0:0:0:
64,192,145143,128,0,145286:0:0:0:0:
448,192,145214,128,0,145286:0:0:0:0:
192,192,145286,128,0,145429:0:0:0:0:
64,192,145333,128,0,145381:0:0:0:0:
320,192,145381,128,0,145476:0:0:0:0:
448,192,145429,128,0,145524:0:0:0:0:
64,192,145429,128,0,145524:0:0:0:0:
192,192,145476,1,0,0:0:0:0:
320,192,145524,1,0,0:0:0:0:
64,192,145571,128,0,145714:0:0:0:0:
448,192,145571,128,0,145714:0:0:0:0:
192,192,145643,1,0,0:0:0:0:
320,192,145714,1,0,0:0:0:0:
192,192,145786,1,0,0:0:0:0:
64,192,145857,128,0,145952:0:0:0:0:
320,192,145905,128,0,146143:0:0:0:0:
192,192,145952,128,0,146000:0:0:0:0:
64,192,146000,128,0,146071:0:0:0:0:
448,192,146000,128,0,146048:0:0:0:0:
192,192,146048,128,0,146095:0:0:0:0:
448,192,146095,128,0,146143:0:0:0:0:
64,192,146143,1,0,0:0:0:0:
64,192,146214,1,0,0:0:0:0:
192,192,146286,128,0,146357:0:0:0:0:
320,192,146286,128,0,146429:0:0:0:0:
448,192,146286,128,0,146429:0:0:0:0:
64,192,146429,128,0,146500:0:0:0:0:
192,192,146429,128,0,146500:0:0:0:0:
448,192,146476,128,0,146571:0:0:0:0:
320,192,146524,1,0,0:0:0:0:
64,192,146571,128,0,146643:0:0:0:0:
192,192,146571,128,0,146643:0:0:0:0:
320,192,146619,128,0,146714:0:0:0:0:
448,192,146667,128,0,146762:0:0:0:0:
64,192,146714,1,0,0:0:0:0:
192,192,146714,128,0,146786:0:0:0:0:
320,192,146786,1,0,0:0:0:0:
192,192,146857,128,0,147000:0:0:0:0:
448,192,146857,128,0,146929:0:0:0:0:
320,192,146929,1,0,0:0:0:0:
64,192,147000,128,0,147071:0:0:0:0:
320,192,147048,128,0,147143:0:0:0:0:
192,192,147095,128,0,147190:0:0:0:0:
64,192,147143,128,0,147429:0:0:0:0:
448,192,147143,128,0,147200:0:0:0:0:
320,192,147200,128,0,147257:0:0:0:0:
192,192,147257,128,0,147314:0:0:0:0:
448,192,147314,128,0,147371:0:0:0:0:
192,192,147371,128,0,147429:0:0:0:0:
448,192,147429,1,0,0:0:0:0:
320,192,147429,128,0,147500:0:0:0:0:
448,192,147500,1,0,0:0:0:0:
192,192,147500,128,0,147571:0:0:0:0:
64,192,147571,1,0,0:0:0:0:
320,192,147571,128,0,147643:0:0:0:0:
448,192,147643,128,0,147714:0:0:0:0:
64,192,147714,1,0,0:0:0:0:
192,192,147714,128,0,147786:0:0:0:0:
448,192,147786,1,0,0:0:0:0:
64,192,147786,128,0,147857:0:0:0:0:
320,192,147857,128,0,147929:0:0:0:0:
448,192,147929,1,0,0:0:0:0:
192,192,147929,128,0,148000:0:0:0:0:
320,192,148000,1,0,0:0:0:0:
64,192,148000,128,0,148071:0:0:0:0:
448,192,148071,1,0,0:0:0:0:
320,192,148071,128,0,148143:0:0:0:0:
64,192,148143,128,0,148214:0:0:0:0:
192,192,148214,128,0,148286:0:0:0:0:
64,192,148286,128,0,148500:0:0:0:0:
320,192,148286,128,0,148357:0:0:0:0:
448,192,148286,128,0,148429:0:0:0:0:
320,192,148429,128,0,148500:0:0:0:0:
448,192,148500,1,0,0:0:0:0:
192,192,148500,128,0,148571:0:0:0:0:
320,192,148571,1,0,0:0:0:0:
64,192,148571,128,0,148643:0:0:0:0:
192,192,148643,128,0,148714:0:0:0:0:
320,192,148714,128,0,148786:0:0:0:0:
448,192,148714,128,0,148786:0:0:0:0:
192,192,148786,128,0,148857:0:0:0:0:
64,192,148857,128,0,148929:0:0:0:0:
320,192,148857,128,0,148929:0:0:0:0:
192,192,148929,128,0,149000:0:0:0:0:
448,192,148929,128,0,149071:0:0:0:0:
64,192,149000,1,0,0:0:0:0:
320,192,149000,128,0,149071:0:0:0:0:
64,192,149071,128,0,149214:0:0:0:0:
192,192,149071,128,0,149143:0:0:0:0:
448,192,149143,1,0,0:0:0:0:
320,192,149143,128,0,149214:0:0:0:0:
192,192,149214,128,0,149286:0:0:0:0:
448,192,149286,128,0,149429:0:0:0:0:
64,192,149286,128,0,149381:0:0:0:0:
192,192,149333,128,0,149429:0:0:0:0:
320,192,149381,128,0,149524:0:0:0:0:
64,192,149429,1,0,0:0:0:0:
192,192,149476,1,0,0:0:0:0:
448,192,149524,1,0,0:0:0:0:
64,192,149571,128,0,149714:0:0:0:0:
192,192,149571,128,0,149643:0:0:0:0:
320,192,149571,128,0,149643:0:0:0:0:
192,192,149714,128,0,149929:0:0:0:0:
320,192,149714,128,0,149929:0:0:0:0:
448,192,149714,128,0,149929:0:0:0:0:
64,192,150000,128,0,150143:0:0:0:0:
192,192,150000,128,0,150071:0:0:0:0:
320,192,150000,128,0,150071:0:0:0:0:
192,192,150143,128,0,150357:0:0:0:0:
320,192,150143,128,0,150357:0:0:0:0:
448,192,150143,128,0,150357:0:0:0:0:
64,192,150429,128,0,150571:0:0:0:0:
192,192,150429,128,0,150500:0:0:0:0:
320,192,150429,128,0,150500:0:0:0:0:
192,192,150571,128,0,150714:0:0:0:0:
320,192,150571,128,0,150714:0:0:0:0:
448,192,150571,128,0,150643:0:0:0:0:
64,192,150714,128,0,150786:0:0:0:0:
448,192,150714,128,0,150786:0:0:0:0:
192,192,150786,128,0,150929:0:0:0:0:
448,192,150857,128,0,150929:0:0:0:0:
64,192,150857,128,0,150929:0:0:0:0:
320,192,150929,128,0,151071:0:0:0:0:
64,192,151000,128,0,151071:0:0:0:0:
448,192,151000,128,0,151071:0:0:0:0:
192,192,151071,128,0,151214:0:0:0:0:
64,192,151143,128,0,151214:0:0:0:0:
448,192,151143,128,0,151214:0:0:0:0:
320,192,151214,128,0,151357:0:0:0:0:
448,192,151286,128,0,151357:0:0:0:0:
64,192,151357,128,0,151429:0:0:0:0:
320,192,151429,1,0,0:0:0:0:
448,192,151429,128,0,151500:0:0:0:0:
320,192,151500,128,0,151571:0:0:0:0:
192,192,151571,1,0,0:0:0:0:
192,192,151643,128,0,151714:0:0:0:0:
64,192,151714,128,0,151929:0:0:0:0:
320,192,151714,128,0,151857:0:0:0:0:
448,192,151714,128,0,151771:0:0:0:0:
192,192,151771,1,0,0:0:0:0:
448,192,151829,128,0,151886:0:0:0:0:
192,192,151886,128,0,151943:0:0:0:0:
320,192,151943,1,0,0:0:0:0:
64,192,152000,128,0,152057:0:0:0:0:
192,192,152000,128,0,152114:0:0:0:0:
448,192,152000,128,0,152171:0:0:0:0:
320,192,152057,1,0,0:0:0:0:
64,192,152114,128,0,152171:0:0:0:0:
192,192,152171,128,0,152229:0:0:0:0:
320,192,152214,1,0,0:0:0:0:
192,192,152286,1,0,0:0:0:0:
448,192,152286,128,0,152357:0:0:0:0:
64,192,152357,128,0,152429:0:0:0:0:
320,192,152357,128,0,152500:0:0:0:0:
192,192,152429,128,0,152500:0:0:0:0:
448,192,152500,1,0,0:0:0:0:
64,192,152500,128,0,152571:0:0:0:0:
448,192,152571,128,0,152643:0:0:0:0:
320,192,152571,128,0,152643:0:0:0:0:
192,192,152643,128,0,152714:0:0:0:0:
64,192,152714,128,0,152809:0:0:0:0:
448,192,152714,1,0,0:0:0:0:
192,192,152762,128,0,152809:0:0:0:0:
320,192,152809,128,0,152857:0:0:0:0:
192,192,152857,128,0,153029:0:0:0:0:
64,192,152857,128,0,152914:0:0:0:0:
448,192,152857,128,0,153086:0:0:0:0:
320,192,152914,128,0,152971:0:0:0:0:
64,192,152971,128,0,153029:0:0:0:0:
320,192,153029,128,0,153086:0:0:0:0:
192,192,153086,1,0,0:0:0:0:
320,192,153143,128,0,153257:0:0:0:0:
448,192,153143,128,0,153200:0:0:0:0:
64,192,153143,128,0,153314:0:0:0:0:
192,192,153200,1,0,0:0:0:0:
448,192,153257,128,0,153314:0:0:0:0:
192,192,153314,128,0,153371:0:0:0:0:
320,192,153357,1,0,0:0:0:0:
448,192,153429,1,0,0:0:0:0:
64,192,153429,128,0,153500:0:0:0:0:
192,192,153500,128,0,153571:0:0:0:0:
64,192,153571,1,0,0:0:0:0:
448,192,153571,128,0,153643:0:0:0:0:
320,192,153643,128,0,153714:0:0:0:0:
448,192,153714,1,0,0:0:0:0:
192,192,153714,128,0,153786:0:0:0:0:
320,192,153786,1,0,0:0:0:0:
64,192,153786,128,0,153857:0:0:0:0:
448,192,153857,1,0,0:0:0:0:
192,192,153857,128,0,153929:0:0:0:0:
448,192,153929,1,0,0:0:0:0:
64,192,154000,128,0,154114:0:0:0:0:
192,192,154000,128,0,154057:0:0:0:0:
320,192,154000,128,0,154229:0:0:0:0:
448,192,154057,128,0,154114:0:0:0:0:
192,192,154114,128,0,154171:0:0:0:0:
64,192,154214,1,0,0:0:0:0:
448,192,154286,128,0,154429:0:0:0:0:
192,192,154286,1,0,0:0:0:0:
320,192,154286,1,0,0:0:0:0:
64,192,154357,128,0,154429:0:0:0:0:
192,192,154429,1,0,0:0:0:0:
64,192,154476,128,0,154571:0:0:0:0:
320,192,154524,128,0,154571:0:0:0:0:
448,192,154571,128,0,154643:0:0:0:0:
192,192,154571,128,0,154714:0:0:0:0:
320,192,154643,128,0,154786:0:0:0:0:
64,192,154643,128,0,154786:0:0:0:0:
448,192,154714,128,0,154857:0:0:0:0:
192,192,154786,128,0,154929:0:0:0:0:
64,192,154857,128,0,154929:0:0:0:0:
320,192,154857,1,0,0:0:0:0:
448,192,154929,128,0,155000:0:0:0:0:
192,192,155000,1,0,0:0:0:0:
64,192,155000,128,0,155071:0:0:0:0:
320,192,155048,128,0,155143:0:0:0:0:
192,192,155095,128,0,155190:0:0:0:0:
64,192,155143,128,0,155238:0:0:0:0:
448,192,155143,1,0,0:0:0:0:
320,192,155190,1,0,0:0:0:0:
192,192,155238,1,0,0:0:0:0:
64,192,155286,128,0,155357:0:0:0:0:
448,192,155286,128,0,155429:0:0:0:0:
320,192,155357,128,0,155500:0:0:0:0:
192,192,155429,128,0,155500:0:0:0:0:
64,192,155429,128,0,155500:0:0:0:0:
448,192,155500,128,0,155643:0:0:0:0:
320,192,155571,1,0,0:0:0:0:
64,192,155571,128,0,155762:0:0:0:0:
192,192,155619,128,0,155714:0:0:0:0:
320,192,155667,128,0,155762:0:0:0:0:
448,192,155714,128,0,155809:0:0:0:0:
192,192,155762,128,0,155857:0:0:0:0:
320,192,155809,128,0,155857:0:0:0:0:
448,192,155857,1,0,0:0:0:0:
64,192,155857,1,0,0:0:0:0:
448,192,155929,1,0,0:0:0:0:
320,192,155929,128,0,156000:0:0:0:0:
64,192,156000,1,0,0:0:0:0:
192,192,156000,128,0,156071:0:0:0:0:
64,192,156071,128,0,156143:0:0:0:0:
448,192,156143,1,0,0:0:0:0:
320,192,156143,128,0,156214:0:0:0:0:
64,192,156214,1,0,0:0:0:0:
192,192,156214,128,0,156286:0:0:0:0:
448,192,156286,128,0,156357:0:0:0:0:
320,192,156286,1,0,0:0:0:0:
192,192,156357,128,0,156429:0:0:0:0:
448,192,156429,1,0,0:0:0:0:
64,192,156429,128,0,156500:0:0:0:0:
320,192,156500,1,0,0:0:0:0:
448,192,156500,1,0,0:0:0:0:
64,192,156571,128,0,156643:0:0:0:0:
192,192,156571,1,0,0:0:0:0:
320,192,156643,128,0,156714:0:0:0:0:
64,192,156714,1,0,0:0:0:0:
448,192,156714,128,0,156786:0:0:0:0:
192,192,156786,1,0,0:0:0:0:
64,192,156786,1,0,0:0:0:0:
448,192,156857,128,0,156929:0:0:0:0:
320,192,156857,1,0,0:0:0:0:
192,192,156929,128,0,157000:0:0:0:0:
448,192,157000,1,0,0:0:0:0:
64,192,157000,128,0,157071:0:0:0:0:
192,192,157071,1,0,0:0:0:0:
448,192,157071,1,0,0:0:0:0:
64,192,157143,128,0,157214:0:0:0:0:
320,192,157143,1,0,0:0:0:0:
192,192,157214,128,0,157286:0:0:0:0:
64,192,157286,1,0,0:0:0:0:
448,192,157286,128,0,157357:0:0:0:0:
64,192,157357,1,0,0:0:0:0:
320,192,157357,1,0,0:0:0:0:
192,192,157429,128,0,157500:0:0:0:0:
448,192,157429,1,0,0:0:0:0:
320,192,157500,128,0,157571:0:0:0:0:
192,192,157571,1,0,0:0:0:0:
64,192,157571,128,0,157643:0:0:0:0:
320,192,157643,1,0,0:0:0:0:
448,192,157643,128,0,157714:0:0:0:0:
64,192,157714,128,0,157857:0:0:0:0:
320,192,157714,128,0,157786:0:0:0:0:
192,192,157786,128,0,157857:0:0:0:0:
448,192,157857,128,0,158000:0:0:0:0:
320,192,157857,128,0,157929:0:0:0:0:
192,192,157929,1,0,0:0:0:0:
64,192,157929,128,0,158000:0:0:0:0:
320,192,158000,1,0,0:0:0:0:
192,192,158000,128,0,158071:0:0:0:0:
64,192,158071,1,0,0:0:0:0:
448,192,158143,128,0,158214:0:0:0:0:
192,192,158143,128,0,158214:0:0:0:0:
320,192,158214,1,0,0:0:0:0:
64,192,158214,128,0,158286:0:0:0:0:
448,192,158286,128,0,158357:0:0:0:0:
320,192,158286,128,0,158357:0:0:0:0:
64,192,158357,1,0,0:0:0:0:
192,192,158357,128,0,158429:0:0:0:0:
64,192,158429,128,0,158500:0:0:0:0:
448,192,158429,128,0,158500:0:0:0:0:
320,192,158500,1,0,0:0:0:0:
192,192,158500,128,0,158571:0:0:0:0:
64,192,158571,128,0,158786:0:0:0:0:
320,192,158571,128,0,158786:0:0:0:0:
448,192,158571,128,0,158786:0:0:0:0:
192,192,158857,128,0,158929:0:0:0:0:
320,192,158857,128,0,159000:0:0:0:0:
192,192,159000,128,0,159214:0:0:0:0:
64,192,159018,128,0,159214:0:0:0:0:
448,192,159018,128,0,159214:0:0:0:0:
192,192,159286,128,0,159500:0:0:0:0:
320,192,159286,128,0,159500:0:0:0:0:
448,192,159286,128,0,159500:0:0:0:0:
64,192,159571,128,0,159786:0:0:0:0:
192,192,159571,128,0,159786:0:0:0:0:
320,192,159571,128,0,159786:0:0:0:0:
64,192,159857,1,0,0:0:0:0:
192,192,159857,128,0,159929:0:0:0:0:
320,192,159929,128,0,160071:0:0:0:0:
64,192,160000,128,0,160071:0:0:0:0:
448,192,160000,128,0,160071:0:0:0:0:
192,192,160071,128,0,160214:0:0:0:0:
448,192,160143,128,0,160214:0:0:0:0:
64,192,160143,128,0,160214:0:0:0:0:
320,192,160214,128,0,160357:0:0:0:0:
64,192,160286,128,0,160357:0:0:0:0:
448,192,160286,128,0,160357:0:0:0:0:
192,192,160357,128,0,160500:0:0:0:0:
64,192,160429,128,0,160500:0:0:0:0:
448,192,160429,128,0,160500:0:0:0:0:
320,192,160500,128,0,160643:0:0:0:0:
448,192,160571,128,0,160643:0:0:0:0:
64,192,160643,128,0,160714:0:0:0:0:
448,192,160714,128,0,160786:0:0:0:0:
320,192,160786,128,0,160857:0:0:0:0:
64,192,160857,128,0,161071:0:0:0:0:
448,192,160857,128,0,161000:0:0:0:0:
192,192,160929,128,0,161000:0:0:0:0:
320,192,161000,1,0,0:0:0:0:
448,192,161089,1,0,0:0:0:0:
64,192,161143,128,0,161200:0:0:0:0:
192,192,161143,128,0,161257:0:0:0:0:
320,192,161143,128,0,161309:0:0:0:0:
448,192,161200,1,0,0:0:0:0:
64,192,161257,128,0,161314:0:0:0:0:
192,192,161314,128,0,161371:0:0:0:0:
448,192,161357,1,0,0:0:0:0:
192,192,161429,1,0,0:0:0:0:
320,192,161429,128,0,161500:0:0:0:0:
64,192,161500,128,0,161571:0:0:0:0:
448,192,161500,128,0,161643:0:0:0:0:
192,192,161571,128,0,161643:0:0:0:0:
320,192,161643,1,0,0:0:0:0:
64,192,161643,128,0,161714:0:0:0:0:
320,192,161714,128,0,161786:0:0:0:0:
448,192,161714,128,0,161786:0:0:0:0:
192,192,161786,128,0,161857:0:0:0:0:
64,192,161857,128,0,161952:0:0:0:0:
320,192,161857,1,0,0:0:0:0:
192,192,161905,128,0,161952:0:0:0:0:
448,192,161952,128,0,162000:0:0:0:0:
192,192,162000,128,0,162171:0:0:0:0:
64,192,162000,128,0,162057:0:0:0:0:
320,192,162000,128,0,162114:0:0:0:0:
448,192,162057,128,0,162171:0:0:0:0:
64,192,162114,128,0,162171:0:0:0:0:
320,192,162171,128,0,162229:0:0:0:0:
192,192,162229,1,0,0:0:0:0:
448,192,162286,128,0,162343:0:0:0:0:
320,192,162286,128,0,162343:0:0:0:0:
64,192,162286,128,0,162457:0:0:0:0:
192,192,162343,1,0,0:0:0:0:
448,192,162400,128,0,162457:0:0:0:0:
192,192,162457,128,0,162514:0:0:0:0:
320,192,162500,1,0,0:0:0:0:
448,192,162571,1,0,0:0:0:0:
64,192,162571,128,0,162643:0:0:0:0:
192,192,162643,128,0,162714:0:0:0:0:
64,192,162714,1,0,0:0:0:0:
320,192,162714,128,0,162786:0:0:0:0:
448,192,162786,128,0,162857:0:0:0:0:
320,192,162857,1,0,0:0:0:0:
192,192,162857,128,0,162929:0:0:0:0:
448,192,162929,1,0,0:0:0:0:
64,192,162929,128,0,163000:0:0:0:0:
320,192,163000,1,0,0:0:0:0:
192,192,163000,128,0,163071:0:0:0:0:
320,192,163071,1,0,0:0:0:0:
64,192,163143,128,0,163257:0:0:0:0:
192,192,163143,128,0,163200:0:0:0:0:
448,192,163143,128,0,163371:0:0:0:0:
320,192,163200,128,0,163257:0:0:0:0:
192,192,163257,128,0,163314:0:0:0:0:
64,192,163357,1,0,0:0:0:0:
192,192,163429,128,0,163500:0:0:0:0:
320,192,163429,1,0,0:0:0:0:
448,192,163429,128,0,163571:0:0:0:0:
320,192,163571,128,0,163714:0:0:0:0:
64,192,163571,1,0,0:0:0:0:
192,192,163571,1,0,0:0:0:0:
448,192,163619,128,0,163667:0:0:0:0:
192,192,163667,128,0,163762:0:0:0:0:
64,192,163714,128,0,163809:0:0:0:0:
448,192,163714,128,0,163809:0:0:0:0:
320,192,163762,1,0,0:0:0:0:
192,192,163809,1,0,0:0:0:0:
448,192,163857,128,0,164000:0:0:0:0:
64,192,163857,128,0,164000:0:0:0:0:
320,192,163929,1,0,0:0:0:0:
192,192,164000,1,0,0:0:0:0:
448,192,164143,128,0,164238:0:0:0:0:
64,192,164143,1,0,0:0:0:0:
320,192,164143,1,0,0:0:0:0:
192,192,164190,128,0,164429:0:0:0:0:
320,192,164238,128,0,164286:0:0:0:0:
448,192,164286,128,0,164429:0:0:0:0:
64,192,164286,128,0,164333:0:0:0:0:
320,192,164333,128,0,164381:0:0:0:0:
64,192,164381,128,0,164429:0:0:0:0:
320,192,164429,1,0,0:0:0:0:
448,192,164500,1,0,0:0:0:0:
320,192,164571,128,0,164643:0:0:0:0:
192,192,164571,128,0,164714:0:0:0:0:
64,192,164571,128,0,164714:0:0:0:0:
448,192,164714,128,0,164786:0:0:0:0:
320,192,164714,128,0,164786:0:0:0:0:
64,192,164762,128,0,164857:0:0:0:0:
192,192,164809,1,0,0:0:0:0:
448,192,164857,128,0,164929:0:0:0:0:
320,192,164857,128,0,164929:0:0:0:0:
192,192,164905,128,0,165000:0:0:0:0:
64,192,164952,128,0,165048:0:0:0:0:
448,192,165000,1,0,0:0:0:0:
320,192,165000,128,0,165071:0:0:0:0:
192,192,165071,1,0,0:0:0:0:
320,192,165143,128,0,165286:0:0:0:0:
64,192,165143,128,0,165214:0:0:0:0:
192,192,165214,1,0,0:0:0:0:
448,192,165286,128,0,165357:0:0:0:0:
192,192,165333,128,0,165429:0:0:0:0:
320,192,165381,128,0,165476:0:0:0:0:
448,192,165429,128,0,165714:0:0:0:0:
64,192,165429,128,0,165486:0:0:0:0:
192,192,165486,128,0,165543:0:0:0:0:
320,192,165543,128,0,165600:0:0:0:0:
64,192,165600,128,0,165657:0:0:0:0:
320,192,165657,128,0,165714:0:0:0:0:
64,192,165714,128,0,165857:0:0:0:0:
192,192,165714,128,0,165786:0:0:0:0:
320,192,165786,128,0,165857:0:0:0:0:
192,192,165857,128,0,165929:0:0:0:0:
64,192,165929,1,0,0:0:0:0:
320,192,165929,1,0,0:0:0:0:
192,192,166000,128,0,166071:0:0:0:0:
320,192,166000,128,0,166143:0:0:0:0:
64,192,166071,1,0,0:0:0:0:
448,192,166143,128,0,166214:0:0:0:0:
192,192,166214,1,0,0:0:0:0:
320,192,166214,128,0,166286:0:0:0:0:
64,192,166286,1,0,0:0:0:0:
192,192,166286,128,0,166357:0:0:0:0:
320,192,166357,128,0,166429:0:0:0:0:
448,192,166429,128,0,166500:0:0:0:0:
64,192,166500,1,0,0:0:0:0:
320,192,166500,128,0,166571:0:0:0:0:
64,192,166571,128,0,166643:0:0:0:0:
192,192,166571,128,0,166714:0:0:0:0:
448,192,166571,128,0,166714:0:0:0:0:
320,192,166643,1,0,0:0:0:0:
64,192,166714,1,0,0:0:0:0:
320,192,166786,1,0,0:0:0:0:
192,192,166786,128,0,167000:0:0:0:0:
448,192,166786,128,0,166857:0:0:0:0:
64,192,166857,1,0,0:0:0:0:
320,192,166857,1,0,0:0:0:0:
448,192,166929,1,0,0:0:0:0:
64,192,167000,128,0,167071:0:0:0:0:
448,192,167071,128,0,167143:0:0:0:0:
320,192,167071,128,0,167143:0:0:0:0:
192,192,167143,1,0,0:0:0:0:
64,192,167143,128,0,167214:0:0:0:0:
448,192,167214,128,0,167286:0:0:0:0:
192,192,167214,128,0,167286:0:0:0:0:
64,192,167286,1,0,0:0:0:0:
320,192,167286,128,0,167357:0:0:0:0:
448,192,167357,128,0,167429:0:0:0:0:
64,192,167429,128,0,167500:0:0:0:0:
192,192,167429,128,0,167500:0:0:0:0:
320,192,167429,128,0,167571:0:0:0:0:
448,192,167571,128,0,167643:0:0:0:0:
192,192,167571,128,0,167643:0:0:0:0:
64,192,167571,128,0,167714:0:0:0:0:
192,192,167714,1,0,0:0:0:0:
448,192,167714,1,0,0:0:0:0:
320,192,167714,1,0,0:0:0:0:
192,192,167809,1,0,0:0:0:0:
320,192,167809,1,0,0:0:0:0:
448,192,167809,1,0,0:0:0:0:
448,192,167905,1,0,0:0:0:0:
320,192,167905,1,0,0:0:0:0:
192,192,167905,1,0,0:0:0:0:
64,192,168000,128,0,168095:0:0:0:0:
192,192,168000,128,0,168095:0:0:0:0:
448,192,168000,128,0,168095:0:0:0:0:
64,192,168286,1,0,0:0:0:0:
192,192,168286,1,0,0:0:0:0:
320,192,168286,1,0,0:0:0:0:
320,192,168381,1,0,0:0:0:0:
192,192,168381,1,0,0:0:0:0:
64,192,168381,1,0,0:0:0:0:
64,192,168476,1,0,0:0:0:0:
192,192,168476,1,0,0:0:0:0:
320,192,168476,1,0,0:0:0:0:
64,192,168571,128,0,168667:0:0:0:0:
320,192,168571,128,0,168667:0:0:0:0:
448,192,168571,128,0,168667:0:0:0:0:
64,192,168857,1,0,0:0:0:0:
192,192,168857,1,0,0:0:0:0:
320,192,168857,1,0,0:0:0:0:
64,192,168952,1,0,0:0:0:0:
192,192,168952,1,0,0:0:0:0:
448,192,168952,1,0,0:0:0:0:
64,192,169048,1,0,0:0:0:0:
192,192,169048,1,0,0:0:0:0:
320,192,169048,1,0,0:0:0:0:
448,192,169143,1,0,0:0:0:0:
192,192,169143,1,0,0:0:0:0:
64,192,169143,1,0,0:0:0:0:
320,192,169238,1,0,0:0:0:0:
192,192,169238,1,0,0:0:0:0:
64,192,169238,1,0,0:0:0:0:
64,192,169333,1,0,0:0:0:0:
448,192,169333,1,0,0:0:0:0:
192,192,169333,1,0,0:0:0:0:
448,192,169429,1,0,0:0:0:0:
320,192,169429,1,0,0:0:0:0:
192,192,169429,1,0,0:0:0:0:
448,192,169524,1,0,0:0:0:0:
320,192,169524,1,0,0:0:0:0:
64,192,169524,1,0,0:0:0:0:
320,192,169619,1,0,0:0:0:0:
192,192,169619,1,0,0:0:0:0:
448,192,169619,1,0,0:0:0:0:
320,192,169714,1,0,0:0:0:0:
64,192,169714,1,0,0:0:0:0:
448,192,169714,1,0,0:0:0:0:
448,192,169809,1,0,0:0:0:0:
192,192,169809,1,0,0:0:0:0:
320,192,169809,1,0,0:0:0:0:
64,192,169905,128,0,170000:0:0:0:0:
320,192,169905,128,0,170000:0:0:0:0:
448,192,169905,128,0,170000:0:0:0:0:
448,192,170190,1,0,0:0:0:0:
320,192,170214,1,0,0:0:0:0:
64,192,170238,128,0,170476:0:0:0:0:
192,192,170262,128,0,170476:0:0:0:0:
320,192,170286,128,0,170571:0:0:0:0:
448,192,170286,128,0,170571:0:0:0:0:
64,192,170571,128,0,170667:0:0:0:0:
192,192,170571,128,0,170762:0:0:0:0:
320,192,170667,1,0,0:0:0:0:
448,192,170667,128,0,170762:0:0:0:0:
64,192,170762,1,0,0:0:0:0:
320,192,170762,128,0,170857:0:0:0:0:
192,192,170857,1,0,0:0:0:0:
64,192,170857,128,0,170952:0:0:0:0:
448,192,170857,128,0,170952:0:0:0:0:
192,192,170952,128,0,171048:0:0:0:0:
320,192,170952,128,0,171143:0:0:0:0:
448,192,171048,1,0,0:0:0:0:
64,192,171048,128,0,171143:0:0:0:0:
448,192,171143,128,0,171238:0:0:0:0:
192,192,171143,128,0,171238:0:0:0:0:
64,192,171238,128,0,171333:0:0:0:0:
320,192,171238,128,0,171333:0:0:0:0:
192,192,171333,1,0,0:0:0:0:
448,192,171333,128,0,171429:0:0:0:0:
64,192,171429,128,0,171524:0:0:0:0:
192,192,171429,128,0,171714:0:0:0:0:
320,192,171429,128,0,171619:0:0:0:0:
448,192,171524,128,0,171619:0:0:0:0:
64,192,171619,1,0,0:0:0:0:
448,192,171714,1,0,0:0:0:0:
320,192,171714,128,0,171809:0:0:0:0:
192,192,171809,128,0,171905:0:0:0:0:
448,192,171809,128,0,171905:0:0:0:0:
64,192,171905,1,0,0:0:0:0:
320,192,171905,128,0,172000:0:0:0:0:
192,192,172000,1,0,0:0:0:0:
64,192,172000,1,0,0:0:0:0:
448,192,172000,128,0,172095:0:0:0:0:
192,192,172095,1,0,0:0:0:0:
320,192,172095,128,0,172190:0:0:0:0:
448,192,172190,128,0,172286:0:0:0:0:
320,192,172286,1,0,0:0:0:0:
64,192,172286,128,0,172571:0:0:0:0:
192,192,172286,128,0,172381:0:0:0:0:
192,192,172476,1,0,0:0:0:0:
192,192,172571,128,0,172762:0:0:0:0:
320,192,172571,128,0,172762:0:0:0:0:
448,192,172571,128,0,172762:0:0:0:0:
64,192,172762,1,0,0:0:0:0:
192,192,172857,128,0,172952:0:0:0:0:
320,192,172857,128,0,172952:0:0:0:0:
448,192,172952,128,0,173048:0:0:0:0:
64,192,172952,128,0,173048:0:0:0:0:
320,192,173048,1,0,0:0:0:0:
192,192,173048,128,0,173143:0:0:0:0:
64,192,173143,1,0,0:0:0:0:
320,192,173143,128,0,173238:0:0:0:0:
448,192,173143,128,0,173238:0:0:0:0:
64,192,173238,128,0,173333:0:0:0:0:
192,192,173238,128,0,173619:0:0:0:0:
448,192,173333,1,0,0:0:0:0:
320,192,173333,128,0,173429:0:0:0:0:
64,192,173429,1,0,0:0:0:0:
448,192,173429,1,0,0:0:0:0:
64,192,173524,1,0,0:0:0:0:
64,192,173619,1,0,0:0:0:0:
320,192,173619,128,0,173714:0:0:0:0:
448,192,173714,128,0,173905:0:0:0:0:
64,192,173714,128,0,173905:0:0:0:0:
192,192,173714,128,0,173809:0:0:0:0:
320,192,173809,128,0,174190:0:0:0:0:
192,192,173905,128,0,174000:0:0:0:0:
448,192,174000,1,0,0:0:0:0:
64,192,174000,1,0,0:0:0:0:
448,192,174095,1,0,0:0:0:0:
448,192,174190,1,0,0:0:0:0:
192,192,174190,128,0,174476:0:0:0:0:
64,192,174286,1,0,0:0:0:0:
320,192,174286,128,0,174381:0:0:0:0:
448,192,174286,128,0,174381:0:0:0:0:
64,192,174381,128,0,174476:0:0:0:0:
448,192,174476,1,0,0:0:0:0:
320,192,174476,128,0,174571:0:0:0:0:
192,192,174571,1,0,0:0:0:0:
448,192,174571,128,0,174857:0:0:0:0:
320,192,174762,1,0,0:0:0:0:
64,192,174857,128,0,175048:0:0:0:0:
192,192,174857,128,0,175048:0:0:0:0:
320,192,174857,128,0,175048:0:0:0:0:
448,192,175048,1,0,0:0:0:0:
64,192,175143,1,0,0:0:0:0:
448,192,175143,128,0,175333:0:0:0:0:
64,192,175238,128,0,175333:0:0:0:0:
192,192,175333,1,0,0:0:0:0:
320,192,175333,128,0,175524:0:0:0:0:
448,192,175429,1,0,0:0:0:0:
64,192,175429,128,0,175619:0:0:0:0:
192,192,175429,128,0,175524:0:0:0:0:
448,192,175524,128,0,175714:0:0:0:0:
320,192,175619,1,0,0:0:0:0:
192,192,175619,128,0,175714:0:0:0:0:
320,192,175714,1,0,0:0:0:0:
64,192,175714,1,0,0:0:0:0:
64,192,175809,1,0,0:0:0:0:
448,192,175905,1,0,0:0:0:0:
64,192,175905,128,0,176000:0:0:0:0:
192,192,176000,128,0,176095:0:0:0:0:
320,192,176000,128,0,176095:0:0:0:0:
448,192,176000,128,0,176095:0:0:0:0:
64,192,176190,128,0,176286:0:0:0:0:
448,192,176286,1,0,0:0:0:0:
320,192,176286,128,0,176476:0:0:0:0:
192,192,176381,1,0,0:0:0:0:
448,192,176381,128,0,176476:0:0:0:0:
64,192,176476,1,0,0:0:0:0:
192,192,176476,128,0,176667:0:0:0:0:
320,192,176571,1,0,0:0:0:0:
64,192,176571,128,0,176667:0:0:0:0:
448,192,176571,128,0,176667:0:0:0:0:
320,192,176667,1,0,0:0:0:0:
64,192,176762,128,0,176952:0:0:0:0:
448,192,176762,128,0,177048:0:0:0:0:
192,192,176857,128,0,177048:0:0:0:0:
320,192,176857,128,0,177048:0:0:0:0:
64,192,177048,1,0,0:0:0:0:
448,192,177143,1,0,0:0:0:0:
320,192,177143,1,0,0:0:0:0:
64,192,177143,1,0,0:0:0:0:
192,192,177333,128,0,177429:0:0:0:0:
320,192,177381,128,0,177524:0:0:0:0:
448,192,177429,1,0,0:0:0:0:
64,192,177429,128,0,177524:0:0:0:0:
192,192,177524,128,0,177619:0:0:0:0:
448,192,177524,128,0,177619:0:0:0:0:
64,192,177619,1,0,0:0:0:0:
320,192,177619,128,0,177714:0:0:0:0:
192,192,177714,1,0,0:0:0:0:
448,192,177714,128,0,177809:0:0:0:0:
64,192,177714,128,0,177809:0:0:0:0:
192,192,177809,128,0,177905:0:0:0:0:
320,192,177809,128,0,177905:0:0:0:0:
64,192,177905,128,0,178095:0:0:0:0:
448,192,177905,128,0,178095:0:0:0:0:
192,192,178000,128,0,178190:0:0:0:0:
320,192,178000,128,0,178143:0:0:0:0:
448,192,178190,128,0,178238:0:0:0:0:
320,192,178238,128,0,178286:0:0:0:0:
192,192,178286,1,0,0:0:0:0:
448,192,178286,128,0,178476:0:0:0:0:
64,192,178286,128,0,178476:0:0:0:0:
192,192,178381,128,0,178667:0:0:0:0:
320,192,178381,128,0,178571:0:0:0:0:
64,192,178571,128,0,178762:0:0:0:0:
448,192,178571,128,0,178762:0:0:0:0:
320,192,178667,1,0,0:0:0:0:
192,192,178762,128,0,178809:0:0:0:0:
64,192,178809,128,0,178857:0:0:0:0:
320,192,178857,128,0,179048:0:0:0:0:
192,192,178857,128,0,178952:0:0:0:0:
448,192,178857,1,0,0:0:0:0:
64,192,178952,128,0,179048:0:0:0:0:
448,192,178952,128,0,179048:0:0:0:0:
192,192,179048,1,0,0:0:0:0:
320,192,179143,128,0,179286:0:0:0:0:
448,192,179143,128,0,179333:0:0:0:0:
192,192,179333,1,0,0:0:0:0:
320,192,179381,1,0,0:0:0:0:
64,192,179429,128,0,179619:0:0:0:0:
448,192,179429,128,0,179619:0:0:0:0:
192,192,179429,128,0,179619:0:0:0:0:
64,192,179714,1,0,0:0:0:0:
192,192,179714,128,0,179809:0:0:0:0:
320,192,179714,128,0,179809:0:0:0:0:
64,192,179809,128,0,179905:0:0:0:0:
448,192,179809,128,0,179905:0:0:0:0:
320,192,179905,1,0,0:0:0:0:
192,192,179905,128,0,180000:0:0:0:0:
320,192,180000,128,0,180095:0:0:0:0:
64,192,180000,1,0,0:0:0:0:
448,192,180000,1,0,0:0:0:0:
448,192,180095,128,0,180190:0:0:0:0:
192,192,180095,1,0,0:0:0:0:
320,192,180190,128,0,180286:0:0:0:0:
64,192,180190,1,0,0:0:0:0:
64,192,180286,128,0,180857:0:0:0:0:
192,192,180286,128,0,180381:0:0:0:0:
320,192,180381,128,0,180476:0:0:0:0:
192,192,180476,1,0,0:0:0:0:
192,192,180571,128,0,180667:0:0:0:0:
448,192,180571,128,0,180667:0:0:0:0:
320,192,180571,128,0,180667:0:0:0:0:
192,192,180762,1,0,0:0:0:0:
192,192,180857,1,0,0:0:0:0:
320,192,180857,1,0,0:0:0:0:
64,192,180952,1,0,0:0:0:0:
448,192,180952,128,0,181048:0:0:0:0:
320,192,181048,1,0,0:0:0:0:
64,192,181048,128,0,181143:0:0:0:0:
448,192,181143,1,0,0:0:0:0:
320,192,181143,1,0,0:0:0:0:
192,192,181143,1,0,0:0:0:0:
448,192,181238,128,0,181429:0:0:0:0:
64,192,181333,1,0,0:0:0:0:
192,192,181429,128,0,181714:0:0:0:0:
64,192,181429,1,0,0:0:0:0:
64,192,181619,1,0,0:0:0:0:
64,192,181714,128,0,181905:0:0:0:0:
448,192,181714,128,0,181905:0:0:0:0:
320,192,181714,128,0,181905:0:0:0:0:
320,192,182000,1,0,0:0:0:0:
64,192,182000,128,0,182095:0:0:0:0:
320,192,182095,128,0,182190:0:0:0:0:
192,192,182095,128,0,182190:0:0:0:0:
448,192,182190,1,0,0:0:0:0:
64,192,182190,128,0,182286:0:0:0:0:
192,192,182286,1,0,0:0:0:0:
448,192,182286,128,0,182381:0:0:0:0:
320,192,182286,128,0,182381:0:0:0:0:
192,192,182381,128,0,182476:0:0:0:0:
64,192,182381,128,0,182762:0:0:0:0:
320,192,182476,1,0,0:0:0:0:
448,192,182476,128,0,182571:0:0:0:0:
192,192,182571,1,0,0:0:0:0:
320,192,182571,1,0,0:0:0:0:
192,192,182667,1,0,0:0:0:0:
192,192,182762,1,0,0:0:0:0:
448,192,182762,128,0,182857:0:0:0:0:
320,192,182857,128,0,183048:0:0:0:0:
192,192,182857,128,0,183048:0:0:0:0:
64,192,182857,128,0,182952:0:0:0:0:
448,192,182952,128,0,183333:0:0:0:0:
64,192,183048,128,0,183143:0:0:0:0:
320,192,183143,1,0,0:0:0:0:
192,192,183143,1,0,0:0:0:0:
320,192,183238,1,0,0:0:0:0:
320,192,183333,1,0,0:0:0:0:
64,192,183333,128,0,183619:0:0:0:0:
192,192,183429,1,0,0:0:0:0:
448,192,183429,128,0,183524:0:0:0:0:
320,192,183429,128,0,183524:0:0:0:0:
192,192,183524,128,0,183619:0:0:0:0:
320,192,183619,1,0,0:0:0:0:
448,192,183619,128,0,183714:0:0:0:0:
64,192,183714,1,0,0:0:0:0:
320,192,183714,128,0,184000:0:0:0:0:
192,192,183905,1,0,0:0:0:0:
64,192,184000,128,0,184095:0:0:0:0:
192,192,184000,128,0,184190:0:0:0:0:
448,192,184000,128,0,184190:0:0:0:0:
320,192,184190,1,0,0:0:0:0:
64,192,184190,1,0,0:0:0:0:
448,192,184286,128,0,184476:0:0:0:0:
320,192,184286,128,0,184381:0:0:0:0:
192,192,184381,128,0,184476:0:0:0:0:
64,192,184476,1,0,0:0:0:0:
320,192,184476,128,0,184571:0:0:0:0:
192,192,184571,1,0,0:0:0:0:
448,192,184571,128,0,184667:0:0:0:0:
64,192,184571,128,0,184667:0:0:0:0:
192,192,184667,128,0,184762:0:0:0:0:
320,192,184667,128,0,184762:0:0:0:0:
448,192,184762,1,0,0:0:0:0:
64,192,184762,128,0,185048:0:0:0:0:
192,192,184857,1,0,0:0:0:0:
448,192,184857,1,0,0:0:0:0:
192,192,184952,1,0,0:0:0:0:
320,192,185048,1,0,0:0:0:0:
192,192,185048,128,0,185143:0:0:0:0:
64,192,185143,128,0,185333:0:0:0:0:
320,192,185143,128,0,185333:0:0:0:0:
448,192,185143,128,0,185238:0:0:0:0:
448,192,185333,1,0,0:0:0:0:
320,192,185429,1,0,0:0:0:0:
448,192,185429,128,0,185524:0:0:0:0:
320,192,185524,128,0,185619:0:0:0:0:
64,192,185524,128,0,185619:0:0:0:0:
448,192,185619,1,0,0:0:0:0:
192,192,185619,128,0,185714:0:0:0:0:
64,192,185714,1,0,0:0:0:0:
320,192,185714,128,0,185809:0:0:0:0:
448,192,185714,128,0,185905:0:0:0:0:
64,192,185809,128,0,186000:0:0:0:0:
320,192,185905,1,0,0:0:0:0:
192,192,186000,128,0,186190:0:0:0:0:
320,192,186000,128,0,186190:0:0:0:0:
448,192,186000,128,0,186190:0:0:0:0:
64,192,186190,1,0,0:0:0:0:
448,192,186286,1,0,0:0:0:0:
320,192,186286,1,0,0:0:0:0:
192,192,186286,128,0,186476:0:0:0:0:
448,192,186381,1,0,0:0:0:0:
448,192,186476,1,0,0:0:0:0:
64,192,186476,1,0,0:0:0:0:
64,192,186571,128,0,186762:0:0:0:0:
192,192,186571,128,0,186762:0:0:0:0:
320,192,186571,128,0,186762:0:0:0:0:
448,192,186762,1,0,0:0:0:0:
64,192,186857,1,0,0:0:0:0:
192,192,186857,1,0,0:0:0:0:
320,192,186857,128,0,187048:0:0:0:0:
64,192,186952,1,0,0:0:0:0:
64,192,187048,1,0,0:0:0:0:
448,192,187048,1,0,0:0:0:0:
192,192,187143,1,0,0:0:0:0:
320,192,187143,128,0,187238:0:0:0:0:
448,192,187143,128,0,187238:0:0:0:0:
192,192,187238,128,0,187333:0:0:0:0:
64,192,187238,128,0,187333:0:0:0:0:
320,192,187333,1,0,0:0:0:0:
448,192,187333,1,0,0:0:0:0:
192,192,187429,1,0,0:0:0:0:
64,192,187429,128,0,187524:0:0:0:0:
320,192,187429,128,0,187524:0:0:0:0:
192,192,187524,128,0,187619:0:0:0:0:
448,192,187524,128,0,187619:0:0:0:0:
64,192,187619,1,0,0:0:0:0:
320,192,187619,1,0,0:0:0:0:
192,192,187714,128,0,187809:0:0:0:0:
320,192,187714,128,0,187905:0:0:0:0:
448,192,187714,128,0,187809:0:0:0:0:
64,192,187809,128,0,187905:0:0:0:0:
448,192,187905,1,0,0:0:0:0:
192,192,187905,128,0,188000:0:0:0:0:
64,192,188000,1,0,0:0:0:0:
320,192,188000,128,0,188095:0:0:0:0:
448,192,188000,128,0,188095:0:0:0:0:
64,192,188095,128,0,188190:0:0:0:0:
192,192,188095,128,0,188190:0:0:0:0:
320,192,188190,1,0,0:0:0:0:
448,192,188190,128,0,188286:0:0:0:0:
192,192,188286,5,0,0:0:0:0:
320,192,188286,1,0,0:0:0:0:
64,192,188286,128,0,188848:0:0:0:0:
192,192,188661,1,0,0:0:0:0:
320,192,188661,1,0,0:0:0:0:
448,192,188848,128,0,189786:0:0:0:0:
192,192,189036,1,0,0:0:0:0:
320,192,189036,1,0,0:0:0:0:
192,192,189411,1,0,0:0:0:0:
320,192,189411,1,0,0:0:0:0:
320,192,189598,1,0,0:0:0:0:
192,192,189598,1,0,0:0:0:0:
192,192,189786,1,0,0:0:0:0:
320,192,189786,1,0,0:0:0:0:
320,192,190161,128,0,190536:0:0:0:0:
448,192,190161,1,0,0:0:0:0:
64,192,190161,1,0,0:0:0:0:
192,192,190536,128,0,190911:0:0:0:0:
64,192,190536,1,0,0:0:0:0:
448,192,190536,1,0,0:0:0:0:
320,192,190653,1,0,0:0:0:0:
64,192,190723,1,0,0:0:0:0:
320,192,190911,128,0,191286:0:0:0:0:
64,192,190911,1,0,0:0:0:0:
448,192,190911,1,0,0:0:0:0:
448,192,191098,1,0,0:0:0:0:
64,192,191098,1,0,0:0:0:0:
192,192,191286,1,0,0:0:0:0:
64,192,191286,1,0,0:0:0:0:
448,192,191286,128,0,191848:0:0:0:0:
64,192,191661,1,0,0:0:0:0:
192,192,191661,1,0,0:0:0:0:
320,192,191848,128,0,192786:0:0:0:0:
64,192,192036,1,0,0:0:0:0:
192,192,192036,1,0,0:0:0:0:
448,192,192340,1,0,0:0:0:0:
192,192,192411,1,0,0:0:0:0:
64,192,192411,1,0,0:0:0:0:
192,192,192598,1,0,0:0:0:0:
64,192,192598,1,0,0:0:0:0:
64,192,192786,1,0,0:0:0:0:
192,192,192786,1,0,0:0:0:0:
64,192,193161,128,0,193536:0:0:0:0:
320,192,193161,1,0,0:0:0:0:
448,192,193161,1,0,0:0:0:0:
192,192,193536,128,0,193911:0:0:0:0:
320,192,193536,1,0,0:0:0:0:
448,192,193536,1,0,0:0:0:0:
64,192,193653,1,0,0:0:0:0:
448,192,193723,1,0,0:0:0:0:
64,192,193911,128,0,194286:0:0:0:0:
320,192,193911,1,0,0:0:0:0:
448,192,193911,1,0,0:0:0:0:
320,192,194098,1,0,0:0:0:0:
448,192,194098,1,0,0:0:0:0:
192,192,194192,1,0,0:0:0:0:
448,192,194286,1,0,0:0:0:0:
320,192,194286,128,0,194848:0:0:0:0:
64,192,194473,1,0,0:0:0:0:
448,192,194473,1,0,0:0:0:0:
192,192,194590,1,0,0:0:0:0:
448,192,194661,1,0,0:0:0:0:
64,192,194661,1,0,0:0:0:0:
192,192,194848,128,0,195411:0:0:0:0:
64,192,194848,1,0,0:0:0:0:
448,192,194848,1,0,0:0:0:0:
64,192,195036,1,0,0:0:0:0:
320,192,195036,1,0,0:0:0:0:
448,192,195153,1,0,0:0:0:0:
320,192,195223,1,0,0:0:0:0:
64,192,195223,1,0,0:0:0:0:
448,192,195411,128,0,195786:0:0:0:0:
320,192,195411,1,0,0:0:0:0:
64,192,195411,1,0,0:0:0:0:
64,192,195598,1,0,0:0:0:0:
192,192,195598,1,0,0:0:0:0:
192,192,195715,1,0,0:0:0:0:
64,192,195786,128,0,196348:0:0:0:0:
320,192,195786,1,0,0:0:0:0:
192,192,195973,1,0,0:0:0:0:
448,192,195973,1,0,0:0:0:0:
320,192,196090,1,0,0:0:0:0:
448,192,196161,1,0,0:0:0:0:
192,192,196161,1,0,0:0:0:0:
320,192,196348,128,0,196911:0:0:0:0:
192,192,196348,1,0,0:0:0:0:
448,192,196536,1,0,0:0:0:0:
64,192,196536,1,0,0:0:0:0:
64,192,196653,1,0,0:0:0:0:
192,192,196723,1,0,0:0:0:0:
448,192,196723,1,0,0:0:0:0:
64,192,196911,128,0,197286:0:0:0:0:
448,192,196911,1,0,0:0:0:0:
192,192,196911,1,0,0:0:0:0:
192,192,197098,1,0,0:0:0:0:
448,192,197098,1,0,0:0:0:0:
320,192,197215,1,0,0:0:0:0:
192,192,197286,1,0,0:0:0:0:
448,192,197286,1,0,0:0:0:0:
192,192,197379,1,0,0:0:0:0:
448,192,197473,1,0,0:0:0:0:
320,192,197473,1,0,0:0:0:0:
448,192,197567,1,0,0:0:0:0:
192,192,197661,1,0,0:0:0:0:
64,192,197661,1,0,0:0:0:0:
64,192,197754,1,0,0:0:0:0:
192,192,197848,1,0,0:0:0:0:
320,192,197848,1,0,0:0:0:0:
320,192,197942,1,0,0:0:0:0:
64,192,198036,1,0,0:0:0:0:
448,192,198036,1,0,0:0:0:0:
448,192,198129,1,0,0:0:0:0:
64,192,198223,1,0,0:0:0:0:
320,192,198223,1,0,0:0:0:0:
320,192,198317,1,0,0:0:0:0:
192,192,198411,1,0,0:0:0:0:
448,192,198411,1,0,0:0:0:0:
192,192,198504,1,0,0:0:0:0:
64,192,198598,1,0,0:0:0:0:
448,192,198598,1,0,0:0:0:0:
64,192,198692,1,0,0:0:0:0:
448,192,198786,1,0,0:0:0:0:
320,192,198839,1,0,0:0:0:0:
192,192,198893,1,0,0:0:0:0:
448,192,198946,1,0,0:0:0:0:
64,192,199000,1,0,0:0:0:0:
320,192,199053,5,0,0:0:0:0:
192,192,199107,1,0,0:0:0:0:
448,192,199161,1,0,0:0:0:0:
64,192,199207,1,0,0:0:0:0:
192,192,199254,1,0,0:0:0:0:
448,192,199301,1,0,0:0:0:0:
64,192,199348,1,0,0:0:0:0:
320,192,199395,1,0,0:0:0:0:
448,192,199442,1,0,0:0:0:0:
192,192,199489,1,0,0:0:0:0:
320,192,199536,1,0,0:0:0:0:
64,192,199577,1,0,0:0:0:0:
448,192,199619,1,0,0:0:0:0:
192,192,199661,1,0,0:0:0:0:
320,192,199702,1,0,0:0:0:0:
64,192,199744,1,0,0:0:0:0:
192,192,199786,1,0,0:0:0:0:
320,192,199827,1,0,0:0:0:0:
448,192,199869,1,0,0:0:0:0:
64,192,199911,1,0,0:0:0:0:
320,192,199952,1,0,0:0:0:0:
192,192,199994,1,0,0:0:0:0:
448,192,200036,1,0,0:0:0:0:
320,192,200077,1,0,0:0:0:0:
64,192,200119,1,0,0:0:0:0:
448,192,200161,1,0,0:0:0:0:
192,192,200202,1,0,0:0:0:0:
64,192,200239,1,0,0:0:0:0:
448,192,200286,5,0,0:0:0:0:
320,192,200286,1,0,0:0:0:0:
192,192,200286,1,0,0:0:0:0:
448,192,200379,1,0,0:0:0:0:
64,192,200379,1,0,0:0:0:0:
320,192,200473,1,0,0:0:0:0:
64,192,200473,1,0,0:0:0:0:
320,192,200567,1,0,0:0:0:0:
192,192,200567,1,0,0:0:0:0:
64,192,200661,1,0,0:0:0:0:
192,192,200661,1,0,0:0:0:0:
448,192,200661,1,0,0:0:0:0:
320,192,200754,1,0,0:0:0:0:
448,192,200754,1,0,0:0:0:0:
192,192,200848,1,0,0:0:0:0:
320,192,200848,1,0,0:0:0:0:
192,192,200942,1,0,0:0:0:0:
64,192,200942,1,0,0:0:0:0:
448,192,201036,1,0,0:0:0:0:
320,192,201036,1,0,0:0:0:0:
64,192,201036,1,0,0:0:0:0:
192,192,201129,1,0,0:0:0:0:
320,192,201129,1,0,0:0:0:0:
192,192,201223,1,0,0:0:0:0:
448,192,201223,1,0,0:0:0:0:
448,192,201317,1,0,0:0:0:0:
64,192,201317,1,0,0:0:0:0:
320,192,201411,1,0,0:0:0:0:
192,192,201411,1,0,0:0:0:0:
64,192,201411,1,0,0:0:0:0:
320,192,201504,1,0,0:0:0:0:
448,192,201504,1,0,0:0:0:0:
64,192,201598,1,0,0:0:0:0:
448,192,201598,1,0,0:0:0:0:
64,192,201692,1,0,0:0:0:0:
192,192,201692,1,0,0:0:0:0:
448,192,201786,1,0,0:0:0:0:
320,192,201786,1,0,0:0:0:0:
192,192,201786,1,0,0:0:0:0:
320,192,201879,1,0,0:0:0:0:
64,192,201879,1,0,0:0:0:0:
64,192,201973,1,0,0:0:0:0:
448,192,201973,1,0,0:0:0:0:
192,192,202067,1,0,0:0:0:0:
448,192,202067,1,0,0:0:0:0:
64,192,202161,5,0,0:0:0:0:
320,192,202161,1,0,0:0:0:0:
448,192,202161,1,0,0:0:0:0:
320,192,202254,1,0,0:0:0:0:
192,192,202254,1,0,0:0:0:0:
448,192,202348,1,0,0:0:0:0:
192,192,202348,1,0,0:0:0:0:
64,192,202442,1,0,0:0:0:0:
448,192,202442,1,0,0:0:0:0:
64,192,202536,1,0,0:0:0:0:
192,192,202536,1,0,0:0:0:0:
320,192,202536,1,0,0:0:0:0:
192,192,202629,1,0,0:0:0:0:
448,192,202629,1,0,0:0:0:0:
448,192,202723,1,0,0:0:0:0:
64,192,202723,1,0,0:0:0:0:
64,192,202817,1,0,0:0:0:0:
320,192,202817,1,0,0:0:0:0:
192,192,202911,1,0,0:0:0:0:
320,192,202911,1,0,0:0:0:0:
448,192,202911,1,0,0:0:0:0:
64,192,203004,1,0,0:0:0:0:
448,192,203004,1,0,0:0:0:0:
192,192,203098,1,0,0:0:0:0:
64,192,203098,1,0,0:0:0:0:
320,192,203192,1,0,0:0:0:0:
192,192,203192,1,0,0:0:0:0:
320,192,203286,5,0,0:0:0:0:
64,192,203286,1,0,0:0:0:0:
448,192,203286,1,0,0:0:0:0:
192,192,203379,1,0,0:0:0:0:
320,192,203379,1,0,0:0:0:0:
192,192,203473,1,0,0:0:0:0:
448,192,203473,1,0,0:0:0:0:
64,192,203567,1,0,0:0:0:0:
448,192,203567,1,0,0:0:0:0:
320,192,203661,1,0,0:0:0:0:
64,192,203661,1,0,0:0:0:0:
192,192,203661,1,0,0:0:0:0:
320,192,203754,1,0,0:0:0:0:
448,192,203754,1,0,0:0:0:0:
448,192,203848,1,0,0:0:0:0:
64,192,203848,1,0,0:0:0:0:
192,192,203942,1,0,0:0:0:0:
64,192,203942,1,0,0:0:0:0:
192,192,204036,1,0,0:0:0:0:
448,192,204036,1,0,0:0:0:0:
320,192,204036,1,0,0:0:0:0:
448,192,204129,1,0,0:0:0:0:
64,192,204129,1,0,0:0:0:0:
320,192,204223,1,0,0:0:0:0:
64,192,204223,1,0,0:0:0:0:
192,192,204317,1,0,0:0:0:0:
320,192,204317,1,0,0:0:0:0:
192,192,204411,1,0,0:0:0:0:
64,192,204411,1,0,0:0:0:0:
448,192,204411,1,0,0:0:0:0:
320,192,204504,1,0,0:0:0:0:
448,192,204504,1,0,0:0:0:0:
320,192,204598,1,0,0:0:0:0:
192,192,204598,1,0,0:0:0:0:
64,192,204692,1,0,0:0:0:0:
192,192,204692,1,0,0:0:0:0:
64,192,204786,1,0,0:0:0:0:
448,192,204786,1,0,0:0:0:0:
320,192,204786,1,0,0:0:0:0:
192,192,204879,1,0,0:0:0:0:
320,192,204973,1,0,0:0:0:0:
192,192,204973,1,0,0:0:0:0:
448,192,205067,1,0,0:0:0:0:
64,192,205067,1,0,0:0:0:0:
192,192,205161,5,0,0:0:0:0:
320,192,205161,1,0,0:0:0:0:
448,192,205161,1,0,0:0:0:0:
64,192,205254,1,0,0:0:0:0:
64,192,205348,1,0,0:0:0:0:
320,192,205348,1,0,0:0:0:0:
320,192,205442,1,0,0:0:0:0:
192,192,205442,1,0,0:0:0:0:
448,192,205536,1,0,0:0:0:0:
64,192,205536,1,0,0:0:0:0:
192,192,205536,1,0,0:0:0:0:
192,192,205629,1,0,0:0:0:0:
448,192,205723,1,0,0:0:0:0:
64,192,205723,1,0,0:0:0:0:
192,192,205817,1,0,0:0:0:0:
320,192,205817,1,0,0:0:0:0:
320,192,205911,1,0,0:0:0:0:
448,192,205911,1,0,0:0:0:0:
64,192,205911,1,0,0:0:0:0:
448,192,206004,1,0,0:0:0:0:
320,192,206098,1,0,0:0:0:0:
64,192,206098,1,0,0:0:0:0:
192,192,206192,1,0,0:0:0:0:
448,192,206192,1,0,0:0:0:0:
64,192,206286,1,0,0:0:0:0:
192,192,206286,1,0,0:0:0:0:
320,192,206286,1,0,0:0:0:0:
64,192,206379,1,0,0:0:0:0:
320,192,206473,1,0,0:0:0:0:
448,192,206473,1,0,0:0:0:0:
192,192,206567,1,0,0:0:0:0:
64,192,206567,1,0,0:0:0:0:
64,192,206661,1,0,0:0:0:0:
320,192,206661,1,0,0:0:0:0:
448,192,206661,1,0,0:0:0:0:
448,192,206754,1,0,0:0:0:0:
320,192,206848,1,0,0:0:0:0:
64,192,206848,1,0,0:0:0:0:
192,192,206942,1,0,0:0:0:0:
448,192,206942,1,0,0:0:0:0:
64,192,207036,1,0,0:0:0:0:
320,192,207036,1,0,0:0:0:0:
192,192,207036,1,0,0:0:0:0:
320,192,207129,1,0,0:0:0:0:
64,192,207223,1,0,0:0:0:0:
448,192,207223,1,0,0:0:0:0:
192,192,207317,1,0,0:0:0:0:
320,192,207317,1,0,0:0:0:0:
64,192,207411,1,0,0:0:0:0:
448,192,207411,1,0,0:0:0:0:
320,192,207411,1,0,0:0:0:0:
64,192,207504,1,0,0:0:0:0:
192,192,207598,1,0,0:0:0:0:
448,192,207598,1,0,0:0:0:0:
320,192,207692,1,0,0:0:0:0:
64,192,207692,1,0,0:0:0:0:
192,192,207786,1,0,0:0:0:0:
64,192,207786,1,0,0:0:0:0:
448,192,207786,1,0,0:0:0:0:
192,192,207879,1,0,0:0:0:0:
448,192,207973,1,0,0:0:0:0:
64,192,207973,1,0,0:0:0:0:
448,192,208067,1,0,0:0:0:0:
448,192,208161,1,0,0:0:0:0:
320,192,208161,1,0,0:0:0:0:
192,192,208161,1,0,0:0:0:0:
64,192,208254,1,0,0:0:0:0:
192,192,208254,1,0,0:0:0:0:
64,192,208348,1,0,0:0:0:0:
64,192,208442,1,0,0:0:0:0:
448,192,208442,1,0,0:0:0:0:
320,192,208536,1,0,0:0:0:0:
192,192,208536,1,0,0:0:0:0:
448,192,208536,1,0,0:0:0:0:
320,192,208629,1,0,0:0:0:0:
320,192,208723,1,0,0:0:0:0:
64,192,208723,1,0,0:0:0:0:
192,192,208817,1,0,0:0:0:0:
448,192,208817,1,0,0:0:0:0:
192,192,208911,1,0,0:0:0:0:
64,192,208911,1,0,0:0:0:0:
448,192,208911,1,0,0:0:0:0:
192,192,209004,1,0,0:0:0:0:
320,192,209004,1,0,0:0:0:0:
448,192,209098,1,0,0:0:0:0:
64,192,209098,1,0,0:0:0:0:
448,192,209192,1,0,0:0:0:0:
320,192,209192,1,0,0:0:0:0:
320,192,209286,1,0,0:0:0:0:
192,192,209286,1,0,0:0:0:0:
448,192,209286,1,0,0:0:0:0:
192,192,209379,1,0,0:0:0:0:
64,192,209379,1,0,0:0:0:0:
320,192,209473,1,0,0:0:0:0:
448,192,209473,1,0,0:0:0:0:
192,192,209473,1,0,0:0:0:0:
192,192,209567,1,0,0:0:0:0:
320,192,209567,1,0,0:0:0:0:
448,192,209567,1,0,0:0:0:0:
64,192,209661,1,0,0:0:0:0:
448,192,209661,1,0,0:0:0:0:
64,192,209754,1,0,0:0:0:0:
320,192,209754,1,0,0:0:0:0:
192,192,209754,1,0,0:0:0:0:
320,192,209848,1,0,0:0:0:0:
192,192,209848,1,0,0:0:0:0:
64,192,209848,1,0,0:0:0:0:
448,192,209942,1,0,0:0:0:0:
192,192,209942,1,0,0:0:0:0:
64,192,210036,1,0,0:0:0:0:
320,192,210036,1,0,0:0:0:0:
448,192,210036,1,0,0:0:0:0:
320,192,210129,1,0,0:0:0:0:
448,192,210129,1,0,0:0:0:0:
64,192,210129,1,0,0:0:0:0:
192,192,210223,1,0,0:0:0:0:
320,192,210223,1,0,0:0:0:0:
192,192,210317,1,0,0:0:0:0:
64,192,210317,1,0,0:0:0:0:
448,192,210317,1,0,0:0:0:0:
64,192,210411,1,0,0:0:0:0:
448,192,210411,1,0,0:0:0:0:
192,192,210411,1,0,0:0:0:0:
320,192,210504,1,0,0:0:0:0:
64,192,210504,1,0,0:0:0:0:
320,192,210598,1,0,0:0:0:0:
448,192,210598,1,0,0:0:0:0:
192,192,210598,1,0,0:0:0:0:
320,192,210692,1,0,0:0:0:0:
448,192,210692,1,0,0:0:0:0:
192,192,210692,1,0,0:0:0:0:
64,192,210786,1,0,0:0:0:0:
192,192,210786,1,0,0:0:0:0:
448,192,210786,1,0,0:0:0:0:
320,192,210879,1,0,0:0:0:0:
320,192,210973,1,0,0:0:0:0:
64,192,211067,1,0,0:0:0:0:
448,192,211067,1,0,0:0:0:0:
192,192,211161,1,0,0:0:0:0:
192,192,211254,1,0,0:0:0:0:
448,192,211348,1,0,0:0:0:0:
64,192,211348,1,0,0:0:0:0:
320,192,211442,1,0,0:0:0:0:
320,192,211536,1,0,0:0:0:0:
64,192,211629,1,0,0:0:0:0:
192,192,211629,1,0,0:0:0:0:
448,192,211723,1,0,0:0:0:0:
448,192,211817,1,0,0:0:0:0:
320,192,211911,1,0,0:0:0:0:
192,192,211911,1,0,0:0:0:0:
64,192,212004,1,0,0:0:0:0:
64,192,212098,1,0,0:0:0:0:
320,192,212098,1,0,0:0:0:0:
320,192,212192,1,0,0:0:0:0:
64,192,212286,1,0,0:0:0:0:
192,192,212286,1,0,0:0:0:0:
448,192,212286,1,0,0:0:0:0:
64,192,212379,1,0,0:0:0:0:
320,192,212473,1,0,0:0:0:0:
192,192,212473,1,0,0:0:0:0:
448,192,212473,1,0,0:0:0:0:
320,192,212567,1,0,0:0:0:0:
192,192,212567,1,0,0:0:0:0:
320,192,212661,1,0,0:0:0:0:
64,192,212661,1,0,0:0:0:0:
192,192,212754,1,0,0:0:0:0:
64,192,212754,1,0,0:0:0:0:
448,192,212754,1,0,0:0:0:0:
192,192,212848,1,0,0:0:0:0:
448,192,212848,1,0,0:0:0:0:
192,192,212942,1,0,0:0:0:0:
320,192,212942,1,0,0:0:0:0:
448,192,213036,1,0,0:0:0:0:
64,192,213036,1,0,0:0:0:0:
320,192,213036,1,0,0:0:0:0:
448,192,213129,1,0,0:0:0:0:
64,192,213129,1,0,0:0:0:0:
448,192,213223,1,0,0:0:0:0:
192,192,213223,1,0,0:0:0:0:
64,192,213317,1,0,0:0:0:0:
320,192,213317,1,0,0:0:0:0:
192,192,213317,1,0,0:0:0:0:
64,192,213411,1,0,0:0:0:0:
448,192,213411,1,0,0:0:0:0:
64,192,213504,1,0,0:0:0:0:
192,192,213504,1,0,0:0:0:0:
320,192,213598,1,0,0:0:0:0:
448,192,213598,1,0,0:0:0:0:
192,192,213598,1,0,0:0:0:0:
320,192,213692,1,0,0:0:0:0:
64,192,213692,1,0,0:0:0:0:
192,192,213786,1,0,0:0:0:0:
320,192,213786,1,0,0:0:0:0:
448,192,213786,1,0,0:0:0:0:
192,192,213879,1,0,0:0:0:0:
448,192,213973,1,0,0:0:0:0:
64,192,213973,1,0,0:0:0:0:
320,192,213973,1,0,0:0:0:0:
448,192,214067,1,0,0:0:0:0:
192,192,214067,1,0,0:0:0:0:
448,192,214161,1,0,0:0:0:0:
320,192,214161,1,0,0:0:0:0:
64,192,214254,1,0,0:0:0:0:
192,192,214254,1,0,0:0:0:0:
320,192,214254,1,0,0:0:0:0:
64,192,214348,1,0,0:0:0:0:
448,192,214348,1,0,0:0:0:0:
64,192,214442,1,0,0:0:0:0:
192,192,214442,1,0,0:0:0:0:
320,192,214536,1,0,0:0:0:0:
192,192,214536,1,0,0:0:0:0:
448,192,214536,1,0,0:0:0:0:
320,192,214629,1,0,0:0:0:0:
64,192,214629,1,0,0:0:0:0:
320,192,214723,1,0,0:0:0:0:
448,192,214723,1,0,0:0:0:0:
192,192,214817,1,0,0:0:0:0:
64,192,214817,1,0,0:0:0:0:
448,192,214817,1,0,0:0:0:0:
192,192,214911,1,0,0:0:0:0:
320,192,214911,1,0,0:0:0:0:
192,192,215004,1,0,0:0:0:0:
64,192,215004,1,0,0:0:0:0:
448,192,215098,1,0,0:0:0:0:
320,192,215098,1,0,0:0:0:0:
64,192,215098,1,0,0:0:0:0:
448,192,215192,1,0,0:0:0:0:
192,192,215192,1,0,0:0:0:0:
448,192,215286,1,0,0:0:0:0:
64,192,215286,1,0,0:0:0:0:
192,192,215286,1,0,0:0:0:0:
64,192,215379,1,0,0:0:0:0:
192,192,215473,1,0,0:0:0:0:
448,192,215473,1,0,0:0:0:0:
320,192,215473,1,0,0:0:0:0:
192,192,215567,1,0,0:0:0:0:
64,192,215567,1,0,0:0:0:0:
192,192,215661,1,0,0:0:0:0:
320,192,215661,1,0,0:0:0:0:
448,192,215754,1,0,0:0:0:0:
64,192,215754,1,0,0:0:0:0:
320,192,215754,1,0,0:0:0:0:
448,192,215848,1,0,0:0:0:0:
192,192,215848,1,0,0:0:0:0:
448,192,215942,1,0,0:0:0:0:
64,192,215942,1,0,0:0:0:0:
320,192,216036,1,0,0:0:0:0:
64,192,216036,1,0,0:0:0:0:
192,192,216036,1,0,0:0:0:0:
320,192,216129,1,0,0:0:0:0:
448,192,216129,1,0,0:0:0:0:
320,192,216223,1,0,0:0:0:0:
192,192,216223,1,0,0:0:0:0:
64,192,216317,1,0,0:0:0:0:
192,192,216317,1,0,0:0:0:0:
448,192,216317,1,0,0:0:0:0:
64,192,216411,1,0,0:0:0:0:
320,192,216411,1,0,0:0:0:0:
64,192,216504,1,0,0:0:0:0:
448,192,216504,1,0,0:0:0:0:
192,192,216598,1,0,0:0:0:0:
448,192,216598,1,0,0:0:0:0:
320,192,216598,1,0,0:0:0:0:
192,192,216692,1,0,0:0:0:0:
320,192,216692,1,0,0:0:0:0:
192,192,216786,1,0,0:0:0:0:
448,192,216786,1,0,0:0:0:0:
64,192,216786,1,0,0:0:0:0:
448,192,216879,1,0,0:0:0:0:
320,192,216879,1,0,0:0:0:0:
448,192,216973,1,0,0:0:0:0:
192,192,216973,1,0,0:0:0:0:
64,192,217067,1,0,0:0:0:0:
320,192,217067,1,0,0:0:0:0:
192,192,217067,1,0,0:0:0:0:
64,192,217161,1,0,0:0:0:0:
448,192,217161,1,0,0:0:0:0:
64,192,217254,1,0,0:0:0:0:
192,192,217254,1,0,0:0:0:0:
448,192,217348,1,0,0:0:0:0:
320,192,217348,1,0,0:0:0:0:
192,192,217348,1,0,0:0:0:0:
448,192,217442,1,0,0:0:0:0:
64,192,217442,1,0,0:0:0:0:
448,192,217536,1,0,0:0:0:0:
320,192,217536,1,0,0:0:0:0:
192,192,217629,1,0,0:0:0:0:
64,192,217629,1,0,0:0:0:0:
320,192,217629,1,0,0:0:0:0:
192,192,217723,1,0,0:0:0:0:
64,192,217723,1,0,0:0:0:0:
192,192,217817,1,0,0:0:0:0:
448,192,217817,1,0,0:0:0:0:
320,192,217911,1,0,0:0:0:0:
448,192,217911,1,0,0:0:0:0:
64,192,217911,1,0,0:0:0:0:
320,192,218004,1,0,0:0:0:0:
64,192,218004,1,0,0:0:0:0:
192,192,218098,1,0,0:0:0:0:
320,192,218098,1,0,0:0:0:0:
448,192,218098,1,0,0:0:0:0:
192,192,218192,1,0,0:0:0:0:
448,192,218192,1,0,0:0:0:0:
448,192,218286,1,0,0:0:0:0:
320,192,218286,1,0,0:0:0:0:
64,192,218286,1,0,0:0:0:0:
320,192,218379,1,0,0:0:0:0:
192,192,218473,1,0,0:0:0:0:
448,192,218473,1,0,0:0:0:0:
64,192,218473,1,0,0:0:0:0:
192,192,218567,1,0,0:0:0:0:
320,192,218567,1,0,0:0:0:0:
192,192,218661,1,0,0:0:0:0:
448,192,218661,1,0,0:0:0:0:
320,192,218754,1,0,0:0:0:0:
448,192,218754,1,0,0:0:0:0:
64,192,218754,1,0,0:0:0:0:
320,192,218848,1,0,0:0:0:0:
64,192,218848,1,0,0:0:0:0:
320,192,218942,1,0,0:0:0:0:
192,192,218942,1,0,0:0:0:0:
64,192,219036,1,0,0:0:0:0:
448,192,219036,1,0,0:0:0:0:
192,192,219036,1,0,0:0:0:0:
64,192,219129,1,0,0:0:0:0:
448,192,219129,1,0,0:0:0:0:
64,192,219223,1,0,0:0:0:0:
320,192,219223,1,0,0:0:0:0:
448,192,219317,1,0,0:0:0:0:
192,192,219317,1,0,0:0:0:0:
320,192,219317,1,0,0:0:0:0:
448,192,219411,1,0,0:0:0:0:
64,192,219411,1,0,0:0:0:0:
448,192,219504,1,0,0:0:0:0:
320,192,219504,1,0,0:0:0:0:
192,192,219598,1,0,0:0:0:0:
64,192,219598,1,0,0:0:0:0:
320,192,219598,1,0,0:0:0:0:
192,192,219692,1,0,0:0:0:0:
448,192,219692,1,0,0:0:0:0:
320,192,219786,1,0,0:0:0:0:
192,192,219786,1,0,0:0:0:0:
64,192,219786,1,0,0:0:0:0:
320,192,219879,1,0,0:0:0:0:
64,192,219973,1,0,0:0:0:0:
448,192,219973,1,0,0:0:0:0:
192,192,219973,1,0,0:0:0:0:
64,192,220067,1,0,0:0:0:0:
320,192,220067,1,0,0:0:0:0:
64,192,220161,1,0,0:0:0:0:
192,192,220161,1,0,0:0:0:0:
448,192,220254,1,0,0:0:0:0:
320,192,220254,1,0,0:0:0:0:
192,192,220254,1,0,0:0:0:0:
448,192,220348,1,0,0:0:0:0:
64,192,220348,1,0,0:0:0:0:
448,192,220442,1,0,0:0:0:0:
320,192,220442,1,0,0:0:0:0:
192,192,220536,1,0,0:0:0:0:
320,192,220536,1,0,0:0:0:0:
64,192,220536,1,0,0:0:0:0:
192,192,220629,1,0,0:0:0:0:
448,192,220629,1,0,0:0:0:0:
192,192,220723,1,0,0:0:0:0:
64,192,220723,1,0,0:0:0:0:
320,192,220817,1,0,0:0:0:0:
448,192,220817,1,0,0:0:0:0:
64,192,220817,1,0,0:0:0:0:
320,192,220911,1,0,0:0:0:0:
192,192,220911,1,0,0:0:0:0:
320,192,221004,1,0,0:0:0:0:
448,192,221004,1,0,0:0:0:0:
64,192,221098,1,0,0:0:0:0:
192,192,221098,1,0,0:0:0:0:
448,192,221098,1,0,0:0:0:0:
64,192,221192,1,0,0:0:0:0:
320,192,221192,1,0,0:0:0:0:
64,192,221286,1,0,0:0:0:0:
448,192,221286,1,0,0:0:0:0:
320,192,221286,1,0,0:0:0:0:
448,192,221379,1,0,0:0:0:0:
64,192,221473,1,0,0:0:0:0:
192,192,221473,1,0,0:0:0:0:
320,192,221473,1,0,0:0:0:0:
64,192,221567,1,0,0:0:0:0:
448,192,221567,1,0,0:0:0:0:
64,192,221661,1,0,0:0:0:0:
320,192,221661,1,0,0:0:0:0:
448,192,221754,1,0,0:0:0:0:
192,192,221754,1,0,0:0:0:0:
320,192,221754,1,0,0:0:0:0:
448,192,221848,1,0,0:0:0:0:
192,192,221848,1,0,0:0:0:0:
448,192,221942,1,0,0:0:0:0:
64,192,221942,1,0,0:0:0:0:
192,192,222036,1,0,0:0:0:0:
320,192,222036,1,0,0:0:0:0:
64,192,222036,1,0,0:0:0:0:
192,192,222129,1,0,0:0:0:0:
448,192,222129,1,0,0:0:0:0:
192,192,222223,1,0,0:0:0:0:
64,192,222223,1,0,0:0:0:0:
320,192,222317,1,0,0:0:0:0:
448,192,222317,1,0,0:0:0:0:
64,192,222317,1,0,0:0:0:0:
320,192,222411,1,0,0:0:0:0:
192,192,222411,1,0,0:0:0:0:
320,192,222504,1,0,0:0:0:0:
448,192,222504,1,0,0:0:0:0:
64,192,222598,1,0,0:0:0:0:
192,192,222598,1,0,0:0:0:0:
448,192,222598,1,0,0:0:0:0:
64,192,222692,1,0,0:0:0:0:
320,192,222692,1,0,0:0:0:0:
64,192,222786,1,0,0:0:0:0:
448,192,222786,1,0,0:0:0:0:
192,192,222786,1,0,0:0:0:0:
320,192,222879,1,0,0:0:0:0:
320,192,222973,1,0,0:0:0:0:
192,192,222973,1,0,0:0:0:0:
448,192,223067,1,0,0:0:0:0:
64,192,223067,1,0,0:0:0:0:
192,192,223254,1,0,0:0:0:0:
448,192,223254,1,0,0:0:0:0:
64,192,223348,1,0,0:0:0:0:
320,192,223348,1,0,0:0:0:0:
448,192,223442,1,0,0:0:0:0:
448,192,223536,1,0,0:0:0:0:
64,192,223536,1,0,0:0:0:0:
192,192,223629,1,0,0:0:0:0:
320,192,223629,1,0,0:0:0:0:
64,192,223817,1,0,0:0:0:0:
192,192,223817,1,0,0:0:0:0:
320,192,223911,1,0,0:0:0:0:
448,192,223911,1,0,0:0:0:0:
448,192,224004,1,0,0:0:0:0:
448,192,224098,1,0,0:0:0:0:
64,192,224098,1,0,0:0:0:0:
64,192,224192,1,0,0:0:0:0:
320,192,224286,1,0,0:0:0:0:
192,192,224286,1,0,0:0:0:0:
448,192,224286,1,0,0:0:0:0:
448,192,224374,1,0,0:0:0:0:
320,192,224462,1,0,0:0:0:0:
192,192,224462,1,0,0:0:0:0:
64,192,224462,1,0,0:0:0:0:
192,192,224550,1,0,0:0:0:0:
320,192,224550,1,0,0:0:0:0:
448,192,224638,1,0,0:0:0:0:
192,192,224638,1,0,0:0:0:0:
448,192,224727,1,0,0:0:0:0:
320,192,224727,1,0,0:0:0:0:
64,192,224727,1,0,0:0:0:0:
320,192,224815,1,0,0:0:0:0:
320,192,224903,1,0,0:0:0:0:
192,192,224903,1,0,0:0:0:0:
448,192,224991,1,0,0:0:0:0:
192,192,224991,1,0,0:0:0:0:
64,192,224991,1,0,0:0:0:0:
64,192,225080,1,0,0:0:0:0:
448,192,225080,1,0,0:0:0:0:
320,192,225168,1,0,0:0:0:0:
64,192,225168,1,0,0:0:0:0:
448,192,225256,1,0,0:0:0:0:
320,192,225256,1,0,0:0:0:0:
192,192,225256,1,0,0:0:0:0:
448,192,225344,1,0,0:0:0:0:
448,192,225433,1,0,0:0:0:0:
320,192,225433,1,0,0:0:0:0:
320,192,225521,1,0,0:0:0:0:
192,192,225521,1,0,0:0:0:0:
64,192,225521,1,0,0:0:0:0:
192,192,225609,1,0,0:0:0:0:
320,192,225697,1,0,0:0:0:0:
192,192,225697,1,0,0:0:0:0:
64,192,225697,1,0,0:0:0:0:
320,192,225786,1,0,0:0:0:0:
448,192,225874,1,0,0:0:0:0:
192,192,225874,1,0,0:0:0:0:
64,192,225874,1,0,0:0:0:0:
64,192,225962,1,0,0:0:0:0:
448,192,225962,1,0,0:0:0:0:
64,192,226050,1,0,0:0:0:0:
192,192,226050,1,0,0:0:0:0:
448,192,226138,1,0,0:0:0:0:
320,192,226138,1,0,0:0:0:0:
192,192,226138,1,0,0:0:0:0:
64,192,226227,1,0,0:0:0:0:
448,192,226315,1,0,0:0:0:0:
192,192,226315,1,0,0:0:0:0:
320,192,226403,1,0,0:0:0:0:
192,192,226403,1,0,0:0:0:0:
64,192,226403,1,0,0:0:0:0:
320,192,226491,1,0,0:0:0:0:
448,192,226491,1,0,0:0:0:0:
320,192,226580,1,0,0:0:0:0:
64,192,226580,1,0,0:0:0:0:
448,192,226668,1,0,0:0:0:0:
192,192,226668,1,0,0:0:0:0:
64,192,226668,1,0,0:0:0:0:
320,192,226756,1,0,0:0:0:0:
448,192,226844,1,0,0:0:0:0:
192,192,226844,1,0,0:0:0:0:
448,192,226933,1,0,0:0:0:0:
320,192,226933,1,0,0:0:0:0:
64,192,226933,1,0,0:0:0:0:
192,192,227021,1,0,0:0:0:0:
64,192,227021,1,0,0:0:0:0:
64,192,227109,1,0,0:0:0:0:
448,192,227109,1,0,0:0:0:0:
192,192,227109,1,0,0:0:0:0:
448,192,227192,1,0,0:0:0:0:
320,192,227275,1,0,0:0:0:0:
64,192,227275,1,0,0:0:0:0:
192,192,227275,1,0,0:0:0:0:
320,192,227359,1,0,0:0:0:0:
448,192,227359,1,0,0:0:0:0:
320,192,227442,1,0,0:0:0:0:
192,192,227442,1,0,0:0:0:0:
64,192,227525,1,0,0:0:0:0:
192,192,227525,1,0,0:0:0:0:
448,192,227525,1,0,0:0:0:0:
320,192,227609,1,0,0:0:0:0:
64,192,227692,1,0,0:0:0:0:
448,192,227692,1,0,0:0:0:0:
192,192,227775,1,0,0:0:0:0:
320,192,227775,1,0,0:0:0:0:
448,192,227775,1,0,0:0:0:0:
192,192,227859,1,0,0:0:0:0:
64,192,227859,1,0,0:0:0:0:
192,192,227942,1,0,0:0:0:0:
320,192,227942,1,0,0:0:0:0:
64,192,228025,1,0,0:0:0:0:
320,192,228025,1,0,0:0:0:0:
448,192,228025,1,0,0:0:0:0:
192,192,228109,1,0,0:0:0:0:
448,192,228192,1,0,0:0:0:0:
64,192,228192,1,0,0:0:0:0:
64,192,228275,1,0,0:0:0:0:
192,192,228275,1,0,0:0:0:0:
320,192,228275,1,0,0:0:0:0:
320,192,228359,1,0,0:0:0:0:
320,192,228442,1,0,0:0:0:0:
448,192,228442,1,0,0:0:0:0:
64,192,228442,1,0,0:0:0:0:
64,192,228525,1,0,0:0:0:0:
192,192,228525,1,0,0:0:0:0:
64,192,228609,1,0,0:0:0:0:
320,192,228609,1,0,0:0:0:0:
192,192,228692,1,0,0:0:0:0:
320,192,228692,1,0,0:0:0:0:
448,192,228692,1,0,0:0:0:0:
64,192,228775,1,0,0:0:0:0:
320,192,228859,1,0,0:0:0:0:
448,192,228859,1,0,0:0:0:0:
320,192,228942,1,0,0:0:0:0:
192,192,228942,1,0,0:0:0:0:
64,192,228942,1,0,0:0:0:0:
64,192,229025,1,0,0:0:0:0:
448,192,229025,1,0,0:0:0:0:
64,192,229109,1,0,0:0:0:0:
192,192,229109,1,0,0:0:0:0:
320,192,229192,1,0,0:0:0:0:
448,192,229192,1,0,0:0:0:0:
192,192,229192,1,0,0:0:0:0:
64,192,229275,1,0,0:0:0:0:
320,192,229359,1,0,0:0:0:0:
448,192,229359,1,0,0:0:0:0:
64,192,229442,1,0,0:0:0:0:
192,192,229442,1,0,0:0:0:0:
448,192,229442,1,0,0:0:0:0:
192,192,229525,1,0,0:0:0:0:
64,192,229609,1,0,0:0:0:0:
192,192,229609,1,0,0:0:0:0:
320,192,229609,1,0,0:0:0:0:
320,192,229692,1,0,0:0:0:0:
64,192,229775,1,0,0:0:0:0:
192,192,229775,1,0,0:0:0:0:
448,192,229775,1,0,0:0:0:0:
192,192,229853,1,0,0:0:0:0:
64,192,229932,1,0,0:0:0:0:
320,192,229932,1,0,0:0:0:0:
448,192,229932,1,0,0:0:0:0:
320,192,230011,1,0,0:0:0:0:
320,192,230090,1,0,0:0:0:0:
64,192,230090,1,0,0:0:0:0:
64,192,230169,1,0,0:0:0:0:
192,192,230169,1,0,0:0:0:0:
448,192,230169,1,0,0:0:0:0:
320,192,230248,1,0,0:0:0:0:
192,192,230327,1,0,0:0:0:0:
64,192,230327,1,0,0:0:0:0:
64,192,230406,1,0,0:0:0:0:
320,192,230406,1,0,0:0:0:0:
448,192,230406,1,0,0:0:0:0:
448,192,230485,1,0,0:0:0:0:
192,192,230564,1,0,0:0:0:0:
448,192,230564,1,0,0:0:0:0:
64,192,230643,1,0,0:0:0:0:
192,192,230643,1,0,0:0:0:0:
320,192,230643,1,0,0:0:0:0:
448,192,230722,1,0,0:0:0:0:
64,192,230801,1,0,0:0:0:0:
320,192,230801,1,0,0:0:0:0:
192,192,230880,1,0,0:0:0:0:
320,192,230880,1,0,0:0:0:0:
448,192,230880,1,0,0:0:0:0:
192,192,230959,1,0,0:0:0:0:
192,192,231038,1,0,0:0:0:0:
320,192,231038,1,0,0:0:0:0:
448,192,231038,1,0,0:0:0:0:
320,192,231117,1,0,0:0:0:0:
192,192,231196,1,0,0:0:0:0:
64,192,231196,1,0,0:0:0:0:
448,192,231196,1,0,0:0:0:0:
448,192,231275,1,0,0:0:0:0:
320,192,231353,1,0,0:0:0:0:
448,192,231353,1,0,0:0:0:0:
64,192,231432,1,0,0:0:0:0:
192,192,231432,1,0,0:0:0:0:
320,192,231432,1,0,0:0:0:0:
448,192,231511,1,0,0:0:0:0:
64,192,231590,1,0,0:0:0:0:
192,192,231590,1,0,0:0:0:0:
192,192,231669,1,0,0:0:0:0:
320,192,231669,1,0,0:0:0:0:
448,192,231669,1,0,0:0:0:0:
320,192,231748,1,0,0:0:0:0:
320,192,231827,1,0,0:0:0:0:
448,192,231827,1,0,0:0:0:0:
192,192,231906,1,0,0:0:0:0:
64,192,231906,1,0,0:0:0:0:
448,192,231906,1,0,0:0:0:0:
320,192,231985,1,0,0:0:0:0:
192,192,232064,1,0,0:0:0:0:
448,192,232064,1,0,0:0:0:0:
64,192,232143,1,0,0:0:0:0:
320,192,232143,1,0,0:0:0:0:
448,192,232143,1,0,0:0:0:0:
64,192,232222,1,0,0:0:0:0:
448,192,232301,1,0,0:0:0:0:
192,192,232301,1,0,0:0:0:0:
64,192,232301,1,0,0:0:0:0:
192,192,232376,1,0,0:0:0:0:
64,192,232451,1,0,0:0:0:0:
320,192,232451,1,0,0:0:0:0:
448,192,232451,1,0,0:0:0:0:
448,192,232526,1,0,0:0:0:0:
192,192,232601,1,0,0:0:0:0:
320,192,232676,1,0,0:0:0:0:
192,192,232676,1,0,0:0:0:0:
64,192,232676,1,0,0:0:0:0:
64,192,232751,1,0,0:0:0:0:
320,192,232751,1,0,0:0:0:0:
448,192,232826,1,0,0:0:0:0:
320,192,232901,5,0,0:0:0:0:
192,192,232901,1,0,0:0:0:0:
448,192,232901,1,0,0:0:0:0:
320,192,232976,1,0,0:0:0:0:
448,192,233051,1,0,0:0:0:0:
192,192,233126,5,0,0:0:0:0:
64,192,233126,1,0,0:0:0:0:
448,192,233126,1,0,0:0:0:0:
192,192,233201,1,0,0:0:0:0:
64,192,233276,1,0,0:0:0:0:
448,192,233351,5,0,0:0:0:0:
64,192,233351,1,0,0:0:0:0:
320,192,233351,1,0,0:0:0:0:
192,192,233426,1,0,0:0:0:0:
448,192,233426,1,0,0:0:0:0:
320,192,233501,1,0,0:0:0:0:
192,192,233551,5,0,0:0:0:0:
64,192,233601,1,0,0:0:0:0:
448,192,233651,1,0,0:0:0:0:
192,192,233701,1,0,0:0:0:0:
320,192,233751,1,0,0:0:0:0:
448,192,233801,1,0,0:0:0:0:
64,192,233843,1,0,0:0:0:0:
320,192,233886,1,0,0:0:0:0:
192,192,233929,1,0,0:0:0:0:
448,192,233972,1,0,0:0:0:0:
320,192,234015,1,0,0:0:0:0:
64,192,234058,1,0,0:0:0:0:
448,192,234101,1,0,0:0:0:0:
320,192,234143,1,0,0:0:0:0:
192,192,234186,1,0,0:0:0:0:
64,192,234229,1,0,0:0:0:0:
320,192,234272,1,0,0:0:0:0:
192,192,234315,1,0,0:0:0:0:
448,192,234358,1,0,0:0:0:0:
64,192,234401,1,0,0:0:0:0:
192,192,234438,1,0,0:0:0:0:
320,192,234476,1,0,0:0:0:0:
448,192,234513,1,0,0:0:0:0:
64,192,234551,1,0,0:0:0:0:
192,192,234588,1,0,0:0:0:0:
320,192,234626,1,0,0:0:0:0:
448,192,234663,1,0,0:0:0:0:
192,192,234701,128,0,234986:0:0:0:0:
64,192,234701,128,0,234915:0:0:0:0:
320,192,234701,128,0,234843:0:0:0:0:
448,192,234843,1,0,0:0:0:0:
448,192,234986,1,0,0:0:0:0:
64,192,234986,1,0,0:0:0:0:
192,192,235081,1,0,0:0:0:0:
320,192,235129,1,0,0:0:0:0:
448,192,235177,1,0,0:0:0:0:
192,192,235236,1,0,0:0:0:0:
320,192,235272,1,0,0:0:0:0:
64,192,235308,1,0,0:0:0:0:
448,192,235343,1,0,0:0:0:0:
320,192,235379,1,0,0:0:0:0:
192,192,235415,1,0,0:0:0:0:
448,192,235451,1,0,0:0:0:0:
64,192,235486,1,0,0:0:0:0:
320,192,235522,1,0,0:0:0:0:
192,192,235558,1,0,0:0:0:0:
448,192,235593,1,0,0:0:0:0:
64,192,235629,1,0,0:0:0:0:
320,192,235665,1,0,0:0:0:0:
192,192,235701,1,0,0:0:0:0:
64,192,235736,1,0,0:0:0:0:
448,192,235772,1,0,0:0:0:0:
320,192,235808,5,0,0:0:0:0:
192,192,235843,1,0,0:0:0:0:
64,192,235843,1,0,0:0:0:0:
64,192,235915,1,0,0:0:0:0:
448,192,235986,1,0,0:0:0:0:
192,192,235986,1,0,0:0:0:0:
320,192,236058,1,0,0:0:0:0:
448,192,236058,1,0,0:0:0:0:
192,192,236129,1,0,0:0:0:0:
64,192,236129,1,0,0:0:0:0:
192,192,236201,1,0,0:0:0:0:
320,192,236272,1,0,0:0:0:0:
320,192,236343,1,0,0:0:0:0:
64,192,236415,1,0,0:0:0:0:
448,192,236415,1,0,0:0:0:0:
192,192,236415,1,0,0:0:0:0:
64,192,236486,1,0,0:0:0:0:
320,192,236558,1,0,0:0:0:0:
192,192,236558,1,0,0:0:0:0:
320,192,236629,1,0,0:0:0:0:
192,192,236701,1,0,0:0:0:0:
64,192,236701,1,0,0:0:0:0:
192,192,236772,1,0,0:0:0:0:
448,192,236843,1,0,0:0:0:0:
320,192,236843,1,0,0:0:0:0:
448,192,236915,1,0,0:0:0:0:
320,192,236986,128,0,237129:0:0:0:0:
192,192,236986,128,0,237201:0:0:0:0:
64,192,237129,1,0,0:0:0:0:
320,192,237201,1,0,0:0:0:0:
64,192,237272,1,0,0:0:0:0:
448,192,237272,1,0,0:0:0:0:
320,192,237367,1,0,0:0:0:0:
192,192,237415,1,0,0:0:0:0:
64,192,237462,1,0,0:0:0:0:
320,192,237522,1,0,0:0:0:0:
192,192,237558,1,0,0:0:0:0:
448,192,237593,1,0,0:0:0:0:
64,192,237629,1,0,0:0:0:0:
192,192,237665,1,0,0:0:0:0:
320,192,237701,1,0,0:0:0:0:
64,192,237736,1,0,0:0:0:0:
448,192,237772,1,0,0:0:0:0:
192,192,237808,1,0,0:0:0:0:
320,192,237843,1,0,0:0:0:0:
64,192,237879,1,0,0:0:0:0:
448,192,237915,1,0,0:0:0:0:
192,192,237951,1,0,0:0:0:0:
320,192,237986,1,0,0:0:0:0:
448,192,238022,1,0,0:0:0:0:
64,192,238058,1,0,0:0:0:0:
192,192,238093,1,0,0:0:0:0:
320,192,238129,1,0,0:0:0:0:
448,192,238129,1,0,0:0:0:0:
448,192,238201,1,0,0:0:0:0:
64,192,238272,1,0,0:0:0:0:
320,192,238272,1,0,0:0:0:0:
64,192,238343,1,0,0:0:0:0:
192,192,238343,1,0,0:0:0:0:
320,192,238415,1,0,0:0:0:0:
448,192,238415,1,0,0:0:0:0:
320,192,238486,1,0,0:0:0:0:
192,192,238558,1,0,0:0:0:0:
64,192,238558,1,0,0:0:0:0:
192,192,238629,1,0,0:0:0:0:
448,192,238701,1,0,0:0:0:0:
320,192,238701,1,0,0:0:0:0:
64,192,238701,1,0,0:0:0:0:
320,192,238772,1,0,0:0:0:0:
192,192,238843,1,0,0:0:0:0:
192,192,238915,1,0,0:0:0:0:
448,192,238986,1,0,0:0:0:0:
64,192,238986,1,0,0:0:0:0:
448,192,239058,1,0,0:0:0:0:
192,192,239058,1,0,0:0:0:0:
64,192,239129,1,0,0:0:0:0:
320,192,239129,1,0,0:0:0:0:
320,192,239201,1,0,0:0:0:0:
448,192,239272,128,0,239486:0:0:0:0:
192,192,239272,128,0,239415:0:0:0:0:
64,192,239415,1,0,0:0:0:0:
320,192,239486,1,0,0:0:0:0:
64,192,239558,1,0,0:0:0:0:
448,192,239558,1,0,0:0:0:0:
320,192,239653,1,0,0:0:0:0:
192,192,239701,1,0,0:0:0:0:
64,192,239748,1,0,0:0:0:0:
320,192,239808,1,0,0:0:0:0:
192,192,239843,1,0,0:0:0:0:
448,192,239879,1,0,0:0:0:0:
64,192,239915,1,0,0:0:0:0:
192,192,239951,1,0,0:0:0:0:
320,192,239986,1,0,0:0:0:0:
64,192,240022,1,0,0:0:0:0:
448,192,240058,1,0,0:0:0:0:
192,192,240093,1,0,0:0:0:0:
320,192,240129,1,0,0:0:0:0:
64,192,240165,1,0,0:0:0:0:
448,192,240201,1,0,0:0:0:0:
192,192,240236,1,0,0:0:0:0:
320,192,240272,1,0,0:0:0:0:
448,192,240308,1,0,0:0:0:0:
64,192,240343,1,0,0:0:0:0:
192,192,240379,1,0,0:0:0:0:
320,192,240415,1,0,0:0:0:0:
448,192,240415,1,0,0:0:0:0:
448,192,240486,1,0,0:0:0:0:
64,192,240558,1,0,0:0:0:0:
320,192,240558,1,0,0:0:0:0:
64,192,240629,1,0,0:0:0:0:
192,192,240629,1,0,0:0:0:0:
320,192,240701,1,0,0:0:0:0:
448,192,240701,1,0,0:0:0:0:
320,192,240772,1,0,0:0:0:0:
192,192,240843,1,0,0:0:0:0:
192,192,240915,1,0,0:0:0:0:
448,192,240986,1,0,0:0:0:0:
64,192,240986,1,0,0:0:0:0:
320,192,240986,1,0,0:0:0:0:
448,192,241058,1,0,0:0:0:0:
192,192,241129,1,0,0:0:0:0:
320,192,241129,1,0,0:0:0:0:
192,192,241201,1,0,0:0:0:0:
320,192,241272,1,0,0:0:0:0:
64,192,241272,1,0,0:0:0:0:
320,192,241343,1,0,0:0:0:0:
64,192,241415,1,0,0:0:0:0:
192,192,241415,1,0,0:0:0:0:
64,192,241486,1,0,0:0:0:0:
448,192,241558,128,0,241772:0:0:0:0:
192,192,241558,128,0,241701:0:0:0:0:
320,192,241701,1,0,0:0:0:0:
192,192,241772,1,0,0:0:0:0:
448,192,241843,1,0,0:0:0:0:
64,192,241843,1,0,0:0:0:0:
192,192,241939,1,0,0:0:0:0:
320,192,241986,1,0,0:0:0:0:
448,192,242034,1,0,0:0:0:0:
192,192,242093,1,0,0:0:0:0:
320,192,242129,1,0,0:0:0:0:
64,192,242165,1,0,0:0:0:0:
448,192,242201,1,0,0:0:0:0:
320,192,242236,1,0,0:0:0:0:
192,192,242272,1,0,0:0:0:0:
448,192,242308,1,0,0:0:0:0:
64,192,242343,1,0,0:0:0:0:
320,192,242379,1,0,0:0:0:0:
192,192,242415,1,0,0:0:0:0:
448,192,242451,1,0,0:0:0:0:
64,192,242486,1,0,0:0:0:0:
320,192,242522,1,0,0:0:0:0:
192,192,242558,1,0,0:0:0:0:
64,192,242593,1,0,0:0:0:0:
320,192,242629,1,0,0:0:0:0:
192,192,242665,1,0,0:0:0:0:
64,192,242701,1,0,0:0:0:0:
448,192,242701,1,0,0:0:0:0:
448,192,242772,1,0,0:0:0:0:
192,192,242843,1,0,0:0:0:0:
320,192,242843,1,0,0:0:0:0:
192,192,242915,1,0,0:0:0:0:
64,192,242915,1,0,0:0:0:0:
320,192,242986,1,0,0:0:0:0:
448,192,242986,1,0,0:0:0:0:
320,192,243058,1,0,0:0:0:0:
64,192,243129,1,0,0:0:0:0:
448,192,243129,1,0,0:0:0:0:
64,192,243201,1,0,0:0:0:0:
448,192,243272,128,0,243320:0:0:0:0:
320,192,243320,128,0,243367:0:0:0:0:
64,192,243367,128,0,243415:0:0:0:0:
192,192,243415,128,0,243462:0:0:0:0:
64,192,243462,128,0,243510:0:0:0:0:
448,192,243510,128,0,243558:0:0:0:0:
320,192,243558,128,0,243605:0:0:0:0:
448,192,243605,128,0,243653:0:0:0:0:
192,192,243653,128,0,243701:0:0:0:0:
64,192,243701,128,0,243748:0:0:0:0:
320,192,243748,128,0,243796:0:0:0:0:
192,192,243796,128,0,243843:0:0:0:0:
320,192,243843,1,0,0:0:0:0:
64,192,243843,128,0,243915:0:0:0:0:
448,192,243843,128,0,243915:0:0:0:0:
320,192,243915,128,0,244201:0:0:0:0:
448,192,243986,128,0,244201:0:0:0:0:
64,192,243986,128,0,244201:0:0:0:0:
192,192,244272,1,0,0:0:0:0:
64,192,244272,128,0,244343:0:0:0:0:
448,192,244272,128,0,244343:0:0:0:0:
192,192,244343,128,0,244629:0:0:0:0:
64,192,244415,128,0,244629:0:0:0:0:
448,192,244415,128,0,244629:0:0:0:0:
320,192,244701,1,0,0:0:0:0:
64,192,244701,128,0,244772:0:0:0:0:
448,192,244701,128,0,244772:0:0:0:0:
320,192,244772,128,0,245058:0:0:0:0:
64,192,244843,128,0,245058:0:0:0:0:
448,192,244843,128,0,245058:0:0:0:0:
64,192,245129,1,0,0:0:0:0:
192,192,245129,128,0,245201:0:0:0:0:
320,192,245129,128,0,245201:0:0:0:0:
64,192,245201,128,0,245415:0:0:0:0:
192,192,245272,128,0,245415:0:0:0:0:
320,192,245272,128,0,245343:0:0:0:0:
320,192,245415,1,0,0:0:0:0:
448,192,245415,1,0,0:0:0:0:
448,192,245486,1,0,0:0:0:0:
320,192,245558,1,0,0:0:0:0:
64,192,245558,1,0,0:0:0:0:
64,192,245629,1,0,0:0:0:0:
192,192,245701,1,0,0:0:0:0:
448,192,245772,1,0,0:0:0:0:
320,192,245843,1,0,0:0:0:0:
192,192,245843,1,0,0:0:0:0:
192,192,245915,1,0,0:0:0:0:
64,192,245986,1,0,0:0:0:0:
64,192,246058,1,0,0:0:0:0:
320,192,246129,1,0,0:0:0:0:
192,192,246129,128,0,246201:0:0:0:0:
448,192,246129,128,0,246201:0:0:0:0:
320,192,246201,128,0,246486:0:0:0:0:
192,192,246272,128,0,246486:0:0:0:0:
448,192,246272,128,0,246486:0:0:0:0:
192,192,246558,1,0,0:0:0:0:
64,192,246558,128,0,246629:0:0:0:0:
320,192,246558,128,0,246629:0:0:0:0:
192,192,246629,128,0,246915:0:0:0:0:
64,192,246701,128,0,246915:0:0:0:0:
320,192,246701,128,0,246915:0:0:0:0:
320,192,246986,1,0,0:0:0:0:
192,192,246986,128,0,247058:0:0:0:0:
448,192,246986,128,0,247058:0:0:0:0:
320,192,247058,128,0,247343:0:0:0:0:
192,192,247129,128,0,247343:0:0:0:0:
448,192,247129,128,0,247343:0:0:0:0:
192,192,247415,1,0,0:0:0:0:
64,192,247415,128,0,247486:0:0:0:0:
448,192,247415,128,0,247486:0:0:0:0:
192,192,247486,128,0,247558:0:0:0:0:
64,192,247558,1,0,0:0:0:0:
448,192,247558,1,0,0:0:0:0:
320,192,247629,1,0,0:0:0:0:
192,192,247701,1,0,0:0:0:0:
192,192,247772,1,0,0:0:0:0:
448,192,247843,1,0,0:0:0:0:
320,192,247843,1,0,0:0:0:0:
64,192,247879,1,0,0:0:0:0:
192,192,247915,1,0,0:0:0:0:
320,192,247915,1,0,0:0:0:0:
64,192,247986,1,0,0:0:0:0:
192,192,247986,1,0,0:0:0:0:
320,192,248058,1,0,0:0:0:0:
64,192,248129,1,0,0:0:0:0:
192,192,248129,1,0,0:0:0:0:
64,192,248201,1,0,0:0:0:0:
448,192,248272,1,0,0:0:0:0:
320,192,248272,1,0,0:0:0:0:
320,192,248343,1,0,0:0:0:0:
64,192,248415,1,0,0:0:0:0:
192,192,248415,128,0,248486:0:0:0:0:
448,192,248415,128,0,248486:0:0:0:0:
64,192,248486,128,0,248772:0:0:0:0:
448,192,248558,128,0,248772:0:0:0:0:
192,192,248558,128,0,248772:0:0:0:0:
448,192,248843,1,0,0:0:0:0:
64,192,248843,128,0,248915:0:0:0:0:
320,192,248843,128,0,248915:0:0:0:0:
448,192,248915,128,0,249201:0:0:0:0:
320,192,248986,128,0,249201:0:0:0:0:
64,192,248986,128,0,249201:0:0:0:0:
64,192,249272,1,0,0:0:0:0:
192,192,249272,128,0,249343:0:0:0:0:
448,192,249272,128,0,249343:0:0:0:0:
64,192,249343,128,0,249629:0:0:0:0:
192,192,249415,128,0,249629:0:0:0:0:
448,192,249415,128,0,249629:0:0:0:0:
192,192,249701,1,0,0:0:0:0:
320,192,249701,128,0,249772:0:0:0:0:
448,192,249701,128,0,249772:0:0:0:0:
192,192,249772,128,0,249915:0:0:0:0:
320,192,249843,128,0,249986:0:0:0:0:
448,192,249843,128,0,249986:0:0:0:0:
64,192,249986,1,0,0:0:0:0:
192,192,249986,1,0,0:0:0:0:
64,192,250058,1,0,0:0:0:0:
448,192,250129,1,0,0:0:0:0:
192,192,250129,1,0,0:0:0:0:
448,192,250201,1,0,0:0:0:0:
320,192,250272,1,0,0:0:0:0:
64,192,250343,1,0,0:0:0:0:
320,192,250415,1,0,0:0:0:0:
192,192,250415,1,0,0:0:0:0:
320,192,250486,1,0,0:0:0:0:
448,192,250558,1,0,0:0:0:0:
448,192,250629,1,0,0:0:0:0:
320,192,250701,1,0,0:0:0:0:
64,192,250701,128,0,250772:0:0:0:0:
192,192,250701,128,0,250772:0:0:0:0:
320,192,250772,128,0,251058:0:0:0:0:
192,192,250843,128,0,251058:0:0:0:0:
64,192,250843,128,0,251058:0:0:0:0:
192,192,251129,1,0,0:0:0:0:
320,192,251129,128,0,251201:0:0:0:0:
448,192,251129,128,0,251201:0:0:0:0:
192,192,251201,128,0,251486:0:0:0:0:
320,192,251272,128,0,251486:0:0:0:0:
448,192,251272,128,0,251486:0:0:0:0:
320,192,251558,1,0,0:0:0:0:
64,192,251558,128,0,251629:0:0:0:0:
192,192,251558,128,0,251629:0:0:0:0:
320,192,251629,128,0,251915:0:0:0:0:
192,192,251701,128,0,251915:0:0:0:0:
64,192,251701,128,0,251915:0:0:0:0:
64,192,251986,1,0,0:0:0:0:
320,192,251986,128,0,252058:0:0:0:0:
448,192,251986,128,0,252058:0:0:0:0:
64,192,252058,128,0,252201:0:0:0:0:
320,192,252129,128,0,252201:0:0:0:0:
448,192,252129,128,0,252201:0:0:0:0:
64,192,252272,1,0,0:0:0:0:
192,192,252272,1,0,0:0:0:0:
320,192,252343,1,0,0:0:0:0:
448,192,252415,1,0,0:0:0:0:
192,192,252415,1,0,0:0:0:0:
320,192,252451,1,0,0:0:0:0:
192,192,252486,1,0,0:0:0:0:
448,192,252558,1,0,0:0:0:0:
64,192,252558,1,0,0:0:0:0:
448,192,252629,1,0,0:0:0:0:
320,192,252629,1,0,0:0:0:0:
192,192,252701,1,0,0:0:0:0:
64,192,252701,1,0,0:0:0:0:
192,192,252772,1,0,0:0:0:0:
448,192,252772,1,0,0:0:0:0:
64,192,252843,1,0,0:0:0:0:
320,192,252843,1,0,0:0:0:0:
192,192,252915,1,0,0:0:0:0:
448,192,252986,128,0,253129:0:0:0:0:
64,192,252986,1,0,0:0:0:0:
320,192,252986,1,0,0:0:0:0:
64,192,253058,128,0,253272:0:0:0:0:
192,192,253129,128,0,253272:0:0:0:0:
320,192,253201,128,0,253272:0:0:0:0:
448,192,253201,1,0,0:0:0:0:
448,192,253272,128,0,253415:0:0:0:0:
320,192,253343,128,0,253415:0:0:0:0:
64,192,253415,128,0,253486:0:0:0:0:
192,192,253415,1,0,0:0:0:0:
192,192,253486,128,0,253558:0:0:0:0:
448,192,253558,1,0,0:0:0:0:
320,192,253558,1,0,0:0:0:0:
64,192,253558,128,0,253701:0:0:0:0:
448,192,253629,128,0,253843:0:0:0:0:
320,192,253701,128,0,253843:0:0:0:0:
64,192,253772,1,0,0:0:0:0:
192,192,253772,128,0,253843:0:0:0:0:
64,192,253843,128,0,253986:0:0:0:0:
192,192,253915,128,0,253986:0:0:0:0:
320,192,253986,1,0,0:0:0:0:
448,192,253986,128,0,254058:0:0:0:0:
320,192,254058,128,0,254129:0:0:0:0:
64,192,254129,1,0,0:0:0:0:
448,192,254129,128,0,254272:0:0:0:0:
192,192,254129,1,0,0:0:0:0:
64,192,254201,128,0,254415:0:0:0:0:
192,192,254272,128,0,254415:0:0:0:0:
448,192,254343,1,0,0:0:0:0:
320,192,254343,128,0,254415:0:0:0:0:
448,192,254415,128,0,254558:0:0:0:0:
320,192,254486,128,0,254558:0:0:0:0:
192,192,254558,1,0,0:0:0:0:
64,192,254558,128,0,254629:0:0:0:0:
192,192,254629,128,0,254701:0:0:0:0:
320,192,254701,128,0,254843:0:0:0:0:
448,192,254701,128,0,254796:0:0:0:0:
192,192,254843,1,0,0:0:0:0:
320,192,254891,1,0,0:0:0:0:
448,192,254939,1,0,0:0:0:0:
64,192,254986,128,0,255129:0:0:0:0:
192,192,254986,128,0,255081:0:0:0:0:
192,192,255129,1,0,0:0:0:0:
64,192,255177,1,0,0:0:0:0:
448,192,255224,1,0,0:0:0:0:
320,192,255272,128,0,255415:0:0:0:0:
192,192,255272,1,0,0:0:0:0:
64,192,255272,1,0,0:0:0:0:
192,192,255343,128,0,255558:0:0:0:0:
64,192,255415,128,0,255558:0:0:0:0:
448,192,255486,128,0,255558:0:0:0:0:
320,192,255486,1,0,0:0:0:0:
320,192,255558,128,0,255701:0:0:0:0:
448,192,255629,128,0,255701:0:0:0:0:
192,192,255701,128,0,255772:0:0:0:0:
64,192,255701,1,0,0:0:0:0:
64,192,255772,128,0,255843:0:0:0:0:
320,192,255843,1,0,0:0:0:0:
448,192,255843,1,0,0:0:0:0:
192,192,255843,128,0,255986:0:0:0:0:
320,192,255915,128,0,256129:0:0:0:0:
448,192,255986,128,0,256129:0:0:0:0:
192,192,256058,1,0,0:0:0:0:
64,192,256058,128,0,256129:0:0:0:0:
192,192,256129,128,0,256272:0:0:0:0:
64,192,256201,128,0,256272:0:0:0:0:
448,192,256272,1,0,0:0:0:0:
320,192,256272,128,0,256343:0:0:0:0:
448,192,256343,128,0,256415:0:0:0:0:
192,192,256415,1,0,0:0:0:0:
320,192,256415,128,0,256558:0:0:0:0:
64,192,256415,1,0,0:0:0:0:
192,192,256486,128,0,256701:0:0:0:0:
64,192,256558,128,0,256701:0:0:0:0:
320,192,256629,1,0,0:0:0:0:
448,192,256629,128,0,256701:0:0:0:0:
320,192,256701,128,0,256843:0:0:0:0:
448,192,256772,128,0,256843:0:0:0:0:
64,192,256843,1,0,0:0:0:0:
192,192,256843,128,0,256915:0:0:0:0:
64,192,256915,128,0,256986:0:0:0:0:
320,192,256986,1,0,0:0:0:0:
448,192,256986,1,0,0:0:0:0:
192,192,257034,1,0,0:0:0:0:
64,192,257081,1,0,0:0:0:0:
448,192,257129,1,0,0:0:0:0:
320,192,257165,1,0,0:0:0:0:
192,192,257201,1,0,0:0:0:0:
64,192,257236,1,0,0:0:0:0:
448,192,257272,1,0,0:0:0:0:
320,192,257272,1,0,0:0:0:0:
192,192,257320,1,0,0:0:0:0:
448,192,257367,1,0,0:0:0:0:
320,192,257415,1,0,0:0:0:0:
64,192,257451,1,0,0:0:0:0:
192,192,257486,1,0,0:0:0:0:
320,192,257522,1,0,0:0:0:0:
64,192,257558,128,0,257701:0:0:0:0:
448,192,257558,1,0,0:0:0:0:
448,192,257629,128,0,257843:0:0:0:0:
320,192,257701,128,0,257843:0:0:0:0:
192,192,257772,128,0,257843:0:0:0:0:
64,192,257772,1,0,0:0:0:0:
64,192,257843,128,0,257986:0:0:0:0:
192,192,257915,128,0,257986:0:0:0:0:
448,192,257986,128,0,258058:0:0:0:0:
320,192,257986,1,0,0:0:0:0:
320,192,258058,128,0,258129:0:0:0:0:
64,192,258129,1,0,0:0:0:0:
192,192,258129,1,0,0:0:0:0:
448,192,258129,128,0,258272:0:0:0:0:
64,192,258201,128,0,258415:0:0:0:0:
192,192,258272,128,0,258415:0:0:0:0:
448,192,258343,1,0,0:0:0:0:
320,192,258343,128,0,258415:0:0:0:0:
448,192,258415,128,0,258558:0:0:0:0:
320,192,258486,128,0,258558:0:0:0:0:
192,192,258558,1,0,0:0:0:0:
64,192,258558,128,0,258629:0:0:0:0:
192,192,258629,128,0,258701:0:0:0:0:
448,192,258701,1,0,0:0:0:0:
64,192,258701,128,0,258843:0:0:0:0:
320,192,258701,1,0,0:0:0:0:
448,192,258772,128,0,258986:0:0:0:0:
320,192,258843,128,0,258986:0:0:0:0:
64,192,258915,1,0,0:0:0:0:
192,192,258915,128,0,258986:0:0:0:0:
64,192,258986,128,0,259129:0:0:0:0:
192,192,259058,128,0,259129:0:0:0:0:
320,192,259129,1,0,0:0:0:0:
448,192,259129,128,0,259201:0:0:0:0:
320,192,259201,128,0,259272:0:0:0:0:
64,192,259272,128,0,259320:0:0:0:0:
448,192,259320,128,0,259367:0:0:0:0:
64,192,259367,128,0,259415:0:0:0:0:
448,192,259415,128,0,259558:0:0:0:0:
64,192,259462,128,0,259701:0:0:0:0:
320,192,259510,128,0,259605:0:0:0:0:
192,192,259558,128,0,259653:0:0:0:0:
448,192,259605,128,0,259701:0:0:0:0:
320,192,259653,128,0,259748:0:0:0:0:
192,192,259701,128,0,259796:0:0:0:0:
64,192,259748,128,0,259843:0:0:0:0:
448,192,259796,1,0,0:0:0:0:
320,192,259843,1,0,0:0:0:0:
192,192,259843,128,0,259986:0:0:0:0:
320,192,259915,128,0,260129:0:0:0:0:
448,192,259986,128,0,260129:0:0:0:0:
64,192,260058,128,0,260129:0:0:0:0:
192,192,260058,1,0,0:0:0:0:
192,192,260129,128,0,260272:0:0:0:0:
64,192,260201,128,0,260272:0:0:0:0:
320,192,260272,128,0,260343:0:0:0:0:
448,192,260272,1,0,0:0:0:0:
448,192,260343,128,0,260415:0:0:0:0:
192,192,260415,1,0,0:0:0:0:
64,192,260415,1,0,0:0:0:0:
320,192,260415,128,0,260558:0:0:0:0:
192,192,260486,128,0,260701:0:0:0:0:
64,192,260558,128,0,260701:0:0:0:0:
320,192,260629,1,0,0:0:0:0:
448,192,260629,128,0,260701:0:0:0:0:
320,192,260701,128,0,260843:0:0:0:0:
448,192,260772,128,0,260843:0:0:0:0:
64,192,260843,1,0,0:0:0:0:
192,192,260843,128,0,260915:0:0:0:0:
64,192,260915,128,0,260986:0:0:0:0:
320,192,260986,1,0,0:0:0:0:
448,192,260986,128,0,261081:0:0:0:0:
192,192,261081,1,0,0:0:0:0:
320,192,261081,128,0,261177:0:0:0:0:
64,192,261177,1,0,0:0:0:0:
192,192,261177,128,0,261272:0:0:0:0:
64,192,261272,1,0,0:0:0:0:
448,192,261272,128,0,261367:0:0:0:0:
192,192,261367,1,0,0:0:0:0:
64,192,261367,128,0,261462:0:0:0:0:
320,192,261462,1,0,0:0:0:0:
192,192,261462,128,0,261558:0:0:0:0:
448,192,261558,1,0,0:0:0:0:
320,192,261558,128,0,261653:0:0:0:0:
192,192,261605,128,0,261701:0:0:0:0:
448,192,261653,128,0,261748:0:0:0:0:
64,192,261701,128,0,261748:0:0:0:0:
320,192,261748,128,0,261843:0:0:0:0:
64,192,261796,128,0,261891:0:0:0:0:
448,192,261843,128,0,261891:0:0:0:0:
192,192,261891,128,0,261986:0:0:0:0:
448,192,261939,128,0,262034:0:0:0:0:
64,192,261986,128,0,262081:0:0:0:0:
320,192,262034,128,0,262081:0:0:0:0:
192,192,262081,128,0,262129:0:0:0:0:
64,192,262129,128,0,262272:0:0:0:0:
320,192,262129,128,0,262272:0:0:0:0:
448,192,262129,128,0,262272:0:0:0:0:
448,192,262343,128,0,262486:0:0:0:0:
64,192,262343,128,0,262486:0:0:0:0:
320,192,262343,128,0,262486:0:0:0:0:
64,192,262558,128,0,262701:0:0:0:0:
192,192,262558,128,0,262701:0:0:0:0:
320,192,262558,128,0,262701:0:0:0:0:
64,192,262986,128,0,263129:0:0:0:0:
320,192,262986,128,0,263129:0:0:0:0:
448,192,262986,128,0,263129:0:0:0:0:
64,192,263201,128,0,263343:0:0:0:0:
448,192,263201,128,0,263343:0:0:0:0:
320,192,263201,128,0,263343:0:0:0:0:
64,192,263415,128,0,263558:0:0:0:0:
192,192,263415,128,0,263558:0:0:0:0:
320,192,263415,128,0,263558:0:0:0:0:
320,192,263843,128,0,263986:0:0:0:0:
448,192,263843,128,0,263986:0:0:0:0:
64,192,263843,128,0,263986:0:0:0:0:
192,192,263986,1,0,0:0:0:0:
64,192,264058,1,0,0:0:0:0:
320,192,264129,1,0,0:0:0:0:
192,192,264201,1,0,0:0:0:0:
448,192,264272,1,0,0:0:0:0:
320,192,264343,1,0,0:0:0:0:
448,192,264415,128,0,264558:0:0:0:0:
64,192,264415,128,0,264558:0:0:0:0:
192,192,264415,128,0,264558:0:0:0:0:
64,192,264629,128,0,264772:0:0:0:0:
448,192,264629,128,0,264772:0:0:0:0:
192,192,264629,128,0,264772:0:0:0:0:
448,192,264843,128,0,264986:0:0:0:0:
192,192,264843,128,0,264986:0:0:0:0:
320,192,264843,128,0,264986:0:0:0:0:
192,192,265272,128,0,265415:0:0:0:0:
64,192,265272,128,0,265415:0:0:0:0:
448,192,265272,128,0,265415:0:0:0:0:
192,192,265486,128,0,265629:0:0:0:0:
448,192,265486,128,0,265629:0:0:0:0:
64,192,265486,128,0,265629:0:0:0:0:
320,192,265701,128,0,265843:0:0:0:0:
192,192,265701,128,0,265843:0:0:0:0:
448,192,265701,128,0,265843:0:0:0:0:
448,192,266129,128,0,266272:0:0:0:0:
64,192,266129,128,0,266272:0:0:0:0:
192,192,266129,128,0,266272:0:0:0:0:
64,192,266343,128,0,266486:0:0:0:0:
448,192,266343,128,0,266486:0:0:0:0:
192,192,266343,128,0,266486:0:0:0:0:
64,192,266558,128,0,266701:0:0:0:0:
320,192,266558,128,0,266701:0:0:0:0:
192,192,266558,128,0,266701:0:0:0:0:
448,192,266701,1,0,0:0:0:0:
64,192,266772,1,0,0:0:0:0:
320,192,266843,1,0,0:0:0:0:
192,192,266915,1,0,0:0:0:0:
448,192,266986,1,0,0:0:0:0:
320,192,267058,1,0,0:0:0:0:
64,192,267129,1,0,0:0:0:0:
192,192,267201,1,0,0:0:0:0:
448,192,267272,1,0,0:0:0:0:
320,192,267329,1,0,0:0:0:0:
192,192,267386,1,0,0:0:0:0:
448,192,267443,1,0,0:0:0:0:
64,192,267501,1,0,0:0:0:0:
320,192,267558,1,0,0:0:0:0:
192,192,267615,1,0,0:0:0:0:
448,192,267672,1,0,0:0:0:0:
64,192,267729,1,0,0:0:0:0:
320,192,267786,1,0,0:0:0:0:
448,192,267843,1,0,0:0:0:0:
64,192,267891,1,0,0:0:0:0:
320,192,267939,1,0,0:0:0:0:
192,192,267986,1,0,0:0:0:0:
448,192,268034,1,0,0:0:0:0:
64,192,268081,1,0,0:0:0:0:
320,192,268129,1,0,0:0:0:0:
64,192,268177,1,0,0:0:0:0:
448,192,268224,1,0,0:0:0:0:
192,192,268272,1,0,0:0:0:0:
448,192,268320,1,0,0:0:0:0:
64,192,268367,1,0,0:0:0:0:
320,192,268415,1,0,0:0:0:0:
320,192,268486,1,0,0:0:0:0:
64,192,268558,1,0,0:0:0:0:
64,192,268629,1,0,0:0:0:0:
448,192,268701,1,0,0:0:0:0:
448,192,268772,1,0,0:0:0:0:
192,192,268843,1,0,0:0:0:0:
192,192,268915,1,0,0:0:0:0:
64,192,268986,128,0,269129:0:0:0:0:
448,192,268986,128,0,269058:0:0:0:0:
192,192,269058,128,0,269129:0:0:0:0:
320,192,269129,128,0,269201:0:0:0:0:
448,192,269129,128,0,269272:0:0:0:0:
64,192,269201,128,0,269272:0:0:0:0:
192,192,269272,128,0,269343:0:0:0:0:
320,192,269272,128,0,269415:0:0:0:0:
448,192,269343,128,0,269415:0:0:0:0:
64,192,269415,128,0,269486:0:0:0:0:
192,192,269415,128,0,269558:0:0:0:0:
320,192,269486,128,0,269558:0:0:0:0:
448,192,269558,1,0,0:0:0:0:
64,192,269558,128,0,269653:0:0:0:0:
192,192,269605,128,0,269701:0:0:0:0:
320,192,269653,128,0,269748:0:0:0:0:
448,192,269701,128,0,269796:0:0:0:0:
64,192,269748,128,0,269843:0:0:0:0:
320,192,269796,128,0,269891:0:0:0:0:
448,192,269843,128,0,269939:0:0:0:0:
192,192,269891,128,0,269986:0:0:0:0:
320,192,269939,128,0,270034:0:0:0:0:
64,192,269986,128,0,270081:0:0:0:0:
192,192,270034,128,0,270129:0:0:0:0:
320,192,270081,128,0,270129:0:0:0:0:
64,192,270129,5,0,0:0:0:0:
448,192,270129,1,0,0:0:0:0:
64,192,270224,1,0,0:0:0:0:
192,192,270248,1,0,0:0:0:0:
320,192,270272,128,0,270415:0:0:0:0:
448,192,270272,128,0,270343:0:0:0:0:
192,192,270343,128,0,270415:0:0:0:0:
448,192,270415,128,0,270558:0:0:0:0:
64,192,270415,128,0,270486:0:0:0:0:
320,192,270486,128,0,270558:0:0:0:0:
192,192,270558,128,0,270629:0:0:0:0:
64,192,270558,128,0,270629:0:0:0:0:
448,192,270629,128,0,270701:0:0:0:0:
64,192,270701,1,0,0:0:0:0:
320,192,270701,128,0,270772:0:0:0:0:
64,192,270772,1,0,0:0:0:0:
192,192,270772,128,0,270843:0:0:0:0:
448,192,270843,1,0,0:0:0:0:
320,192,270843,128,0,270915:0:0:0:0:
448,192,270915,1,0,0:0:0:0:
192,192,270915,128,0,270986:0:0:0:0:
64,192,270986,1,0,0:0:0:0:
320,192,270986,128,0,271129:0:0:0:0:
64,192,271058,1,0,0:0:0:0:
448,192,271129,1,0,0:0:0:0:
192,192,271129,128,0,271272:0:0:0:0:
448,192,271201,1,0,0:0:0:0:
64,192,271272,128,0,271343:0:0:0:0:
192,192,271343,128,0,271415:0:0:0:0:
320,192,271415,128,0,271486:0:0:0:0:
448,192,271486,128,0,271558:0:0:0:0:
64,192,271486,1,0,0:0:0:0:
64,192,271558,128,0,271701:0:0:0:0:
192,192,271558,128,0,271701:0:0:0:0:
320,192,271558,128,0,271629:0:0:0:0:
448,192,271701,1,0,0:0:0:0:
320,192,271701,128,0,271772:0:0:0:0:
64,192,271772,1,0,0:0:0:0:
192,192,271772,128,0,271843:0:0:0:0:
64,192,271843,128,0,271986:0:0:0:0:
448,192,271843,128,0,271915:0:0:0:0:
192,192,271986,1,0,0:0:0:0:
320,192,271986,128,0,272058:0:0:0:0:
448,192,271986,128,0,272058:0:0:0:0:
64,192,272058,128,0,272201:0:0:0:0:
192,192,272058,128,0,272201:0:0:0:0:
320,192,272129,128,0,272272:0:0:0:0:
448,192,272129,128,0,272201:0:0:0:0:
192,192,272272,128,0,272415:0:0:0:0:
448,192,272272,128,0,272343:0:0:0:0:
448,192,272415,128,0,272486:0:0:0:0:
320,192,272415,1,0,0:0:0:0:
64,192,272415,128,0,272486:0:0:0:0:
192,192,272486,128,0,272629:0:0:0:0:
320,192,272486,128,0,272558:0:0:0:0:
448,192,272558,128,0,272629:0:0:0:0:
64,192,272558,128,0,272629:0:0:0:0:
320,192,272629,128,0,272701:0:0:0:0:
448,192,272701,1,0,0:0:0:0:
192,192,272701,128,0,272772:0:0:0:0:
64,192,272772,1,0,0:0:0:0:
320,192,272772,128,0,272843:0:0:0:0:
64,192,272843,128,0,272986:0:0:0:0:
448,192,272843,128,0,272986:0:0:0:0:
192,192,272843,128,0,272915:0:0:0:0:
192,192,272986,128,0,273058:0:0:0:0:
320,192,272986,128,0,273129:0:0:0:0:
448,192,273058,128,0,273177:0:0:0:0:
64,192,273058,128,0,273201:0:0:0:0:
192,192,273129,128,0,273201:0:0:0:0:
320,192,273177,1,0,0:0:0:0:
448,192,273224,1,0,0:0:0:0:
64,192,273272,128,0,273443:0:0:0:0:
192,192,273272,128,0,273386:0:0:0:0:
320,192,273272,128,0,273329:0:0:0:0:
448,192,273329,128,0,273443:0:0:0:0:
320,192,273386,128,0,273501:0:0:0:0:
192,192,273443,128,0,273558:0:0:0:0:
64,192,273501,128,0,273558:0:0:0:0:
448,192,273558,128,0,273629:0:0:0:0:
192,192,273629,128,0,273701:0:0:0:0:
320,192,273701,128,0,273772:0:0:0:0:
64,192,273772,128,0,273843:0:0:0:0:
192,192,273843,128,0,274058:0:0:0:0:
320,192,273843,128,0,274058:0:0:0:0:
448,192,273843,128,0,274058:0:0:0:0:
64,192,273986,1,0,0:0:0:0:
64,192,274058,1,0,0:0:0:0:
192,192,274129,128,0,274343:0:0:0:0:
320,192,274129,128,0,274343:0:0:0:0:
448,192,274129,128,0,274343:0:0:0:0:
64,192,274272,1,0,0:0:0:0:
64,192,274343,1,0,0:0:0:0:
448,192,274415,128,0,274486:0:0:0:0:
192,192,274415,128,0,274701:0:0:0:0:
320,192,274486,128,0,274558:0:0:0:0:
64,192,274558,128,0,274629:0:0:0:0:
448,192,274605,1,0,0:0:0:0:
320,192,274653,128,0,274748:0:0:0:0:
448,192,274701,128,0,274796:0:0:0:0:
64,192,274701,128,0,274843:0:0:0:0:
192,192,274772,128,0,274915:0:0:0:0:
320,192,274843,128,0,274915:0:0:0:0:
448,192,274843,128,0,274986:0:0:0:0:
64,192,274915,128,0,274986:0:0:0:0:
192,192,274986,128,0,275129:0:0:0:0:
320,192,274986,128,0,275058:0:0:0:0:
64,192,275058,128,0,275129:0:0:0:0:
448,192,275129,128,0,275272:0:0:0:0:
320,192,275129,128,0,275201:0:0:0:0:
192,192,275177,128,0,275272:0:0:0:0:
64,192,275224,128,0,275320:0:0:0:0:
320,192,275272,1,0,0:0:0:0:
448,192,275343,1,0,0:0:0:0:
64,192,275415,128,0,275558:0:0:0:0:
192,192,275415,128,0,275486:0:0:0:0:
320,192,275462,128,0,275558:0:0:0:0:
448,192,275510,128,0,275605:0:0:0:0:
192,192,275558,1,0,0:0:0:0:
320,192,275629,1,0,0:0:0:0:
64,192,275701,128,0,275772:0:0:0:0:
192,192,275701,128,0,275915:0:0:0:0:
320,192,275772,128,0,275843:0:0:0:0:
64,192,275843,128,0,276072:0:0:0:0:
448,192,275843,128,0,275958:0:0:0:0:
320,192,275901,128,0,276015:0:0:0:0:
192,192,275958,128,0,276072:0:0:0:0:
448,192,276015,128,0,276129:0:0:0:0:
320,192,276072,128,0,276358:0:0:0:0:
192,192,276129,128,0,276301:0:0:0:0:
64,192,276129,128,0,276186:0:0:0:0:
448,192,276186,128,0,276243:0:0:0:0:
64,192,276243,128,0,276415:0:0:0:0:
448,192,276301,128,0,276358:0:0:0:0:
192,192,276358,128,0,276586:0:0:0:0:
320,192,276415,128,0,276472:0:0:0:0:
448,192,276415,128,0,276643:0:0:0:0:
64,192,276472,128,0,276529:0:0:0:0:
320,192,276529,128,0,276701:0:0:0:0:
64,192,276586,128,0,276643:0:0:0:0:
192,192,276643,128,0,276758:0:0:0:0:
64,192,276701,128,0,276872:0:0:0:0:
448,192,276701,128,0,276815:0:0:0:0:
320,192,276758,128,0,276986:0:0:0:0:
192,192,276815,128,0,276929:0:0:0:0:
448,192,276872,128,0,276929:0:0:0:0:
64,192,276929,128,0,277043:0:0:0:0:
192,192,276986,128,0,277081:0:0:0:0:
448,192,276986,128,0,277129:0:0:0:0:
320,192,277034,128,0,277224:0:0:0:0:
64,192,277081,128,0,277177:0:0:0:0:
192,192,277129,128,0,277224:0:0:0:0:
448,192,277177,128,0,277272:0:0:0:0:
64,192,277224,128,0,277462:0:0:0:0:
192,192,277272,128,0,277320:0:0:0:0:
320,192,277272,128,0,277367:0:0:0:0:
448,192,277320,128,0,277415:0:0:0:0:
192,192,277367,128,0,277462:0:0:0:0:
320,192,277415,128,0,277510:0:0:0:0:
448,192,277462,1,0,0:0:0:0:
64,192,277510,1,0,0:0:0:0:
192,192,277558,128,0,277653:0:0:0:0:
448,192,277558,128,0,277653:0:0:0:0:
64,192,277605,128,0,277701:0:0:0:0:
320,192,277653,128,0,277748:0:0:0:0:
192,192,277701,128,0,277796:0:0:0:0:
448,192,277748,1,0,0:0:0:0:
64,192,277796,128,0,277891:0:0:0:0:
448,192,277843,1,0,0:0:0:0:
192,192,277843,128,0,277986:0:0:0:0:
320,192,277915,128,0,278058:0:0:0:0:
448,192,277986,128,0,278058:0:0:0:0:
64,192,278058,128,0,278129:0:0:0:0:
320,192,278129,1,0,0:0:0:0:
192,192,278129,128,0,278272:0:0:0:0:
448,192,278129,1,0,0:0:0:0:
320,192,278201,1,0,0:0:0:0:
64,192,278272,128,0,278343:0:0:0:0:
320,192,278343,1,0,0:0:0:0:
192,192,278343,128,0,278486:0:0:0:0:
448,192,278343,1,0,0:0:0:0:
320,192,278415,1,0,0:0:0:0:
64,192,278486,128,0,278558:0:0:0:0:
448,192,278558,1,0,0:0:0:0:
192,192,278558,128,0,278629:0:0:0:0:
448,192,278629,128,0,278701:0:0:0:0:
192,192,278701,1,0,0:0:0:0:
320,192,278701,128,0,278843:0:0:0:0:
64,192,278701,1,0,0:0:0:0:
192,192,278772,1,0,0:0:0:0:
448,192,278843,128,0,278915:0:0:0:0:
192,192,278915,1,0,0:0:0:0:
320,192,278915,128,0,279058:0:0:0:0:
64,192,278915,1,0,0:0:0:0:
192,192,278986,1,0,0:0:0:0:
448,192,279058,128,0,279129:0:0:0:0:
320,192,279129,1,0,0:0:0:0:
64,192,279129,128,0,279201:0:0:0:0:
320,192,279201,1,0,0:0:0:0:
64,192,279272,1,0,0:0:0:0:
448,192,279272,128,0,279415:0:0:0:0:
192,192,279272,1,0,0:0:0:0:
64,192,279343,1,0,0:0:0:0:
320,192,279415,128,0,279486:0:0:0:0:
64,192,279486,1,0,0:0:0:0:
448,192,279486,128,0,279629:0:0:0:0:
192,192,279486,1,0,0:0:0:0:
64,192,279558,1,0,0:0:0:0:
320,192,279629,128,0,279701:0:0:0:0:
192,192,279701,1,0,0:0:0:0:
448,192,279701,128,0,279772:0:0:0:0:
192,192,279772,128,0,279843:0:0:0:0:
448,192,279843,1,0,0:0:0:0:
64,192,279843,128,0,279986:0:0:0:0:
320,192,279843,1,0,0:0:0:0:
448,192,279915,1,0,0:0:0:0:
192,192,279986,128,0,280058:0:0:0:0:
448,192,280058,1,0,0:0:0:0:
64,192,280058,128,0,280201:0:0:0:0:
320,192,280058,1,0,0:0:0:0:
448,192,280129,1,0,0:0:0:0:
192,192,280201,128,0,280272:0:0:0:0:
64,192,280272,128,0,280415:0:0:0:0:
448,192,280272,128,0,280343:0:0:0:0:
448,192,280415,128,0,280486:0:0:0:0:
320,192,280486,128,0,280558:0:0:0:0:
192,192,280558,128,0,280629:0:0:0:0:
64,192,280629,128,0,280701:0:0:0:0:
448,192,280629,1,0,0:0:0:0:
448,192,280701,128,0,280843:0:0:0:0:
320,192,280701,128,0,280843:0:0:0:0:
192,192,280701,128,0,280772:0:0:0:0:
64,192,280843,1,0,0:0:0:0:
192,192,280843,128,0,280915:0:0:0:0:
448,192,280915,1,0,0:0:0:0:
320,192,280915,128,0,280986:0:0:0:0:
448,192,280986,128,0,281129:0:0:0:0:
64,192,280986,128,0,281058:0:0:0:0:
320,192,281129,1,0,0:0:0:0:
192,192,281129,128,0,281201:0:0:0:0:
64,192,281129,128,0,281201:0:0:0:0:
448,192,281201,128,0,281343:0:0:0:0:
320,192,281201,128,0,281343:0:0:0:0:
192,192,281272,128,0,281415:0:0:0:0:
64,192,281272,128,0,281343:0:0:0:0:
64,192,281415,128,0,281486:0:0:0:0:
320,192,281415,128,0,281558:0:0:0:0:
448,192,281558,128,0,281629:0:0:0:0:
64,192,281558,128,0,281629:0:0:0:0:
192,192,281558,1,0,0:0:0:0:
320,192,281629,128,0,281772:0:0:0:0:
192,192,281629,128,0,281701:0:0:0:0:
64,192,281701,128,0,281772:0:0:0:0:
448,192,281701,128,0,281772:0:0:0:0:
192,192,281772,128,0,281843:0:0:0:0:
64,192,281843,1,0,0:0:0:0:
320,192,281843,128,0,281915:0:0:0:0:
448,192,281915,1,0,0:0:0:0:
192,192,281915,128,0,281986:0:0:0:0:
448,192,281986,128,0,282129:0:0:0:0:
64,192,281986,128,0,282129:0:0:0:0:
320,192,281986,128,0,282058:0:0:0:0:
320,192,282129,128,0,282201:0:0:0:0:
192,192,282129,128,0,282272:0:0:0:0:
64,192,282201,128,0,282320:0:0:0:0:
448,192,282201,128,0,282343:0:0:0:0:
320,192,282272,128,0,282343:0:0:0:0:
192,192,282320,1,0,0:0:0:0:
64,192,282367,1,0,0:0:0:0:
448,192,282415,128,0,282586:0:0:0:0:
320,192,282415,128,0,282529:0:0:0:0:
192,192,282415,128,0,282472:0:0:0:0:
64,192,282472,128,0,282586:0:0:0:0:
192,192,282529,128,0,282643:0:0:0:0:
320,192,282586,128,0,282701:0:0:0:0:
448,192,282643,128,0,282701:0:0:0:0:
64,192,282701,128,0,282772:0:0:0:0:
320,192,282772,128,0,282843:0:0:0:0:
192,192,282843,128,0,282915:0:0:0:0:
448,192,282915,128,0,282986:0:0:0:0:
64,192,282986,128,0,283201:0:0:0:0:
192,192,282986,128,0,283201:0:0:0:0:
320,192,282986,128,0,283201:0:0:0:0:
448,192,283129,1,0,0:0:0:0:
448,192,283201,1,0,0:0:0:0:
64,192,283272,128,0,283486:0:0:0:0:
192,192,283272,128,0,283486:0:0:0:0:
320,192,283272,128,0,283486:0:0:0:0:
448,192,283415,1,0,0:0:0:0:
448,192,283486,1,0,0:0:0:0:
192,192,283558,128,0,283701:0:0:0:0:
64,192,283558,128,0,283843:0:0:0:0:
320,192,283629,128,0,283701:0:0:0:0:
448,192,283701,128,0,283748:0:0:0:0:
192,192,283748,1,0,0:0:0:0:
448,192,283796,128,0,283891:0:0:0:0:
320,192,283843,128,0,283939:0:0:0:0:
192,192,283843,128,0,283939:0:0:0:0:
64,192,283915,128,0,284058:0:0:0:0:
320,192,283986,128,0,284129:0:0:0:0:
192,192,284058,128,0,284129:0:0:0:0:
64,192,284129,128,0,284201:0:0:0:0:
448,192,284129,128,0,284272:0:0:0:0:
320,192,284201,128,0,284272:0:0:0:0:
192,192,284272,128,0,284367:0:0:0:0:
320,192,284320,128,0,284415:0:0:0:0:
448,192,284367,128,0,284415:0:0:0:0:
64,192,284415,128,0,284558:0:0:0:0:
192,192,284415,128,0,284486:0:0:0:0:
448,192,284486,128,0,284558:0:0:0:0:
320,192,284558,128,0,284653:0:0:0:0:
192,192,284605,128,0,284701:0:0:0:0:
64,192,284653,128,0,284748:0:0:0:0:
320,192,284701,1,0,0:0:0:0:
448,192,284701,128,0,284772:0:0:0:0:
192,192,284772,1,0,0:0:0:0:
192,192,284843,128,0,284915:0:0:0:0:
448,192,284915,128,0,284986:0:0:0:0:
64,192,284986,1,0,0:0:0:0:
192,192,284986,128,0,285081:0:0:0:0:
320,192,284986,128,0,285081:0:0:0:0:
64,192,285081,128,0,285177:0:0:0:0:
448,192,285081,128,0,285177:0:0:0:0:
320,192,285177,1,0,0:0:0:0:
192,192,285177,128,0,285272:0:0:0:0:
64,192,285272,1,0,0:0:0:0:
320,192,285272,128,0,285367:0:0:0:0:
448,192,285272,128,0,285367:0:0:0:0:
64,192,285367,128,0,285462:0:0:0:0:
192,192,285367,128,0,285462:0:0:0:0:
448,192,285462,1,0,0:0:0:0:
320,192,285462,128,0,285558:0:0:0:0:
448,192,285558,1,0,0:0:0:0:
64,192,285558,128,0,285653:0:0:0:0:
192,192,285558,128,0,285653:0:0:0:0:
320,192,285653,128,0,285748:0:0:0:0:
448,192,285653,128,0,285748:0:0:0:0:
192,192,285748,1,0,0:0:0:0:
64,192,285748,128,0,285843:0:0:0:0:
448,192,285843,1,0,0:0:0:0:
192,192,285843,128,0,285939:0:0:0:0:
320,192,285843,128,0,285939:0:0:0:0:
448,192,285939,128,0,286034:0:0:0:0:
64,192,285939,128,0,286034:0:0:0:0:
192,192,286034,1,0,0:0:0:0:
320,192,286034,128,0,286320:0:0:0:0:
448,192,286129,1,0,0:0:0:0:
64,192,286129,1,0,0:0:0:0:
192,192,286129,128,0,286224:0:0:0:0:
448,192,286224,128,0,286320:0:0:0:0:
192,192,286320,1,0,0:0:0:0:
64,192,286320,128,0,286415:0:0:0:0:
320,192,286415,1,0,0:0:0:0:
448,192,286415,128,0,286510:0:0:0:0:
192,192,286415,128,0,286605:0:0:0:0:
320,192,286510,128,0,286605:0:0:0:0:
64,192,286605,1,0,0:0:0:0:
448,192,286605,128,0,286796:0:0:0:0:
64,192,286701,1,0,0:0:0:0:
192,192,286701,1,0,0:0:0:0:
320,192,286701,128,0,286796:0:0:0:0:
192,192,286796,1,0,0:0:0:0:
448,192,286891,1,0,0:0:0:0:
320,192,286891,1,0,0:0:0:0:
64,192,286986,1,0,0:0:0:0:
448,192,286986,128,0,287081:0:0:0:0:
192,192,286986,1,0,0:0:0:0:
64,192,287081,1,0,0:0:0:0:
320,192,287177,1,0,0:0:0:0:
448,192,287177,128,0,287462:0:0:0:0:
192,192,287272,1,0,0:0:0:0:
320,192,287272,128,0,287367:0:0:0:0:
64,192,287272,1,0,0:0:0:0:
192,192,287367,128,0,287462:0:0:0:0:
320,192,287462,1,0,0:0:0:0:
448,192,287558,1,0,0:0:0:0:
192,192,287558,128,0,287653:0:0:0:0:
320,192,287558,128,0,288129:0:0:0:0:
448,192,287653,128,0,287748:0:0:0:0:
192,192,287748,1,0,0:0:0:0:
64,192,287843,1,0,0:0:0:0:
448,192,287843,128,0,287939:0:0:0:0:
192,192,287843,128,0,288034:0:0:0:0:
64,192,287939,128,0,288034:0:0:0:0:
448,192,288034,1,0,0:0:0:0:
64,192,288129,128,0,288224:0:0:0:0:
448,192,288129,128,0,288224:0:0:0:0:
192,192,288129,128,0,288415:0:0:0:0:
320,192,288224,128,0,288320:0:0:0:0:
64,192,288320,128,0,288415:0:0:0:0:
448,192,288320,128,0,288415:0:0:0:0:
320,192,288415,5,0,0:0:0:0:
192,192,288558,128,0,288629:0:0:0:0:
320,192,288629,1,0,0:0:0:0:
192,192,288701,128,0,288772:0:0:0:0:
64,192,288772,1,0,0:0:0:0:
192,192,288843,128,0,288915:0:0:0:0:
320,192,288915,1,0,0:0:0:0:
192,192,288986,128,0,289272:0:0:0:0:
64,192,289058,1,0,0:0:0:0:
448,192,289129,1,0,0:0:0:0:
320,192,289201,1,0,0:0:0:0:
64,192,289272,128,0,289558:0:0:0:0:
192,192,289343,1,0,0:0:0:0:
320,192,289415,1,0,0:0:0:0:
448,192,289486,1,0,0:0:0:0:
192,192,289558,128,0,289629:0:0:0:0:
64,192,289629,128,0,289701:0:0:0:0:
448,192,289701,128,0,289772:0:0:0:0:
320,192,289772,128,0,289843:0:0:0:0:
192,192,289772,1,0,0:0:0:0:
192,192,289843,128,0,289986:0:0:0:0:
64,192,289843,128,0,289986:0:0:0:0:
448,192,289843,128,0,289915:0:0:0:0:
320,192,289986,1,0,0:0:0:0:
448,192,289986,128,0,290058:0:0:0:0:
192,192,290058,1,0,0:0:0:0:
64,192,290058,128,0,290129:0:0:0:0:
192,192,290129,128,0,290272:0:0:0:0:
448,192,290129,128,0,290201:0:0:0:0:
64,192,290272,1,0,0:0:0:0:
448,192,290272,128,0,290343:0:0:0:0:
320,192,290272,128,0,290343:0:0:0:0:
192,192,290343,128,0,290486:0:0:0:0:
64,192,290343,128,0,290486:0:0:0:0:
448,192,290415,128,0,290558:0:0:0:0:
320,192,290415,128,0,290486:0:0:0:0:
64,192,290558,128,0,290701:0:0:0:0:
320,192,290558,128,0,290629:0:0:0:0:
192,192,290701,128,0,290772:0:0:0:0:
320,192,290701,128,0,290772:0:0:0:0:
448,192,290701,1,0,0:0:0:0:
64,192,290772,128,0,290915:0:0:0:0:
448,192,290772,128,0,290843:0:0:0:0:
320,192,290843,128,0,290915:0:0:0:0:
192,192,290843,128,0,290915:0:0:0:0:
448,192,290915,128,0,290986:0:0:0:0:
320,192,290986,1,0,0:0:0:0:
64,192,290986,128,0,291058:0:0:0:0:
192,192,291058,1,0,0:0:0:0:
448,192,291058,128,0,291129:0:0:0:0:
192,192,291129,128,0,291272:0:0:0:0:
320,192,291129,128,0,291272:0:0:0:0:
64,192,291129,128,0,291201:0:0:0:0:
64,192,291272,128,0,291343:0:0:0:0:
448,192,291272,128,0,291415:0:0:0:0:
320,192,291343,128,0,291462:0:0:0:0:
192,192,291343,128,0,291486:0:0:0:0:
64,192,291415,128,0,291486:0:0:0:0:
448,192,291462,1,0,0:0:0:0:
320,192,291510,1,0,0:0:0:0:
192,192,291558,128,0,291729:0:0:0:0:
64,192,291558,128,0,291672:0:0:0:0:
448,192,291558,128,0,291615:0:0:0:0:
320,192,291615,128,0,291729:0:0:0:0:
448,192,291672,128,0,291786:0:0:0:0:
64,192,291729,128,0,291843:0:0:0:0:
192,192,291786,128,0,291843:0:0:0:0:
320,192,291843,128,0,291915:0:0:0:0:
64,192,291915,128,0,291986:0:0:0:0:
448,192,291986,128,0,292058:0:0:0:0:
192,192,292058,128,0,292129:0:0:0:0:
320,192,292129,128,0,292343:0:0:0:0:
448,192,292129,128,0,292343:0:0:0:0:
64,192,292129,128,0,292343:0:0:0:0:
192,192,292272,1,0,0:0:0:0:
192,192,292343,1,0,0:0:0:0:
320,192,292415,128,0,292629:0:0:0:0:
448,192,292415,128,0,292629:0:0:0:0:
64,192,292415,128,0,292629:0:0:0:0:
192,192,292558,1,0,0:0:0:0:
192,192,292629,1,0,0:0:0:0:
64,192,292701,128,0,292986:0:0:0:0:
320,192,292701,128,0,292772:0:0:0:0:
448,192,292772,128,0,292843:0:0:0:0:
192,192,292843,128,0,292915:0:0:0:0:
320,192,292891,1,0,0:0:0:0:
448,192,292939,128,0,293034:0:0:0:0:
192,192,292986,128,0,293129:0:0:0:0:
320,192,292986,128,0,293081:0:0:0:0:
64,192,293058,128,0,293201:0:0:0:0:
320,192,293129,128,0,293272:0:0:0:0:
448,192,293129,128,0,293201:0:0:0:0:
192,192,293201,128,0,293272:0:0:0:0:
448,192,293272,128,0,293343:0:0:0:0:
64,192,293272,128,0,293415:0:0:0:0:
192,192,293343,128,0,293415:0:0:0:0:
448,192,293415,128,0,293486:0:0:0:0:
320,192,293415,128,0,293558:0:0:0:0:
64,192,293462,128,0,293558:0:0:0:0:
192,192,293510,128,0,293605:0:0:0:0:
448,192,293558,1,0,0:0:0:0:
320,192,293629,1,0,0:0:0:0:
64,192,293701,128,0,293772:0:0:0:0:
192,192,293701,128,0,293843:0:0:0:0:
448,192,293748,128,0,293843:0:0:0:0:
320,192,293796,128,0,293891:0:0:0:0:
64,192,293843,1,0,0:0:0:0:
192,192,293915,1,0,0:0:0:0:
448,192,293986,128,0,294058:0:0:0:0:
320,192,293986,128,0,294201:0:0:0:0:
192,192,294058,128,0,294129:0:0:0:0:
448,192,294129,128,0,294358:0:0:0:0:
64,192,294129,128,0,294243:0:0:0:0:
192,192,294186,128,0,294301:0:0:0:0:
320,192,294243,128,0,294358:0:0:0:0:
64,192,294301,128,0,294415:0:0:0:0:
192,192,294358,128,0,294643:0:0:0:0:
320,192,294415,128,0,294586:0:0:0:0:
448,192,294415,128,0,294472:0:0:0:0:
64,192,294472,128,0,294529:0:0:0:0:
448,192,294529,128,0,294701:0:0:0:0:
64,192,294586,128,0,294643:0:0:0:0:
320,192,294643,128,0,294872:0:0:0:0:
192,192,294701,128,0,294758:0:0:0:0:
64,192,294701,128,0,294929:0:0:0:0:
448,192,294758,128,0,294815:0:0:0:0:
192,192,294815,128,0,294986:0:0:0:0:
448,192,294872,128,0,294929:0:0:0:0:
320,192,294929,128,0,295043:0:0:0:0:
448,192,294986,128,0,295158:0:0:0:0:
64,192,294986,128,0,295101:0:0:0:0:
192,192,295043,128,0,295272:0:0:0:0:
320,192,295101,128,0,295215:0:0:0:0:
64,192,295158,128,0,295215:0:0:0:0:
448,192,295215,128,0,295329:0:0:0:0:
320,192,295272,128,0,295367:0:0:0:0:
64,192,295272,128,0,295415:0:0:0:0:
192,192,295320,128,0,295510:0:0:0:0:
448,192,295367,128,0,295462:0:0:0:0:
320,192,295415,128,0,295510:0:0:0:0:
64,192,295462,128,0,295558:0:0:0:0:
448,192,295510,128,0,295748:0:0:0:0:
320,192,295558,128,0,295605:0:0:0:0:
192,192,295558,128,0,295653:0:0:0:0:
64,192,295605,128,0,295701:0:0:0:0:
320,192,295653,128,0,295748:0:0:0:0:
192,192,295701,128,0,295796:0:0:0:0:
64,192,295748,1,0,0:0:0:0:
448,192,295796,1,0,0:0:0:0:
320,192,295843,128,0,295939:0:0:0:0:
64,192,295843,128,0,295939:0:0:0:0:
448,192,295891,128,0,295986:0:0:0:0:
192,192,295939,128,0,296034:0:0:0:0:
320,192,295986,128,0,296081:0:0:0:0:
64,192,296034,1,0,0:0:0:0:
448,192,296081,128,0,296177:0:0:0:0:
64,192,296129,1,0,0:0:0:0:
320,192,296129,128,0,296272:0:0:0:0:
192,192,296201,128,0,296343:0:0:0:0:
64,192,296272,128,0,296343:0:0:0:0:
448,192,296343,128,0,296415:0:0:0:0:
192,192,296415,1,0,0:0:0:0:
320,192,296415,128,0,296558:0:0:0:0:
64,192,296415,1,0,0:0:0:0:
192,192,296486,1,0,0:0:0:0:
448,192,296558,128,0,296629:0:0:0:0:
192,192,296629,1,0,0:0:0:0:
320,192,296629,128,0,296772:0:0:0:0:
64,192,296629,1,0,0:0:0:0:
192,192,296701,1,0,0:0:0:0:
448,192,296772,128,0,296843:0:0:0:0:
64,192,296843,1,0,0:0:0:0:
320,192,296843,128,0,296915:0:0:0:0:
64,192,296915,128,0,296986:0:0:0:0:
320,192,296986,1,0,0:0:0:0:
192,192,296986,128,0,297129:0:0:0:0:
448,192,296986,1,0,0:0:0:0:
320,192,297058,1,0,0:0:0:0:
64,192,297129,128,0,297201:0:0:0:0:
320,192,297201,1,0,0:0:0:0:
192,192,297201,128,0,297343:0:0:0:0:
448,192,297201,1,0,0:0:0:0:
320,192,297272,1,0,0:0:0:0:
64,192,297343,128,0,297415:0:0:0:0:
448,192,297415,1,0,0:0:0:0:
192,192,297415,128,0,297486:0:0:0:0:
448,192,297486,1,0,0:0:0:0:
320,192,297558,128,0,297701:0:0:0:0:
64,192,297558,1,0,0:0:0:0:
192,192,297558,1,0,0:0:0:0:
192,192,297629,1,0,0:0:0:0:
448,192,297701,128,0,297772:0:0:0:0:
320,192,297772,128,0,297915:0:0:0:0:
192,192,297772,1,0,0:0:0:0:
64,192,297772,1,0,0:0:0:0:
192,192,297843,1,0,0:0:0:0:
448,192,297915,128,0,297986:0:0:0:0:
64,192,297986,1,0,0:0:0:0:
320,192,297986,1,0,0:0:0:0:
320,192,298058,128,0,298129:0:0:0:0:
64,192,298129,1,0,0:0:0:0:
192,192,298129,128,0,298272:0:0:0:0:
448,192,298129,1,0,0:0:0:0:
448,192,298201,1,0,0:0:0:0:
320,192,298272,128,0,298343:0:0:0:0:
448,192,298343,1,0,0:0:0:0:
64,192,298343,128,0,298486:0:0:0:0:
192,192,298343,1,0,0:0:0:0:
448,192,298415,1,0,0:0:0:0:
320,192,298486,128,0,298558:0:0:0:0:
448,192,298558,128,0,298701:0:0:0:0:
192,192,298558,128,0,298629:0:0:0:0:
320,192,298701,1,0,0:0:0:0:
192,192,298772,1,0,0:0:0:0:
320,192,298843,1,0,0:0:0:0:
192,192,298915,1,0,0:0:0:0:
448,192,298951,1,0,0:0:0:0:
320,192,298986,1,0,0:0:0:0:
64,192,298986,1,0,0:0:0:0:
448,192,299272,1,0,0:0:0:0:
192,192,299558,1,0,0:0:0:0:
448,192,299701,1,0,0:0:0:0:
64,192,299843,1,0,0:0:0:0:
320,192,299843,1,0,0:0:0:0:
448,192,300129,1,0,0:0:0:0:
192,192,300129,1,0,0:0:0:0:
192,192,300272,1,0,0:0:0:0:
448,192,300272,1,0,0:0:0:0:
64,192,300415,1,0,0:0:0:0:
320,192,300701,1,0,0:0:0:0:
448,192,300701,1,0,0:0:0:0:
192,192,300986,1,0,0:0:0:0:
192,192,301129,1,0,0:0:0:0:
64,192,301272,1,0,0:0:0:0:
320,192,301272,1,0,0:0:0:0:
320,192,301558,1,0,0:0:0:0:
64,192,301843,1,0,0:0:0:0:
320,192,301986,1,0,0:0:0:0:
192,192,302129,1,0,0:0:0:0:
64,192,302129,1,0,0:0:0:0:
320,192,302415,1,0,0:0:0:0:
192,192,302558,1,0,0:0:0:0:
448,192,302701,1,0,0:0:0:0:
64,192,302986,1,0,0:0:0:0:
320,192,302986,1,0,0:0:0:0:
192,192,303272,1,0,0:0:0:0:
320,192,303415,1,0,0:0:0:0:
192,192,303486,1,0,0:0:0:0:
64,192,303558,1,0,0:0:0:0:
320,192,303558,1,0,0:0:0:0:
192,192,303701,1,0,0:0:0:0:
320,192,303843,1,0,0:0:0:0:
64,192,303843,1,0,0:0:0:0:
448,192,303915,128,0,303986:0:0:0:0:
320,192,303986,128,0,304058:0:0:0:0:
192,192,304058,128,0,304129:0:0:0:0:
64,192,304129,128,0,304201:0:0:0:0:
448,192,304129,1,0,0:0:0:0:
320,192,304201,128,0,304272:0:0:0:0:
448,192,304272,128,0,304343:0:0:0:0:
192,192,304343,128,0,304415:0:0:0:0:
320,192,304415,128,0,304486:0:0:0:0:
64,192,304415,1,0,0:0:0:0:
192,192,304486,128,0,304558:0:0:0:0:
448,192,304558,128,0,304629:0:0:0:0:
64,192,304629,128,0,304701:0:0:0:0:
192,192,304701,128,0,304772:0:0:0:0:
448,192,304701,1,0,0:0:0:0:
320,192,304772,128,0,304843:0:0:0:0:
448,192,304843,128,0,304915:0:0:0:0:
192,192,304915,128,0,304986:0:0:0:0:
64,192,304986,128,0,305201:0:0:0:0:
448,192,304986,1,0,0:0:0:0:
320,192,305058,128,0,305129:0:0:0:0:
192,192,305129,128,0,305201:0:0:0:0:
320,192,305201,128,0,305415:0:0:0:0:
64,192,305272,128,0,305486:0:0:0:0:
192,192,305272,128,0,305343:0:0:0:0:
448,192,305343,128,0,305486:0:0:0:0:
192,192,305415,128,0,305486:0:0:0:0:
320,192,305486,128,0,305558:0:0:0:0:
448,192,305558,128,0,305843:0:0:0:0:
64,192,305558,128,0,305843:0:0:0:0:
192,192,305558,128,0,305772:0:0:0:0:
192,192,305843,1,0,0:0:0:0:
192,192,305915,1,0,0:0:0:0:
64,192,305986,128,0,306272:0:0:0:0:
320,192,305986,128,0,306201:0:0:0:0:
448,192,305986,128,0,306272:0:0:0:0:
320,192,306272,1,0,0:0:0:0:
320,192,306343,1,0,0:0:0:0:
64,192,306415,128,0,306629:0:0:0:0:
192,192,306415,128,0,306486:0:0:0:0:
448,192,306415,128,0,306486:0:0:0:0:
192,192,306558,128,0,306701:0:0:0:0:
320,192,306558,128,0,306772:0:0:0:0:
448,192,306558,128,0,306629:0:0:0:0:
64,192,306701,1,0,0:0:0:0:
448,192,306701,128,0,306772:0:0:0:0:
192,192,306772,1,0,0:0:0:0:
320,192,306843,128,0,307058:0:0:0:0:
448,192,306843,128,0,306915:0:0:0:0:
64,192,306986,1,0,0:0:0:0:
448,192,306986,128,0,307058:0:0:0:0:
192,192,307058,1,0,0:0:0:0:
320,192,307129,128,0,307272:0:0:0:0:
448,192,307129,128,0,307201:0:0:0:0:
192,192,307201,1,0,0:0:0:0:
64,192,307272,1,0,0:0:0:0:
448,192,307272,128,0,307486:0:0:0:0:
320,192,307343,128,0,307415:0:0:0:0:
192,192,307486,1,0,0:0:0:0:
320,192,307486,128,0,307629:0:0:0:0:
64,192,307558,1,0,0:0:0:0:
448,192,307558,128,0,307629:0:0:0:0:
192,192,307629,1,0,0:0:0:0:
320,192,307701,128,0,307772:0:0:0:0:
448,192,307701,128,0,307772:0:0:0:0:
64,192,307843,1,0,0:0:0:0:
192,192,307843,1,0,0:0:0:0:
192,192,307939,1,0,0:0:0:0:
448,192,307939,1,0,0:0:0:0:
448,192,308034,1,0,0:0:0:0:
320,192,308034,1,0,0:0:0:0:
64,192,308129,1,0,0:0:0:0:
192,192,308129,1,0,0:0:0:0:
64,192,308224,1,0,0:0:0:0:
320,192,308224,1,0,0:0:0:0:
448,192,308320,1,0,0:0:0:0:
192,192,308320,1,0,0:0:0:0:
320,192,308415,1,0,0:0:0:0:
64,192,308415,1,0,0:0:0:0:
192,192,308510,1,0,0:0:0:0:
448,192,308510,1,0,0:0:0:0:
448,192,308605,1,0,0:0:0:0:
320,192,308605,1,0,0:0:0:0:
64,192,308701,1,0,0:0:0:0:
192,192,308701,1,0,0:0:0:0:
448,192,308796,1,0,0:0:0:0:
64,192,308796,1,0,0:0:0:0:
320,192,308891,1,0,0:0:0:0:
448,192,308891,1,0,0:0:0:0:
64,192,308986,1,0,0:0:0:0:
192,192,308986,1,0,0:0:0:0:
320,192,309034,1,0,0:0:0:0:
192,192,309081,1,0,0:0:0:0:
448,192,309081,1,0,0:0:0:0:
64,192,309129,1,0,0:0:0:0:
448,192,309177,1,0,0:0:0:0:
320,192,309177,1,0,0:0:0:0:
64,192,309272,1,0,0:0:0:0:
320,192,309272,1,0,0:0:0:0:
192,192,309320,1,0,0:0:0:0:
64,192,309367,1,0,0:0:0:0:
448,192,309367,1,0,0:0:0:0:
320,192,309415,1,0,0:0:0:0:
448,192,309462,1,0,0:0:0:0:
192,192,309462,1,0,0:0:0:0:
320,192,309558,1,0,0:0:0:0:
64,192,309558,1,0,0:0:0:0:
448,192,309605,1,0,0:0:0:0:
320,192,309653,1,0,0:0:0:0:
192,192,309653,1,0,0:0:0:0:
64,192,309701,1,0,0:0:0:0:
448,192,309748,1,0,0:0:0:0:
192,192,309748,1,0,0:0:0:0:
448,192,309843,1,0,0:0:0:0:
320,192,309843,1,0,0:0:0:0:
64,192,309939,1,0,0:0:0:0:
320,192,309939,1,0,0:0:0:0:
192,192,310034,1,0,0:0:0:0:
64,192,310034,1,0,0:0:0:0:
64,192,310129,128,0,310177:0:0:0:0:
448,192,310129,1,0,0:0:0:0:
192,192,310177,128,0,310272:0:0:0:0:
64,192,310224,128,0,310367:0:0:0:0:
320,192,310272,128,0,310367:0:0:0:0:
192,192,310320,128,0,310462:0:0:0:0:
448,192,310367,128,0,310415:0:0:0:0:
320,192,310415,128,0,310510:0:0:0:0:
448,192,310462,128,0,310605:0:0:0:0:
64,192,310510,128,0,310653:0:0:0:0:
320,192,310558,128,0,310605:0:0:0:0:
192,192,310605,128,0,310701:0:0:0:0:
320,192,310653,128,0,310796:0:0:0:0:
64,192,310701,128,0,310796:0:0:0:0:
192,192,310748,128,0,310843:0:0:0:0:
448,192,310796,128,0,310843:0:0:0:0:
64,192,310843,128,0,310939:0:0:0:0:
448,192,310891,128,0,311034:0:0:0:0:
192,192,310939,128,0,311034:0:0:0:0:
64,192,310986,128,0,311081:0:0:0:0:
320,192,311034,128,0,311129:0:0:0:0:
192,192,311081,128,0,311177:0:0:0:0:
448,192,311129,128,0,311177:0:0:0:0:
320,192,311177,128,0,311272:0:0:0:0:
448,192,311224,5,0,0:0:0:0:
64,192,311272,1,0,0:0:0:0:
192,192,311272,1,0,0:0:0:0:
64,192,311343,1,0,0:0:0:0:
448,192,311415,1,0,0:0:0:0:
320,192,311415,1,0,0:0:0:0:
448,192,311486,1,0,0:0:0:0:
192,192,311558,1,0,0:0:0:0:
64,192,311558,1,0,0:0:0:0:
192,192,311629,1,0,0:0:0:0:
320,192,311701,1,0,0:0:0:0:
448,192,311701,1,0,0:0:0:0:
320,192,311772,1,0,0:0:0:0:
64,192,311843,1,0,0:0:0:0:
192,192,311843,1,0,0:0:0:0:
448,192,311915,1,0,0:0:0:0:
64,192,311915,1,0,0:0:0:0:
448,192,311986,1,0,0:0:0:0:
320,192,311986,1,0,0:0:0:0:
192,192,312058,1,0,0:0:0:0:
64,192,312058,1,0,0:0:0:0:
448,192,312129,1,0,0:0:0:0:
64,192,312129,1,0,0:0:0:0:
320,192,312165,1,0,0:0:0:0:
448,192,312201,1,0,0:0:0:0:
192,192,312236,1,0,0:0:0:0:
320,192,312272,1,0,0:0:0:0:
448,192,312308,1,0,0:0:0:0:
64,192,312343,1,0,0:0:0:0:
448,192,312415,128,0,312843:0:0:0:0:
192,192,312415,128,0,312915:0:0:0:0:
320,192,312701,1,0,0:0:0:0:
64,192,312843,128,0,313843:0:0:0:0:
192,192,312986,128,0,313772:0:0:0:0:
448,192,313272,1,0,0:0:0:0:
320,192,313558,1,0,0:0:0:0:
320,192,313701,1,0,0:0:0:0:
192,192,313843,128,0,314129:0:0:0:0:
448,192,313843,1,0,0:0:0:0:
320,192,314129,128,0,314415:0:0:0:0:
64,192,314129,1,0,0:0:0:0:
64,192,314272,1,0,0:0:0:0:
192,192,314415,128,0,314701:0:0:0:0:
448,192,314415,1,0,0:0:0:0:
448,192,314558,1,0,0:0:0:0:
64,192,314701,128,0,315129:0:0:0:0:
320,192,314701,1,0,0:0:0:0:
192,192,314986,1,0,0:0:0:0:
448,192,315129,128,0,315843:0:0:0:0:
320,192,315272,1,0,0:0:0:0:
64,192,315558,1,0,0:0:0:0:
320,192,315843,1,0,0:0:0:0:
192,192,315986,1,0,0:0:0:0:
448,192,316129,128,0,316415:0:0:0:0:
64,192,316129,1,0,0:0:0:0:
192,192,316415,128,0,316701:0:0:0:0:
320,192,316415,1,0,0:0:0:0:
448,192,316701,128,0,316986:0:0:0:0:
64,192,316701,1,0,0:0:0:0:
320,192,316843,1,0,0:0:0:0:
64,192,316986,128,0,317415:0:0:0:0:
192,192,316986,1,0,0:0:0:0:
448,192,317272,1,0,0:0:0:0:
192,192,317415,128,0,317843:0:0:0:0:
320,192,317558,1,0,0:0:0:0:
320,192,317843,128,0,318558:0:0:0:0:
64,192,317843,1,0,0:0:0:0:
448,192,318129,1,0,0:0:0:0:
64,192,318129,1,0,0:0:0:0:
64,192,318272,1,0,0:0:0:0:
448,192,318415,1,0,0:0:0:0:
192,192,318558,128,0,318986:0:0:0:0:
320,192,318701,1,0,0:0:0:0:
448,192,318986,128,0,319272:0:0:0:0:
64,192,318986,1,0,0:0:0:0:
64,192,319129,1,0,0:0:0:0:
320,192,319272,128,0,321558:0:0:0:0:
192,192,319272,1,0,0:0:0:0:
64,192,319558,1,0,0:0:0:0:
192,192,319701,1,0,0:0:0:0:
448,192,319843,1,0,0:0:0:0:
64,192,320129,1,0,0:0:0:0:
448,192,320415,1,0,0:0:0:0:
192,192,320558,1,0,0:0:0:0:
64,192,320701,1,0,0:0:0:0:
448,192,320986,1,0,0:0:0:0:
192,192,320986,1,0,0:0:0:0:
64,192,321272,1,0,0:0:0:0:
64,192,321415,1,0,0:0:0:0:
64,192,321558,1,0,0:0:0:0:
192,192,321558,1,0,0:0:0:0:
448,192,321558,128,0,321986:0:0:0:0:
192,192,321701,1,0,0:0:0:0:
320,192,321843,1,0,0:0:0:0:
64,192,321986,128,0,322986:0:0:0:0:
192,192,322129,1,0,0:0:0:0:
448,192,322415,1,0,0:0:0:0:
192,192,322415,1,0,0:0:0:0:
448,192,322558,1,0,0:0:0:0:
320,192,322701,1,0,0:0:0:0:
192,192,322701,1,0,0:0:0:0:
320,192,322843,1,0,0:0:0:0:
192,192,322986,128,0,323272:0:0:0:0:
448,192,322986,1,0,0:0:0:0:
448,192,323129,1,0,0:0:0:0:
320,192,323272,128,0,323558:0:0:0:0:
64,192,323272,1,0,0:0:0:0:
192,192,323558,128,0,323843:0:0:0:0:
448,192,323558,1,0,0:0:0:0:
448,192,323701,1,0,0:0:0:0:
64,192,323843,128,0,324272:0:0:0:0:
320,192,323843,1,0,0:0:0:0:
192,192,324129,1,0,0:0:0:0:
448,192,324272,128,0,324986:0:0:0:0:
64,192,324415,1,0,0:0:0:0:
320,192,324701,1,0,0:0:0:0:
64,192,324701,1,0,0:0:0:0:
320,192,324843,1,0,0:0:0:0:
192,192,324986,1,0,0:0:0:0:
192,192,325129,1,0,0:0:0:0:
448,192,325272,128,0,325558:0:0:0:0:
64,192,325272,1,0,0:0:0:0:
64,192,325415,1,0,0:0:0:0:
192,192,325558,128,0,325843:0:0:0:0:
320,192,325558,1,0,0:0:0:0:
448,192,325843,128,0,326129:0:0:0:0:
64,192,325843,1,0,0:0:0:0:
320,192,325986,1,0,0:0:0:0:
320,192,326129,128,0,326415:0:0:0:0:
192,192,326129,128,0,326415:0:0:0:0:
64,192,326129,128,0,326415:0:0:0:0:
448,192,326272,128,0,326415:0:0:0:0:
64,192,326558,1,0,0:0:0:0:
448,192,326986,1,0,0:0:0:0:
448,192,327272,128,0,327558:0:0:0:0:
320,192,327272,128,0,327558:0:0:0:0:
192,192,327272,128,0,327558:0:0:0:0:
64,192,327415,128,0,327558:0:0:0:0:
448,192,327701,1,0,0:0:0:0:
64,192,327843,1,0,0:0:0:0:
192,192,327915,1,0,0:0:0:0:
64,192,327986,1,0,0:0:0:0:
192,192,328058,1,0,0:0:0:0:
320,192,328129,1,0,0:0:0:0:
448,192,328201,1,0,0:0:0:0:
320,192,328272,1,0,0:0:0:0:
448,192,328343,1,0,0:0:0:0:
192,192,328415,1,0,0:0:0:0:
320,192,328415,1,0,0:0:0:0:
64,192,328415,1,0,0:0:0:0:
448,192,328558,1,0,0:0:0:0:
192,192,328701,1,0,0:0:0:0:
448,192,328843,1,0,0:0:0:0:
64,192,328986,128,0,329486:0:0:0:0:
320,192,328986,128,0,329772:0:0:0:0:
448,192,329129,1,0,0:0:0:0:
192,192,329272,1,0,0:0:0:0:
448,192,329415,1,0,0:0:0:0:
192,192,329558,128,0,330629:0:0:0:0:
448,192,329558,128,0,330058:0:0:0:0:
64,192,329558,128,0,329629:0:0:0:0:
64,192,329701,128,0,329915:0:0:0:0:
320,192,329843,128,0,330343:0:0:0:0:
64,192,329986,128,0,330201:0:0:0:0:
448,192,330129,128,0,330629:0:0:0:0:
64,192,330272,128,0,330486:0:0:0:0:
320,192,330415,128,0,330629:0:0:0:0:
64,192,330558,128,0,330629:0:0:0:0:
192,192,330701,1,0,0:0:0:0:
320,192,330701,1,0,0:0:0:0:
64,192,330701,1,0,0:0:0:0:
64,192,330843,1,0,0:0:0:0:
320,192,330986,1,0,0:0:0:0:
64,192,331129,1,0,0:0:0:0:
448,192,331272,128,0,331772:0:0:0:0:
192,192,331272,128,0,332058:0:0:0:0:
64,192,331415,1,0,0:0:0:0:
320,192,331558,1,0,0:0:0:0:
64,192,331701,1,0,0:0:0:0:
320,192,331843,128,0,332915:0:0:0:0:
64,192,331843,128,0,332343:0:0:0:0:
448,192,331843,128,0,331915:0:0:0:0:
448,192,331986,128,0,332201:0:0:0:0:
192,192,332129,128,0,332629:0:0:0:0:
448,192,332272,128,0,332486:0:0:0:0:
64,192,332415,128,0,332915:0:0:0:0:
448,192,332558,128,0,332772:0:0:0:0:
192,192,332701,128,0,332915:0:0:0:0:
448,192,332843,128,0,332915:0:0:0:0:
64,192,332986,1,0,0:0:0:0:
192,192,332986,1,0,0:0:0:0:
320,192,332986,1,0,0:0:0:0:
64,192,333129,1,0,0:0:0:0:
448,192,333129,1,0,0:0:0:0:
64,192,333272,1,0,0:0:0:0:
320,192,333272,1,0,0:0:0:0:
64,192,333415,1,0,0:0:0:0:
448,192,333415,1,0,0:0:0:0:
64,192,333558,128,0,334201:0:0:0:0:
192,192,333558,128,0,333629:0:0:0:0:
448,192,333701,1,0,0:0:0:0:
192,192,333701,128,0,333772:0:0:0:0:
320,192,333843,1,0,0:0:0:0:
192,192,333843,128,0,333915:0:0:0:0:
448,192,333986,1,0,0:0:0:0:
192,192,333986,128,0,334343:0:0:0:0:
448,192,334129,128,0,334629:0:0:0:0:
320,192,334129,1,0,0:0:0:0:
64,192,334272,128,0,334486:0:0:0:0:
320,192,334272,1,0,0:0:0:0:
192,192,334415,128,0,334915:0:0:0:0:
320,192,334415,1,0,0:0:0:0:
64,192,334558,128,0,334772:0:0:0:0:
320,192,334558,1,0,0:0:0:0:
320,192,334701,128,0,335272:0:0:0:0:
448,192,334701,128,0,334772:0:0:0:0:
448,192,334843,128,0,334915:0:0:0:0:
64,192,334843,128,0,335058:0:0:0:0:
448,192,334986,128,0,335058:0:0:0:0:
192,192,334986,128,0,335201:0:0:0:0:
448,192,335129,128,0,335272:0:0:0:0:
64,192,335129,128,0,335201:0:0:0:0:
64,192,335272,1,0,0:0:0:0:
192,192,335272,128,0,335343:0:0:0:0:
448,192,335343,1,0,0:0:0:0:
64,192,335343,1,0,0:0:0:0:
320,192,335415,128,0,335486:0:0:0:0:
64,192,335486,1,0,0:0:0:0:
192,192,335558,1,0,0:0:0:0:
320,192,335558,128,0,335629:0:0:0:0:
192,192,335629,1,0,0:0:0:0:
448,192,335629,1,0,0:0:0:0:
320,192,335701,128,0,335772:0:0:0:0:
192,192,335772,1,0,0:0:0:0:
320,192,335843,1,0,0:0:0:0:
448,192,335843,128,0,335915:0:0:0:0:
64,192,335915,1,0,0:0:0:0:
320,192,335915,1,0,0:0:0:0:
192,192,335986,128,0,336058:0:0:0:0:
64,192,336058,1,0,0:0:0:0:
448,192,336129,1,0,0:0:0:0:
320,192,336129,1,0,0:0:0:0:
448,192,336201,1,0,0:0:0:0:
64,192,336272,1,0,0:0:0:0:
192,192,336272,128,0,336343:0:0:0:0:
64,192,336415,128,0,336558:0:0:0:0:
192,192,336415,128,0,336558:0:0:0:0:
448,192,336415,1,0,0:0:0:0:
320,192,336486,128,0,336629:0:0:0:0:
448,192,336558,128,0,336629:0:0:0:0:
192,192,336629,128,0,336772:0:0:0:0:
448,192,336701,128,0,336843:0:0:0:0:
64,192,336772,128,0,336843:0:0:0:0:
320,192,336843,128,0,336915:0:0:0:0:
64,192,336915,128,0,337058:0:0:0:0:
192,192,336986,128,0,337129:0:0:0:0:
448,192,337058,128,0,337129:0:0:0:0:
320,192,337129,128,0,337201:0:0:0:0:
64,192,337201,128,0,337272:0:0:0:0:
448,192,337272,128,0,337415:0:0:0:0:
320,192,337343,128,0,337415:0:0:0:0:
192,192,337415,128,0,337486:0:0:0:0:
64,192,337486,128,0,337558:0:0:0:0:
192,192,337558,128,0,337629:0:0:0:0:
320,192,337558,128,0,337629:0:0:0:0:
448,192,337558,128,0,337772:0:0:0:0:
320,192,337701,128,0,337772:0:0:0:0:
192,192,337701,128,0,337915:0:0:0:0:
64,192,337701,128,0,337772:0:0:0:0:
64,192,337843,128,0,337915:0:0:0:0:
320,192,337843,128,0,338058:0:0:0:0:
448,192,337843,128,0,337915:0:0:0:0:
448,192,337986,128,0,338058:0:0:0:0:
192,192,337986,128,0,338058:0:0:0:0:
64,192,337986,128,0,338129:0:0:0:0:
192,192,338129,128,0,338272:0:0:0:0:
320,192,338129,128,0,338201:0:0:0:0:
448,192,338129,128,0,338272:0:0:0:0:
64,192,338201,128,0,338272:0:0:0:0:
320,192,338272,1,0,0:0:0:0:
320,192,338343,1,0,0:0:0:0:
64,192,338415,128,0,338558:0:0:0:0:
192,192,338415,128,0,338486:0:0:0:0:
448,192,338415,128,0,338558:0:0:0:0:
320,192,338486,128,0,338558:0:0:0:0:
192,192,338558,1,0,0:0:0:0:
192,192,338629,1,0,0:0:0:0:
64,192,338701,128,0,338843:0:0:0:0:
320,192,338701,128,0,338772:0:0:0:0:
448,192,338701,128,0,338772:0:0:0:0:
320,192,338843,1,0,0:0:0:0:
448,192,338843,1,0,0:0:0:0:
448,192,338915,1,0,0:0:0:0:
192,192,338915,1,0,0:0:0:0:
64,192,338986,128,0,339058:0:0:0:0:
192,192,338986,128,0,339058:0:0:0:0:
320,192,338986,128,0,339129:0:0:0:0:
64,192,339129,1,0,0:0:0:0:
192,192,339129,1,0,0:0:0:0:
64,192,339201,1,0,0:0:0:0:
320,192,339201,1,0,0:0:0:0:
192,192,339272,128,0,339415:0:0:0:0:
320,192,339272,128,0,339343:0:0:0:0:
448,192,339272,128,0,339343:0:0:0:0:
448,192,339415,1,0,0:0:0:0:
320,192,339415,128,0,339486:0:0:0:0:
192,192,339486,1,0,0:0:0:0:
448,192,339486,128,0,339558:0:0:0:0:
192,192,339558,1,0,0:0:0:0:
320,192,339558,128,0,339629:0:0:0:0:
64,192,339629,128,0,339701:0:0:0:0:
192,192,339701,128,0,339772:0:0:0:0:
320,192,339701,1,0,0:0:0:0:
448,192,339772,1,0,0:0:0:0:
320,192,339772,128,0,339843:0:0:0:0:
64,192,339843,128,0,339915:0:0:0:0:
192,192,339843,128,0,340058:0:0:0:0:
448,192,339843,128,0,339915:0:0:0:0:
320,192,339986,128,0,340058:0:0:0:0:
448,192,339986,128,0,340058:0:0:0:0:
64,192,339986,128,0,340201:0:0:0:0:
192,192,340129,128,0,340201:0:0:0:0:
320,192,340129,128,0,340201:0:0:0:0:
448,192,340129,128,0,340343:0:0:0:0:
64,192,340272,128,0,340343:0:0:0:0:
192,192,340272,128,0,340343:0:0:0:0:
320,192,340272,128,0,340415:0:0:0:0:
64,192,340415,128,0,340486:0:0:0:0:
192,192,340415,128,0,340558:0:0:0:0:
448,192,340415,128,0,340558:0:0:0:0:
320,192,340486,128,0,340558:0:0:0:0:
64,192,340558,1,0,0:0:0:0:
64,192,340629,1,0,0:0:0:0:
192,192,340701,128,0,340843:0:0:0:0:
320,192,340701,128,0,340843:0:0:0:0:
448,192,340701,128,0,340772:0:0:0:0:
64,192,340772,128,0,340843:0:0:0:0:
448,192,340843,1,0,0:0:0:0:
448,192,340915,1,0,0:0:0:0:
64,192,340986,128,0,341129:0:0:0:0:
192,192,340986,128,0,341058:0:0:0:0:
320,192,340986,128,0,341058:0:0:0:0:
192,192,341129,1,0,0:0:0:0:
320,192,341129,1,0,0:0:0:0:
192,192,341201,1,0,0:0:0:0:
448,192,341201,1,0,0:0:0:0:
64,192,341272,128,0,341415:0:0:0:0:
320,192,341272,128,0,341343:0:0:0:0:
448,192,341272,128,0,341343:0:0:0:0:
192,192,341415,1,0,0:0:0:0:
320,192,341415,1,0,0:0:0:0:
320,192,341486,1,0,0:0:0:0:
64,192,341486,1,0,0:0:0:0:
192,192,341558,1,0,0:0:0:0:
448,192,341558,128,0,341701:0:0:0:0:
64,192,341593,1,0,0:0:0:0:
320,192,341629,128,0,341772:0:0:0:0:
192,192,341701,128,0,341843:0:0:0:0:
64,192,341772,128,0,341843:0:0:0:0:
448,192,341843,1,0,0:0:0:0:
320,192,341843,128,0,341915:0:0:0:0:
192,192,341915,1,0,0:0:0:0:
64,192,341915,128,0,341986:0:0:0:0:
192,192,341986,1,0,0:0:0:0:
448,192,341986,128,0,342058:0:0:0:0:
320,192,342058,1,0,0:0:0:0:
64,192,342058,128,0,342129:0:0:0:0:
192,192,342129,128,0,342201:0:0:0:0:
448,192,342129,128,0,342201:0:0:0:0:
320,192,342129,128,0,342343:0:0:0:0:
448,192,342272,128,0,342343:0:0:0:0:
64,192,342272,128,0,342343:0:0:0:0:
192,192,342272,128,0,342486:0:0:0:0:
64,192,342415,128,0,342486:0:0:0:0:
448,192,342415,128,0,342629:0:0:0:0:
320,192,342415,128,0,342486:0:0:0:0:
320,192,342558,128,0,342629:0:0:0:0:
64,192,342558,128,0,342629:0:0:0:0:
192,192,342558,128,0,342701:0:0:0:0:
64,192,342701,128,0,342843:0:0:0:0:
448,192,342701,128,0,342772:0:0:0:0:
320,192,342701,128,0,342843:0:0:0:0:
192,192,342772,128,0,342843:0:0:0:0:
448,192,342843,1,0,0:0:0:0:
448,192,342915,1,0,0:0:0:0:
192,192,342986,128,0,343129:0:0:0:0:
64,192,342986,128,0,343058:0:0:0:0:
320,192,342986,128,0,343129:0:0:0:0:
448,192,343058,128,0,343129:0:0:0:0:
64,192,343129,1,0,0:0:0:0:
64,192,343201,1,0,0:0:0:0:
192,192,343272,128,0,343415:0:0:0:0:
448,192,343272,128,0,343343:0:0:0:0:
320,192,343272,128,0,343343:0:0:0:0:
448,192,343415,1,0,0:0:0:0:
320,192,343415,1,0,0:0:0:0:
320,192,343486,1,0,0:0:0:0:
64,192,343486,1,0,0:0:0:0:
192,192,343558,128,0,343629:0:0:0:0:
64,192,343558,128,0,343629:0:0:0:0:
448,192,343558,128,0,343701:0:0:0:0:
192,192,343701,1,0,0:0:0:0:
64,192,343701,1,0,0:0:0:0:
192,192,343772,1,0,0:0:0:0:
448,192,343772,1,0,0:0:0:0:
64,192,343843,128,0,343986:0:0:0:0:
448,192,343843,128,0,343915:0:0:0:0:
320,192,343843,128,0,343915:0:0:0:0:
320,192,343986,1,0,0:0:0:0:
448,192,343986,128,0,344058:0:0:0:0:
64,192,344058,1,0,0:0:0:0:
320,192,344058,128,0,344129:0:0:0:0:
64,192,344129,1,0,0:0:0:0:
448,192,344129,128,0,344201:0:0:0:0:
320,192,344201,128,0,344272:0:0:0:0:
64,192,344272,1,0,0:0:0:0:
192,192,344272,128,0,344343:0:0:0:0:
320,192,344343,1,0,0:0:0:0:
448,192,344343,128,0,344415:0:0:0:0:
320,192,344415,128,0,344486:0:0:0:0:
64,192,344415,128,0,344486:0:0:0:0:
192,192,344415,128,0,344558:0:0:0:0:
448,192,344486,128,0,344629:0:0:0:0:
64,192,344558,128,0,344629:0:0:0:0:
320,192,344558,128,0,344843:0:0:0:0:
192,192,344629,128,0,344701:0:0:0:0:
448,192,344701,128,0,344772:0:0:0:0:
64,192,344701,128,0,344772:0:0:0:0:
192,192,344772,128,0,344915:0:0:0:0:
448,192,344843,128,0,344915:0:0:0:0:
64,192,344843,128,0,344915:0:0:0:0:
320,192,344915,128,0,344986:0:0:0:0:
448,192,344986,128,0,345272:0:0:0:0:
64,192,344986,128,0,345058:0:0:0:0:
192,192,344986,128,0,345201:0:0:0:0:
320,192,345058,128,0,345129:0:0:0:0:
64,192,345129,128,0,345201:0:0:0:0:
320,192,345201,128,0,345486:0:0:0:0:
64,192,345272,128,0,345486:0:0:0:0:
192,192,345272,128,0,345343:0:0:0:0:
448,192,345343,128,0,345415:0:0:0:0:
192,192,345415,128,0,345486:0:0:0:0:
448,192,345486,128,0,345558:0:0:0:0:
64,192,345558,128,0,345701:0:0:0:0:
192,192,345558,128,0,345629:0:0:0:0:
320,192,345558,128,0,345629:0:0:0:0:
448,192,345629,128,0,345701:0:0:0:0:
192,192,345701,1,0,0:0:0:0:
320,192,345701,1,0,0:0:0:0:
192,192,345772,1,0,0:0:0:0:
320,192,345772,128,0,345843:0:0:0:0:
448,192,345843,1,0,0:0:0:0:
64,192,345843,128,0,345915:0:0:0:0:
192,192,345915,128,0,345986:0:0:0:0:
320,192,345986,1,0,0:0:0:0:
448,192,345986,1,0,0:0:0:0:
448,192,346058,1,0,0:0:0:0:
320,192,346058,128,0,346129:0:0:0:0:
192,192,346129,1,0,0:0:0:0:
64,192,346129,128,0,346343:0:0:0:0:
448,192,346165,1,0,0:0:0:0:
320,192,346201,1,0,0:0:0:0:
192,192,346272,128,0,346558:0:0:0:0:
448,192,346343,128,0,346629:0:0:0:0:
64,192,346415,128,0,346486:0:0:0:0:
320,192,346486,128,0,346629:0:0:0:0:
64,192,346558,128,0,346629:0:0:0:0:
192,192,346629,128,0,346701:0:0:0:0:
64,192,346701,128,0,346915:0:0:0:0:
320,192,346701,128,0,346772:0:0:0:0:
448,192,346701,128,0,346843:0:0:0:0:
192,192,346772,128,0,346915:0:0:0:0:
320,192,346843,128,0,346915:0:0:0:0:
448,192,346915,128,0,346986:0:0:0:0:
64,192,346986,1,0,0:0:0:0:
192,192,346986,128,0,347058:0:0:0:0:
320,192,346986,128,0,347058:0:0:0:0:
64,192,347058,128,0,347129:0:0:0:0:
320,192,347129,1,0,0:0:0:0:
192,192,347129,128,0,347201:0:0:0:0:
448,192,347129,128,0,347201:0:0:0:0:
320,192,347201,128,0,347272:0:0:0:0:
192,192,347272,1,0,0:0:0:0:
448,192,347272,128,0,347343:0:0:0:0:
64,192,347272,128,0,347343:0:0:0:0:
192,192,347343,128,0,347415:0:0:0:0:
320,192,347415,1,0,0:0:0:0:
64,192,347415,128,0,347629:0:0:0:0:
448,192,347415,128,0,347558:0:0:0:0:
320,192,347486,128,0,347629:0:0:0:0:
192,192,347558,128,0,347629:0:0:0:0:
448,192,347629,128,0,347701:0:0:0:0:
64,192,347701,128,0,347986:0:0:0:0:
192,192,347701,128,0,347986:0:0:0:0:
320,192,347701,128,0,347986:0:0:0:0:
448,192,347986,128,0,348129:0:0:0:0:
64,192,348129,1,0,0:0:0:0:
192,192,348129,128,0,348201:0:0:0:0:
320,192,348129,128,0,348201:0:0:0:0:
64,192,348201,128,0,348272:0:0:0:0:
448,192,348272,1,0,0:0:0:0:
192,192,348272,128,0,348343:0:0:0:0:
320,192,348272,128,0,348343:0:0:0:0:
448,192,348343,128,0,348415:0:0:0:0:
64,192,348415,1,0,0:0:0:0:
320,192,348415,128,0,348486:0:0:0:0:
192,192,348415,128,0,348486:0:0:0:0:
64,192,348486,128,0,348558:0:0:0:0:
192,192,348558,128,0,348772:0:0:0:0:
320,192,348558,128,0,348772:0:0:0:0:
448,192,348558,128,0,348772:0:0:0:0:
64,192,348843,128,0,349201:0:0:0:0:
192,192,348843,128,0,349058:0:0:0:0:
448,192,348843,128,0,349201:0:0:0:0:
192,192,349129,128,0,349201:0:0:0:0:
320,192,349201,128,0,349272:0:0:0:0:
192,192,349272,1,0,0:0:0:0:
448,192,349272,128,0,349343:0:0:0:0:
64,192,349272,128,0,349343:0:0:0:0:
192,192,349343,128,0,349415:0:0:0:0:
448,192,349415,1,0,0:0:0:0:
64,192,349415,128,0,349486:0:0:0:0:
320,192,349415,128,0,349486:0:0:0:0:
448,192,349486,128,0,349558:0:0:0:0:
64,192,349558,1,0,0:0:0:0:
320,192,349558,128,0,349629:0:0:0:0:
192,192,349558,128,0,349629:0:0:0:0:
64,192,349629,128,0,349701:0:0:0:0:
192,192,349701,128,0,349915:0:0:0:0:
320,192,349701,128,0,349915:0:0:0:0:
448,192,349701,128,0,349915:0:0:0:0:
64,192,349986,128,0,350272:0:0:0:0:
320,192,349986,128,0,350272:0:0:0:0:
448,192,349986,128,0,350272:0:0:0:0:
192,192,350272,128,0,350415:0:0:0:0:
448,192,350415,1,0,0:0:0:0:
64,192,350415,128,0,350486:0:0:0:0:
320,192,350415,128,0,350486:0:0:0:0:
448,192,350486,128,0,350558:0:0:0:0:
64,192,350558,128,0,350629:0:0:0:0:
192,192,350558,128,0,350677:0:0:0:0:
320,192,350558,128,0,350724:0:0:0:0:
448,192,350629,128,0,350772:0:0:0:0:
64,192,350701,1,0,0:0:0:0:
192,192,350748,1,0,0:0:0:0:
320,192,350796,1,0,0:0:0:0:
448,192,350843,1,0,0:0:0:0:
192,192,350891,1,0,0:0:0:0:
320,192,350939,1,0,0:0:0:0:
64,192,350986,1,0,0:0:0:0:
448,192,350986,1,0,0:0:0:0:
192,192,351058,1,0,0:0:0:0:
448,192,351129,128,0,351272:0:0:0:0:
320,192,351129,128,0,351201:0:0:0:0:
64,192,351129,128,0,351415:0:0:0:0:
192,192,351201,128,0,351343:0:0:0:0:
320,192,351272,128,0,351415:0:0:0:0:
448,192,351343,128,0,351415:0:0:0:0:
192,192,351415,128,0,351486:0:0:0:0:
448,192,351486,128,0,351558:0:0:0:0:
64,192,351558,1,0,0:0:0:0:
192,192,351558,128,0,351629:0:0:0:0:
320,192,351558,128,0,351629:0:0:0:0:
64,192,351629,128,0,351701:0:0:0:0:
320,192,351701,1,0,0:0:0:0:
192,192,351701,128,0,351772:0:0:0:0:
448,192,351701,128,0,351772:0:0:0:0:
320,192,351772,128,0,351843:0:0:0:0:
192,192,351843,1,0,0:0:0:0:
448,192,351843,128,0,351915:0:0:0:0:
64,192,351843,128,0,351915:0:0:0:0:
192,192,351915,128,0,351986:0:0:0:0:
320,192,351986,1,0,0:0:0:0:
64,192,351986,128,0,352201:0:0:0:0:
448,192,351986,128,0,352129:0:0:0:0:
320,192,352058,128,0,352201:0:0:0:0:
192,192,352129,128,0,352201:0:0:0:0:
448,192,352201,128,0,352272:0:0:0:0:
64,192,352272,128,0,352558:0:0:0:0:
192,192,352272,128,0,352558:0:0:0:0:
320,192,352272,128,0,352558:0:0:0:0:
448,192,352558,128,0,352701:0:0:0:0:
64,192,352701,1,0,0:0:0:0:
192,192,352701,128,0,352772:0:0:0:0:
320,192,352701,128,0,352772:0:0:0:0:
64,192,352772,128,0,352843:0:0:0:0:
448,192,352843,1,0,0:0:0:0:
192,192,352843,128,0,352915:0:0:0:0:
320,192,352843,128,0,352915:0:0:0:0:
448,192,352915,128,0,352986:0:0:0:0:
64,192,352986,1,0,0:0:0:0:
320,192,352986,128,0,353058:0:0:0:0:
192,192,352986,128,0,353058:0:0:0:0:
64,192,353058,128,0,353129:0:0:0:0:
192,192,353129,128,0,353343:0:0:0:0:
320,192,353129,128,0,353343:0:0:0:0:
448,192,353129,128,0,353343:0:0:0:0:
64,192,353415,128,0,353772:0:0:0:0:
192,192,353415,128,0,353629:0:0:0:0:
448,192,353415,128,0,353772:0:0:0:0:
192,192,353701,128,0,353772:0:0:0:0:
320,192,353772,128,0,353843:0:0:0:0:
192,192,353843,1,0,0:0:0:0:
448,192,353843,128,0,353915:0:0:0:0:
64,192,353843,128,0,353915:0:0:0:0:
192,192,353915,128,0,353986:0:0:0:0:
448,192,353986,1,0,0:0:0:0:
64,192,353986,128,0,354058:0:0:0:0:
320,192,353986,128,0,354058:0:0:0:0:
448,192,354058,128,0,354129:0:0:0:0:
64,192,354129,1,0,0:0:0:0:
320,192,354129,128,0,354201:0:0:0:0:
192,192,354129,128,0,354201:0:0:0:0:
64,192,354201,128,0,354272:0:0:0:0:
192,192,354272,128,0,354343:0:0:0:0:
320,192,354272,128,0,354415:0:0:0:0:
448,192,354343,128,0,354415:0:0:0:0:
64,192,354415,128,0,354486:0:0:0:0:
192,192,354415,128,0,354486:0:0:0:0:
320,192,354486,128,0,354558:0:0:0:0:
64,192,354558,128,0,354772:0:0:0:0:
192,192,354558,128,0,354629:0:0:0:0:
448,192,354558,128,0,354701:0:0:0:0:
320,192,354629,128,0,354915:0:0:0:0:
192,192,354701,128,0,354843:0:0:0:0:
448,192,354772,128,0,354915:0:0:0:0:
64,192,354843,128,0,354915:0:0:0:0:
192,192,354915,128,0,354986:0:0:0:0:
320,192,354986,1,0,0:0:0:0:
64,192,354986,1,0,0:0:0:0:
448,192,355034,1,0,0:0:0:0:
192,192,355081,1,0,0:0:0:0:
320,192,355129,1,0,0:0:0:0:
448,192,355129,1,0,0:0:0:0:
64,192,355177,1,0,0:0:0:0:
448,192,355224,1,0,0:0:0:0:
64,192,355272,1,0,0:0:0:0:
320,192,355320,1,0,0:0:0:0:
448,192,355367,1,0,0:0:0:0:
192,192,355415,1,0,0:0:0:0:
320,192,355462,1,0,0:0:0:0:
64,192,355510,1,0,0:0:0:0:
192,192,355558,1,0,0:0:0:0:
320,192,355605,1,0,0:0:0:0:
448,192,355653,1,0,0:0:0:0:
64,192,355701,128,0,355915:0:0:0:0:
192,192,355701,128,0,355772:0:0:0:0:
320,192,355701,128,0,355986:0:0:0:0:
448,192,355772,128,0,355843:0:0:0:0:
192,192,355843,128,0,356093:0:0:0:0:
448,192,355915,128,0,356058:0:0:0:0:
64,192,355986,128,0,356058:0:0:0:0:
320,192,356058,128,0,356129:0:0:0:0:
64,192,356129,1,0,0:0:0:0:
448,192,356129,1,0,0:0:0:0:
192,192,356165,1,0,0:0:0:0:
320,192,356201,1,0,0:0:0:0:
64,192,356236,1,0,0:0:0:0:
192,192,356272,1,0,0:0:0:0:
448,192,356308,1,0,0:0:0:0:
320,192,356343,1,0,0:0:0:0:
192,192,356379,1,0,0:0:0:0:
64,192,356415,1,0,0:0:0:0:
448,192,356415,1,0,0:0:0:0:
448,192,356486,128,0,356558:0:0:0:0:
320,192,356486,128,0,356558:0:0:0:0:
192,192,356558,128,0,356629:0:0:0:0:
64,192,356558,128,0,356629:0:0:0:0:
448,192,356629,128,0,356772:0:0:0:0:
320,192,356701,128,0,356772:0:0:0:0:
64,192,356701,128,0,356772:0:0:0:0:
192,192,356772,128,0,356843:0:0:0:0:
64,192,356843,128,0,356986:0:0:0:0:
320,192,356843,128,0,357058:0:0:0:0:
448,192,356843,128,0,356915:0:0:0:0:
192,192,356915,128,0,357272:0:0:0:0:
448,192,356986,128,0,357201:0:0:0:0:
64,192,357058,128,0,357129:0:0:0:0:
320,192,357129,128,0,357236:0:0:0:0:
64,192,357201,128,0,357272:0:0:0:0:
448,192,357272,1,0,0:0:0:0:
320,192,357308,1,0,0:0:0:0:
192,192,357343,1,0,0:0:0:0:
448,192,357379,1,0,0:0:0:0:
320,192,357415,1,0,0:0:0:0:
64,192,357451,1,0,0:0:0:0:
192,192,357486,1,0,0:0:0:0:
320,192,357522,1,0,0:0:0:0:
64,192,357558,1,0,0:0:0:0:
448,192,357558,128,0,357653:0:0:0:0:
192,192,357605,128,0,357701:0:0:0:0:
320,192,357653,128,0,357843:0:0:0:0:
64,192,357701,1,0,0:0:0:0:
448,192,357701,128,0,357796:0:0:0:0:
192,192,357748,128,0,357891:0:0:0:0:
64,192,357796,128,0,357939:0:0:0:0:
448,192,357843,128,0,357891:0:0:0:0:
320,192,357891,128,0,357939:0:0:0:0:
192,192,357939,128,0,357986:0:0:0:0:
64,192,357986,128,0,358415:0:0:0:0:
320,192,357986,128,0,358201:0:0:0:0:
448,192,357986,128,0,358379:0:0:0:0:
192,192,358272,128,0,358343:0:0:0:0:
320,192,358343,128,0,358415:0:0:0:0:
192,192,358415,1,0,0:0:0:0:
448,192,358451,1,0,0:0:0:0:
64,192,358486,1,0,0:0:0:0:
320,192,358522,1,0,0:0:0:0:
448,192,358558,1,0,0:0:0:0:
192,192,358593,1,0,0:0:0:0:
64,192,358629,1,0,0:0:0:0:
448,192,358665,1,0,0:0:0:0:
320,192,358701,1,0,0:0:0:0:
192,192,358701,128,0,358772:0:0:0:0:
64,192,358748,128,0,358915:0:0:0:0:
448,192,358796,128,0,358843:0:0:0:0:
192,192,358843,128,0,358986:0:0:0:0:
320,192,358843,1,0,0:0:0:0:
448,192,358891,128,0,359081:0:0:0:0:
320,192,358939,128,0,359034:0:0:0:0:
64,192,358986,128,0,359081:0:0:0:0:
192,192,359034,128,0,359081:0:0:0:0:
320,192,359081,128,0,359367:0:0:0:0:
64,192,359129,128,0,359522:0:0:0:0:
192,192,359129,128,0,359486:0:0:0:0:
448,192,359129,128,0,359558:0:0:0:0:
320,192,359415,128,0,359558:0:0:0:0:
192,192,359558,1,0,0:0:0:0:
64,192,359593,1,0,0:0:0:0:
448,192,359629,1,0,0:0:0:0:
192,192,359665,1,0,0:0:0:0:
64,192,359701,1,0,0:0:0:0:
320,192,359736,1,0,0:0:0:0:
448,192,359772,1,0,0:0:0:0:
64,192,359808,1,0,0:0:0:0:
192,192,359843,128,0,360129:0:0:0:0:
320,192,359843,128,0,359939:0:0:0:0:
448,192,359891,128,0,359986:0:0:0:0:
64,192,359939,1,0,0:0:0:0:
320,192,359986,128,0,360081:0:0:0:0:
64,192,360034,128,0,360129:0:0:0:0:
448,192,360081,128,0,360201:0:0:0:0:
320,192,360129,128,0,360201:0:0:0:0:
192,192,360177,128,0,360224:0:0:0:0:
64,192,360224,128,0,360272:0:0:0:0:
192,192,360272,128,0,360629:0:0:0:0:
320,192,360272,128,0,360558:0:0:0:0:
448,192,360272,128,0,360701:0:0:0:0:
64,192,360558,128,0,360665:0:0:0:0:
320,192,360629,128,0,360701:0:0:0:0:
192,192,360701,1,0,0:0:0:0:
64,192,360736,1,0,0:0:0:0:
448,192,360772,1,0,0:0:0:0:
320,192,360808,1,0,0:0:0:0:
64,192,360843,1,0,0:0:0:0:
448,192,360879,1,0,0:0:0:0:
320,192,360915,1,0,0:0:0:0:
192,192,360951,1,0,0:0:0:0:
448,192,360986,1,0,0:0:0:0:
64,192,360986,1,0,0:0:0:0:
448,192,361058,1,0,0:0:0:0:
192,192,361058,128,0,361129:0:0:0:0:
64,192,361129,1,0,0:0:0:0:
320,192,361129,128,0,361201:0:0:0:0:
448,192,361201,1,0,0:0:0:0:
64,192,361201,128,0,361272:0:0:0:0:
448,192,361272,1,0,0:0:0:0:
192,192,361272,128,0,361343:0:0:0:0:
64,192,361343,128,0,361415:0:0:0:0:
192,192,361415,128,0,361843:0:0:0:0:
320,192,361415,128,0,361808:0:0:0:0:
448,192,361415,128,0,361772:0:0:0:0:
64,192,361701,128,0,361843:0:0:0:0:
448,192,361843,1,0,0:0:0:0:
320,192,361879,1,0,0:0:0:0:
64,192,361915,1,0,0:0:0:0:
192,192,361951,1,0,0:0:0:0:
448,192,361986,1,0,0:0:0:0:
64,192,362022,1,0,0:0:0:0:
192,192,362058,1,0,0:0:0:0:
320,192,362093,1,0,0:0:0:0:
448,192,362129,1,0,0:0:0:0:
64,192,362129,1,0,0:0:0:0:
64,192,362201,1,0,0:0:0:0:
320,192,362201,128,0,362272:0:0:0:0:
192,192,362272,128,0,362343:0:0:0:0:
448,192,362272,1,0,0:0:0:0:
64,192,362343,1,0,0:0:0:0:
448,192,362343,128,0,362415:0:0:0:0:
64,192,362415,1,0,0:0:0:0:
320,192,362415,128,0,362486:0:0:0:0:
448,192,362486,128,0,362558:0:0:0:0:
64,192,362558,128,0,362772:0:0:0:0:
192,192,362558,128,0,362843:0:0:0:0:
320,192,362558,128,0,362808:0:0:0:0:
64,192,362843,1,0,0:0:0:0:
320,192,362879,1,0,0:0:0:0:
192,192,362915,1,0,0:0:0:0:
448,192,362951,1,0,0:0:0:0:
64,192,362986,1,0,0:0:0:0:
320,192,363022,1,0,0:0:0:0:
192,192,363058,1,0,0:0:0:0:
448,192,363093,1,0,0:0:0:0:
64,192,363129,128,0,363451:0:0:0:0:
192,192,363129,128,0,363379:0:0:0:0:
320,192,363129,128,0,363415:0:0:0:0:
448,192,363415,1,0,0:0:0:0:
192,192,363451,1,0,0:0:0:0:
320,192,363486,1,0,0:0:0:0:
64,192,363522,1,0,0:0:0:0:
448,192,363558,1,0,0:0:0:0:
192,192,363593,1,0,0:0:0:0:
320,192,363629,1,0,0:0:0:0:
64,192,363665,5,0,0:0:0:0:
192,192,363701,128,0,363915:0:0:0:0:
320,192,363701,128,0,363951:0:0:0:0:
448,192,363701,128,0,364022:0:0:0:0:
192,192,363986,1,0,0:0:0:0:
320,192,364022,1,0,0:0:0:0:
64,192,364058,1,0,0:0:0:0:
448,192,364093,1,0,0:0:0:0:
192,192,364129,1,0,0:0:0:0:
320,192,364165,1,0,0:0:0:0:
64,192,364201,1,0,0:0:0:0:
448,192,364236,1,0,0:0:0:0:
320,192,364272,1,0,0:0:0:0:
192,192,364272,128,0,364367:0:0:0:0:
64,192,364320,128,0,364415:0:0:0:0:
448,192,364367,128,0,364462:0:0:0:0:
192,192,364415,128,0,364510:0:0:0:0:
320,192,364462,128,0,364558:0:0:0:0:
64,192,364510,128,0,364605:0:0:0:0:
448,192,364558,128,0,364653:0:0:0:0:
192,192,364605,128,0,364701:0:0:0:0:
320,192,364653,128,0,364701:0:0:0:0:
448,192,364701,128,0,364796:0:0:0:0:
320,192,364748,128,0,364843:0:0:0:0:
192,192,364796,128,0,364843:0:0:0:0:
64,192,364843,128,0,364915:0:0:0:0:
448,192,364915,128,0,365415:0:0:0:0:
64,192,364986,128,0,365201:0:0:0:0:
320,192,365058,128,0,365129:0:0:0:0:
192,192,365129,128,0,365486:0:0:0:0:
320,192,365201,128,0,365272:0:0:0:0:
64,192,365272,128,0,365343:0:0:0:0:
320,192,365343,128,0,365915:0:0:0:0:
64,192,365415,128,0,365629:0:0:0:0:
448,192,365486,128,0,365558:0:0:0:0:
192,192,365558,128,0,365701:0:0:0:0:
448,192,365629,128,0,365843:0:0:0:0:
64,192,365701,128,0,365772:0:0:0:0:
192,192,365772,128,0,366129:0:0:0:0:
64,192,365843,128,0,366058:0:0:0:0:
448,192,365915,128,0,365986:0:0:0:0:
320,192,365986,128,0,366129:0:0:0:0:
448,192,366058,128,0,366129:0:0:0:0:
64,192,366129,128,0,366177:0:0:0:0:
320,192,366177,128,0,366272:0:0:0:0:
64,192,366224,128,0,366367:0:0:0:0:
448,192,366272,128,0,366320:0:0:0:0:
192,192,366320,128,0,366415:0:0:0:0:
448,192,366367,128,0,366510:0:0:0:0:
64,192,366415,128,0,366462:0:0:0:0:
192,192,366462,128,0,366558:0:0:0:0:
64,192,366510,128,0,366701:0:0:0:0:
448,192,366558,128,0,366605:0:0:0:0:
320,192,366605,128,0,366701:0:0:0:0:
448,192,366653,128,0,366796:0:0:0:0:
192,192,366701,128,0,366748:0:0:0:0:
320,192,366748,128,0,366843:0:0:0:0:
192,192,366796,128,0,366939:0:0:0:0:
448,192,366843,128,0,366891:0:0:0:0:
64,192,366891,128,0,366986:0:0:0:0:
448,192,366939,128,0,367081:0:0:0:0:
192,192,366986,128,0,367081:0:0:0:0:
320,192,367034,128,0,367129:0:0:0:0:
64,192,367081,128,0,367224:0:0:0:0:
448,192,367129,128,0,367224:0:0:0:0:
192,192,367177,128,0,367272:0:0:0:0:
320,192,367224,128,0,367320:0:0:0:0:
64,192,367272,128,0,367367:0:0:0:0:
448,192,367320,128,0,367415:0:0:0:0:
320,192,367367,128,0,367510:0:0:0:0:
192,192,367415,128,0,367510:0:0:0:0:
448,192,367462,128,0,367558:0:0:0:0:
64,192,367510,128,0,367605:0:0:0:0:
192,192,367558,128,0,367653:0:0:0:0:
320,192,367605,128,0,367701:0:0:0:0:
64,192,367653,128,0,367748:0:0:0:0:
448,192,367701,128,0,367748:0:0:0:0:
192,192,367748,128,0,367891:0:0:0:0:
448,192,367796,128,0,367891:0:0:0:0:
64,192,367843,128,0,367891:0:0:0:0:
320,192,367891,128,0,367986:0:0:0:0:
64,192,367939,128,0,368081:0:0:0:0:
448,192,367986,128,0,368034:0:0:0:0:
320,192,368034,128,0,368129:0:0:0:0:
448,192,368081,128,0,368224:0:0:0:0:
64,192,368129,128,0,368177:0:0:0:0:
192,192,368177,128,0,368272:0:0:0:0:
64,192,368224,128,0,368367:0:0:0:0:
448,192,368272,128,0,368367:0:0:0:0:
192,192,368320,128,0,368415:0:0:0:0:
320,192,368367,1,0,0:0:0:0:
64,192,368415,1,0,0:0:0:0:
320,192,368558,128,0,368701:0:0:0:0:
192,192,368558,128,0,368701:0:0:0:0:
64,192,368558,128,0,368701:0:0:0:0:
320,192,368748,128,0,368891:0:0:0:0:
192,192,368748,128,0,368891:0:0:0:0:
64,192,368748,128,0,368891:0:0:0:0:
448,192,368939,128,0,369081:0:0:0:0:
320,192,368939,128,0,369081:0:0:0:0:
192,192,368939,128,0,369081:0:0:0:0:
448,192,369129,128,0,369272:0:0:0:0:
320,192,369129,128,0,369272:0:0:0:0:
192,192,369129,128,0,369272:0:0:0:0:
448,192,369320,128,0,369462:0:0:0:0:
320,192,369320,128,0,369462:0:0:0:0:
192,192,369320,128,0,369462:0:0:0:0:
64,192,369843,128,0,370058:0:0:0:0:
192,192,369879,128,0,370629:0:0:0:0:
448,192,369879,128,0,370915:0:0:0:0:
320,192,369915,128,0,370343:0:0:0:0:
64,192,370129,128,0,371201:0:0:0:0:
320,192,370415,128,0,370665:0:0:0:0:
192,192,370701,128,0,371808:0:0:0:0:
320,192,370736,128,0,371772:0:0:0:0:
448,192,370986,1,0,0:0:0:0:
64,192,371272,128,0,372058:0:0:0:0:
448,192,371558,1,0,0:0:0:0:
320,192,371843,1,0,0:0:0:0:
192,192,371879,128,0,372343:0:0:0:0:
64,192,372129,128,0,373486:0:0:0:0:
192,192,372415,1,0,0:0:0:0:
448,192,372986,1,0,0:0:0:0:
192,192,373022,1,0,0:0:0:0:
320,192,373272,1,0,0:0:0:0:
64,192,373558,1,0,0:0:0:0:
192,192,373843,1,0,0:0:0:0:
64,192,374129,1,0,0:0:0:0:
192,192,374201,1,0,0:0:0:0:
448,192,374256,1,0,0:0:0:0:
448,192,375843,128,0,378701:0:0:0:0:
64,192,376415,128,0,378701:0:0:0:0:
192,192,376986,128,0,378701:0:0:0:0:
320,192,377558,128,0,378701:0:0:0:0:
