osu file format v14

[General]
AudioFilename: audio.mp3
AudioLeadIn: 0
PreviewTime: 133429
Countdown: 0
SampleSet: Soft
StackLeniency: 0.7
Mode: 2
LetterboxInBreaks: 0
WidescreenStoryboard: 0

[Editor]
Bookmarks: 1142,35427,74285,111014,133429,170000,200286,234701,270129,305558,337558,378701
DistanceSpacing: 1
BeatDivisor: 8
GridSize: 16
TimelineZoom: 4.699999

[Metadata]
Title:Catch the Glory
TitleUnicode:Catch the Glory
Artist:D-D-Dice vs. siromaru
ArtistUnicode:打打だいず vs. siromaru
Creator:Bunnrei
Version:Grand Collab
Source:osu!catch World Cup 2022
Tags:Jemzuu AJamez Deif osu_gangster Ster Chara -Plus- Featured Artist versus CWC 2022 Grand Finals Tiebreaker Electronic Instrumental poca_p0ca POCARI SWEAT mappers guild mg mpg
BeatmapID:3677233
BeatmapSetID:1794214

[Difficulty]
HPDrainRate:4
CircleSize:4.4
OverallDifficulty:9.9
ApproachRate:9.9
SliderMultiplier:1.92
SliderTickRate:1

[Events]
//Background and Video events
0,0,"img.jpg",0,0
//Break Periods
2,299186,303093
//Storyboard Layer 0 (Background)
//Storyboard Layer 1 (Fail)
//Storyboard Layer 2 (Pass)
//Storyboard Layer 3 (Foreground)
//Storyboard Layer 4 (Overlay)
//Storyboard Sound Samples

[TimingPoints]
1142,285.714285714286,4,2,3,50,1,0
2570,-100,4,2,3,40,0,0
2856,-100,4,2,1,40,0,0
3427,-100,4,2,2,40,0,0
3499,-100,4,2,1,40,0,0
10284,-100,4,2,5,40,0,0
11712,-100,4,2,1,40,0,0
12570,-100,4,2,2,40,0,0
12642,-100,4,2,1,40,0,0
19142,-100,4,2,1,30,0,0
19427,-100,4,2,2,80,0,0
19498,-100,4,2,1,45,0,0
19999,-100,4,2,3,45,0,0
28570,-100,4,2,3,50,0,0
33142,-33.3333333333333,4,2,1,60,0,0
33570,-100,4,2,1,60,0,0
34284,-33.3333333333333,4,2,1,60,0,0
34713,-100,4,2,1,60,0,0
34856,-100,4,2,6,60,0,0
35142,-100,4,2,5,60,0,0
35427,-100,4,2,1,60,0,0
41142,-100,4,2,1,65,0,0
41713,-100,4,2,1,70,0,0
42284,-100,4,2,1,75,0,0
42856,-100,4,2,1,80,0,0
43569,-100,4,2,1,60,0,0
43713,-100,4,2,5,60,0,0
44284,-100,4,2,6,60,0,0
44570,-100,4,2,1,65,0,0
44713,-83.3333333333333,4,2,2,65,0,0
45142,-83.3333333333333,4,2,1,65,0,0
46856,-83.3333333333333,4,2,2,65,0,0
47427,-83.3333333333333,4,2,1,65,0,0
48570,-83.3333333333333,4,2,5,65,0,0
48856,-83.3333333333333,4,2,6,65,0,0
49142,-100,4,2,5,65,0,0
49284,-100,4,2,5,60,0,0
49427,-100,4,2,1,60,0,0
51427,-28.5714285714286,4,2,1,60,0,0
52570,-83.3333333333333,4,2,1,60,0,0
60570,-83.3333333333333,4,2,2,60,0,0
60713,-83.3333333333333,4,2,1,60,0,0
64498,-83.3333333333333,4,2,6,60,0,0
64856,-83.3333333333333,4,2,1,60,0,0
64927,-83.3333333333333,4,2,6,60,0,0
65142,-83.3333333333333,4,2,1,60,0,0
69713,-83.3333333333333,4,2,2,60,0,0
69856,-83.3333333333333,4,2,1,60,0,0
69999,-45.4545454545455,4,2,1,60,0,0
70427,-83.3333333333333,4,2,1,60,0,0
70570,-41.6666666666667,4,2,1,60,0,0
70856,-83.3333333333333,4,2,1,60,0,0
71142,-83.3333333333333,4,2,2,60,0,0
71427,-83.3333333333333,4,2,1,60,0,0
71713,-83.3333333333333,4,2,3,60,0,0
71856,-83.3333333333333,4,2,1,60,0,0
72284,-83.3333333333333,4,2,4,60,0,0
72356,-83.3333333333333,4,2,1,60,0,0
72570,-83.3333333333333,4,2,5,60,0,0
72642,-83.3333333333333,4,2,1,60,0,0
73999,-83.3333333333333,4,2,6,60,0,0
74284,-83.3333333333333,4,2,1,60,0,0
74427,-40,4,2,1,60,0,0
75142,-83.3333333333333,4,2,1,60,0,0
75284,-40,4,2,1,60,0,0
76142,-83.3333333333333,4,2,1,60,0,0
76713,-40,4,2,1,60,0,0
76999,-83.3333333333333,4,2,1,60,0,0
77142,-40,4,2,1,60,0,0
77856,-83.3333333333333,4,2,1,60,0,0
77999,-40,4,2,1,60,0,0
78284,-83.3333333333333,4,2,1,60,0,0
82284,-83.3333333333333,4,2,5,60,0,0
82856,-83.3333333333333,4,2,6,60,0,0
83570,-40,4,2,6,60,0,0
83712,-40,4,2,1,60,0,0
83856,-83.3333333333333,4,2,1,60,0,0
83999,-40,4,2,1,60,0,0
85284,-83.3333333333333,4,2,1,60,0,0
85856,-40,4,2,1,60,0,0
86142,-83.3333333333333,4,2,1,60,0,0
86284,-40,4,2,1,60,0,0
86570,-83.3333333333333,4,2,1,60,0,0
86713,-40,4,2,1,60,0,0
86999,-83.3333333333333,4,2,1,60,0,0
87142,-40,4,2,1,60,0,0
87427,-83.3333333333333,4,2,1,60,0,0
92570,-62.5,4,2,4,60,0,0
92642,-62.5,4,2,1,60,0,0
93142,-62.5,4,2,2,60,0,0
93213,-62.5,4,2,1,60,0,0
94284,-62.5,4,2,2,60,0,0
94570,-62.5,4,2,1,60,0,0
95427,-62.5,4,2,2,60,0,0
95570,-62.5,4,2,1,60,0,0
96570,-62.5,4,2,2,60,0,0
96713,-62.5,4,2,1,60,0,0
97713,-62.5,4,2,2,60,0,0
97784,-62.5,4,2,1,60,0,0
98856,-62.5,4,2,2,60,0,0
98927,-62.5,4,2,1,60,0,0
99427,-80.6451612903226,4,2,1,60,0,0
101713,-83.3333333333333,4,2,1,60,0,0
109714,300,4,2,1,60,1,0
110014,315.789473684211,4,2,1,60,1,0
110329,333.333333333333,4,2,1,60,1,0
110662,352.941176470588,4,2,1,60,1,0
111014,375,4,2,2,70,1,0
111107,-100,4,2,1,40,0,0
111576,-100,4,2,3,40,0,0
112514,-100,4,2,1,40,0,0
113264,-100,4,2,3,40,0,0
114014,-100,4,2,1,40,0,0
114763,-100,4,2,3,40,0,0
117014,-100,4,2,3,50,0,0
117389,-100,4,2,3,60,0,0
117576,-100,4,2,3,70,0,0
117764,-100,4,2,3,40,0,0
118513,-100,4,2,1,40,0,0
118889,-100,4,2,3,40,0,0
120014,-100,4,2,1,40,0,0
121514,-66.6666666666667,4,2,4,60,0,0
122264,-66.6666666666667,4,2,6,60,0,0
123014,352.941176470588,4,2,4,60,1,0
123014,-67.5675675675676,4,2,4,60,0,0
125837,333.333333333333,4,2,4,60,1,0
125837,-71.4285714285714,4,2,4,60,0,0
128503,315.789473684211,4,2,4,70,1,0
128503,-75.187969924812,4,2,4,70,0,0
131029,300,4,2,4,70,1,0
131029,-79.3650793650794,4,2,4,70,0,0
132229,-79.3650793650794,4,2,5,70,0,0
132829,-79.3650793650794,4,2,6,70,0,0
133429,285.714285714286,4,2,1,70,1,1
133429,-80,4,2,1,70,0,1
138286,-42.9184549356223,4,2,1,70,0,1
138571,-80,4,2,1,70,0,1
140714,-42.9184549356223,4,2,1,70,0,1
141000,-80,4,2,1,70,0,1
141500,-80,4,2,5,70,0,1
142000,-80,4,2,6,70,0,1
142571,-80,4,2,1,70,0,1
149000,-42.9184549356223,4,2,1,70,0,1
149286,-80,4,2,1,70,0,1
149714,-66.6666666666667,4,2,1,70,0,1
150571,-80,4,2,1,70,0,1
150642,-80,4,2,5,70,0,1
151143,-80,4,2,6,70,0,1
151714,-80,4,2,1,70,0,1
159000,-42.9184549356223,4,2,1,70,0,1
159286,-80,4,2,1,70,0,1
159786,-80,4,2,5,70,0,1
160286,-80,4,2,6,70,0,1
160857,-80,4,2,3,70,0,1
161143,-80,4,2,1,70,0,1
163429,-42.9184549356223,4,2,1,70,0,1
163714,-80,4,2,1,70,0,1
163857,-42.9184549356223,4,2,1,70,0,1
164143,-42.9184549356223,4,2,3,70,0,1
164179,-42.9184549356223,4,2,1,70,0,1
164214,-80,4,2,1,70,0,1
167286,-42.9184549356223,4,2,1,70,0,1
167571,-80,4,2,1,70,0,1
170000,-100,4,2,3,70,0,0
170286,-83.3333333333333,4,2,5,70,0,1
170357,-83.3333333333333,4,2,5,60,0,0
173429,-83.3333333333333,4,2,6,60,0,0
173714,-83.3333333333333,4,2,5,60,0,0
177429,-83.3333333333333,4,2,6,60,0,0
177714,-83.3333333333333,4,2,5,60,0,0
177809,-83.3333333333333,4,2,6,60,0,0
178286,-83.3333333333333,4,2,5,60,0,0
182571,-83.3333333333333,4,2,6,60,0,0
182857,-83.3333333333333,4,2,5,60,0,0
188286,375,4,2,4,60,1,0
188286,-58.4795321637427,4,2,4,60,0,0
194286,-58.4795321637427,4,2,4,65,0,0
197286,-58.4795321637427,4,2,4,70,0,0
198786,-58.4795321637427,4,2,4,75,0,0
199536,-58.4795321637427,4,2,4,80,0,0
199911,-58.4795321637427,4,2,4,90,0,0
200286,-58.4795321637427,4,2,5,80,0,0
200379,-58.4795321637427,4,2,1,70,0,0
203286,-58.4795321637427,4,2,1,60,0,0
204786,-58.4795321637427,4,2,1,50,0,0
205536,-58.4795321637427,4,2,1,60,0,0
210879,-58.4795321637427,4,2,5,60,0,0
211067,-58.4795321637427,4,2,2,60,0,0
211161,-58.4795321637427,4,2,6,60,0,0
211348,-58.4795321637427,4,2,3,60,0,0
211442,-58.4795321637427,4,2,5,60,0,0
211629,-58.4795321637427,4,2,4,60,0,0
211911,-58.4795321637427,4,2,5,60,0,0
212098,-58.4795321637427,4,2,6,60,0,0
212191,-58.4795321637427,4,2,5,60,0,0
212286,-58.4795321637427,4,2,1,60,0,0
212473,-58.4795321637427,4,2,2,60,0,0
218286,-58.4795321637427,4,2,1,60,0,0
218473,-58.4795321637427,4,2,2,60,0,0
223067,-29.2397660818713,4,2,1,60,0,0
223254,-29.2397660818713,4,2,2,60,0,0
223348,-58.4795321637427,4,2,3,60,0,0
223535,-58.4795321637427,4,2,2,60,0,0
223629,-29.2397660818713,4,2,5,60,0,0
223816,-29.2397660818713,4,2,2,60,0,0
223911,-29.2397660818713,4,2,1,60,0,0
224286,352.941176470588,4,2,1,60,1,0
224462,-62.111801242236,4,2,2,60,0,0
225697,-62.111801242236,4,2,1,60,0,0
225874,-62.111801242236,4,2,2,60,0,0
227109,333.333333333333,4,2,1,60,1,0
227275,-65.7894736842105,4,2,2,60,0,0
228442,-65.7894736842105,4,2,1,60,0,0
228608,-65.7894736842105,4,2,2,60,0,0
229775,315.789473684211,4,2,1,60,1,0
229932,-69.4444444444444,4,2,2,60,0,0
231038,-69.4444444444444,4,2,1,60,0,0
231196,-69.4444444444444,4,2,2,60,0,0
232301,300,4,2,1,60,1,0
232451,-100,4,2,2,60,0,0
232526,-72.992700729927,4,2,2,60,0,0
233501,-72.992700729927,4,2,1,60,0,0
233651,-72.992700729927,4,2,2,60,0,0
234701,285.714285714286,4,2,1,60,1,0
235843,-100,4,2,6,60,0,0
236415,-100,4,2,1,60,0,0
236486,-100,4,2,6,60,0,0
236986,-100,4,2,1,60,0,0
237272,-42.9184549356223,4,2,1,60,0,0
237558,-100,4,2,1,60,0,0
238129,-100,4,2,5,60,0,0
238701,-100,4,2,1,60,0,0
238772,-100,4,2,5,60,0,0
239272,-100,4,2,1,60,0,0
240415,-100,4,2,6,60,0,0
240986,-100,4,2,1,60,0,0
241057,-100,4,2,6,60,0,0
241700,-100,4,2,1,60,0,0
241843,-42.9184549356223,4,2,1,60,0,0
242129,-100,4,2,1,60,0,0
242701,-100,4,2,5,60,0,0
243272,-100,4,2,6,60,0,0
243320,-100,4,2,1,60,0,0
244415,-83.3333333333333,4,2,1,60,0,0
244843,-71.4285714285714,4,2,1,60,0,0
245415,-100,4,2,1,60,0,0
245486,-100,4,2,6,60,0,0
245843,-100,4,2,1,60,0,0
245914,-100,4,2,6,60,0,0
246129,-100,4,2,1,60,0,0
246701,-83.3333333333333,4,2,1,60,0,0
247129,-71.4285714285714,4,2,1,60,0,0
247701,-100,4,2,1,60,0,0
247772,-100,4,2,5,60,0,0
248129,-100,4,2,1,60,0,0
248200,-100,4,2,5,60,0,0
248415,-100,4,2,1,60,0,0
248986,-83.3333333333333,4,2,1,60,0,0
249415,-71.4285714285714,4,2,1,60,0,0
249986,-100,4,2,1,60,0,0
250057,-100,4,2,6,60,0,0
250415,-100,4,2,1,60,0,0
250486,-100,4,2,6,60,0,0
250701,-100,4,2,2,60,0,0
250843,-83.3333333333333,4,2,1,60,0,0
251272,-71.4285714285714,4,2,1,60,0,0
251558,-71.4285714285714,4,2,3,60,0,0
251701,-62.5,4,2,3,60,0,0
251843,-62.5,4,2,1,60,0,0
251986,-62.5,4,2,4,60,0,0
252129,-35.7142857142857,4,2,4,60,0,0
252271,-35.7142857142857,4,2,1,60,0,0
252415,-39.0625,4,2,3,60,0,0
252557,-39.0625,4,2,1,60,0,0
252701,-42.9184549356223,4,2,3,70,0,0
252843,-42.9184549356223,4,2,3,60,0,0
252986,-100,4,2,1,70,0,0
253057,-100,4,2,6,70,0,0
254986,-37.593984962406,4,2,7,85,0,0
255128,-37.593984962406,4,2,8,100,0,0
255272,-100,4,2,1,60,0,0
255343,-100,4,2,6,70,0,0
256986,-42.9184549356223,4,2,7,70,0,0
257558,-100,4,2,1,70,0,0
257629,-100,4,2,6,70,0,0
259272,-100,4,2,9,70,0,0
259843,-100,4,2,1,70,0,0
259914,-100,4,2,6,70,0,0
262129,-42.9184549356223,4,2,2,70,0,0
263985,-42.9184549356223,4,2,6,70,0,0
264415,-37.593984962406,4,2,1,85,0,0
266129,-37.593984962406,4,2,3,85,0,0
266558,-37.593984962406,4,2,6,90,0,0
266986,-100,4,2,1,60,0,0
268701,-100,4,2,6,60,0,0
270272,-83.3333333333333,4,2,1,70,0,0
270986,-83.3333333333333,4,2,4,70,0,0
271058,-83.3333333333333,4,2,1,70,0,0
271272,-83.3333333333333,4,2,3,70,0,0
271558,-83.3333333333333,4,2,2,70,0,1
271701,-37.593984962406,4,2,1,70,0,1
271986,-83.3333333333333,4,2,1,70,0,1
272129,-37.593984962406,4,2,1,70,0,1
272415,-83.3333333333333,4,2,4,70,0,1
272558,-37.593984962406,4,2,1,70,0,1
272843,-83.3333333333333,4,2,5,70,0,1
272986,-37.593984962406,4,2,1,70,0,1
273272,-37.593984962406,4,2,3,70,0,1
273343,-37.593984962406,4,2,1,70,0,1
273558,-83.3333333333333,4,2,3,60,0,0
273843,-83.3333333333333,4,2,1,70,0,1
274701,-83.3333333333333,4,2,6,70,0,1
275843,-83.3333333333333,4,2,5,70,0,1
275986,-83.3333333333333,4,2,1,70,0,1
276843,-83.3333333333333,4,2,6,70,0,1
277272,-83.3333333333333,4,2,5,70,0,1
277558,-83.3333333333333,4,2,1,70,0,1
280701,-83.3333333333333,4,2,2,70,0,1
280843,-36.101083032491,4,2,1,70,0,1
281129,-83.3333333333333,4,2,1,70,0,1
281272,-36.101083032491,4,2,1,70,0,1
281558,-83.3333333333333,4,2,4,70,0,1
281701,-36.101083032491,4,2,1,70,0,1
281986,-83.3333333333333,4,2,5,70,0,1
282129,-36.101083032491,4,2,1,70,0,1
282415,-36.101083032491,4,2,3,70,0,1
282486,-36.101083032491,4,2,1,70,0,1
282701,-83.3333333333333,4,2,3,70,0,1
282986,-83.3333333333333,4,2,1,70,0,1
283843,-83.3333333333333,4,2,6,70,0,1
284986,-83.3333333333333,4,2,5,70,0,1
285081,-83.3333333333333,4,2,1,65,0,1
288415,-83.3333333333333,4,2,5,60,0,1
288486,-83.3333333333333,4,2,8,65,0,1
289272,-83.3333333333333,4,2,4,65,0,1
289343,-83.3333333333333,4,2,6,65,0,1
289843,-83.3333333333333,4,2,2,70,0,1
289986,-34.7222222222222,4,2,1,70,0,1
290272,-83.3333333333333,4,2,1,70,0,1
290415,-34.7222222222222,4,2,1,70,0,1
290701,-83.3333333333333,4,2,4,70,0,1
290843,-34.7222222222222,4,2,1,70,0,1
291129,-83.3333333333333,4,2,5,70,0,1
291272,-34.7222222222222,4,2,1,70,0,1
291558,-34.7222222222222,4,2,3,70,0,1
291629,-34.7222222222222,4,2,1,70,0,1
291843,-83.3333333333333,4,2,3,70,0,1
292129,-83.3333333333333,4,2,1,70,0,1
292986,-83.3333333333333,4,2,6,70,0,1
294129,-83.3333333333333,4,2,5,70,0,1
294272,-83.3333333333333,4,2,1,70,0,1
295129,-83.3333333333333,4,2,6,70,0,1
295558,-83.3333333333333,4,2,5,70,0,1
295843,-83.3333333333333,4,2,1,70,0,1
298605,-83.3333333333333,4,2,1,70,0,0
298986,-83.3333333333333,4,2,2,80,0,0
303558,-100,4,2,7,70,0,0
303629,-100,4,2,1,30,0,0
304129,-100,4,2,1,40,0,0
304486,-100,4,2,1,50,0,0
304843,-100,4,2,1,60,0,0
305129,-83.3333333333333,4,2,1,70,0,0
305272,-83.3333333333333,4,2,1,75,0,0
305415,-83.3333333333333,4,2,1,80,0,0
305986,-83.3333333333333,4,2,2,80,0,0
306271,-83.3333333333333,4,2,1,80,0,0
306415,-37.593984962406,4,2,1,60,0,0
306701,-83.3333333333333,4,2,5,60,0,0
307843,-83.3333333333333,4,2,6,75,0,0
308415,-83.3333333333333,4,2,6,70,0,0
308986,-83.3333333333333,4,2,5,60,0,0
309272,-83.3333333333333,4,2,6,60,0,0
309558,-83.3333333333333,4,2,6,55,0,0
309843,-83.3333333333333,4,2,6,50,0,0
310701,-83.3333333333333,4,2,1,60,0,0
311272,-83.3333333333333,4,2,6,65,0,0
311843,-83.3333333333333,4,2,5,65,0,0
312415,-100,4,2,2,65,0,0
312486,-100,4,2,1,60,0,0
312986,-100,4,2,3,50,0,0
316986,-100,4,2,3,55,0,0
321558,-100,4,2,3,60,0,0
326129,-33.3333333333333,4,2,1,60,0,0
326558,-100,4,2,1,60,0,0
327272,-33.3333333333333,4,2,1,60,0,0
327701,-100,4,2,1,60,0,0
327843,-100,4,2,6,60,0,0
328129,-100,4,2,5,60,0,0
328415,-100,4,2,1,60,0,0
332986,-100,4,2,1,65,0,0
334129,-100,4,2,1,70,0,0
334701,-100,4,2,1,74,0,0
335272,-100,4,2,1,78,0,0
335843,-100,4,2,1,82,0,0
336415,-100,4,2,1,85,0,0
336701,-100,4,2,5,70,0,0
336986,-100,4,2,6,70,0,0
337558,-100,4,2,1,70,0,1
337701,-75.187969924812,4,2,2,70,0,1
338129,-75.187969924812,4,2,1,70,0,1
339843,-75.187969924812,4,2,2,70,0,1
340415,-75.187969924812,4,2,1,70,0,1
341558,-75.187969924812,4,2,5,70,0,1
341843,-75.187969924812,4,2,6,70,0,1
342129,-75.187969924812,4,2,1,70,0,1
342272,-75.187969924812,4,2,2,70,0,1
342701,-75.187969924812,4,2,1,70,0,1
344415,-75.187969924812,4,2,2,70,0,1
344986,-75.187969924812,4,2,1,70,0,1
346129,-75.187969924812,4,2,5,70,0,1
346415,-75.187969924812,4,2,6,70,0,1
346701,-75.187969924812,4,2,1,70,0,1
347701,-75.187969924812,4,2,7,70,0,1
347772,-75.187969924812,4,2,1,70,0,1
348843,-75.187969924812,4,2,7,70,0,1
348915,-75.187969924812,4,2,1,70,0,1
349986,-75.187969924812,4,2,7,70,0,1
350058,-75.187969924812,4,2,1,70,0,1
350843,-75.187969924812,4,2,6,70,0,1
351129,-75.187969924812,4,2,7,70,0,1
351200,-75.187969924812,4,2,1,70,0,1
352272,-75.187969924812,4,2,7,70,0,1
352343,-75.187969924812,4,2,1,70,0,1
353415,-75.187969924812,4,2,7,70,0,1
353486,-75.187969924812,4,2,1,70,0,1
354558,-75.187969924812,4,2,7,70,0,1
354629,-75.187969924812,4,2,1,70,0,1
355272,-75.187969924812,4,2,6,70,0,1
355510,-75.187969924812,4,2,5,70,0,1
355701,-75.187969924812,4,2,7,70,0,1
355772,-75.187969924812,4,2,1,70,0,1
356843,-75.187969924812,4,2,7,70,0,1
356914,-75.187969924812,4,2,1,70,0,1
357986,-75.187969924812,4,2,7,70,0,1
358058,-75.187969924812,4,2,1,70,0,1
359129,-75.187969924812,4,2,7,70,0,1
359201,-75.187969924812,4,2,1,70,0,1
359772,-75.187969924812,4,2,5,70,0,1
359986,-75.187969924812,4,2,6,70,0,1
360272,-75.187969924812,4,2,1,70,0,1
364843,-75.187969924812,4,2,1,70,0,0
367558,-75.187969924812,4,2,6,70,0,0
368415,-75.187969924812,4,2,6,70,0,0
368558,-75.187969924812,4,2,1,60,0,0
368939,-37.593984962406,4,2,3,60,0,0
369320,-37.593984962406,4,2,4,60,0,0
369843,-75.187969924812,4,2,1,60,0,1
370058,-133.333333333333,4,2,1,60,0,1
370701,-133.333333333333,4,2,1,30,0,1
371129,-133.333333333333,4,2,1,15,0,1
371558,-133.333333333333,4,2,1,5,0,1
371843,-133.333333333333,4,2,1,30,0,0
374129,-43.4782608695652,4,2,2,60,0,0
374272,-43.4782608695652,4,2,2,5,0,0
375843,-43.4782608695652,4,2,99,60,0,0
375915,-43.4782608695652,4,2,1,5,0,0
376415,-43.4782608695652,4,2,99,60,0,0
376701,-43.4782608695652,4,2,99,5,0,0
376986,-43.4782608695652,4,2,99,20,0,0
377272,-43.4782608695652,4,2,99,5,0,0
377558,-43.4782608695652,4,2,99,40,0,0
377843,-43.4782608695652,4,2,99,5,0,0
378129,-43.4782608695652,4,2,98,50,0,0
378415,-43.4782608695652,4,2,98,60,0,0
378700,-43.4782608695652,4,2,3,25,0,0

[Colours]
Combo1 : 255,207,64
Combo2 : 166,124,0
Combo3 : 255,191,0
Combo4 : 191,155,48

[HitObjects]
400,368,1142,6,0,B|464:368|464:16|400:16|400:16|208:16|208:16|400:16|480:256,1,960,12|2,2:0|2:0,0:0:0:0:
288,16,2856,2,0,L|480:16,1,192,2|2,2:3|2:0,0:0:0:0:
224,368,3427,6,0,B|416:368|416:368|476:292|476:292|416:368|416:368|224:368|224:368|160:368|160:16|224:16,1,960,2|2,2:0|2:0,0:0:0:0:
320,16,5142,1,2,2:0:0:0:
416,16,5427,1,2,2:0:0:0:
176,192,5713,6,0,L|184:288,1,96,2|0,2:3|2:0,0:0:0:0:
312,192,5999,2,0,L|216:192,1,96,2|0,2:0|2:0,0:0:0:0:
344,192,6284,2,0,L|352:288,1,96,2|0,2:0|2:0,0:0:0:0:
224,128,6570,1,2,2:0:0:0:
352,128,6713,1,2,2:0:0:0:
480,192,6856,2,0,L|488:288,1,96,2|0,2:3|2:0,0:0:0:0:
360,192,7142,2,0,L|456:192,1,96,2|0,2:0|2:0,0:0:0:0:
328,192,7427,2,0,L|336:288,1,96,2|0,2:0|2:0,0:0:0:0:
464,128,7713,1,2,2:0:0:0:
336,128,7856,1,2,2:0:0:0:
208,128,7999,5,2,2:3:0:0:
128,160,8142,1,0,2:0:0:0:
128,224,8284,1,2,2:0:0:0:
208,256,8427,1,2,2:0:0:0:
336,128,8570,1,2,2:0:0:0:
384,160,8713,1,0,2:0:0:0:
384,224,8856,1,2,2:0:0:0:
336,256,8999,1,2,2:0:0:0:
208,128,9142,2,0,L|216:224,1,96,2|0,2:3|2:0,0:0:0:0:
344,128,9427,2,0,L|352:224,1,96,2|0,2:0|2:0,0:0:0:0:
224,128,9713,2,0,L|320:128,1,96,2|0,2:0|2:0,0:0:0:0:
208,128,9999,1,2,2:0:0:0:
336,128,10142,1,2,2:0:0:0:
112,368,10284,6,0,B|48:368|48:16|112:16|112:16|304:16|304:16|112:16|32:256,1,960,6|2,3:2|2:0,0:0:0:0:
224,16,11999,2,0,L|32:16,1,192,2|2,2:3|2:0,0:0:0:0:
288,368,12570,6,0,B|96:368|96:368|36:292|36:292|96:368|96:368|288:368|288:368|352:368|352:16|288:16,1,960,2|2,2:0|2:0,0:0:0:0:
192,16,14284,1,2,2:0:0:0:
96,16,14570,1,2,2:0:0:0:
336,192,14856,6,0,L|328:288,1,96,2|0,2:3|2:0,0:0:0:0:
200,192,15142,2,0,L|296:192,1,96,2|0,2:0|2:0,0:0:0:0:
168,192,15427,2,0,L|160:288,1,96,2|0,2:0|2:0,0:0:0:0:
288,128,15713,1,2,2:0:0:0:
160,128,15856,1,2,2:0:0:0:
288,128,15999,1,2,2:3:0:0:
368,160,16142,1,0,2:0:0:0:
368,224,16284,1,2,2:0:0:0:
288,256,16427,1,2,2:0:0:0:
160,128,16570,1,2,2:0:0:0:
112,160,16713,1,0,2:0:0:0:
112,224,16856,1,2,2:0:0:0:
160,256,16999,1,2,2:0:0:0:
288,128,17142,6,0,L|288:192,1,64,2|0,2:3|2:0,0:0:0:0:
208,224,17332,1,2,2:0:0:0:
112,128,17427,1,0,2:0:0:0:
192,128,17522,1,2,2:0:0:0:
272,128,17618,1,0,2:0:0:0:
192,224,17713,1,2,2:0:0:0:
112,192,17808,2,0,L|112:128,1,64,2|2,2:0|2:0,0:0:0:0:
208,128,17999,2,0,L|144:128,2,64,2|2|2,2:0|2:0|2:0,0:0:0:0:
48,192,18284,5,4,2:3:0:0:
256,192,18427,12,0,19142,2:0:0:0:
448,112,19427,6,0,P|464:192|448:300,1,192,6|2,3:1|2:0,0:0:0:0:
208,112,19999,2,0,L|400:112,1,192,6|0,2:3|2:0,0:0:0:0:
160,192,20570,2,0,L|256:192,2,96,2|8|2,2:0|2:3|2:0,0:0:0:0:
400,192,21142,1,6,2:3:0:0:
160,192,21427,2,0,L|256:192,1,96,4|4,2:3|2:3,0:0:0:0:
400,112,21713,6,0,P|416:192|400:300,1,192,4|2,2:3|2:0,0:0:0:0:
160,112,22284,2,0,L|352:112,1,192,2|8,2:3|2:3,0:0:0:0:
112,272,22856,2,0,P|96:192|112:84,1,192,8|2,2:3|2:0,0:0:0:0:
352,272,23427,2,0,L|160:272,1,192,2|4,2:3|2:3,0:0:0:0:
304,192,23856,1,4,2:3:0:0:
160,112,23999,6,0,P|144:192|160:300,1,192,0|2,2:0|2:0,0:0:0:0:
400,112,24570,2,0,L|208:112,1,192,2|8,2:3|2:3,0:0:0:0:
448,192,25142,2,0,L|352:192,2,96,4|4|8,2:3|2:3|2:3,0:0:0:0:
208,272,25713,2,0,L|400:272,1,192,2|4,2:3|2:3,0:0:0:0:
256,192,26142,1,8,2:3:0:0:
112,112,26284,6,0,P|96:192|112:300,1,192,4|2,2:3|2:0,0:0:0:0:
352,112,26856,2,0,L|160:112,1,192,6|8,2:3|2:3,0:0:0:0:
400,272,27427,2,0,P|416:192|400:84,1,192,4|2,2:3|2:0,0:0:0:0:
160,272,27999,2,0,L|352:272,1,192,2|4,2:3|2:3,0:0:0:0:
208,192,28427,1,8,2:3:0:0:
352,192,28570,6,0,L|448:192,1,96,4|0,2:3|2:0,0:0:0:0:
304,112,28856,2,0,L|400:112,1,96,2|8,2:0|2:3,0:0:0:0:
256,272,29142,2,0,L|448:272,1,192,6|2,2:3|2:0,0:0:0:0:
304,192,29570,1,4,2:3:0:0:
160,192,29713,6,0,L|256:192,1,96,4|4,2:3|2:3,0:0:0:0:
112,112,29999,2,0,L|208:112,1,96,8|2,2:3|2:0,0:0:0:0:
64,272,30284,2,0,L|256:272,1,192,2|4,2:3|2:3,0:0:0:0:
112,192,30713,1,8,2:3:0:0:
256,272,30856,6,0,P|272:192|256:84,1,192,4|2,2:3|2:0,0:0:0:0:
16,272,31427,2,0,L|208:272,1,192,10|4,2:3|2:3,0:0:0:0:
64,192,31856,1,4,2:3:0:0:
208,192,31999,6,0,L|304:192,1,96,8|8,2:3|2:3,0:0:0:0:
160,112,32284,2,0,L|256:112,1,96,8|8,2:3|2:3,0:0:0:0:
112,272,32570,2,0,L|304:272,1,192,2|4,2:3|2:3,0:0:0:0:
160,192,32999,1,4,2:3:0:0:
448,192,33142,6,0,L|160:192,1,288,6|0,3:2|1:0,0:0:0:0:
144,144,33302,1,0,1:0:0:0:
160,96,33320,1,0,1:0:0:0:
144,48,33338,1,0,1:0:0:0:
160,0,33356,1,0,1:0:0:0:
144,48,33374,1,0,1:0:0:0:
160,0,33392,1,0,1:0:0:0:
144,48,33409,1,0,1:0:0:0:
160,0,33427,1,0,1:0:0:0:
304,96,33570,6,0,L|304:112,1,12,2|0,2:3|2:0,0:0:0:0:
64,96,33999,2,0,L|64:112,1,12,2|0,2:0|2:0,0:0:0:0:
448,192,34284,6,0,L|160:192,1,288,6|0,3:2|1:0,0:0:0:0:
176,240,34445,1,0,1:0:0:0:
160,288,34463,1,0,1:0:0:0:
176,336,34481,1,0,1:0:0:0:
160,384,34499,1,0,1:0:0:0:
176,336,34517,1,0,1:0:0:0:
160,384,34534,1,0,1:0:0:0:
176,336,34552,1,0,1:0:0:0:
160,384,34570,1,0,1:0:0:0:
304,288,34713,6,0,L|304:272,1,12,2|0,2:3|2:0,0:0:0:0:
224,192,34856,2,0,L|184:152,3,48,8|8|8|8,2:3|2:3|2:3|2:3,0:0:0:0:
272,192,35142,2,0,L|320:192,3,48,8|8|8|8,2:3|2:3|2:3|2:3,0:0:0:0:
144,352,35427,6,0,L|144:240,1,96,6|2,3:2|1:2,0:0:0:0:
32,192,35713,2,0,L|32:80,1,96,0|2,3:0|1:2,0:0:0:0:
256,80,35999,2,0,L|160:80,1,96,0|2,3:0|1:2,0:0:0:0:
32,96,36284,2,0,L|128:96,1,96,0|2,3:0|1:2,0:0:0:0:
367,224,36570,5,2,3:0:0:0:
256,192,36713,2,0,L|256:288,1,96,2|0,1:2|3:0,0:0:0:0:
145,224,36999,1,2,1:2:0:0:
367,224,37142,1,0,3:0:0:0:
256,192,37284,2,0,L|256:288,1,96,2|0,1:2|3:0,0:0:0:0:
145,224,37570,1,2,1:2:0:0:
368,352,37713,6,0,L|368:240,1,96,2|2,3:0|1:2,0:0:0:0:
480,192,37999,2,0,L|480:80,1,96,0|2,3:0|1:2,0:0:0:0:
256,80,38284,2,0,L|352:80,1,96,0|2,3:0|1:2,0:0:0:0:
480,96,38570,2,0,L|384:96,1,96,0|2,3:0|1:2,0:0:0:0:
54,176,38856,5,2,3:0:0:0:
256,144,38999,2,0,L|128:144,2,96,2|0|2,1:2|3:0|1:2,0:0:0:0:
458,176,39427,1,0,3:0:0:0:
256,144,39570,2,0,L|384:144,2,96,2|0|2,1:2|3:0|1:2,0:0:0:0:
16,192,39999,5,2,3:0:0:0:
136,157,40142,1,2,3:2:0:0:
255,190,40284,1,0,3:0:0:0:
136,157,40427,1,2,3:2:0:0:
376,214,40570,1,2,3:0:0:0:
136,157,40713,1,2,3:2:0:0:
256,190,40856,1,0,3:0:0:0:
136,157,40999,1,2,3:2:0:0:
376,214,41142,5,2,3:0:0:0:
136,157,41284,1,2,3:2:0:0:
256,190,41427,1,0,3:0:0:0:
376,214,41570,1,2,3:2:0:0:
136,157,41713,1,2,3:0:0:0:
376,214,41856,1,2,3:2:0:0:
136,157,41999,1,0,3:0:0:0:
252,190,42142,1,2,3:2:0:0:
448,84,42284,6,0,L|496:84,1,48,2|0,3:0|3:0,0:0:0:0:
352,141,42427,2,0,L|304:141,1,48,0|0,3:0|3:0,0:0:0:0:
160,141,42570,2,0,L|208:141,1,48,0|0,3:0|3:0,0:0:0:0:
64,84,42713,2,0,L|16:84,1,48,0|0,3:0|3:0,0:0:0:0:
210,141,42856,6,0,L|258:141,1,48,2|0,3:0|3:0,0:0:0:0:
113,299,42999,2,0,L|161:299,1,48,0|0,3:0|3:0,0:0:0:0:
351,299,43142,2,0,L|399:299,1,48,0|0,3:0|3:0,0:0:0:0:
256,208,43284,1,0,3:0:0:0:
113,299,43356,1,0,3:0:0:0:
351,299,43427,6,0,L|463:299,1,96,6|0,3:2|2:0,0:0:0:0:
304,272,43713,1,8,2:3:0:0:
256,240,43784,1,8,2:3:0:0:
256,240,43856,1,8,2:3:0:0:
304,272,43927,1,8,2:3:0:0:
159,213,43999,5,12,2:3:0:0:
304,272,44070,1,12,2:3:0:0:
357,265,44142,1,12,2:3:0:0:
304,272,44213,1,12,2:3:0:0:
159,213,44284,1,12,2:3:0:0:
212,220,44356,1,12,2:3:0:0:
357,265,44427,1,12,2:3:0:0:
202,204,44499,1,12,2:3:0:0:
48,144,44570,5,4,3:1:0:0:
256,96,44713,2,0,L|192:96,1,57.6,4|0,3:2|2:0,0:0:0:0:
373,321,44856,2,0,L|437:321,1,57.6,4|0,3:2|2:0,0:0:0:0:
256,96,44999,1,4,3:2:0:0:
463,177,45142,2,0,L|405:177,1,57.6,4|0,3:2|2:0,0:0:0:0:
228,151,45284,2,0,L|285:151,1,57.6,4|0,3:2|2:0,0:0:0:0:
106,177,45427,6,0,B|49:177|49:177|106:178,1,115.2,4|0,3:2|3:2,0:0:0:0:
166,177,45642,1,0,3:2:0:0:
406,177,45713,6,0,B|463:177|463:177|406:178,1,115.2,0|0,3:2|3:2,0:0:0:0:
341,176,45927,1,0,3:2:0:0:
176,331,45999,2,0,L|188:258,1,57.6,0|0,3:2|2:0,0:0:0:0:
257,232,46142,2,0,L|321:232,1,57.6,0|0,3:2|3:2,0:0:0:0:
141,166,46284,6,0,L|129:93,1,57.6,0|0,3:2|2:0,0:0:0:0:
208,80,46427,2,0,L|128:80,1,57.6,0|0,3:2|3:2,0:0:0:0:
328,134,46570,2,0,L|408:134,1,57.6,0|0,3:2|2:0,0:0:0:0:
209,292,46713,2,0,L|289:292,1,57.6,0|0,3:2|3:2,0:0:0:0:
464,144,46856,5,4,3:2:0:0:
256,96,46999,2,0,L|320:96,1,57.6,4|0,3:2|2:0,0:0:0:0:
139,321,47142,2,0,L|75:321,1,57.6,4|0,3:2|2:0,0:0:0:0:
256,96,47284,1,4,3:2:0:0:
49,177,47427,2,0,L|107:177,1,57.6,4|0,3:2|2:0,0:0:0:0:
284,151,47570,2,0,L|227:151,1,57.6,4|0,3:2|2:0,0:0:0:0:
406,177,47713,6,0,B|463:177|463:177|406:178,1,115.2,4|0,3:2|3:2,0:0:0:0:
346,177,47927,1,0,3:2:0:0:
106,177,47999,6,0,B|49:177|49:177|106:178,1,115.2,0|0,3:2|3:2,0:0:0:0:
166,177,48213,1,0,3:2:0:0:
325,323,48284,2,0,L|245:323,1,57.6,0|0,3:2|2:0,0:0:0:0:
342,272,48427,2,0,L|262:272,1,57.6,0|0,3:2|3:2,0:0:0:0:
122,234,48570,5,10,3:0:0:0:
90,222,48606,1,8,2:3:0:0:
59,211,48642,1,8,2:3:0:0:
204,187,48713,1,10,2:3:0:0:
349,163,48784,1,8,2:3:0:0:
161,56,48856,1,10,2:3:0:0:
99,77,48927,1,8,2:3:0:0:
161,56,48999,1,10,2:3:0:0:
16,32,49070,1,8,2:3:0:0:
161,56,49142,6,0,L|279:50,1,96,6|0,3:2|2:0,0:0:0:0:
142,178,49427,2,0,L|260:172,1,96,2|0,2:0|2:0,0:0:0:0:
362,114,49713,1,2,2:0:0:0:
446,177,49856,1,0,2:0:0:0:
462,281,49999,1,2,2:0:0:0:
401,366,50142,1,0,2:0:0:0:
297,384,50284,6,0,L|286:255,1,96,2|0,2:0|2:0,0:0:0:0:
144,218,50570,2,0,L|28:205,1,96,2|0,2:0|2:0,0:0:0:0:
194,93,50856,2,0,L|310:80,1,96,2|0,2:0|2:0,0:0:0:0:
173,155,51142,2,0,L|289:142,1,96,2|0,2:0|2:0,0:0:0:0:
480,196,51427,6,0,L|32:182,2,447.999999999999,12|12|12,3:2|3:2|3:2,0:0:0:0:
205,279,51999,1,14,3:2:0:0:
146,259,52070,1,2,2:0:0:0:
131,200,52142,1,2,2:0:0:0:
173,155,52213,1,2,2:0:0:0:
307,279,52284,1,14,3:2:0:0:
366,259,52356,1,2,2:0:0:0:
381,200,52427,1,2,2:0:0:0:
339,155,52499,1,2,2:0:0:0:
179,64,52570,6,0,L|256:64,1,76.8,2|2,3:2|3:2,0:0:0:0:
80,192,52761,1,2,3:2:0:0:
256,272,52856,2,0,L|256:192,1,76.8,10|2,3:2|3:2,0:0:0:0:
179,64,53046,2,0,L|227:64,1,38.4,8|8,2:0|2:0,0:0:0:0:
333,64,53142,6,0,L|256:64,1,76.8,2|2,3:2|3:2,0:0:0:0:
432,192,53332,1,2,3:2:0:0:
256,64,53427,1,10,3:2:0:0:
179,64,53522,1,10,3:2:0:0:
333,64,53618,1,10,3:2:0:0:
96,288,53713,5,6,3:2:0:0:
256,160,53903,1,6,3:2:0:0:
416,288,54094,1,6,3:2:0:0:
107,132,54284,5,2,3:2:0:0:
145,132,54332,1,2,3:2:0:0:
183,132,54380,1,2,3:2:0:0:
107,132,54475,1,2,2:0:0:0:
326,268,54570,2,0,L|333:183,1,76.8,2|2,3:2|2:0,0:0:0:0:
240,186,54761,1,2,2:0:0:0:
459,350,54856,6,0,L|471:277,1,57.6
392,222,54999,2,0,L|380:149,1,57.6
192,96,55142,2,0,L|288:96,1,57.6
420,36,55284,2,0,L|324:36,1,57.6
186,274,55427,6,0,L|174:201,1,57.6,2|2,3:0|2:0,0:0:0:0:
244,173,55570,1,2,2:0:0:0:
70,112,55642,2,0,L|79:168,1,57.6,8|8,2:3|3:0,0:0:0:0:
222,207,55784,1,8,2:3:0:0:
367,130,55856,2,0,L|303:130,1,57.6,8|8,2:3|2:3,0:0:0:0:
96,192,55999,6,0,P|35:149|96:107,1,172.8,0|0,3:0|2:0,0:0:0:0:
304,112,56284,1,14,3:2:0:0:
189,236,56427,2,0,L|177:163,1,57.6,2|2,1:2|1:2,0:0:0:0:
34,228,56570,5,0,3:0:0:0:
149,352,56713,2,0,L|161:279,1,57.6,2|2,1:2|1:2,0:0:0:0:
304,112,56856,1,8,3:2:0:0:
189,236,56999,2,0,L|177:163,1,57.6,2|2,1:2|1:2,0:0:0:0:
34,228,57142,6,0,L|22:155,1,57.6,0|0,3:2|2:0,0:0:0:0:
100,135,57284,2,0,L|112:62,1,57.6,2|2,1:2|1:2,0:0:0:0:
284,64,57427,2,0,L|220:64,1,57.6,8|0,3:2|2:0,0:0:0:0:
293,89,57570,2,0,L|229:89,1,57.6,2|2,1:2|1:2,0:0:0:0:
411,198,57713,5,0,3:0:0:0:
416,254,57784,1,2,2:0:0:0:
384,300,57856,1,2,1:2:0:0:
330,315,57927,1,2,1:2:0:0:
486,360,57999,2,0,L|496:304,1,57.6,10|2,3:2|2:0,0:0:0:0:
419,276,58142,2,0,L|428:219,1,57.6,2|2,1:2|1:2,0:0:0:0:
208,112,58284,5,8,3:1:0:0:
323,236,58427,2,0,L|335:163,1,57.6,2|2,1:2|1:2,0:0:0:0:
478,228,58570,1,10,3:2:0:0:
363,352,58713,2,0,L|351:279,1,57.6,2|2,1:2|1:2,0:0:0:0:
208,112,58856,5,0,3:0:0:0:
323,236,58999,2,0,L|335:163,1,57.6,2|2,1:2|1:2,0:0:0:0:
478,228,59142,1,10,3:2:0:0:
363,352,59284,2,0,L|351:279,1,57.6,2|2,1:2|1:2,0:0:0:0:
160,256,59427,6,0,L|224:256,1,57.6,0|0,3:0|2:0,0:0:0:0:
295,170,59570,2,0,L|231:170,1,57.6,2|2,1:2|1:2,0:0:0:0:
73,80,59713,2,0,L|16:80,2,57.6,10|2|2,3:2|2:0|1:2,0:0:0:0:
237,170,59927,1,2,1:2:0:0:
73,80,59999,5,0,3:0:0:0:
101,80,60034,1,0,3:0:0:0:
130,80,60070,1,0,3:0:0:0:
295,170,60142,2,0,L|352:170,1,57.6,0|0,3:0|3:0,0:0:0:0:
190,297,60284,2,0,L|132:297,1,57.6,10|2,3:2|3:2,0:0:0:0:
288,224,60427,1,2,3:2:0:0:
444,192,60499,1,2,3:2:0:0:
304,112,60570,5,8,3:1:0:0:
189,236,60713,2,0,L|177:163,1,57.6,2|2,1:2|1:2,0:0:0:0:
34,228,60856,1,10,3:2:0:0:
149,352,60999,2,0,L|161:279,1,57.6,2|2,1:2|1:2,0:0:0:0:
304,112,61142,5,2,3:2:0:0:
189,236,61284,2,0,L|177:163,1,57.6,2|2,1:2|1:2,0:0:0:0:
34,228,61427,1,10,3:2:0:0:
149,352,61570,2,0,L|161:279,1,57.6,2|2,1:2|1:2,0:0:0:0:
352,256,61713,6,0,L|256:256,1,57.6,2|0,3:2|2:0,0:0:0:0:
224,320,61856,2,0,L|320:320,1,57.6,2|2,1:2|1:2,0:0:0:0:
474,294,61999,2,0,L|483:350,1,57.6,10|0,3:2|2:0,0:0:0:0:
409,248,62142,2,0,L|505:248,1,57.6,2|2,1:2|1:2,0:0:0:0:
274,251,62284,5,2,3:2:0:0:
269,307,62356,1,2,2:0:0:0:
301,353,62427,1,2,1:2:0:0:
355,368,62499,1,2,1:2:0:0:
181,361,62570,2,0,L|101:361,1,57.6,10|0,3:2|2:0,0:0:0:0:
331,361,62713,2,0,L|411:361,1,57.6,2|2,1:2|1:2,0:0:0:0:
208,112,62856,5,8,3:1:0:0:
323,236,62999,2,0,L|332:179,1,57.6,2|2,1:2|1:2,0:0:0:0:
478,228,63142,1,10,3:2:0:0:
363,352,63284,2,0,L|353:295,1,57.6,2|2,1:2|1:2,0:0:0:0:
208,112,63427,5,0,3:0:0:0:
323,236,63570,2,0,L|332:179,1,57.6,2|2,1:2|1:2,0:0:0:0:
478,228,63713,1,10,3:2:0:0:
363,352,63856,2,0,L|353:295,1,57.6,2|2,1:2|1:2,0:0:0:0:
164,240,63999,6,0,L|154:183,1,57.6,14|8,3:2|2:3,0:0:0:0:
328,127,64142,1,8,1:3:0:0:
164,240,64213,1,8,1:3:0:0:
101,251,64284,1,8,2:0:0:0:
164,240,64356,1,8,2:3:0:0:
348,240,64427,6,0,L|358:183,1,57.6,12|8,2:0|2:3,0:0:0:0:
184,127,64570,1,8,2:3:0:0:
348,240,64642,1,8,2:3:0:0:
411,251,64713,1,12,2:3:0:0:
348,240,64784,1,8,2:3:0:0:
164,240,64856,6,0,L|236:240,1,57.6,14|12,2:0|2:3,0:0:0:0:
397,141,64999,1,12,2:3:0:0:
260,193,65070,1,12,2:3:0:0:
120,319,65142,5,6,3:2:0:0:
235,297,65284,2,0,L|244:240,1,57.6,2|2,1:2|1:2,0:0:0:0:
392,319,65427,1,10,3:2:0:0:
277,297,65570,2,0,L|268:240,1,57.6,2|2,1:2|1:2,0:0:0:0:
120,319,65713,5,2,3:2:0:0:
235,297,65856,2,0,L|244:240,1,57.6,2|2,1:2|1:2,0:0:0:0:
392,319,65999,1,10,3:2:0:0:
277,297,66142,2,0,L|268:240,1,57.6,2|2,1:2|1:2,0:0:0:0:
80,180,66284,6,0,L|-16:180,1,57.6,2|0,3:2|2:0,0:0:0:0:
95,90,66427,2,0,L|-1:90,1,57.6,2|2,1:2|1:2,0:0:0:0:
218,346,66570,2,0,L|227:289,1,57.6,10|0,3:2|2:0,0:0:0:0:
148,276,66713,2,0,L|157:219,1,57.6,2|2,1:2|1:2,0:0:0:0:
340,117,66856,5,2,3:2:0:0:
345,173,66927,1,0,2:0:0:0:
313,219,66999,1,2,1:2:0:0:
259,234,67070,1,2,1:2:0:0:
418,321,67142,2,0,L|338:321,1,57.6,10|0,3:2|2:0,0:0:0:0:
192,96,67284,2,0,L|272:96,1,57.6,2|2,1:2|1:2,0:0:0:0:
392,326,67427,5,8,3:1:0:0:
277,297,67570,2,0,L|268:240,1,57.6,2|2,1:2|1:2,0:0:0:0:
120,326,67713,1,10,3:2:0:0:
235,297,67856,2,0,L|244:240,1,57.6,2|2,1:2|1:2,0:0:0:0:
392,326,67999,5,2,3:2:0:0:
277,297,68142,2,0,L|268:240,1,57.6,2|2,1:2|1:2,0:0:0:0:
120,326,68284,1,10,3:2:0:0:
235,297,68427,2,0,L|244:240,1,57.6,2|2,1:2|1:2,0:0:0:0:
447,68,68570,5,2,3:2:0:0:
452,124,68642,1,0,2:0:0:0:
420,170,68713,1,2,1:2:0:0:
366,185,68784,1,2,1:2:0:0:
208,176,68856,2,0,L|288:176,2,57.6,10|0|2,3:2|2:0|1:2,0:0:0:0:
32,176,69070,1,2,1:2:0:0:
208,176,69142,5,2,3:2:0:0:
236,176,69177,1,2,3:2:0:0:
265,176,69213,1,2,3:2:0:0:
92,57,69284,2,0,L|172:57,1,57.6,8|8,2:3|2:3,0:0:0:0:
362,57,69427,2,0,L|420:57,1,57.6,10|8,3:2|3:0,0:0:0:0:
256,64,69570,1,8,3:0:0:0:
92,57,69642,1,8,3:0:0:0:
256,64,69713,5,8,3:1:0:0:
380,227,69856,2,0,L|300:227,1,57.6,8|8,3:0|3:0,0:0:0:0:
111,227,69999,2,0,L|383:227,1,211.2,6|0,3:2|2:0,0:0:0:0:
264,157,70213,1,0,3:0:0:0:
445,161,70284,5,10,3:2:0:0:
318,346,70427,2,0,L|309:289,1,57.6,8|8,3:0|3:0,0:0:0:0:
78,289,70570,2,0,L|318:289,1,230.4,6|0,3:2|3:0,0:0:0:0:
251,204,70784,1,0,3:0:0:0:
91,134,70856,6,0,L|-5:134,1,57.6,8|0,3:1|2:0,0:0:0:0:
103,134,70999,2,0,L|7:134,1,57.6,8|8,1:3|1:3,0:0:0:0:
191,80,71142,1,6,3:2:0:0:
335,88,71213,1,0,3:0:0:0:
191,80,71284,2,0,L|128:80,1,57.6,0|0,3:0|3:0,0:0:0:0:
335,88,71427,6,0,L|344:31,1,57.6,8|8,2:3|2:3,0:0:0:0:
261,217,71570,2,0,L|270:160,1,57.6,8|8,2:3|2:3,0:0:0:0:
447,112,71713,1,4,3:2:0:0:
304,101,71784,1,0,3:0:0:0:
159,130,71856,2,0,L|223:130,1,57.6,8|8,3:0|3:0,0:0:0:0:
448,128,71999,5,8,3:0:0:0:
469,179,72070,1,8,2:3:0:0:
443,229,72142,1,10,2:3:0:0:
389,241,72213,1,10,2:3:0:0:
211,240,72284,1,4,3:2:0:0:
284,260,72356,2,0,L|293:203,2,57.6,8|8|8,3:0|3:0|3:0,0:0:0:0:
139,317,72570,5,4,3:2:0:0:
284,260,72642,2,0,L|324:215,2,57.6,8|8|8,3:0|3:0|3:0,0:0:0:0:
81,273,72856,1,14,3:2:0:0:
284,260,72927,2,0,L|362:260,2,57.6,8|8|8,3:0|3:0|3:0,0:0:0:0:
139,317,73142,6,0,L|251:317,1,76.8,0|0,3:0|3:0,0:0:0:0:
16,80,73332,1,0,3:0:0:0:
215,317,73427,1,10,3:2:0:0:
16,80,73522,2,0,L|112:80,1,76.8,0|0,3:0|3:0,0:0:0:0:
296,143,73713,5,10,3:2:0:0:
496,80,73808,2,0,L|400:80,1,76.8,10|10,3:2|3:2,0:0:0:0:
216,143,73999,1,2,1:2:0:0:
214,175,74034,1,2,2:0:0:0:
205,206,74070,1,2,2:0:0:0:
188,234,74106,1,2,2:0:0:0:
164,257,74142,1,2,2:0:0:0:
136,273,74177,1,2,2:0:0:0:
104,282,74213,1,2,2:0:0:0:
261,344,74284,6,0,L|344:333,1,57.6,6|0,3:2|2:0,0:0:0:0:
132,259,74427,2,0,L|425:232,1,240,0|8,3:0|3:2,0:0:0:0:
128,168,74713,6,0,L|122:29,1,120,6|0,3:2|2:0,0:0:0:0:
362,44,74856,2,0,L|94:93,1,240,0|8,3:0|3:2,0:0:0:0:
406,124,75142,6,0,L|481:133,1,57.6,6|0,3:2|2:0,0:0:0:0:
275,224,75284,2,0,L|7:273,1,240,0|10,3:0|3:2,0:0:0:0:
299,356,75570,6,0,L|303:233,1,120,6|0,3:2|2:0,0:0:0:0:
63,169,75713,2,0,L|330:152,1,240,0|10,3:0|3:2,0:0:0:0:
363,148,75927,1,0,3:0:0:0:
171,73,75999,5,10,3:2:0:0:
277,76,76142,2,0,L|329:81,2,38.399998828125,8|8|8,3:0|3:0|3:0,0:0:0:0:
118,194,76284,1,10,3:2:0:0:
92,166,76331,1,2,0:2:0:0:
87,128,76379,1,2,0:2:0:0:
105,95,76426,1,2,0:2:0:0:
139,78,76474,1,2,0:2:0:0:
177,85,76522,1,2,0:2:0:0:
366,270,76570,6,0,L|438:277,1,57.6,6|0,3:2|2:0,0:0:0:0:
254,339,76713,2,0,L|5:309,1,240,0|10,3:0|3:2,0:0:0:0:
268,261,76999,6,0,L|272:169,1,57.6,6|0,3:2|2:0,0:0:0:0:
32,130,77142,2,0,L|285:91,1,240,0|10,3:0|3:2,0:0:0:0:
32,130,77427,6,0,L|28:257,1,120,6|0,3:2|2:0,0:0:0:0:
269,93,77570,2,0,L|6:137,1,240,0|10,3:0|3:2,0:0:0:0:
296,209,77856,6,0,L|374:215,1,57.6,6|0,3:2|2:0,0:0:0:0:
147,310,77999,2,0,L|441:316,1,240,2|10,3:2|3:2,0:0:0:0:
395,285,78213,1,0,3:0:0:0:
191,205,78284,6,0,L|166:176,2,28.8,10|2|2,3:2|2:0|2:0,0:0:0:0:
363,109,78427,2,0,L|288:98,1,57.6,8|8,2:3|2:3,0:0:0:0:
482,55,78570,2,0,L|506:132,1,57.6,10|2,2:3|2:0,0:0:0:0:
482,55,78713,2,0,L|402:55,1,57.6,10|2,2:3|2:0,0:0:0:0:
220,99,78856,5,8,3:0:0:0:
335,144,78999,2,0,L|342:210,1,57.6,8|8,1:3|1:3,0:0:0:0:
156,294,79142,1,10,3:2:0:0:
270,342,79284,2,0,L|278:258,1,57.6,8|8,1:3|1:3,0:0:0:0:
465,186,79427,1,10,3:2:0:0:
351,234,79570,2,0,L|343:150,1,57.6,8|8,1:3|1:3,0:0:0:0:
134,92,79713,1,10,3:2:0:0:
248,140,79856,2,0,L|256:56,1,57.6,8|8,1:3|1:3,0:0:0:0:
42,214,79999,5,10,3:2:0:0:
156,262,80142,2,0,L|220:271,1,57.6,8|8,1:3|1:3,0:0:0:0:
420,319,80284,1,10,3:2:0:0:
306,367,80427,2,0,L|242:376,1,57.6,8|8,1:3|1:3,0:0:0:0:
39,357,80570,1,8,3:2:0:0:
154,315,80713,2,0,L|58:300,1,57.6,8|8,1:3|1:3,0:0:0:0:
286,269,80856,1,8,3:2:0:0:
347,270,80927,2,0,L|371:211,2,57.6,8|8|8,1:3|1:3|1:3,0:0:0:0:
113,205,81142,6,0,L|22:202,1,57.6,2|0,3:1|2:0,0:0:0:0:
287,129,81356,2,0,L|195:125,1,57.6,2|0,3:1|2:0,0:0:0:0:
467,106,81570,2,0,L|475:38,1,57.6,2|0,3:1|2:0,0:0:0:0:
225,23,81713,6,0,P|241:93|340:119,1,172.8,0|0,3:0|2:0,0:0:0:0:
134,170,81999,2,0,P|63:182|50:293,1,172.8,10|0,3:1|2:0,0:0:0:0:
247,244,82284,5,10,2:3:0:0:
192,254,82356,1,8,2:3:0:0:
168,304,82427,1,8,2:3:0:0:
195,353,82499,1,8,2:3:0:0:
263,350,82570,2,0,L|193:346,1,57.6,8|8,2:3|2:3,0:0:0:0:
396,300,82713,2,0,L|490:293,1,57.6,8|8,2:3|2:3,0:0:0:0:
267,219,82856,6,0,L|183:212,1,57.6,12|12,2:3|2:3,0:0:0:0:
286,201,82999,2,0,L|190:190,1,57.6,12|12,2:3|2:3,0:0:0:0:
38,74,83142,2,0,L|122:67,1,57.6,12|12,2:3|2:3,0:0:0:0:
19,56,83284,2,0,L|115:45,1,57.6,12|12,2:3|2:3,0:0:0:0:
257,93,83427,6,0,L|327:101,1,57.6,6|0,3:2|2:0,0:0:0:0:
125,197,83570,2,0,L|401:228,1,240,2|10,3:2|3:2,0:0:0:0:
123,331,83856,6,0,L|15:330,1,57.6,6|0,3:2|2:0,0:0:0:0:
263,351,83999,2,0,L|515:339,1,240,2|10,3:2|3:2,0:0:0:0:
249,266,84284,6,0,L|238:128,1,120,6|0,3:2|2:0,0:0:0:0:
479,160,84427,2,0,L|224:145,1,240,2|10,3:2|3:2,0:0:0:0:
479,160,84713,6,0,L|486:39,1,120,6|0,3:2|2:0,0:0:0:0:
239,144,84856,2,0,L|533:162,1,240,2|10,3:2|3:2,0:0:0:0:
423,131,85070,1,8,3:0:0:0:
221,282,85142,5,8,3:0:0:0:
333,312,85284,2,0,L|356:268,2,38.4,8|8|8,3:0|3:0|3:0,0:0:0:0:
186,369,85427,2,0,L|157:327,2,38.4,10|2|2,3:2|2:0|2:0,0:0:0:0:
238,367,85570,2,0,L|242:307,2,38.4,2|2|2,2:0|2:0|2:0,0:0:0:0:
63,159,85713,6,0,L|124:150,1,57.6,6|0,3:2|2:0,0:0:0:0:
353,82,85856,2,0,L|86:53,1,240,2|10,3:2|3:2,0:0:0:0:
359,188,86142,6,0,L|438:178,1,57.6,6|0,3:2|2:0,0:0:0:0:
184,302,86284,2,0,L|437:315,1,240,2|10,3:2|3:2,0:0:0:0:
184,302,86570,6,0,L|178:215,1,57.6,6|0,3:2|2:0,0:0:0:0:
424,310,86713,2,0,L|170:296,1,240,2|10,3:2|3:2,0:0:0:0:
424,310,86999,6,0,L|430:248,1,57.6,6|0,3:2|2:0,0:0:0:0:
185,298,87142,2,0,L|459:314,1,240,2|10,3:2|3:2,0:0:0:0:
368,281,87356,1,8,3:0:0:0:
167,214,87427,6,0,L|147:186,2,28.8,8|8|8,3:0|3:0|3:0,0:0:0:0:
242,226,87570,2,0,L|147:227,1,57.6,8|8,1:3|1:3,0:0:0:0:
391,163,87713,2,0,L|460:152,1,57.6,10|2,3:2|2:0,0:0:0:0:
377,142,87856,2,0,L|489:127,1,57.6,8|8,1:3|1:3,0:0:0:0:
223,103,87999,5,10,3:0:0:0:
330,104,88142,2,0,L|343:193,1,57.6,8|8,1:3|1:3,0:0:0:0:
145,230,88284,1,10,3:2:0:0:
256,289,88427,2,0,L|176:308,1,57.6,8|8,1:3|1:3,0:0:0:0:
408,278,88570,1,10,3:2:0:0:
300,331,88713,2,0,L|380:350,1,57.6,8|8,1:3|1:3,0:0:0:0:
142,292,88856,1,10,3:2:0:0:
250,351,88999,2,0,L|170:370,1,57.6,8|8,1:3|1:3,0:0:0:0:
11,153,89142,5,10,3:2:0:0:
122,153,89284,2,0,L|131:78,1,57.6,8|8,1:3|1:3,0:0:0:0:
336,80,89427,1,10,3:2:0:0:
221,78,89570,2,0,L|212:3,1,57.6,8|8,1:3|1:3,0:0:0:0:
430,33,89713,1,10,3:2:0:0:
316,173,89856,2,0,L|203:188,1,57.6,8|8,1:3|1:3,0:0:0:0:
50,188,89999,1,10,3:2:0:0:
164,328,90142,2,0,L|277:343,1,57.6,8|8,1:3|1:3,0:0:0:0:
462,324,90284,6,0,L|466:229,1,76.8,10|0,3:2|3:0,0:0:0:0:
216,216,90475,1,10,3:2:0:0:
294,211,90570,1,0,3:0:0:0:
46,144,90665,2,0,L|25:111,2,38.4,10|0|0,3:2|2:0|3:0,0:0:0:0:
252,116,90856,5,10,3:2:0:0:
190,118,90927,2,0,L|166:55,2,57.6,2|2|2,1:2|1:2|1:2,0:0:0:0:
394,177,91142,2,0,L|198:193,1,172.8,10|0,3:2|2:0,0:0:0:0:
456,274,91427,6,0,L|357:285,1,76.8,0|0,3:0|3:0,0:0:0:0:
195,311,91618,1,0,3:0:0:0:
379,282,91713,2,0,L|397:168,1,76.8,10|0,3:2|3:0,0:0:0:0:
470,198,91903,1,0,3:0:0:0:
263,97,91999,6,0,L|353:87,1,76.8,10|0,3:2|3:0,0:0:0:0:
132,67,92189,1,10,3:2:0:0:
345,180,92284,2,0,L|246:180,1,76.8,10|0,3:2|3:0,0:0:0:0:
38,193,92475,1,10,3:2:0:0:
275,290,92570,6,0,P|95:246|185:37,1,460.8,6|0,3:2|2:0,0:0:0:0:
448,53,93142,2,0,P|424:142|211:237,1,307.2,10|0,3:2|3:0,0:0:0:0:
306,275,93499,1,8,1:3:0:0:
373,282,93570,1,8,1:3:0:0:
143,370,93713,6,0,L|268:273,1,153.6,2|0,3:2|2:0,0:0:0:0:
70,292,93927,2,0,L|50:117,1,153.6,2|0,3:2|2:0,0:0:0:0:
134,131,94142,2,0,L|142:34,1,76.8,8|8,1:3|1:3,0:0:0:0:
347,151,94284,6,0,L|328:159,1,19.2,10|0,3:2|2:0,0:0:0:0:
225,173,94427,1,0,3:0:0:0:
422,250,94570,2,0,L|428:280,1,19.2,2|0,3:1|2:0,0:0:0:0:
319,301,94713,2,0,L|314:335,1,19.2,2|0,3:1|2:0,0:0:0:0:
103,368,94856,6,0,P|112:275|262:235,1,230.4,6|0,3:2|2:0,0:0:0:0:
153,218,95142,2,0,L|146:184,1,19.2,2|0,3:1|2:0,0:0:0:0:
256,175,95284,2,0,L|263:147,1,19.2,2|0,3:1|2:0,0:0:0:0:
44,144,95427,5,10,3:2:0:0:
157,118,95570,2,0,L|165:93,1,19.2,2|0,3:1|2:0,0:0:0:0:
280,71,95713,1,0,3:0:0:0:
171,81,95856,2,0,L|163:50,1,19.2,2|0,3:1|2:0,0:0:0:0:
384,135,95999,6,0,L|267:292,1,153.6,10|0,3:0|1:0,0:0:0:0:
352,284,96213,1,0,3:0:0:0:
147,365,96284,1,2,3:1:0:0:
251,353,96427,2,0,L|254:331,1,19.2,2|0,3:1|2:0,0:0:0:0:
451,272,96570,5,10,3:2:0:0:
351,214,96713,2,0,L|419:155,1,76.8,8|8,1:3|1:3,0:0:0:0:
230,168,96856,2,0,L|226:143,1,19.2,2|0,3:1|2:0,0:0:0:0:
287,135,96927,2,0,L|316:52,2,76.8,8|8|8,3:0|3:0|3:0,0:0:0:0:
95,126,97142,6,0,P|117:223|261:258,1,230.4,6|0,3:2|2:0,0:0:0:0:
159,286,97427,2,0,L|154:308,1,19.2,2|0,3:1|2:0,0:0:0:0:
264,324,97570,2,0,L|267:348,1,19.2,2|0,3:1|2:0,0:0:0:0:
46,368,97713,6,0,P|45:291|190:222,1,230.4,10|0,3:2|2:0,0:0:0:0:
230,244,97999,2,0,L|215:212,1,19.2,2|0,3:1|2:0,0:0:0:0:
163,216,98070,1,2,2:0:0:0:
331,159,98142,2,0,L|346:127,1,19.2,2|0,3:1|2:0,0:0:0:0:
398,131,98213,1,2,2:0:0:0:
238,44,98284,6,0,L|230:213,1,153.6,10|2,3:0|1:2,0:0:0:0:
156,226,98499,1,0,3:0:0:0:
348,282,98570,2,0,L|436:247,1,76.8,8|8,1:3|1:3,0:0:0:0:
237,355,98713,2,0,L|234:326,1,19.2,2|0,3:1|2:0,0:0:0:0:
421,364,98856,6,0,L|299:247,1,153.6,10|8,3:2|3:0,0:0:0:0:
171,306,99142,2,0,L|190:288,1,19.2,2|0,3:1|2:0,0:0:0:0:
311,271,99284,1,8,1:3:0:0:
74,268,99427,6,0,P|54:188|155:161,1,178.56,6|0,3:2|2:0,0:0:0:0:
203,126,99713,2,0,L|116:117,1,59.52,8|8,3:0|3:0,0:0:0:0:
340,61,99856,1,10,1:3:0:0:
377,55,99903,1,10,1:3:0:0:
414,50,99951,1,10,1:3:0:0:
227,44,99999,6,0,P|216:123|316:150,1,178.56,10|2,3:2|1:2,0:0:0:0:
354,168,100284,1,2,1:2:0:0:
168,262,100356,2,0,L|254:326,1,59.52,8|10,3:0|1:3,0:0:0:0:
283,308,100499,1,2,1:3:0:0:
79,364,100570,5,10,3:2:0:0:
188,364,100713,2,0,L|203:292,1,59.52,8|8,3:0|3:0,0:0:0:0:
398,227,100856,1,10,3:2:0:0:
288,224,100999,2,0,L|273:152,1,59.52,8|8,3:0|3:0,0:0:0:0:
493,41,101142,5,10,3:1:0:0:
458,41,101177,1,2,1:2:0:0:
431,59,101213,1,2,1:2:0:0:
420,87,101249,1,2,1:2:0:0:
431,114,101284,1,2,1:2:0:0:
459,132,101320,1,2,1:2:0:0:
493,132,101356,1,2,1:2:0:0:
283,328,101427,6,0,L|194:324,1,59.52,8|8,1:3|1:3,0:0:0:0:
299,312,101570,2,0,L|196:298,1,59.52,8|8,1:3|1:3,0:0:0:0:
39,237,101713,6,0,L|33:88,1,115.2,14|0,3:0|2:0,0:0:0:0:
179,113,101927,1,2,2:1:0:0:
179,113,101999,2,0,L|95:117,1,57.5999982421876,10|2,3:2|2:1,0:0:0:0:
266,151,102142,2,0,L|186:165,1,57.6,2|0,2:1|2:0,0:0:0:0:
359,172,102284,6,0,L|474:197,1,115.199996484375,2|0,3:1|2:0,0:0:0:0:
327,306,102499,1,2,2:1:0:0:
327,306,102570,2,0,L|401:300,1,57.5999982421876,10|2,3:2|2:1,0:0:0:0:
242,356,102713,2,0,L|322:342,1,57.6,2|0,2:1|2:0,0:0:0:0:
154,312,102856,6,0,L|13:278,1,115.199996484375,2|0,3:0|2:0,0:0:0:0:
195,228,103070,2,0,L|146:179,1,57.6,2|10,2:1|3:2,0:0:0:0:
88,178,103213,1,2,2:1:0:0:
254,140,103284,2,0,L|336:125,1,57.6,2|0,2:1|2:0,0:0:0:0:
162,64,103427,6,0,L|161:204,1,115.2,2|0,3:1|2:0,0:0:0:0:
304,222,103642,2,0,L|311:287,1,57.6,2|10,2:1|3:2,0:0:0:0:
449,338,103784,1,2,2:1:0:0:
317,270,103856,2,0,L|242:270,1,57.6,2|0,2:1|2:0,0:0:0:0:
449,338,103999,6,0,L|457:198,1,115.2,2|0,3:0|2:0,0:0:0:0:
305,355,104213,1,2,2:1:0:0:
362,360,104284,2,0,L|370:286,1,57.6,10|2,3:2|2:1,0:0:0:0:
217,304,104427,2,0,L|205:214,1,57.6,2|0,2:1|2:0,0:0:0:0:
355,196,104570,6,0,L|263:174,1,57.6,2|2,3:1|2:1,0:0:0:0:
235,137,104713,2,0,L|338:120,1,57.6,2|2,1:0|1:0,0:0:0:0:
142,93,104856,2,0,L|63:89,1,57.6,10|0,3:2|2:0,0:0:0:0:
248,73,104999,2,0,L|255:160,1,57.6,2|0,2:1|2:0,0:0:0:0:
74,218,105142,6,0,L|70:352,1,115.2,2|0,3:0|2:0,0:0:0:0:
197,360,105356,2,0,L|206:289,1,57.6,2|10,2:1|3:2,0:0:0:0:
70,333,105499,1,2,2:1:0:0:
217,294,105570,2,0,L|229:218,1,57.6,2|0,2:1|2:0,0:0:0:0:
383,250,105713,6,0,L|382:173,1,57.6,2|0,3:1|2:0,0:0:0:0:
312,192,105856,2,0,L|303:96,1,57.6,2|2,1:0|1:0,0:0:0:0:
134,89,105999,2,0,L|196:41,1,57.6,10|0,3:2|2:0,0:0:0:0:
343,35,106142,2,0,L|415:39,1,57.6,2|0,2:1|2:0,0:0:0:0:
211,137,106284,6,0,L|196:268,1,115.2,2|0,3:0|3:0,0:0:0:0:
133,271,106499,1,2,2:1:0:0:
294,324,106570,2,0,L|370:324,1,57.6,10|2,3:2|2:1,0:0:0:0:
205,366,106713,2,0,L|196:289,1,57.6,2|0,3:1|2:0,0:0:0:0:
51,242,106856,6,0,L|131:213,1,57.6,2|0,3:1|2:0,0:0:0:0:
260,230,106999,2,0,L|277:141,1,57.6,2|0,3:1|2:0,0:0:0:0:
343,154,107142,2,0,L|392:151,2,28.8,10|2|2,3:2|1:2|1:2,0:0:0:0:
177,162,107284,2,0,L|171:83,1,57.6,2|2,1:0|1:0,0:0:0:0:
347,31,107427,6,0,L|203:53,1,115.2,2|0,3:0|3:0,0:0:0:0:
298,76,107642,1,2,2:1:0:0:
448,335,107713,2,0,L|377:351,1,57.6,10|2,3:2|2:1,0:0:0:0:
321,320,107856,2,0,L|402:312,1,57.6,2|0,3:1|2:0,0:0:0:0:
228,369,107999,6,0,L|221:293,1,57.6,2|0,3:1|2:0,0:0:0:0:
297,295,108142,2,0,L|198:288,1,57.6,2|2,3:1|3:1,0:0:0:0:
84,233,108284,2,0,L|155:223,1,57.6,10|0,3:2|2:0,0:0:0:0:
64,208,108427,2,0,L|156:198,1,57.6,2|2,1:0|1:0,0:0:0:0:
295,180,108570,5,2,3:0:0:0:
232,179,108642,2,0,L|195:98,2,57.6,8|8|8,3:0|3:0|3:0,0:0:0:0:
296,220,108856,2,0,L|208:234,1,57.6,10|0,3:2|2:0,0:0:0:0:
413,309,108999,2,0,L|485:314,1,57.6,2|2,3:1|3:1,0:0:0:0:
288,366,109142,6,0,L|254:296,2,57.5999982421876,2|8|8,3:1|2:3|3:0,0:0:0:0:
343,372,109356,1,2,2:0:0:0:
174,346,109427,2,0,L|80:343,1,57.6,10|2,3:2|3:2,0:0:0:0:
269,301,109570,2,0,L|280:197,1,57.5999982421876,2|2,3:2|3:2,0:0:0:0:
59,232,109714,5,10,3:0:0:0:
131,227,109789,2,0,L|154:164,2,48,8|8|8,3:0|3:0|3:0,0:0:0:0:
322,159,110014,5,10,3:0:0:0:
251,149,110092,2,0,L|192:95,2,48,8|8|8,3:0|3:0|3:0,0:0:0:0:
474,195,110329,5,10,3:0:0:0:
405,228,110412,1,8,3:0:0:0:
334,233,110495,1,8,3:0:0:0:
405,228,110579,1,8,3:0:0:0:
212,318,110662,5,10,3:0:0:0:
286,331,110750,1,8,3:0:0:0:
94,216,110838,1,10,3:0:0:0:
17,224,110926,1,8,3:0:0:0:
374,296,111014,6,0,P|426:287|378:200,1,192,6|0,3:1|2:0,0:0:0:0:
212,208,111576,2,0,L|89:196,1,96,4|4,2:3|2:3,0:0:0:0:
285,90,111951,1,2,2:0:0:0:
16,80,112326,1,2,2:0:0:0:
112,269,112514,6,0,P|164:260|116:173,1,192,2|2,2:3|2:0,0:0:0:0:
285,143,113076,1,2,2:0:0:0:
117,172,113264,2,0,L|229:172,1,96,4|4,2:3|2:3,0:0:0:0:
381,172,113639,1,6,2:3:0:0:
213,172,113826,1,2,2:0:0:0:
381,172,114014,6,0,P|433:163|385:76,1,192,2|2,2:3|2:0,0:0:0:0:
219,324,114576,2,0,L|91:324,1,96,2|4,2:0|2:3,0:0:0:0:
291,209,114951,2,0,L|163:209,1,96,0|0,2:0|0:0,0:0:0:0:
16,144,115326,1,2,2:0:0:0:
160,144,115514,6,0,L|168:252,2,96,4|4|6,2:3|2:3|2:3,0:0:0:0:
448,66,116264,2,0,L|288:66,2,144,2|2|2,2:0|2:0|2:0,0:0:0:0:
280,321,117014,5,4,2:3:0:0:
189,299,117201,1,4,2:3:0:0:
150,215,117389,1,4,2:3:0:0:
191,132,117576,1,4,2:3:0:0:
281,112,117764,2,0,L|170:103,1,96,6|0,2:3|0:0,0:0:0:0:
16,112,118139,1,2,2:0:0:0:
184,192,118326,6,0,L|199:303,1,96,2|2,2:0|2:3,0:0:0:0:
448,304,118889,1,4,2:3:0:0:
160,240,119264,1,2,2:3:0:0:
480,99,119639,2,0,L|362:99,1,96,4|0,2:3|2:0,0:0:0:0:
216,174,120014,6,0,L|17:167,1,192,2|0,2:3|2:0,0:0:0:0:
296,174,120764,2,0,L|495:167,1,192,2|0,2:0|2:0,0:0:0:0:
392,91,121326,1,2,2:0:0:0:
64,96,121514,6,0,L|53:197,1,72,12|8,2:3|2:3,0:0:0:0:
251,277,121701,2,0,L|262:378,1,72,8|8,2:3|2:3,0:0:0:0:
456,270,121889,2,0,L|344:270,1,72,8|8,2:3|2:3,0:0:0:0:
301,173,122076,2,0,L|413:173,1,72,8|8,2:3|2:3,0:0:0:0:
187,67,122264,5,12,2:3:0:0:
164,133,122357,1,12,2:3:0:0:
181,202,122451,1,12,2:3:0:0:
232,251,122545,1,12,2:3:0:0:
302,263,122639,2,0,L|312:350,1,72,12|12,2:3|2:3,0:0:0:0:
201,263,122826,2,0,L|190:350,1,72,12|12,2:3|2:3,0:0:0:0:
397,363,123014,6,0,L|253:363,1,142.08,6|8,3:2|2:0,0:0:0:0:
246,291,123278,1,8,2:0:0:0:
147,187,123366,2,0,L|291:187,1,142.08,2|8,3:2|2:0,0:0:0:0:
216,90,123631,1,8,2:0:0:0:
110,316,123719,6,0,L|254:316,1,142.08,2|8,3:2|2:0,0:0:0:0:
261,244,123984,1,8,2:0:0:0:
360,140,124072,2,0,L|216:140,1,142.08,2|8,3:2|2:0,0:0:0:0:
291,43,124337,1,8,2:0:0:0:
399,64,124425,6,0,B|470:64|470:64|399:64,1,142.08,2|8,3:2|2:0,0:0:0:0:
324,66,124690,1,8,2:0:0:0:
399,64,124778,2,0,L|221:64,1,142.08,2|8,3:0|2:0,0:0:0:0:
332,112,125043,1,8,2:0:0:0:
113,64,125131,6,0,B|42:64|42:64|114:64,1,142.08,2|8,3:2|2:0,0:0:0:0:
188,66,125396,1,8,2:0:0:0:
113,64,125484,2,0,L|291:64,1,142.08,2|8,3:2|2:0,0:0:0:0:
180,112,125749,1,8,2:0:0:0:
394,317,125837,6,0,L|234:317,1,134.4,2|8,3:2|2:0,0:0:0:0:
330,253,126087,1,8,2:0:0:0:
146,162,126170,2,0,B|79:162|79:162|147:162,1,134.4,2|8,3:2|2:0,0:0:0:0:
218,163,126420,1,8,2:0:0:0:
34,320,126503,6,0,L|194:320,1,134.4,2|8,3:2|2:0,0:0:0:0:
98,256,126753,1,8,2:0:0:0:
282,165,126837,2,0,B|349:165|349:165|282:165,1,134.4,2|8,3:2|2:0,0:0:0:0:
210,166,127087,1,8,2:0:0:0:
390,304,127170,6,0,L|256:304,1,134.4,2|8,3:2|2:0,0:0:0:0:
324,208,127420,1,8,2:0:0:0:
121,304,127503,2,0,L|256:304,1,134.4,2|8,3:2|2:0,0:0:0:0:
188,208,127753,1,8,2:0:0:0:
390,304,127837,6,0,L|470:304,1,67.2,2|2,3:2|2:0,0:0:0:0:
380,213,128003,2,0,L|460:213,1,67.2,10|10,2:0|2:0,0:0:0:0:
254,130,128170,2,0,L|174:130,1,67.2,2|2,3:2|2:0,0:0:0:0:
264,39,128336,2,0,L|184:39,1,67.2,10|10,2:0|2:0,0:0:0:0:
16,32,128503,6,0,L|96:32,1,63.84,2|0,3:2|2:0,0:0:0:0:
147,104,128660,2,0,L|67:104,1,63.84,8|8,2:0|2:0,0:0:0:0:
264,299,128818,1,2,3:2:0:0:
114,239,128976,2,0,L|102:315,1,63.84,8|8,2:0|2:0,0:0:0:0:
179,304,129134,2,0,L|167:380,1,63.84,2|0,3:2|2:0,0:0:0:0:
342,367,129292,1,2,3:2:0:0:
197,140,129450,6,0,L|261:140,1,63.84
332,50,129608,2,0,L|268:50,1,63.84,8|8,2:0|2:0,0:0:0:0:
86,51,129766,1,2,3:2:0:0:
315,140,129924,6,0,L|251:140,1,63.84,8|0,2:0|2:0,0:0:0:0:
180,50,130081,2,0,L|244:50,1,63.84,2|0,3:2|2:0,0:0:0:0:
426,51,130239,1,8,2:0:0:0:
180,50,130397,6,0,L|116:50,1,63.84,2|0,3:2|2:0,0:0:0:0:
187,105,130555,2,0,L|123:105,1,63.84,8|8,2:0|2:0,0:0:0:0:
304,256,130713,2,0,L|448:256,1,127.68,2|8,3:2|2:0,0:0:0:0:
28,228,131029,6,0,L|16:288,1,60.48,2|2,3:2|3:2,0:0:0:0:
185,308,131179,2,0,L|167:394,1,60.48,10|10,3:2|3:2,0:0:0:0:
327,307,131329,2,0,L|340:367,1,60.48,2|2,3:2|3:2,0:0:0:0:
484,228,131479,2,0,L|496:287,1,60.48,10|10,3:2|3:2,0:0:0:0:
256,144,131629,6,0,L|192:144,1,60.48,2|2,3:2|3:2,0:0:0:0:
346,49,131779,1,10,3:2:0:0:
496,144,131854,1,10,3:2:0:0:
346,49,131929,1,2,3:2:0:0:
285,16,132004,1,2,3:2:0:0:
346,49,132079,1,10,3:2:0:0:
195,144,132154,1,10,3:2:0:0:
346,49,132229,6,0,L|365:148,3,60.48,14|12|12|12,2:3|2:3|2:3|2:3,0:0:0:0:
195,144,132529,2,0,L|177:230,1,60.48,14|12,2:3|2:3,0:0:0:0:
262,230,132679,2,0,L|244:316,1,60.48,14|12,2:3|2:3,0:0:0:0:
83,356,132829,6,0,L|3:356,1,60.48,14|12,2:3|2:3,0:0:0:0:
207,279,132979,2,0,L|225:365,1,60.48,12|12,2:3|2:3,0:0:0:0:
401,248,133129,2,0,L|481:248,1,60.48,14|12,1:3|2:3,0:0:0:0:
256,144,133279,2,0,L|336:144,1,60.48,12|12,2:3|2:3,0:0:0:0:
480,192,133429,6,0,L|352:192,1,120,4|2,3:1|1:2,0:0:0:0:
416,144,133643,1,2,1:2:0:0:
256,144,133714,2,0,L|384:144,1,120,8|2,3:2|1:2,0:0:0:0:
320,192,133929,1,2,1:2:0:0:
160,192,134000,6,0,L|144:128,1,60,2|2,3:2|2:0,0:0:0:0:
304,304,134143,2,0,L|288:240,1,60,2|2,2:0|2:0,0:0:0:0:
132,304,134286,2,0,L|192:304,1,60,10|0,3:2|2:0,0:0:0:0:
352,304,134429,1,2,1:2:0:0:
192,304,134500,1,2,1:2:0:0:
32,192,134571,6,0,L|160:192,1,120,2|2,3:2|3:2,0:0:0:0:
96,144,134786,1,2,1:2:0:0:
256,144,134857,2,0,L|128:144,1,120,10|2,3:2|1:2,0:0:0:0:
192,192,135071,1,2,1:2:0:0:
352,192,135143,6,0,L|368:128,1,60,2|2,3:2|2:0,0:0:0:0:
208,304,135286,2,0,L|224:240,1,60,2|2,3:2|1:2,0:0:0:0:
380,304,135429,2,0,L|320:304,1,60,10|2,3:2|1:2,0:0:0:0:
164,304,135571,2,0,L|224:304,1,60,2|2,1:2|1:2,0:0:0:0:
64,192,135714,5,2,3:2:0:0:
96,192,135750,1,0,0:0:0:0:
128,192,135786,1,0,0:0:0:0:
184,192,135857,1,2,3:2:0:0:
128,144,135929,1,2,3:2:0:0:
288,144,136000,2,0,L|160:144,1,120,10|2,3:2|1:2,0:0:0:0:
204,80,136179,1,2,1:2:0:0:
292,80,136214,1,2,1:2:0:0:
328,80,136250,1,2,1:2:0:0:
224,240,136286,6,0,L|160:240,1,60,2|2,3:2|2:0,0:0:0:0:
320,320,136429,2,0,L|256:320,1,60,2|2,3:2|1:2,0:0:0:0:
416,240,136571,2,0,L|416:176,1,60,10|2,3:2|1:2,0:0:0:0:
260,64,136714,1,2,3:2:0:0:
288,64,136750,1,2,2:0:0:0:
316,64,136786,1,2,3:2:0:0:
160,240,136857,6,0,L|160:176,1,60,2|2,3:2|2:0,0:0:0:0:
316,112,137000,2,0,L|256:112,1,60,2|2,3:2|1:2,0:0:0:0:
100,112,137143,2,0,L|160:112,1,60,10|2,3:2|1:2,0:0:0:0:
320,192,137286,2,0,L|352:192,2,30,2|2|2,3:2|1:2|3:2,0:0:0:0:
260,192,137429,6,0,L|320:192,1,60,2|2,3:2|3:2,0:0:0:0:
480,192,137571,2,0,L|480:128,1,60,2|2,3:2|1:2,0:0:0:0:
320,112,137714,2,0,L|260:112,1,60,10|2,3:2|1:2,0:0:0:0:
412,192,137857,2,0,L|352:192,1,60,2|2,3:2|1:2,0:0:0:0:
192,192,138000,6,0,L|160:192,2,30,2|2|2,3:2|1:2|1:2,0:0:0:0:
252,192,138143,2,0,L|192:192,1,60,2|2,3:2|3:2,0:0:0:0:
32,80,138286,2,0,L|256:80,1,223.68,10|2,3:2|1:2,0:0:0:0:
192,80,138500,1,2,1:2:0:0:
352,192,138571,6,0,L|352:256,1,60,2|2,3:2|1:2,0:0:0:0:
288,192,138714,2,0,L|288:256,1,60,2|2,3:2|1:2,0:0:0:0:
448,80,138857,2,0,L|384:80,1,60,10|2,3:2|1:2,0:0:0:0:
228,80,139000,1,2,1:2:0:0:
258,80,139035,1,0,0:0:0:0:
288,80,139071,1,2,1:2:0:0:
129,192,139143,6,0,L|256:192,1,120,2|2,3:2|3:2,0:0:0:0:
193,144,139357,1,2,1:2:0:0:
353,144,139429,2,0,L|224:144,1,120,10|2,3:2|1:2,0:0:0:0:
289,192,139643,1,2,1:2:0:0:
128,192,139714,6,0,L|120:128,1,60,2|2,3:2|1:2,0:0:0:0:
280,192,139857,2,0,L|272:128,1,60,2|2,3:2|1:2,0:0:0:0:
432,192,140000,2,0,L|440:128,1,60,10|2,3:2|1:2,0:0:0:0:
280,192,140143,2,0,L|288:128,1,60,10|10,3:2|3:2,0:0:0:0:
128,336,140286,6,0,B|248:336,1,120,6|2,3:2|3:2,0:0:0:0:
248,336,140500,1,2,3:2:0:0:
88,272,140571,1,10,3:2:0:0:
368,192,140714,6,0,L|64:48,1,335.520013439026,6|0,3:2|2:0,0:0:0:0:
224,192,141000,2,0,P|240:160|224:80,1,120,10|2,3:2|1:2,0:0:0:0:
160,80,141214,1,2,1:2:0:0:
328,64,141286,6,0,L|208:64,1,120,6|2,3:2|1:2,0:0:0:0:
208,64,141500,1,8,2:3:0:0:
368,192,141571,2,0,L|432:192,1,60,10|8,2:3|2:3,0:0:0:0:
272,192,141714,2,0,L|272:256,1,60,10|8,2:3|2:3,0:0:0:0:
112,192,141857,2,0,L|48:192,1,60,10|8,2:3|2:3,0:0:0:0:
208,192,142000,6,0,L|208:128,1,60,14|12,2:3|2:3,0:0:0:0:
368,192,142143,2,0,L|432:192,1,60,14|12,2:3|2:3,0:0:0:0:
268,192,142286,2,0,L|208:192,1,60,14|12,1:3|2:3,0:0:0:0:
384,128,142429,1,14,2:3:0:0:
208,128,142500,1,12,2:3:0:0:
32,192,142571,6,0,L|160:192,1,120,6|2,3:1|1:2,0:0:0:0:
96,144,142786,1,2,1:2:0:0:
256,144,142857,2,0,L|128:144,1,120,8|2,3:2|1:2,0:0:0:0:
192,192,143071,1,2,1:2:0:0:
352,192,143143,6,0,L|368:128,1,60,2|2,3:2|2:0,0:0:0:0:
208,304,143286,2,0,L|224:240,1,60,2|2,2:0|2:0,0:0:0:0:
380,304,143429,2,0,L|320:304,1,60,10|0,3:2|2:0,0:0:0:0:
160,304,143571,1,2,1:2:0:0:
320,304,143643,1,2,1:2:0:0:
480,192,143714,6,0,L|352:192,1,120,2|2,3:2|3:2,0:0:0:0:
416,144,143929,1,2,1:2:0:0:
256,144,144000,2,0,L|384:144,1,120,10|2,3:2|1:2,0:0:0:0:
320,192,144214,1,2,1:2:0:0:
160,192,144286,6,0,L|144:128,1,60,2|2,3:2|2:0,0:0:0:0:
304,304,144429,2,0,L|288:240,1,60,2|2,3:2|1:2,0:0:0:0:
132,304,144571,2,0,L|192:304,1,60,10|2,3:2|1:2,0:0:0:0:
348,304,144714,2,0,L|288:304,1,60,2|2,1:2|1:2,0:0:0:0:
448,192,144857,5,2,3:2:0:0:
416,192,144893,1,0,0:0:0:0:
384,192,144929,1,0,0:0:0:0:
328,192,145000,1,2,3:2:0:0:
384,144,145071,1,2,3:2:0:0:
224,144,145143,2,0,L|352:144,1,120,10|2,3:2|1:2,0:0:0:0:
308,80,145321,1,2,1:2:0:0:
220,80,145357,1,2,1:2:0:0:
184,80,145393,1,2,1:2:0:0:
288,240,145429,6,0,L|352:240,1,60,2|2,3:2|1:2,0:0:0:0:
192,240,145571,2,0,L|176:176,1,60,2|2,3:2|1:2,0:0:0:0:
256,240,145714,2,0,L|272:176,1,60,10|2,3:2|1:2,0:0:0:0:
112,192,145857,5,2,3:2:0:0:
208,192,145893,1,2,1:2:0:0:
304,192,145929,2,0,L|368:192,2,60,0|2|2,1:2|3:2|2:0,0:0:0:0:
224,80,146143,2,0,L|224:144,1,60,2|2,3:2|2:0,0:0:0:0:
384,80,146286,2,0,L|448:80,1,60,10|2,3:2|2:0,0:0:0:0:
288,192,146429,6,0,L|416:192,2,120,2|2|2,3:2|3:2|3:2,0:0:0:0:
288,192,146786,1,2,3:2:0:0:
448,64,146857,2,0,L|384:64,1,60,10|2,3:2|2:0,0:0:0:0:
224,128,147000,2,0,L|160:128,1,60,2|2,3:2|2:0,0:0:0:0:
320,64,147143,6,0,L|192:64,1,120,2|2,3:2|3:2,0:0:0:0:
256,128,147357,1,2,3:2:0:0:
96,192,147429,2,0,L|80:128,1,60,10|2,3:2|2:0,0:0:0:0:
160,192,147571,2,0,L|176:128,1,60,2|2,1:2|1:2,0:0:0:0:
336,128,147714,6,0,L|400:128,1,60,2|2,3:2|2:0,0:0:0:0:
240,192,147857,2,0,L|300:192,1,60,2|2,3:2|2:0,0:0:0:0:
464,192,148000,2,0,L|480:256,1,60,10|2,3:2|2:0,0:0:0:0:
400,192,148143,2,0,L|384:256,1,60,2|2,3:2|2:0,0:0:0:0:
224,256,148286,6,0,L|160:256,1,60,2|2,3:2|2:0,0:0:0:0:
319,192,148429,2,0,L|259:192,1,60,2|2,3:2|2:0,0:0:0:0:
96,192,148571,2,0,L|48:144,2,60,10|2|2,3:2|2:0|3:2,0:0:0:0:
160,192,148786,1,2,2:0:0:0:
336,128,148857,6,0,L|272:128,1,60,2|2,3:2|1:2,0:0:0:0:
351,192,149000,2,0,L|127:192,1,223.68,2|10,3:2|3:2,0:0:0:0:
368,256,149286,2,0,L|400:256,2,30,2|2|2,3:2|3:2|3:2,0:0:0:0:
208,256,149429,5,2,3:2:0:0:
480,192,149571,1,2,3:1:0:0:
184,80,149714,2,0,L|328:80,1,144,14|2,3:2|1:2,0:0:0:0:
32,192,150000,5,2,3:1:0:0:
328,304,150143,2,0,L|184:304,1,144,14|2,3:2|1:2,0:0:0:0:
480,192,150429,1,2,3:1:0:0:
184,192,150571,6,0,L|168:128,1,60,14|12,3:2|2:3,0:0:0:0:
328,192,150714,2,0,L|344:128,1,60,14|12,2:3|2:3,0:0:0:0:
184,192,150857,2,0,L|200:128,1,60,14|12,2:3|2:3,0:0:0:0:
40,192,151000,2,0,L|56:128,1,60,14|12,2:3|2:3,0:0:0:0:
208,272,151143,6,0,L|272:272,2,60,14|12|12,2:3|2:3|2:3,0:0:0:0:
48,272,151357,1,12,2:3:0:0:
208,192,151429,2,0,L|272:192,1,60,14|12,1:3|2:3,0:0:0:0:
112,112,151571,2,0,L|176:112,1,60,14|12,2:3|2:3,0:0:0:0:
336,192,151714,6,0,L|208:192,1,120,4|2,3:1|1:2,0:0:0:0:
272,144,151929,1,2,1:2:0:0:
112,144,152000,2,0,L|240:144,1,120,8|2,3:2|1:2,0:0:0:0:
176,192,152214,1,2,1:2:0:0:
16,192,152286,6,0,L|32:128,1,60,2|2,3:2|2:0,0:0:0:0:
192,304,152429,2,0,L|192:240,1,60,2|2,2:0|2:0,0:0:0:0:
352,304,152571,2,0,L|336:240,1,60,10|0,3:2|2:0,0:0:0:0:
176,304,152714,1,2,1:2:0:0:
16,304,152786,1,2,1:2:0:0:
176,192,152857,6,0,L|304:192,1,120,2|2,3:2|3:2,0:0:0:0:
240,144,153071,1,2,1:2:0:0:
400,144,153143,2,0,L|272:144,1,120,10|2,3:2|1:2,0:0:0:0:
336,192,153357,1,2,1:2:0:0:
496,192,153429,6,0,L|480:128,1,60,2|2,3:2|2:0,0:0:0:0:
320,304,153571,2,0,L|336:240,1,60,2|2,3:2|1:2,0:0:0:0:
176,304,153714,2,0,L|116:304,1,60,10|2,3:2|1:2,0:0:0:0:
272,304,153857,2,0,L|336:304,1,60,2|2,1:2|1:2,0:0:0:0:
176,192,154000,5,2,3:2:0:0:
208,192,154036,1,0,0:0:0:0:
240,192,154071,1,0,0:0:0:0:
296,192,154143,1,2,3:2:0:0:
240,144,154214,1,2,3:2:0:0:
400,144,154286,2,0,L|272:144,1,120,10|2,3:2|1:2,0:0:0:0:
316,80,154464,1,2,1:2:0:0:
404,80,154500,1,2,1:2:0:0:
440,80,154536,1,2,1:2:0:0:
336,240,154571,6,0,L|272:240,1,60,2|2,3:2|2:0,0:0:0:0:
432,320,154714,2,0,L|368:320,1,60,2|2,3:2|1:2,0:0:0:0:
208,240,154857,2,0,L|208:176,1,60,10|2,3:2|1:2,0:0:0:0:
364,64,155000,1,2,3:2:0:0:
336,64,155036,1,2,2:0:0:0:
308,64,155071,1,2,3:2:0:0:
464,240,155143,6,0,L|464:176,1,60,2|2,3:2|2:0,0:0:0:0:
304,112,155286,2,0,L|236:112,1,60,2|2,3:2|1:2,0:0:0:0:
404,112,155429,2,0,L|464:112,1,60,10|2,3:2|1:2,0:0:0:0:
304,192,155571,2,0,L|272:192,2,30,2|2|2,3:2|1:2|3:2,0:0:0:0:
364,192,155714,6,0,L|304:192,1,60,2|2,3:2|3:2,0:0:0:0:
144,192,155857,2,0,L|144:128,1,60,2|2,3:2|1:2,0:0:0:0:
304,112,156000,2,0,L|364:112,1,60,10|2,3:2|1:2,0:0:0:0:
212,192,156143,2,0,L|272:192,1,60,2|2,3:2|1:2,0:0:0:0:
112,288,156286,6,0,L|96:224,1,60,2|2,3:2|2:0,0:0:0:0:
256,112,156429,2,0,L|192:112,1,60,2|2,3:2|3:2,0:0:0:0:
352,288,156571,2,0,L|368:224,1,60,10|2,3:2|2:0,0:0:0:0:
208,112,156714,2,0,L|272:112,1,60,2|2,3:2|3:2,0:0:0:0:
112,288,156857,6,0,L|128:224,1,60,2|2,3:2|2:0,0:0:0:0:
288,224,157000,2,0,L|240:176,1,60,2|2,3:2|3:2,0:0:0:0:
400,288,157143,2,0,L|384:224,1,60,10|2,3:2|2:0,0:0:0:0:
224,224,157286,2,0,L|272:176,1,60,2|2,3:2|3:2,0:0:0:0:
112,192,157429,6,0,L|104:128,1,60,2|2,3:2|2:0,0:0:0:0:
256,192,157571,2,0,L|256:128,1,60,2|2,3:2|3:2,0:0:0:0:
407,132,157714,2,0,L|400:192,1,60,10|2,3:2|2:0,0:0:0:0:
240,112,157857,2,0,L|176:112,1,60,2|2,3:2|3:2,0:0:0:0:
336,192,158000,6,0,L|400:192,1,60,2|2,3:2|2:0,0:0:0:0:
240,272,158143,2,0,L|176:272,1,60,2|2,3:2|3:2,0:0:0:0:
336,192,158286,1,10,3:2:0:0:
184,192,158357,1,2,3:2:0:0:
32,192,158429,1,2,3:2:0:0:
184,192,158500,1,2,3:2:0:0:
336,336,158571,6,0,B|216:336,1,120,6|2,3:2|3:2,0:0:0:0:
216,336,158786,1,2,3:2:0:0:
376,272,158857,1,10,3:2:0:0:
96,192,159000,6,0,L|400:48,1,335.520013439026,6|0,3:2|2:0,0:0:0:0:
240,192,159286,2,0,P|224:160|240:80,1,120,10|2,3:2|1:2,0:0:0:0:
304,80,159500,1,2,1:2:0:0:
136,64,159571,6,0,L|256:64,1,120,6|2,3:2|1:2,0:0:0:0:
256,64,159786,1,12,2:3:0:0:
96,192,159857,2,0,L|32:192,1,60,12|12,2:3|2:3,0:0:0:0:
192,192,160000,2,0,L|192:256,1,60,12|12,2:3|2:3,0:0:0:0:
352,192,160143,2,0,L|416:192,1,60,12|12,2:3|2:3,0:0:0:0:
256,192,160286,6,0,L|256:128,1,60,12|12,2:3|2:3,0:0:0:0:
96,192,160429,2,0,L|32:192,1,60,12|12,2:3|2:3,0:0:0:0:
196,192,160571,2,0,L|256:192,1,60,12|12,2:3|2:3,0:0:0:0:
80,128,160714,1,12,2:3:0:0:
256,128,160786,1,12,2:3:0:0:
432,192,160857,6,0,P|432:144|400:80,1,120,10|2,3:1|3:2,0:0:0:0:
240,144,161071,1,2,3:2:0:0:
400,144,161143,2,0,L|272:144,1,120,4|2,3:1|1:2,0:0:0:0:
336,192,161357,1,2,1:2:0:0:
496,192,161429,6,0,L|480:128,1,60,0|0,3:2|2:0,0:0:0:0:
320,304,161571,2,0,L|320:240,1,60,2|2,3:2|2:0,0:0:0:0:
160,304,161714,2,0,L|176:240,1,60,10|2,3:2|2:0,0:0:0:0:
336,304,161857,1,2,3:2:0:0:
496,304,161929,1,2,3:2:0:0:
336,192,162000,6,0,L|208:192,1,120,2|2,3:2|1:2,0:0:0:0:
272,144,162214,1,2,1:2:0:0:
112,144,162286,2,0,L|240:144,1,120,10|2,3:2|1:2,0:0:0:0:
176,192,162500,1,2,1:2:0:0:
16,192,162571,6,0,L|32:128,1,60,2|0,3:2|2:0,0:0:0:0:
192,304,162714,2,0,L|176:240,1,60,2|2,3:2|3:2,0:0:0:0:
336,304,162857,2,0,L|396:304,1,60,10|0,3:2|2:0,0:0:0:0:
240,304,163000,2,0,L|176:304,1,60,2|2,3:2|3:2,0:0:0:0:
336,192,163143,5,6,3:2:0:0:
304,192,163179,1,0,0:0:0:0:
272,192,163214,1,0,0:0:0:0:
216,192,163286,1,2,3:2:0:0:
272,144,163357,1,2,1:2:0:0:
112,144,163429,2,0,L|336:144,1,223.68,10|6,3:2|3:2,0:0:0:0:
376,144,163607,1,2,2:0:0:0:
284,80,163643,1,2,2:0:0:0:
243,80,163679,1,2,2:0:0:0:
344,144,163714,6,0,L|345:80,1,60,2|2,3:2|3:2,0:0:0:0:
176,240,163857,2,0,L|400:240,1,223.68,2|10,3:1|3:2,0:0:0:0:
336,192,164071,1,2,2:0:0:0:
176,32,164143,5,6,3:2:0:0:
272,32,164179,1,2,1:2:0:0:
368,32,164214,2,0,B|428:32|428:32|368:32,1,120,2|0,1:2|2:0,0:0:0:0:
288,32,164429,2,0,L|288:96,1,60,2|2,3:2|3:2,0:0:0:0:
448,192,164571,2,0,L|384:192,1,60,10|2,3:2|2:0,0:0:0:0:
224,192,164714,6,0,L|352:192,2,120,6|2|2,3:2|3:2|3:2,0:0:0:0:
288,192,165071,1,2,2:0:0:0:
448,192,165143,2,0,L|448:128,1,60,10|2,3:2|2:0,0:0:0:0:
288,96,165286,2,0,L|352:96,1,60,2|2,3:2|3:2,0:0:0:0:
192,64,165429,6,0,L|320:64,1,120,2|2,3:2|3:2,0:0:0:0:
256,128,165643,1,2,3:2:0:0:
416,192,165714,2,0,L|432:256,1,60,10|0,3:2|2:0,0:0:0:0:
352,192,165857,2,0,L|336:256,1,60,2|2,3:2|3:2,0:0:0:0:
176,256,166000,6,0,L|112:256,1,60,2|2,3:2|2:0,0:0:0:0:
272,192,166143,2,0,L|212:192,1,60,2|2,3:2|3:2,0:0:0:0:
48,192,166286,2,0,L|32:128,1,60,10|2,3:2|2:0,0:0:0:0:
112,192,166429,2,0,L|128:128,1,60,2|2,3:2|3:2,0:0:0:0:
288,128,166571,6,0,L|352:128,1,60,2|0,3:2|2:0,0:0:0:0:
193,192,166714,2,0,L|253:192,1,60,2|2,3:2|3:2,0:0:0:0:
416,192,166857,2,0,L|432:256,2,60,10|2|2,3:2|2:0|3:2,0:0:0:0:
352,192,167071,1,2,3:2:0:0:
176,256,167143,6,0,L|240:256,1,60,2|2,3:2|2:0,0:0:0:0:
161,192,167286,2,0,L|385:192,1,223.68,2|10,3:2|3:2,0:0:0:0:
144,128,167571,2,0,L|112:128,2,30,2|2|2,3:2|3:2|3:2,0:0:0:0:
336,256,167714,6,0,L|336:176,1,80,2|2,3:2|3:2,0:0:0:0:
240,128,167905,1,2,3:2:0:0:
416,128,168000,1,10,3:2:0:0:
176,256,168286,6,0,L|176:176,1,80,2|2,3:2|3:2,0:0:0:0:
272,128,168476,1,2,3:2:0:0:
96,128,168571,1,10,3:2:0:0:
336,256,168857,6,0,L|256:256,1,80,10|2,3:2|3:2,0:0:0:0:
360,192,169048,1,2,3:2:0:0:
176,128,169143,2,0,L|256:128,1,80,10|2,3:2|3:2,0:0:0:0:
152,192,169333,1,2,3:2:0:0:
336,320,169429,5,10,3:2:0:0:
176,320,169524,1,10,3:2:0:0:
368,320,169619,1,10,3:2:0:0:
176,64,169714,1,10,3:2:0:0:
336,64,169809,1,10,3:2:0:0:
144,64,169905,1,10,3:2:0:0:
67,76,170000,6,0,L|57:250,1,144,2|0,3:1|2:0,0:0:0:0:
281,283,170286,6,0,L|103:299,1,153.6,12|0,3:1|2:0,0:0:0:0:
208,184,170571,2,0,L|293:188,2,76.7999976562501,0|0|0,3:1|3:1|3:1,0:0:0:0:
33,287,170857,2,0,L|112:289,2,76.8,8|0|0,3:2|3:0|3:0,0:0:0:0:
123,324,171143,6,0,L|139:155,1,153.6,0|0,3:0|3:0,0:0:0:0:
355,281,171429,1,8,2:0:0:0:
181,342,171619,1,2,2:3:0:0:
377,377,171714,2,0,L|293:357,2,76.8,0|0|0,3:0|3:0|3:0,0:0:0:0:
468,342,172000,2,0,L|393:286,2,76.7999976562501,8|0|0,3:2|3:2|3:2,0:0:0:0:
249,238,172286,6,0,L|443:189,1,153.6,0|0,3:2|2:0,0:0:0:0:
183,123,172571,2,0,L|160:322,1,153.6,8|0,3:2|2:0,0:0:0:0:
77,303,172857,6,0,L|161:328,1,76.8,2|2,3:1|3:1,0:0:0:0:
62,355,173048,1,2,3:1:0:0:
258,376,173143,2,0,L|277:279,1,76.8,8|0,3:2|3:2,0:0:0:0:
192,278,173333,1,0,3:2:0:0:
398,217,173429,6,0,L|370:204,1,19.2,2|0,3:1|2:1,0:0:0:0:
304,177,173524,2,0,L|328:172,1,19.2,2|0,2:1|2:1,0:0:0:0:
398,217,173619,2,0,L|370:204,1,19.2,2|0,3:1|2:1,0:0:0:0:
195,209,173714,2,0,L|188:30,1,153.6,8|0,3:2|2:0,0:0:0:0:
407,48,174000,6,0,L|324:110,1,76.8,2|2,3:0|3:0,0:0:0:0:
262,106,174190,1,2,3:0:0:0:
355,181,174286,2,0,L|283:243,1,76.8,10|2,3:2|3:0,0:0:0:0:
210,251,174476,1,2,3:0:0:0:
428,358,174571,6,0,L|447:194,1,153.6,4|0,3:2|2:0,0:0:0:0:
223,335,174857,2,0,L|384:321,1,153.6,8|0,3:2|2:0,0:0:0:0:
287,282,175143,6,0,L|391:271,1,76.8,0|0,3:0|3:0,0:0:0:0:
276,238,175333,2,0,L|230:238,1,38.4,2|2,3:1|3:1,0:0:0:0:
39,235,175429,2,0,L|39:137,1,76.8,8|0,3:2|3:0,0:0:0:0:
123,145,175619,1,0,3:0:0:0:
330,162,175714,6,0,L|332:129,1,19.2,2|0,3:1|2:0,0:0:0:0:
253,136,175809,2,0,L|251:113,1,19.2,2|0,3:1|2:0,0:0:0:0:
333,118,175905,2,0,L|335:97,1,19.2,2|0,3:1|2:0,0:0:0:0:
143,29,176000,2,0,L|129:196,1,153.6,8|2,3:2|2:1,0:0:0:0:
157,204,176214,1,0,2:0:0:0:
353,294,176286,6,0,L|270:296,2,76.8,2|2|2,3:0|3:0|3:0,0:0:0:0:
456,336,176571,2,0,L|361:359,1,76.8,8|2,3:2|3:0,0:0:0:0:
194,356,176762,1,2,3:0:0:0:
382,354,176857,6,0,L|392:159,1,153.6,0|0,3:2|2:0,0:0:0:0:
160,183,177143,2,0,L|198:164,1,38.4,8|2,3:2|2:1,0:0:0:0:
240,161,177238,1,2,2:1:0:0:
156,130,177333,1,0,3:0:0:0:
360,117,177429,6,0,L|332:97,1,19.2,2|0,3:1|2:0,0:0:0:0:
279,79,177524,1,0,3:2:0:0:
203,70,177619,1,0,3:2:0:0:
366,110,177714,1,8,3:2:0:0:
203,70,177809,2,0,L|183:71,1,19.2,2|0,3:1|2:0,0:0:0:0:
319,300,177905,1,0,3:0:0:0:
251,308,178000,6,0,L|244:119,1,153.6,0|0,3:0|3:0,0:0:0:0:
442,362,178286,1,8,3:2:0:0:
357,356,178381,2,0,L|348:267,1,76.8,0|0,3:2|3:2,0:0:0:0:
135,247,178571,6,0,L|215:191,1,76.8,2|2,3:1|3:1,0:0:0:0:
285,197,178762,1,0,3:2:0:0:
78,134,178857,2,0,L|194:120,2,76.8,8|2|2,3:2|3:1|3:1,0:0:0:0:
287,76,179143,5,4,3:2:0:0:
114,227,179333,1,2,2:3:0:0:
340,339,179429,2,0,L|348:176,1,153.6,8|0,3:2|2:0,0:0:0:0:
442,181,179714,6,0,L|341:161,1,76.8,0|0,3:2|3:2,0:0:0:0:
462,113,179905,1,0,3:2:0:0:
239,107,180000,2,0,L|314:54,1,76.8,8|0,3:2|3:2,0:0:0:0:
387,51,180190,1,0,3:2:0:0:
165,39,180286,6,0,L|143:208,1,153.6,0|0,3:0|3:0,0:0:0:0:
365,284,180571,1,8,3:2:0:0:
186,324,180762,1,2,2:3:0:0:
388,365,180857,6,0,L|305:354,2,76.8,0|0|0,3:0|3:0|3:0,0:0:0:0:
171,223,181143,2,0,L|265:210,2,76.8,8|0|0,3:2|3:0|3:0,0:0:0:0:
76,245,181429,6,0,L|74:59,1,153.6,0|0,3:0|2:0,0:0:0:0:
301,67,181714,2,0,L|115:35,1,153.6,8|0,3:2|2:0,0:0:0:0:
360,153,182000,6,0,L|351:256,1,76.8,2|2,3:0|3:0,0:0:0:0:
262,245,182190,1,2,3:0:0:0:
355,262,182286,2,0,L|369:356,1,76.8,8|0,3:2|3:2,0:0:0:0:
458,351,182476,1,0,3:2:0:0:
236,354,182571,6,0,L|264:341,1,19.2,2|0,3:1|2:0,0:0:0:0:
330,317,182667,2,0,L|306:312,1,19.2,2|0,3:1|2:0,0:0:0:0:
236,354,182762,2,0,L|264:341,1,19.2,2|0,3:1|2:0,0:0:0:0:
458,247,182857,2,0,L|468:60,1,153.6,8|0,3:2|2:0,0:0:0:0:
253,62,183143,6,0,L|365:58,2,76.8,2|2|0,3:1|3:1|3:0,0:0:0:0:
158,109,183429,2,0,L|257:153,1,76.8,8|2,3:2|3:1,0:0:0:0:
318,151,183619,1,2,3:1:0:0:
100,242,183714,5,4,3:2:0:0:
275,299,183905,1,2,2:3:0:0:
43,337,184000,2,0,L|38:175,1,153.6,8|0,3:2|2:0,0:0:0:0:
134,176,184286,6,0,L|36:158,1,76.8,0|0,3:0|3:0,0:0:0:0:
244,298,184476,2,0,L|292:302,1,38.4,2|2,3:1|3:1,0:0:0:0:
109,355,184571,2,0,L|104:244,1,76.8,8|2,3:2|3:0,0:0:0:0:
333,216,184762,1,2,3:0:0:0:
249,210,184857,6,0,L|234:124,1,76.8,2|2,3:0|3:0,0:0:0:0:
149,119,185048,1,2,3:0:0:0:
380,334,185143,1,8,3:2:0:0:
203,357,185333,1,2,2:3:0:0:
438,223,185429,6,0,L|352:223,2,76.8,2|2|2,3:0|3:0|3:0,0:0:0:0:
219,156,185714,2,0,L|289:89,1,76.8,8|2,3:2|3:0,0:0:0:0:
366,93,185905,1,2,3:0:0:0:
118,80,186000,6,0,L|26:94,1,76.8,10|8,3:0|3:0,0:0:0:0:
234,222,186190,1,8,3:0:0:0:
36,260,186286,2,0,L|111:231,2,76.7999976562501,8|8|8,3:2|3:0|3:0,0:0:0:0:
248,362,186571,6,0,L|144:332,1,76.8,10|8,3:0|3:0,0:0:0:0:
367,304,186762,1,8,3:0:0:0:
173,260,186857,2,0,L|287:225,1,76.8,8|8,3:2|3:0,0:0:0:0:
463,220,187048,1,8,3:0:0:0:
270,145,187143,6,0,L|378:131,1,76.8,10|10,3:0|3:0,0:0:0:0:
181,90,187333,1,10,3:0:0:0:
6,51,187429,2,0,L|108:40,2,76.8,8|8|8,3:2|3:0|3:0,0:0:0:0:
217,231,187714,6,0,L|119:246,1,76.8,10|10,3:0|3:0,0:0:0:0:
365,329,187905,1,10,3:0:0:0:
133,354,188000,2,0,L|211:317,1,76.8,8|10,3:2|3:0,0:0:0:0:
451,269,188190,1,10,3:0:0:0:
203,321,188286,6,0,L|198:-13,1,328.32,6|8,3:1|1:0,0:0:0:0:
51,42,188848,1,0,2:0:0:0:
195,74,189036,2,0,L|217:249,1,164.16,8|0,1:0|2:0,0:0:0:0:
374,263,189411,1,8,1:0:0:0:
213,309,189598,1,0,1:0:0:0:
465,359,189786,6,0,L|474:22,1,328.32,8|8,1:0|1:0,0:0:0:0:
164,67,190536,2,0,L|234:126,1,82.08,8|0,1:0|1:0,0:0:0:0:
329,131,190723,1,0,1:0:0:0:
158,212,190911,1,8,1:0:0:0:
329,131,191098,1,0,1:0:0:0:
40,19,191286,6,0,L|33:354,1,328.32,8|8,1:0|1:0,0:0:0:0:
188,363,191848,1,0,2:0:0:0:
33,349,192036,2,0,L|28:178,1,164.16,8|0,1:0|2:0,0:0:0:0:
132,193,192317,2,0,L|147:71,1,82.08,0|8,1:0|1:0,0:0:0:0:
316,89,192598,1,0,1:0:0:0:
44,22,192786,6,0,L|33:365,1,328.32,8|8,1:0|1:0,0:0:0:0:
351,355,193536,2,0,L|275:292,1,82.08,8|0,1:0|1:0,0:0:0:0:
180,295,193723,1,0,1:0:0:0:
355,237,193911,1,8,1:0:0:0:
179,210,194098,2,0,L|173:115,1,82.08,0|0,1:0|1:0,0:0:0:0:
416,150,194286,5,8,1:0:0:0:
473,73,194473,2,0,L|468:174,1,82.08,0|0,1:0|1:0,0:0:0:0:
360,206,194661,1,8,1:0:0:0:
187,255,194848,1,0,1:0:0:0:
376,300,195036,2,0,L|318:378,1,82.08,8|0,1:0|1:0,0:0:0:0:
215,370,195223,1,0,1:0:0:0:
401,362,195411,1,8,1:0:0:0:
398,256,195598,2,0,L|320:221,1,82.08,0|0,1:0|1:0,0:0:0:0:
99,231,195786,5,8,1:0:0:0:
134,123,195973,2,0,L|236:90,1,82.08,0|0,1:0|1:0,0:0:0:0:
89,51,196161,1,8,1:0:0:0:
80,88,196348,1,0,1:0:0:0:
259,181,196536,2,0,L|172:231,1,82.08,8|0,1:0|1:0,0:0:0:0:
93,240,196723,1,0,1:0:0:0:
272,325,196911,1,8,1:0:0:0:
87,333,197098,2,0,L|188:319,1,82.08,0|0,1:0|1:0,0:0:0:0:
430,344,197286,6,0,L|453:216,1,82.08,8|0,1:0|1:0,0:0:0:0:
337,247,197473,2,0,L|459:234,1,82.08,8|0,1:0|1:0,0:0:0:0:
314,234,197661,2,0,L|307:107,1,82.08,8|0,1:0|1:0,0:0:0:0:
207,133,197848,2,0,L|333:125,1,82.08,8|0,1:0|1:0,0:0:0:0:
172,164,198036,2,0,L|154:263,1,82.08,8|0,1:0|1:0,0:0:0:0:
358,298,198223,2,0,L|268:317,1,82.08,8|0,1:0|1:0,0:0:0:0:
61,363,198411,2,0,L|46:282,1,82.08,8|0,1:0|1:0,0:0:0:0:
291,276,198598,2,0,L|193:265,1,82.08,8|0,1:0|1:0,0:0:0:0:
475,273,198786,5,8,1:0:0:0:
461,234,198832,1,0,1:0:0:0:
439,199,198879,1,0,1:0:0:0:
409,171,198926,1,0,1:0:0:0:
374,150,198973,1,8,1:0:0:0:
335,139,199020,1,0,1:0:0:0:
294,136,199067,1,0,1:0:0:0:
44,205,199161,5,8,1:0:0:0:
58,166,199207,1,0,1:0:0:0:
80,131,199254,1,0,1:0:0:0:
110,103,199301,1,0,1:0:0:0:
145,82,199348,1,8,1:0:0:0:
184,71,199395,1,0,1:0:0:0:
225,68,199442,1,0,1:0:0:0:
476,95,199536,6,0,L|493:143,1,41.04,8|8,1:0|1:0,0:0:0:0:
353,69,199629,1,8,1:0:0:0:
90,63,199723,2,0,L|73:111,1,41.04,8|8,1:0|1:0,0:0:0:0:
213,37,199817,1,8,1:0:0:0:
488,275,199911,6,0,L|428:307,1,41.04,8|8,1:0|1:0,0:0:0:0:
308,313,200004,1,8,1:0:0:0:
24,304,200098,2,0,L|84:336,1,41.04,8|8,1:0|1:0,0:0:0:0:
204,343,200192,1,8,1:0:0:0:
419,192,200286,5,4,3:1:0:0:
256,192,200379,2,0,L|352:192,2,82.08,2|2|0,2:1|3:1|3:0,0:0:0:0:
93,192,200661,1,2,3:1:0:0:
256,192,200754,2,0,L|160:192,2,82.08,2|2|0,2:1|3:1|3:0,0:0:0:0:
419,192,201036,5,2,3:1:0:0:
256,192,201129,2,0,L|341:124,2,82.08,2|2|0,2:1|3:1|3:0,0:0:0:0:
93,192,201411,1,2,3:1:0:0:
256,192,201504,2,0,L|171:124,2,82.08,2|2|0,2:1|3:1|3:0,0:0:0:0:
416,192,201786,5,2,3:1:0:0:
217,249,201879,2,0,L|209:140,1,82.08,2|2,2:1|3:1,0:0:0:0:
298,143,202067,1,0,3:0:0:0:
96,192,202161,1,2,3:1:0:0:
295,249,202254,2,0,L|303:140,1,82.08,2|2,2:1|3:1,0:0:0:0:
214,143,202442,1,0,3:0:0:0:
416,192,202536,5,2,3:1:0:0:
180,117,202629,1,2,2:1:0:0:
256,86,202723,1,2,3:1:0:0:
332,56,202817,1,0,3:0:0:0:
96,192,202911,1,2,3:1:0:0:
332,117,203004,1,2,2:1:0:0:
256,86,203098,1,2,3:1:0:0:
180,56,203192,1,0,3:0:0:0:
416,192,203286,5,2,3:1:0:0:
212,190,203379,1,2,2:1:0:0:
299,276,203473,2,0,L|307:167,1,82.08,2|0,3:1|3:0,0:0:0:0:
96,192,203661,1,2,3:1:0:0:
300,190,203754,1,2,2:1:0:0:
213,276,203848,2,0,L|205:167,1,82.08,2|0,3:1|3:0,0:0:0:0:
416,192,204036,5,2,3:1:0:0:
256,192,204129,2,0,L|160:192,2,82.08,2|2|0,2:1|3:1|3:0,0:0:0:0:
96,192,204411,1,2,3:1:0:0:
256,192,204504,2,0,L|352:192,2,82.08,2|2|0,2:1|3:1|3:0,0:0:0:0:
416,192,204786,5,2,3:1:0:0:
256,192,204879,2,0,L|171:124,2,82.08,2|2|0,2:1|3:1|3:0,0:0:0:0:
96,192,205161,1,2,3:1:0:0:
256,192,205254,2,0,L|341:124,2,82.08,2|2|0,2:1|3:1|3:0,0:0:0:0:
416,192,205536,5,2,3:2:0:0:
337,164,205629,1,2,3:2:0:0:
256,112,205723,2,0,L|256:15,1,82.08,2|0,3:2|3:0,0:0:0:0:
96,192,205911,1,2,3:2:0:0:
175,164,206004,1,2,3:2:0:0:
256,112,206098,2,0,L|256:15,1,82.08,2|0,3:2|3:0,0:0:0:0:
459,345,206286,6,0,L|467:236,1,82.08,2|0,3:2|3:2,0:0:0:0:
370,276,206473,2,0,L|378:167,1,82.08,2|0,3:2|3:2,0:0:0:0:
173,239,206661,2,0,L|165:130,1,82.08,2|0,3:2|3:2,0:0:0:0:
262,170,206848,2,0,L|254:61,1,82.08,2|0,3:2|3:2,0:0:0:0:
53,345,207036,6,0,L|45:236,1,82.08,2|0,3:2|3:2,0:0:0:0:
142,276,207223,2,0,L|134:167,1,82.08,2|0,3:2|3:2,0:0:0:0:
339,239,207411,2,0,L|347:130,1,82.08,2|0,3:2|3:2,0:0:0:0:
250,170,207598,2,0,L|258:61,1,82.08,2|0,3:2|3:2,0:0:0:0:
459,345,207786,6,0,L|467:236,1,82.08,2|0,3:2|3:2,0:0:0:0:
283,278,207973,2,0,L|275:169,1,82.08,2|0,3:2|3:2,0:0:0:0:
190,168,208161,1,2,3:2:0:0:
354,73,208254,2,0,L|450:73,1,82.08,2|0,3:2|3:2,0:0:0:0:
354,73,208442,1,2,3:2:0:0:
188,168,208536,6,0,L|92:168,1,82.08,2|0,3:2|3:2,0:0:0:0:
188,168,208723,1,0,3:2:0:0:
22,337,208817,2,0,L|16:256,1,82.08,2|0,3:2|3:2,0:0:0:0:
103,227,209004,1,0,3:2:0:0:
256,144,209098,2,0,L|128:144,1,82.08,2|0,3:2|3:2,0:0:0:0:
345,256,209286,5,2,3:2:0:0:
256,256,209379,1,0,3:2:0:0:
434,256,209473,1,2,3:2:0:0:
345,256,209567,1,0,3:2:0:0:
434,256,209661,1,0,3:2:0:0:
256,256,209754,1,2,3:2:0:0:
345,256,209848,1,0,3:2:0:0:
256,256,209942,1,0,3:2:0:0:
78,256,210036,5,2,3:2:0:0:
167,256,210129,1,0,3:2:0:0:
78,256,210223,1,0,3:2:0:0:
256,256,210317,1,2,3:2:0:0:
167,256,210411,1,0,3:2:0:0:
256,256,210504,1,0,3:2:0:0:
434,256,210598,1,2,3:2:0:0:
345,256,210692,1,0,3:2:0:0:
168,103,210786,5,6,3:2:0:0:
256,112,210879,2,0,L|256:224,1,82.08,4|4,2:3|2:3,0:0:0:0:
344,103,211067,1,4,3:2:0:0:
256,112,211161,2,0,L|256:224,1,82.08,4|4,2:3|2:3,0:0:0:0:
162,160,211348,5,4,3:2:0:0:
253,237,211442,2,0,L|259:318,1,82.08,8|8,2:3|2:3,0:0:0:0:
350,160,211629,1,4,3:2:0:0:
259,237,211723,2,0,L|253:318,1,82.08,8|8,2:3|2:3,0:0:0:0:
96,368,211911,6,0,L|192:368,1,82.08,4|12,3:2|2:3,0:0:0:0:
333,368,212098,2,0,L|416:368,1,82.08,4|12,3:2|2:3,0:0:0:0:
259,237,212286,6,0,L|253:318,1,82.08,4|0,3:0|2:0,0:0:0:0:
438,110,212473,2,0,L|326:110,1,82.08,2|0,1:3|1:0,0:0:0:0:
438,110,212661,1,0,3:0:0:0:
253,237,212754,2,0,L|247:318,1,82.08,2|0,2:3|1:0,0:0:0:0:
160,335,212942,5,0,1:0:0:0:
345,175,213036,1,2,3:0:0:0:
162,127,213129,2,0,L|274:127,1,82.08,0|0,2:0|1:0,0:0:0:0:
57,118,213317,1,2,1:3:0:0:
144,134,213411,2,0,L|150:215,1,82.08,0|0,3:0|2:0,0:0:0:0:
333,221,213598,2,0,L|237:221,1,82.08,2|0,1:3|1:0,0:0:0:0:
438,302,213786,6,0,L|444:383,1,82.08,0|0,3:0|2:0,0:0:0:0:
270,221,213973,2,0,L|352:221,1,82.08,2|0,1:3|1:0,0:0:0:0:
270,221,214161,1,0,3:0:0:0:
97,245,214254,2,0,L|103:326,1,82.08,2|0,2:3|1:0,0:0:0:0:
190,343,214442,1,0,1:0:0:0:
16,160,214536,5,2,3:0:0:0:
199,111,214629,2,0,L|103:111,1,82.08,0|0,2:0|1:0,0:0:0:0:
304,164,214817,1,2,1:3:0:0:
116,111,214911,2,0,L|198:111,1,82.08,0|0,3:0|2:0,0:0:0:0:
396,111,215098,2,0,L|313:111,1,82.08,2|0,1:3|1:0,0:0:0:0:
116,111,215286,6,0,L|110:192,1,82.08,0|0,3:0|2:0,0:0:0:0:
295,223,215473,2,0,L|301:304,1,82.08,2|0,1:3|1:0,0:0:0:0:
214,340,215661,1,0,3:0:0:0:
397,335,215754,1,2,2:3:0:0:
214,340,215848,2,0,L|100:340,1,82.08,0|0,1:0|1:0,0:0:0:0:
316,181,216036,5,2,3:0:0:0:
496,96,216129,2,0,L|400:96,1,82.08,0|0,2:0|1:0,0:0:0:0:
223,184,216317,1,2,1:3:0:0:
310,200,216411,2,0,L|316:281,1,82.08,0|0,3:0|2:0,0:0:0:0:
126,235,216598,2,0,L|222:235,1,82.08,2|0,1:3|1:0,0:0:0:0:
16,128,216786,5,2,3:0:0:0:
103,144,216879,2,0,L|109:225,1,82.08,0|0,2:0|1:0,0:0:0:0:
308,237,217067,1,2,1:3:0:0:
221,253,217161,2,0,L|215:334,1,82.08,0|0,3:0|2:0,0:0:0:0:
496,128,217348,5,2,1:3:0:0:
409,144,217442,2,0,L|403:225,1,82.08,0|0,1:0|3:0,0:0:0:0:
204,237,217629,1,2,2:3:0:0:
291,253,217723,2,0,L|297:334,1,82.08,0|0,1:0|1:0,0:0:0:0:
91,176,217911,2,0,L|264:176,1,164.16,2|0,3:0|1:0,0:0:0:0:
165,109,218192,1,2,1:3:0:0:
253,237,218286,6,0,L|259:318,1,82.08,4|0,3:0|2:0,0:0:0:0:
74,110,218473,2,0,L|186:110,1,82.08,2|0,1:3|1:0,0:0:0:0:
74,110,218661,1,0,3:0:0:0:
259,237,218754,2,0,L|265:318,1,82.08,2|0,2:3|1:0,0:0:0:0:
352,335,218942,5,0,1:0:0:0:
167,175,219036,1,2,3:0:0:0:
350,127,219129,2,0,L|238:127,1,82.08,0|0,2:0|1:0,0:0:0:0:
455,118,219317,1,2,1:3:0:0:
368,134,219411,2,0,L|362:215,1,82.08,0|0,3:0|2:0,0:0:0:0:
179,221,219598,2,0,L|275:221,1,82.08,2|0,1:3|1:0,0:0:0:0:
74,302,219786,6,0,L|68:383,1,82.08,2|0,3:0|2:0,0:0:0:0:
242,221,219973,2,0,L|160:221,1,82.08,2|0,1:3|1:0,0:0:0:0:
242,221,220161,1,0,3:0:0:0:
415,245,220254,2,0,L|409:326,1,82.08,2|0,2:3|1:0,0:0:0:0:
322,343,220442,1,0,1:0:0:0:
496,160,220536,5,2,3:0:0:0:
313,111,220629,2,0,L|409:111,1,82.08,0|0,2:0|1:0,0:0:0:0:
208,164,220817,1,2,1:3:0:0:
396,111,220911,2,0,L|314:111,1,82.08,2|0,3:0|2:0,0:0:0:0:
116,111,221098,2,0,L|199:111,1,82.08,2|0,1:3|1:0,0:0:0:0:
396,111,221286,6,0,L|402:192,1,82.08,0|0,3:0|2:0,0:0:0:0:
176,304,221473,1,2,1:3:0:0:
361,188,221567,2,0,L|249:188,1,82.08,0|0,1:0|3:0,0:0:0:0:
464,48,221754,1,2,2:3:0:0:
279,208,221848,2,0,L|273:289,1,82.08,0|0,1:0|1:0,0:0:0:0:
86,197,222036,6,0,L|198:197,1,82.08,2|0,3:0|2:0,0:0:0:0:
86,197,222223,1,0,1:0:0:0:
271,332,222317,2,0,L|277:251,1,82.08,2|0,1:3|3:0,0:0:0:0:
190,349,222504,1,0,2:0:0:0:
373,186,222598,2,0,L|261:186,1,82.08,2|0,1:3|1:0,0:0:0:0:
91,96,222786,6,0,L|256:96,1,164.16,6|0,3:2|1:2,0:0:0:0:
420,96,223067,2,0,L|91:96,1,328.320000000001,6|0,3:2|1:2,0:0:0:0:
256,96,223348,6,0,L|420:96,1,164.16,4|0,3:2|1:0,0:0:0:0:
91,96,223629,2,0,L|420:96,1,328.320000000001,4|0,3:2|1:0,0:0:0:0:
176,192,223911,1,6,3:2:0:0:
420,96,224098,1,6,3:2:0:0:
91,96,224286,5,6,3:0:0:0:
256,144,224462,2,0,L|266:241,1,77.28,2|0,1:3|1:0,0:0:0:0:
183,277,224638,1,0,3:0:0:0:
378,224,224727,2,0,L|368:321,1,77.28,2|0,2:3|1:0,0:0:0:0:
289,357,224903,1,0,1:0:0:0:
482,352,224991,5,2,3:0:0:0:
303,352,225168,1,0,1:0:0:0:
481,66,225256,2,0,L|491:163,1,77.28,2|0,1:3|3:0,0:0:0:0:
408,199,225433,1,0,2:0:0:0:
213,272,225521,2,0,L|309:272,1,77.28,2|0,1:3|1:0,0:0:0:0:
483,66,225697,5,6,3:0:0:0:
318,114,225874,2,0,L|308:211,1,77.28,2|0,1:3|1:0,0:0:0:0:
391,247,226050,1,0,3:0:0:0:
196,194,226138,2,0,L|206:291,1,77.28,2|0,2:3|1:0,0:0:0:0:
285,327,226315,1,0,1:0:0:0:
92,322,226403,5,2,3:0:0:0:
256,288,226580,1,0,1:0:0:0:
93,304,226668,2,0,L|16:304,2,77.28,2|0|0,1:3|3:0|2:0,0:0:0:0:
256,144,226933,2,0,L|144:144,1,77.28,2|0,1:3|1:0,0:0:0:0:
333,144,227109,5,6,3:0:0:0:
180,203,227275,2,0,L|170:295,1,72.96,2|0,1:3|1:0,0:0:0:0:
249,326,227442,1,0,3:0:0:0:
67,351,227525,1,2,2:3:0:0:
249,326,227609,2,0,L|334:326,1,72.96,0|0,1:0|1:0,0:0:0:0:
140,192,227775,5,2,3:0:0:0:
372,192,227942,1,0,1:0:0:0:
212,192,228025,2,0,L|104:192,2,72.96,2|0|0,1:3|3:0|2:0,0:0:0:0:
372,192,228275,2,0,L|300:192,1,72.96,2|0,1:3|1:0,0:0:0:0:
140,192,228442,6,0,B|67:192|67:192|139:192,1,145.92,6|0,3:0|1:0,0:0:0:0:
291,199,228692,2,0,L|301:291,1,72.96,2|0,1:3|3:0,0:0:0:0:
222,322,228859,1,0,2:0:0:0:
372,192,228942,6,0,B|445:192|445:192|372:192,1,145.92,2|0,1:3|3:0,0:0:0:0:
207,322,229192,1,2,2:3:0:0:
284,199,229275,2,0,L|291:271,1,72.96,0|0,1:0|1:0,0:0:0:0:
128,144,229442,5,2,3:0:0:0:
384,144,229609,2,0,L|288:144,1,72.96,0|0,1:0|1:0,0:0:0:0:
128,208,229775,5,6,3:0:0:0:
273,66,229932,2,0,L|283:163,1,69.12,2|0,1:3|1:0,0:0:0:0:
206,187,230090,1,0,3:0:0:0:
379,318,230169,2,0,L|459:318,2,69.12,2|0|0,2:3|1:0|1:0,0:0:0:0:
206,187,230406,5,2,3:0:0:0:
278,198,230485,2,0,L|288:295,1,69.12,0|0,2:0|1:0,0:0:0:0:
110,284,230643,1,2,1:3:0:0:
182,295,230722,2,0,L|192:392,1,69.12,0|0,3:0|2:0,0:0:0:0:
16,224,230880,2,0,L|112:224,1,69.12,2|0,1:3|1:0,0:0:0:0:
260,230,231038,5,6,3:0:0:0:
412,151,231196,2,0,L|332:151,1,69.12,2|0,1:3|1:0,0:0:0:0:
412,151,231353,1,0,3:0:0:0:
239,155,231432,2,0,L|229:252,1,69.12,2|0,2:3|1:0,0:0:0:0:
306,276,231590,1,0,1:0:0:0:
133,258,231669,5,2,3:0:0:0:
205,269,231748,2,0,L|215:366,1,69.12,0|0,2:0|1:0,0:0:0:0:
387,225,231906,1,2,1:3:0:0:
315,236,231985,2,0,L|305:333,1,69.12,2|0,3:0|2:0,0:0:0:0:
483,352,232143,2,0,L|371:352,1,69.12,2|0,1:3|1:0,0:0:0:0:
256,320,232301,5,6,3:0:0:0:
112,192,232451,1,2,1:3:0:0:
277,192,232526,2,0,L|357:192,1,65.76,0|0,1:0|3:0,0:0:0:0:
178,105,232676,1,2,2:3:0:0:
243,105,232751,2,0,L|163:105,1,65.76,0|0,1:0|1:0,0:0:0:0:
336,257,232901,6,0,L|343:172,1,65.76,2|0,3:0|2:0,0:0:0:0:
272,161,233051,1,0,1:0:0:0:
430,96,233126,2,0,L|496:96,2,65.76,2|0|0,1:3|3:0|2:0,0:0:0:0:
256,64,233351,2,0,L|352:64,1,65.76,2|0,1:3|1:0,0:0:0:0:
144,208,233501,5,6,3:0:0:0:
71,294,233576,2,0,L|64:209,1,65.76,0|0,3:0|1:0,0:0:0:0:
256,240,233726,2,0,L|249:155,1,65.76,2|0,1:3|3:0,0:0:0:0:
178,149,233876,1,0,3:0:0:0:
368,208,233951,5,2,1:3:0:0:
441,293,234026,2,0,L|448:208,1,65.76,0|0,1:0|3:0,0:0:0:0:
256,240,234176,2,0,L|263:155,1,65.76,2|0,3:0|1:0,0:0:0:0:
334,149,234326,1,0,1:0:0:0:
143,96,234401,5,10,3:0:0:0:
369,96,234551,1,10,3:0:0:0:
112,192,234701,5,4,3:1:0:0:
368,192,234843,2,0,L|384:288,2,96,2|2|2,1:2|1:2|1:2,0:0:0:0:
112,192,235272,2,0,L|96:96,1,96,10|2,3:2|1:2,0:0:0:0:
224,64,235558,2,0,L|128:64,1,96,2|2,3:2|1:2,0:0:0:0:
384,192,235843,6,0,L|432:192,2,48,8|8|8,3:0|2:3|2:3,0:0:0:0:
240,128,236058,1,8,3:0:0:0:
384,192,236129,2,0,L|288:192,1,96,8|8,2:3|2:3,0:0:0:0:
352,256,236343,1,8,2:3:0:0:
208,192,236415,2,0,L|192:144,1,48,10|12,3:2|2:3,0:0:0:0:
336,192,236558,2,0,L|336:144,1,48,12|12,2:3|2:3,0:0:0:0:
480,192,236701,2,0,L|496:240,1,48,12|12,2:3|2:3,0:0:0:0:
352,192,236843,2,0,L|352:240,1,48,12|12,2:3|2:3,0:0:0:0:
192,192,236986,6,0,L|96:192,1,96,6|2,3:2|1:2,0:0:0:0:
96,192,237201,1,2,1:2:0:0:
304,96,237272,2,0,L|80:96,1,223.68,2|2,3:2|1:2,0:0:0:0:
336,192,237558,2,0,L|352:96,1,96,10|2,3:2|1:2,0:0:0:0:
224,192,237843,2,0,L|208:96,1,96,2|2,3:2|1:2,0:0:0:0:
464,192,238129,6,0,L|512:144,2,48,8|8|8,2:3|2:3|2:3,0:0:0:0:
320,128,238343,1,8,2:3:0:0:
464,192,238415,2,0,L|512:192,2,48,8|8|8,2:3|2:3|2:3,0:0:0:0:
400,128,238629,1,8,2:3:0:0:
272,256,238701,2,0,L|224:256,1,48,10|12,3:2|2:3,0:0:0:0:
288,192,238843,2,0,L|240:192,1,48,12|12,2:3|2:3,0:0:0:0:
112,128,238986,1,12,2:3:0:0:
176,128,239058,1,12,2:3:0:0:
304,64,239129,1,12,2:3:0:0:
240,64,239201,1,12,2:3:0:0:
400,192,239272,5,6,3:2:0:0:
144,192,239415,2,0,L|128:288,2,96,2|2|2,1:2|1:2|1:2,0:0:0:0:
400,192,239843,2,0,L|416:96,1,96,10|2,3:2|1:2,0:0:0:0:
288,64,240129,2,0,L|384:64,1,96,2|2,3:2|1:2,0:0:0:0:
128,192,240415,6,0,L|80:192,2,48,8|8|8,3:0|2:3|2:3,0:0:0:0:
272,128,240629,1,8,3:0:0:0:
128,192,240701,2,0,L|80:144,2,48,8|8|8,2:3|2:3|2:3,0:0:0:0:
192,256,240915,1,8,2:3:0:0:
336,192,240986,2,0,L|352:144,1,48,8|12,3:2|2:3,0:0:0:0:
208,192,241129,2,0,L|208:144,1,48,12|12,2:3|2:3,0:0:0:0:
64,192,241272,2,0,L|48:240,1,48,12|12,2:3|2:3,0:0:0:0:
192,192,241415,2,0,L|192:240,1,48,12|12,2:3|2:3,0:0:0:0:
352,192,241558,6,0,L|448:192,1,96,2|2,3:2|1:2,0:0:0:0:
448,192,241772,1,2,1:2:0:0:
240,96,241843,2,0,L|464:96,1,223.68,2|2,3:2|1:2,0:0:0:0:
208,192,242129,2,0,L|192:96,1,96,10|2,3:2|1:2,0:0:0:0:
320,192,242415,2,0,L|336:96,1,96,2|2,3:2|1:2,0:0:0:0:
80,192,242701,6,0,L|32:144,2,48,8|8|8,3:0|2:3|2:3,0:0:0:0:
224,128,242915,1,8,3:0:0:0:
80,192,242986,2,0,L|32:192,2,48,8|8|8,3:0|2:3|2:3,0:0:0:0:
144,128,243201,1,8,2:3:0:0:
288,96,243272,5,10,3:1:0:0:
345,134,243320,1,2,2:1:0:0:
384,192,243367,1,2,2:1:0:0:
384,268,243415,1,2,2:1:0:0:
345,326,243462,1,2,2:1:0:0:
288,364,243510,1,2,2:1:0:0:
230,364,243558,1,2,2:1:0:0:
191,326,243605,1,2,2:1:0:0:
163,268,243653,1,2,2:1:0:0:
163,192,243701,1,2,2:1:0:0:
191,134,243748,1,2,2:1:0:0:
230,96,243796,1,2,2:1:0:0:
432,192,243843,5,6,3:2:0:0:
208,48,243986,2,0,L|304:48,1,96,2|10,3:2|3:2,0:0:0:0:
72,192,244272,1,6,3:2:0:0:
314,48,244415,2,0,L|198:48,1,115.2,2|10,3:2|3:2,0:0:0:0:
440,192,244701,5,6,3:2:0:0:
188,48,244843,2,0,L|323:48,1,134.4,2|10,3:2|3:2,0:0:0:0:
64,192,245129,1,6,3:2:0:0:
448,192,245272,1,2,3:2:0:0:
176,192,245415,6,0,L|224:192,1,48,10|8,3:2|3:0,0:0:0:0:
368,128,245558,2,0,L|416:128,1,48,8|8,3:0|2:3,0:0:0:0:
352,192,245701,2,0,L|400:192,1,48,8|8,3:0|2:3,0:0:0:0:
256,256,245843,2,0,L|208:256,1,48,10|12,3:2|3:0,0:0:0:0:
272,192,245986,2,0,L|224:192,1,48,12|12,3:0|2:3,0:0:0:0:
80,192,246129,5,6,3:2:0:0:
304,336,246272,2,0,L|208:336,1,96,2|10,3:2|3:2,0:0:0:0:
440,192,246558,1,6,3:2:0:0:
198,336,246701,2,0,L|314:336,1,115.2,2|10,3:2|3:2,0:0:0:0:
72,192,246986,5,6,3:2:0:0:
324,336,247129,2,0,L|189:336,1,134.4,2|10,3:2|3:2,0:0:0:0:
448,192,247415,1,6,3:2:0:0:
64,192,247558,1,2,3:2:0:0:
336,192,247701,6,0,L|368:152,1,48,10|8,3:2|3:0,0:0:0:0:
224,192,247843,2,0,L|176:192,1,48,8|8,3:0|2:3,0:0:0:0:
240,256,247986,2,0,L|192:256,1,48,8|8,3:0|2:3,0:0:0:0:
336,96,248129,2,0,L|384:96,1,48,10|12,3:2|3:0,0:0:0:0:
240,96,248272,2,0,L|288:96,1,48,12|12,3:0|2:3,0:0:0:0:
432,192,248415,5,6,3:2:0:0:
208,48,248558,2,0,L|304:48,1,96,2|10,3:2|3:2,0:0:0:0:
72,192,248843,1,6,3:2:0:0:
314,48,248986,2,0,L|198:48,1,115.2,2|10,3:2|3:2,0:0:0:0:
440,192,249272,5,6,3:2:0:0:
188,48,249415,2,0,L|323:48,1,134.4,2|10,3:2|3:2,0:0:0:0:
64,192,249701,1,6,3:2:0:0:
448,192,249843,1,2,3:2:0:0:
176,192,249986,6,0,L|224:192,1,48,10|8,3:2|3:0,0:0:0:0:
368,128,250129,2,0,L|368:80,1,48,8|8,3:0|2:3,0:0:0:0:
304,48,250272,2,0,L|352:48,1,48,8|8,3:0|2:3,0:0:0:0:
208,256,250415,2,0,L|208:304,1,48,10|12,3:2|3:0,0:0:0:0:
272,336,250558,2,0,L|224:336,1,48,12|12,3:0|2:3,0:0:0:0:
64,192,250701,5,6,3:1:0:0:
314,48,250843,2,0,L|198:48,1,115.2,2|10,3:2|3:2,0:0:0:0:
456,192,251129,1,6,3:2:0:0:
188,48,251272,2,0,L|323:48,1,134.4,2|10,3:2|3:2,0:0:0:0:
48,192,251558,5,6,3:2:0:0:
333,48,251701,2,0,L|179:48,1,153.6,2|10,3:2|3:2,0:0:0:0:
464,192,251986,1,6,3:2:0:0:
122,192,252129,2,0,L|390:192,1,268.8,2|10,3:2|3:2,0:0:0:0:
320,192,252343,1,10,3:2:0:0:
176,96,252415,6,0,L|424:96,1,245.76,4|8,3:1|3:2,0:0:0:0:
376,144,252629,1,8,3:2:0:0:
240,240,252701,2,0,L|464:240,1,223.68,12|0,3:1|2:0,0:0:0:0:
432,192,252915,1,0,2:0:0:0:
256,96,252986,6,0,L|208:96,2,48,6|8|8,3:2|2:3|2:3,0:0:0:0:
400,96,253201,1,12,3:0:0:0:
256,192,253272,2,0,L|256:240,1,48,8|8,2:3|2:3,0:0:0:0:
112,240,253415,2,0,L|160:240,1,48,12|0,3:0|2:0,0:0:0:0:
304,96,253558,6,0,L|352:96,2,48,6|8|8,3:2|2:3|2:3,0:0:0:0:
160,96,253772,1,12,3:0:0:0:
304,192,253843,2,0,L|304:240,1,48,8|8,2:3|2:3,0:0:0:0:
448,240,253986,2,0,L|400:240,1,48,12|8,3:0|2:3,0:0:0:0:
256,96,254129,6,0,L|208:96,2,48,6|8|0,3:2|2:3|2:3,0:0:0:0:
400,96,254343,1,12,3:0:0:0:
256,192,254415,2,0,L|208:192,1,48,8|8,2:3|2:3,0:0:0:0:
352,192,254558,1,12,3:0:0:0:
208,192,254629,1,8,2:3:0:0:
64,192,254701,6,0,L|48:144,2,48,8|4|4,3:1|2:3|2:3,0:0:0:0:
288,48,254986,2,0,L|32:48,1,255.36,2|2,3:1|3:1,0:0:0:0:
256,96,255272,6,0,L|304:96,2,48,6|8|8,3:2|2:3|2:3,0:0:0:0:
112,96,255486,1,12,3:0:0:0:
256,192,255558,2,0,L|256:240,1,48,8|8,2:3|2:3,0:0:0:0:
400,240,255701,2,0,L|352:240,1,48,12|8,3:0|2:3,0:0:0:0:
208,96,255843,6,0,L|160:96,2,48,6|8|8,3:2|2:3|2:3,0:0:0:0:
352,96,256058,1,12,3:0:0:0:
208,192,256129,2,0,L|208:240,1,48,8|8,2:3|2:3,0:0:0:0:
64,240,256272,2,0,L|112:240,1,48,12|8,3:0|2:3,0:0:0:0:
256,96,256415,6,0,L|304:96,2,48,6|8|8,3:2|2:3|2:3,0:0:0:0:
112,96,256629,1,12,3:0:0:0:
256,192,256701,2,0,L|304:192,1,48,8|8,2:3|2:3,0:0:0:0:
160,192,256843,1,12,3:0:0:0:
304,192,256915,1,8,2:3:0:0:
448,96,256986,6,0,L|224:96,1,223.68,2|2,3:1|1:3,0:0:0:0:
208,96,257147,1,0,1:0:0:0:
224,96,257165,1,0,1:0:0:0:
208,96,257183,1,0,1:0:0:0:
224,96,257201,1,0,1:0:0:0:
368,192,257272,2,0,L|144:192,1,223.68,2|2,3:1|1:2,0:0:0:0:
128,192,257433,1,0,1:0:0:0:
144,192,257451,1,0,1:0:0:0:
128,192,257468,1,0,1:0:0:0:
144,192,257486,1,0,1:0:0:0:
288,288,257558,6,0,L|336:288,2,48,6|8|8,3:2|2:3|2:3,0:0:0:0:
144,288,257772,1,12,3:0:0:0:
288,192,257843,2,0,L|336:192,1,48,8|8,2:3|2:3,0:0:0:0:
192,96,257986,2,0,L|240:96,1,48,12|0,3:0|2:0,0:0:0:0:
384,288,258129,6,0,L|432:288,2,48,6|8|8,3:2|2:3|2:3,0:0:0:0:
240,288,258343,1,12,3:0:0:0:
384,192,258415,2,0,L|432:192,1,48,8|8,2:3|2:3,0:0:0:0:
288,96,258558,2,0,L|336:96,1,48,12|0,3:0|2:0,0:0:0:0:
192,288,258701,6,0,L|144:288,2,48,6|8|0,3:2|2:3|2:3,0:0:0:0:
336,288,258915,1,12,3:0:0:0:
192,192,258986,2,0,L|240:192,1,48,8|8,2:3|2:3,0:0:0:0:
384,96,259129,2,0,L|336:96,1,48,12|8,3:0|2:3,0:0:0:0:
192,96,259272,6,0,L|160:96,2,32,14|8|8,3:0|2:3|2:3,0:0:0:0:
240,96,259415,2,0,L|272:96,2,32,12|8|8,3:0|2:3|2:3,0:0:0:0:
125,192,259558,1,12,3:0:0:0:
166,192,259605,1,8,2:3:0:0:
208,192,259653,1,8,2:3:0:0:
251,192,259701,1,14,3:0:0:0:
293,192,259748,1,8,2:3:0:0:
336,192,259796,1,8,2:3:0:0:
224,288,259843,6,0,L|176:288,2,48,6|8|8,3:2|2:3|2:3,0:0:0:0:
368,288,260058,1,12,3:0:0:0:
224,192,260129,2,0,L|272:192,1,48,8|8,2:3|2:3,0:0:0:0:
128,96,260272,2,0,L|176:96,1,48,12|8,3:0|2:3,0:0:0:0:
320,288,260415,6,0,L|368:288,2,48,6|8|8,3:2|2:3|2:3,0:0:0:0:
176,288,260629,1,12,3:0:0:0:
320,192,260701,2,0,L|272:192,1,48,8|8,2:3|2:3,0:0:0:0:
416,96,260843,2,0,L|368:96,1,48,12|8,3:0|2:3,0:0:0:0:
224,288,260986,6,0,L|224:224,1,64,12|12,2:3|2:3,0:0:0:0:
304,192,261177,1,12,2:3:0:0:
128,192,261272,2,0,L|128:128,1,64,12|12,2:3|2:3,0:0:0:0:
48,96,261462,1,12,2:3:0:0:
224,96,261558,5,12,2:3:0:0:
272,96,261605,1,12,2:3:0:0:
272,144,261653,1,12,2:3:0:0:
224,144,261701,1,12,2:3:0:0:
112,192,261748,1,12,2:3:0:0:
64,192,261796,1,12,2:3:0:0:
176,192,261843,1,4,2:3:0:0:
224,192,261891,1,4,2:3:0:0:
112,96,261939,1,4,2:3:0:0:
64,96,261986,1,4,2:3:0:0:
64,144,262034,1,4,2:3:0:0:
112,144,262081,1,4,2:3:0:0:
224,256,262129,6,0,L|448:256,1,223.68,6|0,3:2|2:0,0:0:0:0:
464,192,262343,2,0,L|240:192,1,223.68,4|0,3:2|2:0,0:0:0:0:
480,128,262558,1,4,3:2:0:0:
288,256,262986,6,0,L|64:256,1,223.68,6|0,3:2|2:0,0:0:0:0:
48,192,263201,2,0,L|272:192,1,223.68,4|0,3:2|2:0,0:0:0:0:
32,128,263415,1,4,3:2:0:0:
224,256,263843,6,0,L|448:256,1,223.68,6|8,3:2|2:3,0:0:0:0:
464,192,264058,1,8,2:3:0:0:
432,128,264129,1,4,2:3:0:0:
384,128,264201,1,4,2:3:0:0:
320,128,264272,1,4,2:3:0:0:
384,128,264343,1,4,2:3:0:0:
304,128,264415,6,0,L|48:128,1,255.36,6|0,3:2|2:0,0:0:0:0:
96,192,264629,2,0,L|352:192,1,255.36,6|0,3:2|2:0,0:0:0:0:
16,128,264843,1,6,3:2:0:0:
208,128,265272,6,0,L|464:128,1,255.36,6|0,3:2|2:0,0:0:0:0:
416,192,265486,2,0,L|160:192,1,255.36,6|0,3:2|2:0,0:0:0:0:
496,128,265701,1,6,3:2:0:0:
304,128,266129,6,0,L|48:128,1,255.36,6|0,3:2|2:0,0:0:0:0:
144,192,266343,2,0,L|400:192,1,255.36,6|0,3:2|2:0,0:0:0:0:
16,128,266558,1,14,3:2:0:0:
208,128,266986,6,0,L|192:80,3,48,2|2|2|2,1:2|2:0|2:0|2:0,0:0:0:0:
256,128,267272,2,0,L|232:80,3,48,2|2|2|2,1:2|2:0|2:0|2:0,0:0:0:0:
304,128,267558,2,0,L|272:80,3,48,2|2|2|2,1:2|2:0|2:0|2:0,0:0:0:0:
352,128,267843,5,2,1:2:0:0:
416,128,267915,1,2,2:0:0:0:
416,192,267986,1,2,2:0:0:0:
352,192,268058,1,2,2:0:0:0:
288,192,268129,2,0,L|288:240,1,48,2|2,1:2|2:0,0:0:0:0:
352,192,268272,2,0,L|352:240,1,48,2|2,2:0|2:0,0:0:0:0:
216,128,268415,6,0,L|168:128,1,48,2|2,1:2|2:0,0:0:0:0:
232,64,268558,2,0,L|184:64,1,48,2|2,2:0|2:0,0:0:0:0:
248,256,268701,2,0,L|200:256,1,48,8|8,3:0|2:3,0:0:0:0:
264,320,268843,2,0,L|216:320,1,48,4|4,2:3|2:3,0:0:0:0:
84,192,268986,6,0,L|76:144,1,48,2|2,3:2|3:2,0:0:0:0:
144,192,269129,2,0,L|152:144,1,48,2|2,3:2|3:2,0:0:0:0:
220,192,269272,2,0,L|212:144,1,48,2|2,3:2|3:2,0:0:0:0:
280,192,269415,2,0,L|288:144,1,48,2|2,3:2|3:2,0:0:0:0:
424,48,269558,5,2,3:2:0:0:
464,48,269605,1,2,3:2:0:0:
424,48,269653,1,2,3:2:0:0:
320,176,269701,1,2,3:2:0:0:
280,176,269748,1,2,3:2:0:0:
320,176,269796,1,2,3:2:0:0:
424,336,269843,1,2,3:2:0:0:
384,336,269891,1,2,3:2:0:0:
272,336,269939,1,2,3:2:0:0:
232,336,269986,1,2,3:2:0:0:
120,272,270034,1,2,3:2:0:0:
232,272,270081,1,2,3:2:0:0:
344,272,270129,1,2,3:2:0:0:
66,259,270272,6,0,L|58:178,1,57.6,2|0,3:1|3:0,0:0:0:0:
236,175,270415,2,0,L|236:93,1,57.6,2|0,3:1|3:0,0:0:0:0:
419,119,270558,2,0,L|430:50,1,57.6,2|0,3:1|3:0,0:0:0:0:
203,32,270701,2,0,L|137:38,1,57.6,2|0,3:1|3:0,0:0:0:0:
367,206,270843,2,0,L|440:209,1,57.6,2|0,3:1|3:0,0:0:0:0:
251,283,270986,5,12,3:0:0:0:
424,332,271058,1,8,3:0:0:0:
250,361,271129,1,8,3:0:0:0:
73,358,271201,1,8,3:0:0:0:
254,196,271272,6,0,L|266:121,3,57.6,2|2|2|2,3:1|2:0|2:0|2:0,0:0:0:0:
455,37,271558,6,0,L|377:26,1,57.6,6|0,3:2|2:0,0:0:0:0:
194,239,271701,2,0,L|451:172,1,255.36,2|10,3:1|3:2,0:0:0:0:
384,148,271915,1,2,1:2:0:0:
159,147,271986,6,0,L|151:66,1,57.6,6|0,3:2|2:0,0:0:0:0:
378,312,272129,2,0,L|108:275,1,255.36,2|10,3:1|3:2,0:0:0:0:
184,248,272343,1,2,1:2:0:0:
415,243,272415,6,0,L|333:239,1,57.6,6|0,3:2|2:0,0:0:0:0:
118,143,272558,2,0,L|407:85,1,255.36,2|10,3:1|3:2,0:0:0:0:
304,65,272772,1,2,3:2:0:0:
93,81,272843,6,0,L|83:174,1,57.6,4|0,3:2|2:0,0:0:0:0:
331,217,272986,2,0,L|59:269,1,255.36,2|10,3:1|3:2,0:0:0:0:
142,293,273201,1,2,3:2:0:0:
380,309,273272,5,6,3:2:0:0:
213,351,273343,1,8,3:0:0:0:
43,348,273415,1,8,3:0:0:0:
214,332,273486,1,8,3:0:0:0:
43,348,273558,6,0,L|43:272,3,57.6,2|2|2|2,3:1|2:0|2:0|2:0,0:0:0:0:
271,210,273843,5,6,3:1:0:0:
158,142,273986,2,0,L|249:128,1,57.6,0|0,3:0|3:0,0:0:0:0:
420,129,274129,1,2,3:1:0:0:
308,61,274272,2,0,L|397:45,1,57.6,0|0,3:0|3:0,0:0:0:0:
154,43,274415,1,10,3:2:0:0:
407,272,274558,5,2,3:1:0:0:
271,314,274629,1,0,3:0:0:0:
128,322,274701,2,0,L|123:226,1,57.6,8|8,3:0|2:3,0:0:0:0:
328,235,274843,2,0,L|332:155,1,57.6,10|8,3:0|2:3,0:0:0:0:
252,168,274986,2,0,L|344:158,1,57.6,8|8,2:3|2:3,0:0:0:0:
110,135,275129,6,0,L|32:130,1,57.6,6|4,3:0|2:3,0:0:0:0:
133,113,275272,2,0,L|46:110,1,57.6,4|4,2:3|2:3,0:0:0:0:
308,61,275415,2,0,L|371:66,1,57.6,6|4,3:0|2:3,0:0:0:0:
203,195,275558,2,0,L|199:280,1,57.6,4|4,2:3|2:3,0:0:0:0:
37,332,275701,2,0,L|111:344,1,57.6,6|4,3:0|2:3,0:0:0:0:
311,359,275843,6,0,L|243:313,1,57.6,4|0,3:1|2:0,0:0:0:0:
181,320,275986,2,0,L|262:311,1,57.6,2|0,1:0|1:0,0:0:0:0:
443,329,276129,1,10,3:2:0:0:
373,331,276201,2,0,L|345:271,2,57.6,2|2|2,1:2|1:2|1:2,0:0:0:0:
443,226,276415,6,0,L|352:210,1,57.6,2|2,3:1|2:0,0:0:0:0:
218,133,276558,2,0,L|281:125,1,57.6,2|2,3:2|2:0,0:0:0:0:
87,192,276701,2,0,L|80:119,1,57.6,10|2,3:2|2:0,0:0:0:0:
271,58,276843,2,0,L|342:55,1,57.6,4|4,2:3|2:3,0:0:0:0:
109,60,276986,6,0,L|80:29,2,38.4,4|4|4,3:0|2:3|2:3,0:0:0:0:
300,207,277129,2,0,L|346:209,2,38.4,4|4|4,2:3|2:3|2:3,0:0:0:0:
247,210,277272,1,8,3:0:0:0:
208,219,277320,1,8,2:3:0:0:
191,252,277367,1,8,2:3:0:0:
209,286,277415,1,8,2:3:0:0:
248,294,277462,1,8,2:3:0:0:
472,328,277558,6,0,L|490:284,2,38.4,2|2|2,3:2|2:0|2:0,0:0:0:0:
291,360,277701,2,0,L|262:320,2,38.4,2|2|2,3:2|2:0|2:0,0:0:0:0:
345,365,277843,2,0,L|386:367,2,38.4,8|2|2,3:2|2:0|2:0,0:0:0:0:
162,191,277986,2,0,L|211:161,1,38.4,2|2,3:2|2:0,0:0:0:0:
334,140,278081,1,2,2:0:0:0:
480,98,278129,5,2,3:1:0:0:
470,155,278201,1,2,1:2:0:0:
461,212,278272,1,2,1:2:0:0:
275,223,278343,1,2,3:1:0:0:
265,280,278415,1,2,1:2:0:0:
256,337,278486,1,2,1:2:0:0:
66,355,278558,2,0,L|131:349,1,57.6,10|2,3:2|2:0,0:0:0:0:
433,16,278701,5,2,3:1:0:0:
423,73,278772,1,2,1:2:0:0:
414,130,278843,1,2,1:2:0:0:
228,141,278915,1,2,3:1:0:0:
218,198,278986,1,2,1:2:0:0:
209,255,279058,1,2,1:2:0:0:
19,273,279129,2,0,L|84:267,1,57.6,10|2,3:2|2:0,0:0:0:0:
318,357,279272,6,0,L|245:308,1,57.6,2|2,3:1|1:2,0:0:0:0:
202,317,279415,1,2,1:2:0:0:
423,290,279486,2,0,L|510:284,2,57.6,2|2|2,3:1|1:2|1:2,0:0:0:0:
227,221,279701,2,0,L|214:114,1,57.6,10|2,3:2|2:0,0:0:0:0:
17,84,279843,6,0,L|90:35,1,57.6,2|2,3:1|1:2,0:0:0:0:
133,44,279986,1,2,1:2:0:0:
351,125,280058,2,0,L|278:174,1,57.6,2|2,3:1|1:2,0:0:0:0:
229,171,280201,1,2,1:2:0:0:
450,209,280272,6,0,L|479:207,1,28.8,14|2,3:2|3:2,0:0:0:0:
413,111,280415,1,2,3:2:0:0:
260,89,280486,1,2,3:2:0:0:
104,83,280558,2,0,L|193:66,1,57.6,2|2,3:2|3:2,0:0:0:0:
467,348,280701,6,0,L|383:344,1,57.6,6|0,3:2|2:0,0:0:0:0:
165,267,280843,2,0,L|425:182,1,265.92,2|10,3:1|3:2,0:0:0:0:
352,167,281058,1,2,1:2:0:0:
146,172,281129,6,0,L|135:97,1,57.6,6|0,3:2|2:0,0:0:0:0:
368,67,281272,2,0,L|75:31,1,265.92,2|10,3:1|3:2,0:0:0:0:
167,23,281486,1,2,1:2:0:0:
398,277,281558,6,0,L|310:270,1,57.6,6|0,3:2|2:0,0:0:0:0:
93,370,281701,2,0,L|381:321,1,265.92,2|10,3:1|3:2,0:0:0:0:
289,302,281915,1,2,3:2:0:0:
57,288,281986,6,0,L|48:209,1,57.6,4|0,3:2|2:0,0:0:0:0:
297,186,282129,2,0,L|28:145,1,265.92,2|10,3:1|3:2,0:0:0:0:
102,127,282343,1,2,3:2:0:0:
315,44,282415,5,6,3:2:0:0:
382,63,282486,1,8,3:0:0:0:
152,259,282558,1,8,3:0:0:0:
319,292,282629,1,8,3:0:0:0:
477,304,282701,6,0,L|485:235,3,57.6,10|2|2|2,3:1|2:0|2:0|2:0,0:0:0:0:
243,360,282986,5,6,3:1:0:0:
365,311,283129,2,0,L|280:304,1,57.6,0|0,3:0|3:0,0:0:0:0:
104,303,283272,1,2,3:1:0:0:
223,231,283415,2,0,L|116:229,1,57.6,0|0,3:0|3:0,0:0:0:0:
379,175,283558,1,10,3:2:0:0:
113,129,283701,5,2,3:1:0:0:
246,98,283772,1,0,3:0:0:0:
385,54,283843,2,0,L|314:46,1,57.6,8|8,3:0|2:3,0:0:0:0:
114,42,283986,2,0,L|35:53,1,57.6,10|8,3:0|2:3,0:0:0:0:
240,164,284129,2,0,L|250:227,1,57.6,8|8,2:3|2:3,0:0:0:0:
441,262,284272,5,6,3:0:0:0:
290,331,284343,1,4,2:3:0:0:
132,358,284415,2,0,L|203:364,1,57.6,4|4,2:3|2:3,0:0:0:0:
412,363,284558,2,0,L|490:360,1,57.6,14|12,3:0|2:3,0:0:0:0:
262,293,284701,2,0,L|250:215,1,57.6,4|4,2:3|2:3,0:0:0:0:
49,191,284843,2,0,L|127:175,1,57.6,6|4,3:0|2:3,0:0:0:0:
363,55,284986,5,4,3:1:0:0:
283,57,285081,1,2,2:0:0:0:
246,122,285177,1,2,2:0:0:0:
288,184,285272,1,10,3:2:0:0:
368,182,285367,1,2,2:0:0:0:
279,215,285462,1,2,2:0:0:0:
486,304,285558,6,0,L|397:288,2,76.8,2|2|2,3:2|2:0|3:2,0:0:0:0:
388,333,285843,2,0,L|332:260,2,76.8,10|2|2,3:2|2:0|2:0,0:0:0:0:
191,349,286129,6,0,L|305:332,2,76.8,2|2|2,3:2|2:0|2:0,0:0:0:0:
16,228,286415,2,0,L|145:197,1,76.8,10|2,3:2|2:0,0:0:0:0:
281,197,286605,1,2,2:0:0:0:
90,210,286701,5,2,3:2:0:0:
177,210,286796,1,2,2:0:0:0:
213,137,286891,1,2,3:2:0:0:
167,73,286986,1,10,3:2:0:0:
85,83,287081,1,2,2:0:0:0:
176,63,287177,1,2,2:0:0:0:
404,135,287272,5,2,3:2:0:0:
320,156,287367,2,0,L|309:236,1,76.8,2|2,2:0|2:0,0:0:0:0:
217,252,287558,1,10,3:2:0:0:
308,278,287653,2,0,L|320:186,1,76.8,2|2,2:0|2:0,0:0:0:0:
483,173,287843,5,2,3:2:0:0:
317,359,287939,2,0,L|408:346,1,76.8,2|2,2:0|3:2,0:0:0:0:
215,307,288129,2,0,L|319:295,1,76.8,10|2,3:2|2:0,0:0:0:0:
111,278,288320,1,2,2:0:0:0:
292,298,288415,6,0,L|304:226,1,57.6,6|10,3:2|2:3,0:0:0:0:
105,180,288558,2,0,L|96:119,1,57.6,10|10,2:3|2:3,0:0:0:0:
179,114,288701,2,0,L|183:49,1,57.6,10|10,2:3|2:3,0:0:0:0:
348,66,288843,2,0,L|431:80,1,57.6,10|10,2:3|2:3,0:0:0:0:
225,255,288986,2,0,L|154:263,1,57.6,6|6,2:3|2:3,0:0:0:0:
242,279,289129,2,0,L|157:285,1,57.6,6|6,2:3|2:3,0:0:0:0:
357,353,289272,5,12,3:0:0:0:
212,352,289343,1,12,3:0:0:0:
64,348,289415,1,12,3:0:0:0:
58,219,289558,2,0,L|136:208,1,57.6,2|2,3:2|3:2,0:0:0:0:
248,178,289701,1,2,3:2:0:0:
381,184,289772,1,2,3:2:0:0:
229,101,289843,6,0,L|298:86,1,57.5999982421876,6|0,3:2|2:0,0:0:0:0:
95,142,289986,2,0,L|373:302,1,276.48,2|10,3:1|3:2,0:0:0:0:
338,328,290201,1,2,1:2:0:0:
190,337,290272,6,0,L|119:350,1,57.5999982421876,6|0,3:2|2:0,0:0:0:0:
273,42,290415,2,0,L|-9:154,1,276.48,2|10,3:1|3:2,0:0:0:0:
76,170,290629,1,2,1:2:0:0:
256,199,290701,6,0,L|261:258,1,57.6,6|0,3:2|2:0,0:0:0:0:
76,332,290843,2,0,L|381:272,1,276.48,2|10,3:1|3:2,0:0:0:0:
292,248,291058,1,2,3:2:0:0:
445,139,291129,6,0,L|388:144,1,57.5999982421876,4|0,3:2|2:0,0:0:0:0:
208,146,291272,2,0,L|472:249,1,276.48,2|10,3:1|3:2,0:0:0:0:
401,272,291486,1,2,3:2:0:0:
197,336,291558,5,6,3:2:0:0:
335,347,291629,1,8,3:0:0:0:
471,334,291701,1,8,3:0:0:0:
335,347,291772,1,8,3:0:0:0:
471,334,291843,6,0,L|477:262,3,57.6,10|2|2|2,3:1|2:0|2:0|2:0,0:0:0:0:
227,219,292129,5,6,3:1:0:0:
353,155,292272,2,0,L|276:138,1,57.6,0|0,3:0|3:0,0:0:0:0:
72,128,292415,1,2,3:1:0:0:
191,58,292558,2,0,L|90:52,1,57.6,0|0,3:0|3:0,0:0:0:0:
351,42,292701,1,10,3:2:0:0:
110,193,292843,5,2,3:1:0:0:
247,257,292915,1,0,3:0:0:0:
397,267,292986,2,0,L|408:183,1,57.6,8|8,3:0|2:3,0:0:0:0:
319,199,293129,2,0,L|432:191,1,57.6,10|8,3:0|2:3,0:0:0:0:
178,348,293272,2,0,L|105:335,1,57.6,8|8,2:3|2:3,0:0:0:0:
323,369,293415,6,0,L|418:366,1,57.6,6|4,3:0|2:3,0:0:0:0:
307,356,293558,2,0,L|397:353,1,57.6,4|4,2:3|2:3,0:0:0:0:
159,322,293701,2,0,L|77:315,1,57.6,6|4,3:0|2:3,0:0:0:0:
283,290,293843,2,0,L|289:204,1,57.6,4|4,2:3|2:3,0:0:0:0:
470,161,293986,2,0,L|386:149,1,57.6,6|4,3:0|2:3,0:0:0:0:
226,135,294129,6,0,L|139:132,1,57.6,4|0,3:1|2:0,0:0:0:0:
238,118,294272,2,0,L|305:120,1,57.6,2|0,1:0|1:0,0:0:0:0:
87,315,294415,1,10,3:2:0:0:
157,317,294486,2,0,L|185:257,2,57.6,2|2|2,1:2|1:2|1:2,0:0:0:0:
85,212,294701,6,0,L|176:196,1,57.6,2|2,3:1|2:0,0:0:0:0:
298,137,294843,2,0,L|235:129,1,57.6,2|2,3:2|2:0,0:0:0:0:
426,195,294986,2,0,L|433:122,1,57.6,10|2,3:2|2:0,0:0:0:0:
242,52,295129,2,0,L|300:54,1,57.6,4|4,2:3|2:3,0:0:0:0:
85,109,295272,6,0,L|36:108,2,38.4,4|4|4,3:0|2:3|2:3,0:0:0:0:
252,218,295415,2,0,L|275:159,2,38.4,4|4|4,2:3|2:3|2:3,0:0:0:0:
202,226,295558,2,0,L|157:228,2,38.4,8|8|8,3:0|2:3|2:3,0:0:0:0:
382,291,295701,2,0,L|427:293,2,38.4,8|8|8,2:3|2:3|2:3,0:0:0:0:
217,363,295843,6,0,L|259:359,1,38.4,2|2,3:2|2:0,0:0:0:0:
381,368,295939,2,0,L|432:370,1,38.4,2|2,2:0|3:2,0:0:0:0:
258,289,296034,2,0,L|197:286,1,38.4,2|2,2:0|2:0,0:0:0:0:
58,318,296129,5,8,3:2:0:0:
38,275,296177,1,2,2:0:0:0:
58,318,296224,1,2,2:0:0:0:
94,326,296272,1,2,3:2:0:0:
136,330,296320,1,2,2:0:0:0:
262,174,296367,1,2,2:0:0:0:
391,45,296415,6,0,L|329:97,1,57.6,2|2,3:1|1:2,0:0:0:0:
276,88,296558,1,2,1:2:0:0:
488,217,296629,2,0,L|432:264,1,57.6,2|2,3:1|1:2,0:0:0:0:
373,277,296772,1,2,1:2:0:0:
193,336,296843,2,0,L|282:339,1,57.6,10|2,3:2|2:0,0:0:0:0:
56,365,296986,5,2,3:1:0:0:
49,307,297058,1,2,1:2:0:0:
41,250,297129,1,2,1:2:0:0:
248,227,297201,1,2,3:1:0:0:
255,169,297272,1,2,1:2:0:0:
260,108,297343,1,2,1:2:0:0:
472,57,297415,2,0,L|400:53,1,57.6,10|2,3:2|2:0,0:0:0:0:
189,104,297558,6,0,L|245:151,1,57.6,2|2,3:1|1:2,0:0:0:0:
305,156,297701,1,2,1:2:0:0:
92,205,297772,2,0,L|5:209,2,57.6,2|2|2,3:1|1:2|1:2,0:0:0:0:
284,238,297986,2,0,L|290:304,1,57.6,10|2,3:2|2:0,0:0:0:0:
490,293,298129,6,0,L|422:254,1,57.6,2|2,3:1|1:2,0:0:0:0:
370,255,298272,1,2,1:2:0:0:
137,200,298343,2,0,L|203:171,1,57.6,2|2,3:1|1:2,0:0:0:0:
371,152,298486,1,2,1:2:0:0:
75,93,298558,2,0,L|38:88,1,28.8,14|2,3:2|3:2,0:0:0:0:
497,34,298986,5,4,3:0:0:0:
260,250,303558,6,0,L|266:186,1,48,12|2,3:0|2:1,0:0:0:0:
251,189,303701,2,0,L|241:128,1,48,2|2,2:1|2:1,0:0:0:0:
273,153,303843,2,0,L|286:66,1,48,2|2,2:1|2:1,0:0:0:0:
209,169,303986,2,0,L|198:87,1,48,2|2,2:1|2:1,0:0:0:0:
286,206,304129,2,0,L|295:145,1,48,2|2,2:1|2:1,0:0:0:0:
210,217,304272,2,0,L|191:148,1,48,2|2,2:1|2:1,0:0:0:0:
286,263,304415,6,0,L|296:197,1,48,2|2,2:1|2:1,0:0:0:0:
203,260,304558,2,0,L|172:188,1,48,2|2,2:1|2:1,0:0:0:0:
278,313,304701,2,0,L|305:255,1,48,2|2,2:1|2:1,0:0:0:0:
195,337,304843,2,0,L|151:284,1,48,2|2,2:1|2:1,0:0:0:0:
365,358,304986,2,0,L|442:337,1,48,2|2,2:1|2:1,0:0:0:0:
218,218,305129,6,0,L|220:139,1,57.6,2|2,2:1|2:1,0:0:0:0:
24,97,305272,2,0,L|95:78,1,57.6,2|2,2:1|2:1,0:0:0:0:
321,50,305415,2,0,L|243:34,1,57.6,2|2,2:1|2:1,0:0:0:0:
80,192,305558,6,0,B|192:160|192:160|80:144,1,230.4,6|8,3:2|2:3,0:0:0:0:
256,128,305915,1,8,2:3:0:0:
432,192,305986,2,0,B|320:160|320:160|432:144,1,230.4,6|8,3:2|2:3,0:0:0:0:
256,128,306343,1,8,2:3:0:0:
80,192,306415,2,0,L|336:192,1,255.36,6|8,3:2|3:0,0:0:0:0:
80,48,306701,6,0,L|144:48,1,57.6,8|8,3:0|2:3,0:0:0:0:
312,48,306843,1,8,2:3:0:0:
80,192,306986,2,0,L|144:192,1,57.6,8|8,3:0|2:3,0:0:0:0:
313,192,307129,2,0,L|256:192,1,57.6,8|8,2:3|2:3,0:0:0:0:
432,272,307272,6,0,L|368:272,1,57.6,8|8,3:0|2:3,0:0:0:0:
199,272,307415,2,0,L|256:272,1,57.6,8|8,2:3|2:3,0:0:0:0:
80,112,307558,2,0,L|144:112,1,57.6,8|8,3:0|2:3,0:0:0:0:
313,112,307701,2,0,L|255:112,1,57.6,8|8,3:0|2:3,0:0:0:0:
432,192,307843,6,0,L|432:112,1,76.8,12|12,2:3|2:3,0:0:0:0:
240,192,308034,1,12,2:3:0:0:
432,192,308129,2,0,L|393:258,1,76.8,12|12,2:3|2:3,0:0:0:0:
200,192,308320,1,12,2:3:0:0:
393,258,308415,6,0,L|326:296,1,76.8,4|4,2:3|2:3,0:0:0:0:
136,192,308605,1,4,2:3:0:0:
326,296,308701,2,0,L|248:296,1,76.8,4|4,2:3|2:3,0:0:0:0:
56,192,308891,1,4,2:3:0:0:
326,296,308986,5,8,2:3:0:0:
344,320,309034,1,8,2:3:0:0:
328,344,309081,1,8,2:3:0:0:
288,344,309129,1,8,2:3:0:0:
112,192,309201,1,8,2:3:0:0:
288,168,309272,1,12,2:3:0:0:
332,168,309320,1,12,2:3:0:0:
332,216,309367,1,12,2:3:0:0:
288,216,309415,1,12,2:3:0:0:
112,192,309486,1,12,2:3:0:0:
288,80,309558,5,12,2:3:0:0:
328,80,309605,1,12,2:3:0:0:
344,56,309653,1,12,2:3:0:0:
328,32,309701,1,12,2:3:0:0:
152,192,309772,1,12,2:3:0:0:
328,168,309843,1,4,2:3:0:0:
364,168,309891,1,4,2:3:0:0:
364,216,309939,1,4,2:3:0:0:
328,216,309986,1,4,2:3:0:0:
152,192,310058,1,4,2:3:0:0:
328,272,310129,6,0,L|392:272,2,57.6,4|4|4,3:0|3:0|3:0,0:0:0:0:
184,272,310415,1,4,3:0:0:0:
164,248,310462,1,0,3:0:0:0:
164,216,310510,1,0,3:0:0:0:
184,192,310558,1,4,3:0:0:0:
216,192,310605,1,0,3:0:0:0:
264,192,310653,1,0,3:0:0:0:
400,192,310701,5,2,2:1:0:0:
415,158,310748,1,2,2:1:0:0:
400,124,310796,1,2,2:1:0:0:
264,128,310843,2,0,L|216:128,2,38.4,2|2|2,2:1|2:1|2:1,0:0:0:0:
400,192,310986,1,2,2:1:0:0:
360,192,311034,1,2,2:1:0:0:
320,192,311081,1,2,2:1:0:0:
456,128,311129,2,0,L|496:128,2,38.4,2|2|2,2:1|2:1|2:1,0:0:0:0:
320,64,311272,6,0,L|256:64,3,57.6,12|12|12|12,3:0|3:0|3:0|3:0,0:0:0:0:
112,192,311558,2,0,L|176:192,3,57.6,12|12|12|12,3:0|3:0|3:0|3:0,0:0:0:0:
320,320,311843,6,0,L|256:320,1,57.6,12|12,3:0|3:0,0:0:0:0:
112,192,311986,2,0,L|176:192,1,57.6,12|12,3:0|3:0,0:0:0:0:
320,192,312129,2,0,L|320:128,1,57.6,12|12,3:0|3:0,0:0:0:0:
166,112,312272,2,0,L|224:112,1,57.6,12|12,3:0|3:0,0:0:0:0:
80,112,312415,6,0,P|64:192|80:300,1,192,6|2,3:1|2:0,0:0:0:0:
320,112,312986,2,0,L|128:112,1,192,6|0,2:3|2:0,0:0:0:0:
368,192,313558,2,0,L|272:192,2,96,2|8|2,2:0|2:3|2:0,0:0:0:0:
128,192,314129,1,6,2:3:0:0:
368,192,314415,2,0,L|272:192,1,96,4|4,2:3|2:3,0:0:0:0:
128,112,314701,6,0,P|112:192|128:300,1,192,4|2,2:3|2:0,0:0:0:0:
368,112,315272,2,0,L|176:112,1,192,2|8,2:3|2:3,0:0:0:0:
416,272,315843,2,0,P|432:192|416:84,1,192,8|2,2:3|2:0,0:0:0:0:
176,272,316415,2,0,L|368:272,1,192,2|4,2:3|2:3,0:0:0:0:
224,192,316843,1,4,2:3:0:0:
368,112,316986,6,0,P|384:192|368:300,1,192,0|2,2:0|2:0,0:0:0:0:
128,112,317558,2,0,L|320:112,1,192,2|8,2:3|2:3,0:0:0:0:
80,192,318129,2,0,L|176:192,2,96,4|4|8,2:3|2:3|2:3,0:0:0:0:
320,272,318701,2,0,L|128:272,1,192,2|4,2:3|2:3,0:0:0:0:
272,192,319129,1,8,2:3:0:0:
416,112,319272,6,0,P|432:192|416:300,1,192,4|2,2:3|2:0,0:0:0:0:
176,112,319843,2,0,L|368:112,1,192,6|8,2:3|2:3,0:0:0:0:
128,272,320415,2,0,P|112:192|128:84,1,192,4|2,2:3|2:0,0:0:0:0:
368,272,320986,2,0,L|176:272,1,192,2|4,2:3|2:3,0:0:0:0:
320,192,321415,1,8,2:3:0:0:
96,64,321558,6,0,L|192:64,1,96,4|0,2:3|2:0,0:0:0:0:
336,64,321843,2,0,L|240:64,1,96,2|8,2:0|2:3,0:0:0:0:
96,192,322129,2,0,L|288:192,1,192,6|2,2:3|2:0,0:0:0:0:
144,192,322558,1,4,2:3:0:0:
288,320,322701,6,0,L|384:320,1,96,4|4,2:3|2:3,0:0:0:0:
240,320,322986,2,0,L|144:320,1,96,8|2,2:3|2:0,0:0:0:0:
288,192,323272,2,0,L|96:192,1,192,2|4,2:3|2:3,0:0:0:0:
240,128,323701,1,8,2:3:0:0:
464,192,323843,6,0,L|272:192,2,192,4|2|10,2:3|2:0|2:3,0:0:0:0:
176,80,324701,2,0,L|272:80,1,96,4|4,2:3|2:3,0:0:0:0:
128,192,324986,6,0,L|128:96,1,96,8|8,2:3|2:3,0:0:0:0:
272,208,325272,2,0,L|176:208,1,96,8|8,2:3|2:3,0:0:0:0:
320,96,325558,2,0,L|128:96,1,192,2|4,2:3|2:3,0:0:0:0:
272,192,325986,1,4,2:3:0:0:
32,192,326129,6,0,L|320:192,1,288,6|0,3:2|1:0,0:0:0:0:
336,144,326290,1,0,1:0:0:0:
320,96,326308,1,0,1:0:0:0:
336,48,326326,1,0,1:0:0:0:
320,0,326343,1,0,1:0:0:0:
336,48,326361,1,0,1:0:0:0:
320,0,326379,1,0,1:0:0:0:
336,48,326397,1,0,1:0:0:0:
320,0,326415,1,0,1:0:0:0:
176,96,326558,6,0,L|176:112,1,12,2|0,2:3|2:0,0:0:0:0:
416,96,326986,2,0,L|416:112,1,12,2|0,2:0|2:0,0:0:0:0:
32,192,327272,6,0,L|320:192,1,288,6|0,3:2|1:0,0:0:0:0:
304,240,327433,1,0,2:0:0:0:
320,288,327451,1,0,1:0:0:0:
304,336,327468,1,0,1:0:0:0:
320,384,327486,1,0,1:0:0:0:
304,336,327504,1,0,1:0:0:0:
320,384,327522,1,0,1:0:0:0:
304,336,327540,1,0,1:0:0:0:
320,384,327558,1,0,1:0:0:0:
176,288,327701,6,0,L|176:272,1,12,2|0,2:3|2:0,0:0:0:0:
256,192,327843,2,0,L|296:152,3,48,8|8|8|8,2:3|2:3|2:3|2:3,0:0:0:0:
208,192,328129,2,0,L|160:192,3,48,8|8|8|8,2:3|2:3|2:3|2:3,0:0:0:0:
320,192,328415,6,0,L|304:96,1,96,6|2,3:2|1:2,0:0:0:0:
160,192,328701,2,0,L|144:96,1,96,0|2,3:0|1:2,0:0:0:0:
384,256,328986,2,0,L|288:256,1,96,0|2,3:0|1:2,0:0:0:0:
432,192,329272,2,0,L|336:192,1,96,0|2,3:0|1:2,0:0:0:0:
96,192,329558,5,2,3:0:0:0:
240,192,329701,2,0,L|224:96,1,96,2|0,1:2|3:0,0:0:0:0:
368,96,329986,1,2,1:2:0:0:
128,192,330129,1,0,3:0:0:0:
272,192,330272,2,0,L|256:288,1,96,2|0,1:2|3:0,0:0:0:0:
400,288,330558,1,2,1:2:0:0:
160,192,330701,6,0,L|176:96,1,96,2|2,3:0|1:2,0:0:0:0:
320,192,330986,2,0,L|336:96,1,96,0|2,3:0|1:2,0:0:0:0:
96,192,331272,2,0,L|112:96,1,96,0|2,3:0|1:2,0:0:0:0:
256,192,331558,2,0,L|272:96,1,96,0|2,3:0|1:2,0:0:0:0:
32,192,331843,5,2,3:0:0:0:
256,192,331986,2,0,L|160:192,2,96,2|0|2,1:2|3:0|1:2,0:0:0:0:
480,192,332415,1,0,3:0:0:0:
256,192,332558,2,0,L|352:192,2,96,2|0|2,1:2|3:0|1:2,0:0:0:0:
32,96,332986,5,2,3:0:0:0:
176,96,333129,1,2,3:2:0:0:
48,128,333272,1,0,3:0:0:0:
192,128,333415,1,2,3:2:0:0:
480,288,333558,1,2,3:0:0:0:
336,288,333701,1,2,3:2:0:0:
464,256,333843,1,0,3:0:0:0:
320,256,333986,1,2,3:2:0:0:
32,96,334129,5,2,3:0:0:0:
176,96,334272,1,2,3:2:0:0:
416,128,334415,1,0,3:0:0:0:
192,128,334558,1,2,3:2:0:0:
480,288,334701,1,2,3:0:0:0:
336,288,334843,1,2,3:2:0:0:
96,256,334986,1,0,3:0:0:0:
320,256,335129,1,2,3:2:0:0:
28,96,335272,6,0,L|76:96,1,48,2|0,3:0|3:0,0:0:0:0:
212,192,335415,2,0,L|164:192,1,48,0|0,3:0|3:0,0:0:0:0:
300,192,335558,2,0,L|348:192,1,48,0|0,3:0|3:0,0:0:0:0:
484,96,335701,2,0,L|436:96,1,48,0|0,3:0|3:0,0:0:0:0:
300,192,335843,6,0,L|348:192,1,48,2|0,3:0|3:0,0:0:0:0:
212,192,335986,2,0,L|164:192,1,48,0|0,3:0|3:0,0:0:0:0:
28,96,336129,2,0,L|76:96,1,48,0|0,3:0|3:0,0:0:0:0:
212,192,336272,2,0,L|164:192,1,48,0|0,3:0|3:0,0:0:0:0:
320,256,336415,6,0,P|336:272|320:336,1,96,6|0,3:2|3:0,0:0:0:0:
192,256,336701,1,8,2:3:0:0:
256,256,336772,1,8,2:3:0:0:
192,256,336843,1,8,2:3:0:0:
256,256,336915,1,8,2:3:0:0:
400,192,336986,5,12,2:3:0:0:
256,192,337058,1,12,2:3:0:0:
192,192,337129,1,12,2:3:0:0:
256,192,337201,1,12,2:3:0:0:
416,128,337272,1,12,2:3:0:0:
256,128,337343,1,12,2:3:0:0:
96,128,337415,1,12,2:3:0:0:
256,128,337486,1,12,2:3:0:0:
448,304,337558,5,4,3:1:0:0:
224,304,337701,2,0,L|112:304,1,63.84,4|0,3:2|2:0,0:0:0:0:
351,304,337843,2,0,L|288:304,1,63.84,4|0,3:2|2:0,0:0:0:0:
72,308,337986,5,4,3:2:0:0:
288,304,338129,2,0,L|400:304,1,63.84,4|0,3:2|2:0,0:0:0:0:
161,304,338272,2,0,L|225:304,1,63.84,4|0,3:2|2:0,0:0:0:0:
448,304,338415,2,0,L|304:304,1,127.68,4|0,3:2|3:2,0:0:0:0:
385,229,338629,1,0,3:2:0:0:
192,198,338701,6,0,B|127:198|127:198|190:198,1,127.68,0|0,3:2|3:2,0:0:0:0:
256,208,338915,1,0,3:2:0:0:
64,336,338986,2,0,L|58:261,1,63.84,0|0,3:2|2:0,0:0:0:0:
136,231,339129,2,0,L|56:231,1,63.84,0|0,3:2|3:2,0:0:0:0:
266,205,339272,6,0,L|272:130,1,63.84,0|0,3:2|2:0,0:0:0:0:
194,94,339415,2,0,L|114:94,1,63.84,0|0,3:2|3:2,0:0:0:0:
324,91,339558,2,0,L|404:91,1,63.84,0|0,3:2|2:0,0:0:0:0:
227,250,339701,2,0,L|221:175,1,63.84,0|0,3:2|3:2,0:0:0:0:
64,304,339843,5,4,3:2:0:0:
288,304,339986,2,0,L|400:304,1,63.84,4|0,3:2|2:0,0:0:0:0:
161,304,340129,2,0,L|224:304,1,63.84,4|0,3:2|2:0,0:0:0:0:
440,308,340272,5,4,3:2:0:0:
224,304,340415,2,0,L|112:304,1,63.84,4|0,3:2|2:0,0:0:0:0:
351,304,340558,2,0,L|287:304,1,63.84,4|0,3:2|2:0,0:0:0:0:
64,304,340701,2,0,L|208:304,1,127.68,4|0,3:2|3:2,0:0:0:0:
127,229,340915,1,0,3:2:0:0:
320,198,340986,6,0,B|385:198|385:198|322:198,1,127.68,0|0,3:2|3:2,0:0:0:0:
256,208,341201,1,0,3:2:0:0:
79,320,341272,2,0,L|16:320,1,63.84,0|0,3:2|2:0,0:0:0:0:
90,320,341415,2,0,L|26:320,1,63.84,0|0,3:2|3:2,0:0:0:0:
293,285,341558,5,10,3:0:0:0:
325,285,341593,1,8,2:3:0:0:
357,285,341629,1,8,2:3:0:0:
196,178,341701,1,10,2:3:0:0:
37,143,341772,1,8,2:3:0:0:
256,80,341843,1,10,2:3:0:0:
321,71,341915,1,8,2:3:0:0:
256,80,341986,1,10,2:3:0:0:
417,148,342058,1,8,2:3:0:0:
256,80,342129,5,4,3:1:0:0:
59,218,342272,2,0,L|155:218,1,63.84,4|0,3:2|2:0,0:0:0:0:
320,305,342415,2,0,L|224:305,1,63.84,4|0,3:2|2:0,0:0:0:0:
453,218,342558,5,4,3:2:0:0:
256,305,342701,2,0,L|192:305,1,63.84,4|0,3:2|2:0,0:0:0:0:
390,218,342843,2,0,L|453:218,1,63.84,4|0,3:2|2:0,0:0:0:0:
256,224,342986,2,0,L|112:224,1,127.68,4|0,3:2|3:2,0:0:0:0:
194,144,343201,1,0,3:2:0:0:
382,134,343272,6,0,B|447:134|447:134|384:134,1,127.68,0|0,3:2|3:2,0:0:0:0:
318,144,343486,1,0,3:2:0:0:
131,144,343558,2,0,L|211:144,1,63.84,0|0,3:2|2:0,0:0:0:0:
124,246,343701,2,0,L|44:246,1,63.84,0|0,3:2|3:2,0:0:0:0:
253,341,343843,6,0,L|259:266,1,63.84,0|0,3:2|2:0,0:0:0:0:
181,246,343986,2,0,L|187:171,1,63.84,0|0,3:2|3:2,0:0:0:0:
381,144,344129,2,0,L|301:144,1,63.84,0|0,3:2|2:0,0:0:0:0:
131,144,344272,2,0,L|211:144,1,63.84,0|0,3:2|3:2,0:0:0:0:
381,144,344415,6,0,L|461:144,1,63.84,4|0,3:2|2:0,0:0:0:0:
256,192,344558,2,0,L|336:192,1,63.84,4|0,3:2|2:0,0:0:0:0:
131,144,344701,2,0,L|51:144,1,63.84,4|0,3:2|2:0,0:0:0:0:
226,99,344843,1,4,3:2:0:0:
387,60,344915,1,0,2:0:0:0:
196,309,344986,5,4,3:2:0:0:
35,270,345058,1,0,2:0:0:0:
196,309,345129,2,0,L|291:309,1,63.84,4|0,3:2|2:0,0:0:0:0:
67,176,345272,1,4,3:2:0:0:
99,176,345308,1,0,2:0:0:0:
131,176,345343,1,0,2:0:0:0:
292,109,345415,2,0,L|196:109,1,63.84,0|0,3:2|3:2,0:0:0:0:
421,257,345558,6,0,L|427:320,1,63.84,0|0,3:2|2:0,0:0:0:0:
349,199,345701,2,0,L|445:199,1,63.84,0|0,3:2|3:2,0:0:0:0:
222,117,345843,2,0,L|126:117,2,63.84,0|0|0,3:2|2:0|3:2,0:0:0:0:
349,199,346058,1,0,3:2:0:0:
159,117,346129,5,10,3:0:0:0:
93,109,346201,1,8,2:3:0:0:
252,47,346272,1,10,2:3:0:0:
411,99,346343,1,8,2:3:0:0:
217,216,346415,1,10,2:3:0:0:
152,208,346486,1,8,2:3:0:0:
311,128,346558,1,10,2:3:0:0:
152,208,346629,1,8,2:3:0:0:
311,128,346701,6,0,L|400:128,1,63.84,14|2,3:2|2:0,0:0:0:0:
292,268,346843,2,0,L|203:268,1,63.84,2|2,3:2|3:2,0:0:0:0:
421,351,346986,2,0,L|332:351,1,63.84,10|0,3:2|2:0,0:0:0:0:
165,268,347129,2,0,L|254:268,1,63.84,10|0,3:2|2:0,0:0:0:0:
421,351,347272,5,10,3:2:0:0:
256,336,347343,1,2,2:0:0:0:
91,351,347415,1,10,3:2:0:0:
256,336,347486,1,2,2:0:0:0:
421,351,347558,2,0,L|304:352,1,63.84,0|0,3:0|3:0,0:0:0:0:
165,268,347701,6,0,P|78:199|165:131,1,255.36,4|2,3:0|2:0,0:0:0:0:
420,128,348129,1,14,3:2:0:0:
92,128,348272,1,14,3:2:0:0:
420,128,348415,1,14,3:2:0:0:
92,128,348558,2,0,P|46:206|94:284,1,191.52,14|0,3:2|2:0,0:0:0:0:
272,336,348843,6,0,L|16:336,1,255.36,4|0,3:0|2:0,0:0:0:0:
272,336,349272,2,0,L|368:336,1,63.84,14|2,3:2|2:0,0:0:0:0:
179,227,349415,2,0,L|173:290,1,63.84,14|2,3:2|2:0,0:0:0:0:
16,144,349558,1,14,3:2:0:0:
256,128,349701,2,0,L|64:128,1,191.52,14|0,3:2|2:0,0:0:0:0:
256,208,349986,6,0,P|343:139|256:71,1,255.36,4|2,3:0|2:0,0:0:0:0:
490,289,350415,2,0,L|496:352,1,63.84,14|2,3:2|2:0,0:0:0:0:
335,199,350558,2,0,L|415:199,1,63.84,14|2,3:2|2:0,0:0:0:0:
238,92,350701,1,10,3:2:0:0:
490,289,350843,2,0,L|496:352,1,63.84,12|12,2:3|2:3,0:0:0:0:
415,291,350986,2,0,L|409:354,1,63.84,12|12,2:3|2:3,0:0:0:0:
219,268,351129,6,0,L|283:268,1,63.84,4|2,3:0|2:0,0:0:0:0:
204,230,351272,1,2,2:0:0:0:
144,221,351343,1,2,2:0:0:0:
117,166,351415,1,2,2:0:0:0:
147,112,351486,1,2,2:0:0:0:
316,108,351558,2,0,L|236:108,1,63.84,14|2,3:2|2:0,0:0:0:0:
421,351,351701,2,0,L|341:351,1,63.84,14|2,3:2|2:0,0:0:0:0:
91,351,351843,5,14,3:2:0:0:
256,336,351915,1,2,3:2:0:0:
421,351,351986,1,14,3:2:0:0:
256,336,352058,1,2,3:2:0:0:
91,351,352129,2,0,L|208:352,1,63.84,2|2,3:2|3:2,0:0:0:0:
347,268,352272,6,0,P|434:199|347:131,1,255.36,4|2,3:0|2:0,0:0:0:0:
92,128,352701,1,14,3:2:0:0:
420,128,352843,1,14,3:2:0:0:
92,128,352986,1,14,3:2:0:0:
420,128,353129,2,0,P|466:206|418:284,1,191.52,14|0,3:2|2:0,0:0:0:0:
240,336,353415,6,0,L|496:336,1,255.36,4|2,3:0|2:0,0:0:0:0:
429,261,353772,1,2,2:0:0:0:
238,247,353843,2,0,L|158:247,1,63.84,14|2,3:2|2:0,0:0:0:0:
335,285,353986,2,0,L|341:348,1,63.84,14|2,3:2|2:0,0:0:0:0:
148,104,354129,2,0,L|228:104,1,63.84,14|2,3:2|2:0,0:0:0:0:
51,142,354272,2,0,L|45:205,1,63.84,14|2,3:2|2:0,0:0:0:0:
126,249,354415,2,0,L|132:312,1,63.84,2|2,2:0|2:0,0:0:0:0:
325,181,354558,5,4,3:0:0:0:
355,235,354629,1,2,2:0:0:0:
328,290,354701,1,2,2:0:0:0:
268,299,354772,1,2,2:0:0:0:
459,339,354843,2,0,L|502:339,2,42.56,2|2|2,3:2|2:0|2:0,0:0:0:0:
256,208,354986,2,0,L|214:208,1,42.56,10|2,3:2|2:0,0:0:0:0:
321,96,355081,1,2,2:0:0:0:
428,28,355129,2,0,L|364:28,1,42.56,10|2,3:2|2:0,0:0:0:0:
256,32,355224,1,2,2:0:0:0:
127,28,355272,6,0,L|84:28,2,42.56,12|12|12,2:3|2:3|2:3,0:0:0:0:
256,208,355415,2,0,L|298:208,1,42.56,12|12,2:3|2:3,0:0:0:0:
191,96,355510,1,8,2:3:0:0:
84,28,355558,2,0,L|148:28,1,42.56,8|8,2:3|2:3,0:0:0:0:
256,32,355653,1,8,2:3:0:0:
386,28,355701,6,0,P|432:106|384:184,1,191.52,4|0,3:0|2:0,0:0:0:0:
225,289,355986,2,0,L|145:289,1,63.84,2|2,3:2|2:0,0:0:0:0:
354,205,356129,2,0,L|402:205,1,31.92,10|2,3:2|3:2,0:0:0:0:
286,121,356201,2,0,L|238:121,1,31.92,2|2,3:2|3:2,0:0:0:0:
155,205,356272,2,0,L|107:205,1,31.92,10|2,3:2|3:2,0:0:0:0:
223,121,356343,2,0,L|271:121,1,31.92,2|2,3:2|3:2,0:0:0:0:
354,205,356415,6,0,L|434:205,1,63.84,10|2,3:2|2:0,0:0:0:0:
257,143,356558,1,10,3:2:0:0:
98,112,356629,1,2,2:0:0:0:
294,284,356701,2,0,L|300:347,1,63.84,2|2,2:0|2:0,0:0:0:0:
98,112,356843,6,0,L|192:112,1,63.84,4|2,3:0|2:0,0:0:0:0:
323,116,356986,1,2,2:0:0:0:
388,115,357058,1,2,2:0:0:0:
388,115,357129,1,2,2:0:0:0:
345,115,357177,1,2,2:0:0:0:
303,115,357224,1,2,2:0:0:0:
132,266,357272,6,0,L|84:266,1,31.92,10|2,3:2|3:2,0:0:0:0:
200,182,357343,2,0,L|248:182,1,31.92,2|2,3:2|3:2,0:0:0:0:
331,266,357415,2,0,L|379:266,1,31.92,10|2,3:2|3:2,0:0:0:0:
263,182,357486,2,0,L|215:182,1,31.92,2|2,3:2|3:2,0:0:0:0:
132,266,357558,6,0,L|81:266,1,42.56,10|2,3:2|2:0,0:0:0:0:
218,214,357653,1,2,2:0:0:0:
347,178,357701,2,0,L|398:178,1,42.56,10|2,3:2|2:0,0:0:0:0:
261,126,357796,1,2,2:0:0:0:
135,70,357843,2,0,L|84:70,2,42.56,2|2|2,2:0|2:0|2:0,0:0:0:0:
348,70,357986,6,0,L|76:70,1,255.36,4|0,3:0|2:0,0:0:0:0:
160,144,358343,1,2,2:0:0:0:
343,309,358415,2,0,L|374:309,1,31.92,10|0,3:2|3:0,0:0:0:0:
471,202,358486,2,0,L|439:202,1,31.92,0|0,3:0|3:0,0:0:0:0:
343,309,358558,2,0,L|311:309,1,31.92,10|0,3:2|3:0,0:0:0:0:
215,202,358629,2,0,L|246:202,1,31.92,0|0,3:0|3:0,0:0:0:0:
343,309,358701,5,10,3:2:0:0:
385,309,358748,1,0,2:0:0:0:
428,309,358796,1,0,2:0:0:0:
302,135,358843,2,0,L|254:135,2,42.56,10|0|0,3:2|2:0|2:0,0:0:0:0:
428,309,358986,1,2,2:0:0:0:
385,309,359034,1,2,2:0:0:0:
343,309,359081,1,2,2:0:0:0:
173,309,359129,6,0,L|429:309,1,255.36,4|2,3:0|2:0,0:0:0:0:
173,309,359558,2,0,L|142:309,1,31.92,10|0,3:2|3:2,0:0:0:0:
45,202,359629,2,0,L|77:202,1,31.92,0|0,3:2|3:2,0:0:0:0:
173,309,359701,2,0,L|205:309,1,31.92,10|0,3:2|3:2,0:0:0:0:
301,202,359772,2,0,L|270:202,1,31.92,8|8,3:0|3:0,0:0:0:0:
173,309,359843,5,8,2:3:0:0:
131,309,359891,1,8,2:3:0:0:
88,309,359939,1,8,2:3:0:0:
230,220,359986,2,0,L|310:220,1,63.84,12|12,2:3|2:3,0:0:0:0:
220,264,360129,2,0,L|300:264,1,63.84,12|12,2:3|2:3,0:0:0:0:
496,272,360272,6,0,P|409:203|496:135,1,255.36,4|2,3:0|2:0,0:0:0:0:
430,98,360629,1,2,2:0:0:0:
237,130,360701,2,0,L|189:130,1,31.92,10|0,3:2|3:0,0:0:0:0:
108,255,360772,2,0,L|60:255,1,31.92,0|0,3:0|3:0,0:0:0:0:
174,130,360843,2,0,L|222:130,1,31.92,10|0,3:2|3:0,0:0:0:0:
303,255,360915,2,0,L|351:255,1,31.92,0|0,3:0|3:0,0:0:0:0:
238,130,360986,5,10,3:2:0:0:
77,255,361058,1,0,3:0:0:0:
238,130,361129,2,0,L|155:130,1,63.84,10|0,3:2|3:0,0:0:0:0:
335,255,361272,2,0,L|418:255,1,63.84,10|0,3:2|3:0,0:0:0:0:
206,368,361415,6,0,P|119:299|206:231,1,255.36,4|2,3:0|2:0,0:0:0:0:
496,128,361843,2,0,L|448:128,1,31.92,10|0,3:2|3:2,0:0:0:0:
367,253,361915,2,0,L|319:253,1,31.92,0|0,3:2|3:2,0:0:0:0:
238,130,361986,2,0,L|286:130,1,31.92,10|0,3:2|3:2,0:0:0:0:
367,255,362058,2,0,L|415:255,1,31.92,0|0,3:2|3:2,0:0:0:0:
299,174,362129,5,10,3:2:0:0:
138,176,362201,1,0,3:2:0:0:
299,174,362272,2,0,L|369:173,1,42.56,10|0,3:2|3:2,0:0:0:0:
213,81,362367,1,0,3:2:0:0:
84,310,362415,2,0,L|154:309,1,42.56,10|0,3:2|3:2,0:0:0:0:
256,268,362510,1,0,3:2:0:0:
385,300,362558,6,0,P|445:235|385:172,1,191.52,4|0,3:0|2:0,0:0:0:0:
240,160,362843,5,0,1:0:0:0:
160,160,362861,1,0,1:0:0:0:
141,156,362879,1,0,1:0:0:0:
128,144,362897,1,0,1:0:0:0:
123,126,362915,1,0,1:0:0:0:
129,109,362933,1,0,1:0:0:0:
144,98,362951,1,0,1:0:0:0:
162,96,362968,1,0,1:0:0:0:
272,160,362986,5,0,1:0:0:0:
352,160,363004,1,0,1:0:0:0:
370,156,363022,1,0,1:0:0:0:
383,144,363040,1,0,1:0:0:0:
388,126,363058,1,0,1:0:0:0:
382,109,363076,1,0,1:0:0:0:
367,98,363093,1,0,1:0:0:0:
244,94,363111,1,0,1:0:0:0:
127,300,363129,6,0,P|67:235|127:172,1,191.52,4|0,3:0|2:0,0:0:0:0:
272,160,363415,5,0,1:0:0:0:
352,160,363433,1,0,1:0:0:0:
370,156,363451,1,0,1:0:0:0:
383,144,363468,1,0,1:0:0:0:
388,126,363486,1,0,1:0:0:0:
382,109,363504,1,0,1:0:0:0:
367,98,363522,1,0,1:0:0:0:
349,96,363540,1,0,1:0:0:0:
240,160,363558,5,0,1:0:0:0:
160,160,363576,1,0,1:0:0:0:
141,156,363593,1,0,1:0:0:0:
128,144,363611,1,0,1:0:0:0:
123,126,363629,1,0,1:0:0:0:
129,109,363647,1,0,1:0:0:0:
144,98,363665,1,0,1:0:0:0:
268,94,363683,1,0,1:0:0:0:
385,300,363701,6,0,P|445:235|385:172,1,191.52,4|0,3:0|2:0,0:0:0:0:
240,160,363986,5,0,1:0:0:0:
160,160,364004,1,0,1:0:0:0:
141,156,364022,1,0,1:0:0:0:
128,144,364040,1,0,1:0:0:0:
123,126,364058,1,0,1:0:0:0:
129,109,364076,1,0,1:0:0:0:
144,98,364093,1,0,1:0:0:0:
162,96,364111,1,0,1:0:0:0:
272,160,364129,5,0,1:0:0:0:
352,160,364147,1,0,1:0:0:0:
370,156,364165,1,0,1:0:0:0:
383,144,364183,1,0,1:0:0:0:
388,126,364201,1,0,1:0:0:0:
382,109,364218,1,0,1:0:0:0:
367,98,364236,1,0,1:0:0:0:
244,94,364254,1,0,1:0:0:0:
127,300,364272,6,0,L|77:300,2,42.56,0|0|0,3:0|3:0|3:0,0:0:0:0:
385,300,364415,2,0,L|435:300,2,42.56,0|0|0,3:0|3:0|3:0,0:0:0:0:
128,224,364558,6,0,L|80:224,1,42.56,0|0,3:0|3:0,0:0:0:0:
256,208,364653,1,0,3:0:0:0:
426,208,364701,2,0,L|384:208,1,42.56,0|0,3:0|3:0,0:0:0:0:
256,208,364796,1,0,3:0:0:0:
128,224,364843,2,0,L|122:287,1,63.84,2|2,3:2|3:2,0:0:0:0:
256,240,364986,6,0,L|256:304,1,63.84,2|2,2:0|2:0,0:0:0:0:
384,224,365129,2,0,L|390:287,1,63.84,2|2,2:0|2:0,0:0:0:0:
256,240,365272,2,0,L|256:304,1,63.84,2|2,2:0|2:0,0:0:0:0:
384,224,365415,2,0,L|390:287,1,63.84,2|2,2:0|2:0,0:0:0:0:
256,240,365558,6,0,L|256:304,1,63.84,2|2,2:0|2:0,0:0:0:0:
128,224,365701,2,0,L|122:287,1,63.84,2|2,2:0|2:0,0:0:0:0:
256,240,365843,2,0,L|256:304,1,63.84,2|2,2:0|2:0,0:0:0:0:
128,224,365986,2,0,L|122:287,1,63.84,2|2,2:0|2:0,0:0:0:0:
256,176,366129,6,0,L|304:176,1,42.56,2|2,2:0|2:0,0:0:0:0:
342,176,366224,2,0,L|294:176,1,42.56,2|2,2:0|2:0,0:0:0:0:
256,176,366320,2,0,L|304:176,1,42.56,2|2,2:0|2:0,0:0:0:0:
428,175,366415,6,0,L|476:175,1,42.56,2|2,2:0|2:0,0:0:0:0:
428,175,366510,2,0,L|380:175,1,42.56,2|2,2:0|2:0,0:0:0:0:
428,175,366605,2,0,L|476:175,1,42.56,2|2,2:0|2:0,0:0:0:0:
275,176,366701,6,0,L|227:176,1,42.56,2|2,2:0|2:0,0:0:0:0:
275,176,366796,2,0,L|323:176,1,42.56,2|2,2:0|2:0,0:0:0:0:
275,176,366891,2,0,L|227:176,1,42.56,2|2,2:0|2:0,0:0:0:0:
41,175,366986,6,0,L|89:175,1,42.56,2|2,2:0|2:0,0:0:0:0:
127,175,367081,2,0,L|79:175,1,42.56,2|2,2:0|2:0,0:0:0:0:
41,175,367177,2,0,L|89:175,1,42.56,2|2,2:0|2:0,0:0:0:0:
256,272,367272,6,0,L|299:272,1,42.56,2|2,2:0|2:0,0:0:0:0:
256,272,367367,2,0,L|214:272,1,42.56,2|2,2:0|2:0,0:0:0:0:
342,271,367462,2,0,L|385:271,1,42.56,2|2,2:0|2:0,0:0:0:0:
256,272,367558,6,0,L|214:272,1,42.56,4|4,2:3|2:3,0:0:0:0:
256,272,367653,2,0,L|299:272,1,42.56,4|4,2:3|2:3,0:0:0:0:
170,271,367748,2,0,L|128:271,1,42.56,4|4,2:3|2:3,0:0:0:0:
342,271,367843,6,0,L|385:271,1,42.56,4|4,2:3|2:3,0:0:0:0:
256,272,367939,2,0,L|213:272,1,42.56,4|4,2:3|2:3,0:0:0:0:
385,271,368034,2,0,L|428:271,1,42.56,4|4,2:3|2:3,0:0:0:0:
170,271,368129,6,0,L|127:271,1,42.56,12|12,2:3|2:3,0:0:0:0:
256,272,368224,2,0,L|299:272,1,42.56,12|12,2:3|2:3,0:0:0:0:
127,271,368320,2,0,L|84:271,1,42.56,12|12,2:3|2:3,0:0:0:0:
368,138,368558,6,0,L|496:127,1,127.68,6|0,3:2|2:0,0:0:0:0:
321,143,368748,6,0,L|193:132,1,127.68,6|0,3:2|2:0,0:0:0:0:
16,128,368939,6,0,L|279:106,1,255.36,6|0,3:2|2:0,0:0:0:0:
496,128,369129,6,0,L|233:106,1,255.36,6|0,3:2|2:0,0:0:0:0:
16,128,369320,6,0,B|256:41|256:41|496:127|496:127|496:384|496:384|496:208,1,936.319961424806,6|4,3:2|3:0,0:0:0:0:
464,128,369879,1,2,2:0:0:0:
331,128,369915,1,2,2:0:0:0:
256,192,370058,12,0,371558,2:0:0:0:
256,208,371843,5,2,2:0:0:0:
16,192,372129,2,0,L|176:176,2,144,2|2|2,2:0|2:0|2:0,0:0:0:0:
256,208,372986,5,2,2:3:0:0:
496,192,373272,2,0,L|352:177,2,144,0|0|0,2:0|2:0|2:0,0:0:0:0:
150,384,374129,6,0,B|38:-44|38:-44|150:385|150:385|39:-39|39:-39|150:389|150:389|39:-38|39:-38|481:-37|481:-37|38:-40|38:-40|478:-37|478:-37|308:371|308:371|477:-36|477:-36|251:347|251:347|474:-31|474:-31|203:319|203:319|476:-26|476:-26|33:-29|33:-29|474:-31,1,7065.6,2|4,2:0|2:1,0:0:0:0:
