osu file format v14

[General]
AudioFilename: audio.mp3
AudioLeadIn: 0
PreviewTime: 132191
Countdown: 0
SampleSet: Normal
StackLeniency: 0.7
Mode: 1
LetterboxInBreaks: 0
WidescreenStoryboard: 0

[Editor]
Bookmarks: 19427,33142,35427,44570,56284,57356,74284,92570,111014,123014,142571,151714,161143,188286,200286,212286,234701,243843,252986,262129,280701,305558,307843,312415,328415,337558,346701
DistanceSpacing: 1.2
BeatDivisor: 4
GridSize: 32
TimelineZoom: 3.799996

[Metadata]
Title:Catch the Glory
TitleUnicode:Catch the Glory
Artist:D-D-Dice vs. siromaru
ArtistUnicode:打打だいず vs. siromaru
Creator:BlackBN
Version:Bash for Glory
Source:osu!catch World Cup 2022
Tags:BlackBq electronic instrumental featured artist fa versus cwc 2022 gf tb grand finals tiebreaker mappers' guild mpg mg DDDice poca_p0ca pocari sweat
BeatmapID:3751732
BeatmapSetID:1828021

[Difficulty]
HPDrainRate:4
CircleSize:2
OverallDifficulty:7
ApproachRate:10
SliderMultiplier:1.4
SliderTickRate:1

[Events]
//Background and Video events
0,0,"img.jpg",0,0
//Break Periods
//Storyboard Layer 0 (Background)
//Storyboard Layer 1 (Fail)
//Storyboard Layer 2 (Pass)
//Storyboard Layer 3 (Foreground)
//Storyboard Layer 4 (Overlay)
//Storyboard Sound Samples

[TimingPoints]
1142,285.714285714286,4,1,0,60,1,0
1142,-125,4,1,0,60,0,0
5712,-111.111111111111,4,1,0,60,0,0
5855,-111.465323137972,4,1,0,60,0,0
5998,-111.82180077828,4,1,0,60,0,0
6141,-112.180565838774,4,1,0,60,0,0
6283,-112.539107339801,4,1,0,60,0,0
6569,-113.26824185035,4,1,0,60,0,0
6712,-113.636363636364,4,1,0,60,0,0
6855,-114.006886015915,4,1,0,60,0,0
6998,-114.379832547925,4,1,0,60,0,0
7141,-114.755227100594,4,1,0,60,0,0
7283,-115.130442791683,4,1,0,60,0,0
7426,-115.510788707665,4,1,0,60,0,0
7569,-115.893655981272,4,1,0,60,0,0
7712,-116.279069767442,4,1,0,60,0,0
7855,-116.667055556852,4,1,0,60,0,0
7998,-117.057639181533,4,1,0,60,0,0
8141,-117.450846820606,4,1,0,60,0,0
8283,-117.843927502416,4,1,0,60,0,0
8426,-118.242444307809,4,1,0,60,0,0
8569,-118.643665614693,4,1,0,60,0,0
8712,-119.047619047619,4,1,0,60,0,0
8855,-119.454332608644,4,1,0,60,0,0
8998,-119.863834683799,4,1,0,60,0,0
9141,-120.276154049698,4,1,0,60,0,0
9426,-121.106428329216,4,1,0,60,0,0
9712,-121.951219512195,4,1,0,60,0,0
9998,-122.807879353539,4,1,0,60,0,0
10283,-123.673600633209,4,1,0,60,0,0
10712,-125,4,1,0,60,0,0
14856,-111.111111111111,4,1,0,60,0,0
14998,-111.628361221434,4,1,0,60,0,0
15141,-112.150449713819,4,1,0,60,0,0
15283,-112.673742319193,4,1,0,60,0,0
15426,-113.20567844173,4,1,0,60,0,0
15712,-114.284762031729,4,1,0,60,0,0
15855,-114.832055189043,4,1,0,60,0,0
15998,-115.384615384615,4,1,0,60,0,0
16141,-115.942519019442,4,1,0,60,0,0
16283,-116.501885638569,4,1,0,60,0,0
16426,-117.0706725845,4,1,0,60,0,0
16569,-117.645040655985,4,1,0,60,0,0
16712,-118.225072403806,4,1,0,60,0,0
16855,-118.81085201483,4,1,0,60,0,0
16998,-119.40246535274,4,1,0,60,0,0
17141,-120,4,1,0,60,0,0
17236,-120.400280898876,4,1,0,60,0,0
17331,-120.803241148494,4,1,0,60,0,0
17426,-121.208907741251,4,1,0,60,0,0
17521,-121.617308033339,4,1,0,60,0,0
17617,-122.032812555607,4,1,0,60,0,0
17712,-122.446793315241,4,1,0,60,0,0
17807,-122.863592389552,4,1,0,60,0,0
17902,-123.283238656791,4,1,0,60,0,0
17998,-123.710224402915,4,1,0,60,0,0
18093,-124.135684031423,4,1,0,60,0,0
18188,-124.564080209241,4,1,0,60,0,0
18213,-124.995443444027,4,1,0,70,0,0
18284,-125,4,1,0,70,0,0
18855,-125,4,1,0,70,0,0
18998,-121.212121212121,4,1,0,70,0,0
19141,-117.647058823529,4,1,0,70,0,0
19212,-115.953780660856,4,1,0,70,0,0
19283,-114.308553157474,4,1,0,70,0,0
19356,-100.034977264778,4,1,0,80,0,0
19427,-111.111111111111,4,1,0,80,0,0
28569,-111.111111111111,4,1,0,80,0,0
28712,-110.349322839968,4,1,0,80,0,0
28855,-109.592653863674,4,1,0,80,0,0
29141,-108.110025779901,4,1,0,80,0,0
29426,-106.671956313738,4,1,0,80,0,0
29569,-105.964717064237,4,1,0,80,0,0
29712,-105.266794095295,4,1,0,80,0,0
29855,-104.57800452996,4,1,0,80,0,0
29998,-103.898170246619,4,1,0,80,0,0
30141,-103.227117725435,4,1,0,80,0,0
30283,-102.56928082576,4,1,0,80,0,0
30569,-101.26946850699,4,1,0,80,0,0
30712,-100.631838495916,4,1,0,80,0,0
30855,-100.002187752959,4,1,0,80,0,0
30926,-99.6924821705088,4,1,0,80,0,0
30998,-99.3803674312425,4,1,0,80,0,0
31141,-98.7662323631728,4,1,0,80,0,0
31212,-98.4641233871141,4,1,0,80,0,0
31283,-98.1638569741222,4,1,0,80,0,0
31426,-97.5646197519797,4,1,0,80,0,0
31569,-96.9726541782464,4,1,0,80,0,0
31641,-96.6773122395888,4,1,0,80,0,0
31712,-96.3878286907197,4,1,0,80,0,0
31783,-96.1000735835173,4,1,0,80,0,0
31855,-95.8100148818881,4,1,0,80,0,0
31998,-95.239087404938,4,1,0,80,0,0
32141,-94.674923883101,4,1,0,80,0,0
32283,-94.1212807577473,4,1,0,80,0,0
32355,-93.843026956004,4,1,0,80,0,0
32426,-93.5702442119916,4,1,0,80,0,0
32569,-93.02562223986,4,1,0,80,0,0
32712,-92.4873034821844,4,1,0,80,0,0
32855,-91.95517914261,4,1,0,80,0,0
32926,-91.6932458727006,4,1,0,80,0,0
32998,-91.4291429142914,4,1,0,80,0,0
33141,-71.4285714285714,4,1,0,80,0,0
34213,-76.9230769230769,4,1,0,80,0,0
34855,-125,4,1,0,80,0,0
35141,-111.111111111111,4,1,0,80,0,0
35212,-108.128544423441,4,1,0,80,0,0
35283,-105.301914580265,4,1,0,80,0,0
35355,-102.582496413199,4,1,0,80,0,0
35392,-100.017485574401,4,1,0,90,0,0
35427,-100,4,1,0,90,0,0
39998,-100,4,1,0,90,0,0
40141,-98.7643653331029,4,1,0,90,0,0
40212,-98.1621435932669,4,1,0,90,0,0
40283,-97.5672215108835,4,1,0,90,0,0
40426,-96.3906223646483,4,1,0,90,0,0
40569,-95.2420631614032,4,1,0,90,0,0
40641,-94.6740660979044,4,1,0,90,0,0
40712,-94.1205533596838,4,1,0,90,0,0
40783,-93.5734752353664,4,1,0,90,0,0
40855,-93.0251485309677,4,1,0,90,0,0
40926,-92.4906942871015,4,1,0,90,0,0
40998,-91.9549477071601,4,1,0,90,0,0
41141,-90.9090909090909,4,1,0,90,0,0
41283,-89.8938261895399,4,1,0,90,0,0
41355,-89.3876593415187,4,1,0,90,0,0
41426,-88.8940737284181,4,1,0,90,0,0
41569,-87.9163141296823,4,1,0,90,0,0
41712,-86.9598295800365,4,1,0,90,0,0
41783,-86.4926220204313,4,1,0,90,0,0
41855,-86.023933167758,4,1,0,90,0,0
41926,-85.5667016020362,4,1,0,90,0,0
41998,-85.1079672375279,4,1,0,90,0,0
42069,-84.6603955262573,4,1,0,90,0,0
42141,-84.2113018492596,4,1,0,90,0,0
42283,-83.3333333333333,4,1,0,90,0,0
42354,-82.9041851019076,4,1,0,90,0,0
42426,-82.4794342617982,4,1,0,90,0,0
42498,-82.0531227566403,4,1,0,90,0,0
42569,-81.6370259267195,4,1,0,90,0,0
42641,-81.2193562140269,4,1,0,90,0,0
42712,-80.8116515837104,4,1,0,90,0,0
42783,-80.4080196975026,4,1,0,90,0,0
42855,-80.0027997480227,4,1,0,90,0,0
42926,-79.6071876305892,4,1,0,90,0,0
42998,-79.2099792099792,4,1,0,90,0,0
43069,-78.8221501965382,4,1,0,90,0,0
43141,-78.4327180402113,4,1,0,90,0,0
43212,-78.0524446872439,4,1,0,90,0,0
43283,-77.6758409785933,4,1,0,90,0,0
43355,-77.2976262933658,4,1,0,90,0,0
43427,-76.9230769230769,4,1,0,90,0,0
43998,-111.111111111111,4,1,0,90,0,0
44069,-108.12854442344,4,1,0,90,0,0
44141,-105.263157894737,4,1,0,90,0,0
44212,-102.582496413199,4,1,0,90,0,0
44283,-100.034977264778,4,1,0,90,0,0
44355,-97.5776185602184,4,1,0,90,0,0
44426,-95.26982011992,4,1,0,90,0,0
44498,-93.0383864671438,4,1,0,90,0,0
44569,-71.422618551546,4,1,0,90,0,0
44570,-71.4285714285714,4,1,0,90,0,0
44712,-72.2840755735493,4,1,0,90,0,0
44855,-73.1665670622385,4,1,0,90,0,0
44998,-74.0708729472774,4,1,0,90,0,0
45141,-74.9978121991774,4,1,0,90,0,0
45283,-75.9415152857776,4,1,0,90,0,0
45426,-76.9161730389517,4,1,0,90,0,0
45499,-90.9090909090909,4,1,0,90,0,0
46856,-71.4285714285714,4,1,0,90,0,0
46998,-72.2901729228174,4,1,0,90,0,0
47141,-73.1728142076503,4,1,0,90,0,0
47283,-74.0708729472774,4,1,0,90,0,0
47426,-74.9978121991774,4,1,0,90,0,0
47569,-75.948245303084,4,1,0,90,0,0
47711,-76.9161730389517,4,1,0,90,0,0
47785,-90.9090909090909,4,1,0,90,0,0
49177,-100,4,1,0,20,0,0
51356,-71.4166666666667,4,1,0,90,0,0
51617,-73.764847650198,4,1,0,90,0,0
51807,-76.2591208400071,4,1,0,90,0,0
51998,-78.9425202652911,4,1,0,90,0,0
52283,-83.31713007972,4,1,0,90,0,0
52499,-83.3089739842151,4,1,0,90,0,0
52570,-83.3333333333333,4,1,0,90,0,0
52664,-85.6885147324113,4,1,0,90,0,0
52760,-88.2352941176471,4,1,0,90,0,0
52855,-90.9090909090909,4,1,0,90,0,0
53141,-83.3333333333333,4,1,0,90,0,0
53236,-85.7057237039257,4,1,0,90,0,0
53331,-88.2171499074645,4,1,0,90,0,0
53426,-90.8802033682873,4,1,0,90,0,0
54283,-90.9187354126883,4,1,0,90,0,0
54379,-90.0021003990758,4,1,0,90,0,0
54474,-89.1130290111261,4,1,0,90,0,0
54569,-88.2413509060955,4,1,0,90,0,0
54664,-87.3865606199653,4,1,0,90,0,0
54760,-86.5394324952035,4,1,0,90,0,0
54855,-85.7171434286857,4,1,0,90,0,0
54902,-85.3160776505724,4,1,0,90,0,0
54950,-84.9103338947786,4,1,0,90,0,0
54998,-84.5084311211912,4,1,0,90,0,0
55045,-84.1185708676875,4,1,0,90,0,0
55093,-83.7241109808519,4,1,0,90,0,0
55141,-83.3333333333333,4,1,0,90,0,0
55212,-82.7619507484307,4,1,0,90,0,0
55283,-82.1983502781508,4,1,0,90,0,0
55355,-81.6345970661078,4,1,0,90,0,0
55426,-81.0861954773394,4,1,0,90,0,0
55498,-80.5375434639601,4,1,0,90,0,0
55569,-80.0037341299477,4,1,0,90,0,0
55641,-79.4695845697329,4,1,0,90,0,0
55712,-78.9497927222478,4,1,0,90,0,0
55783,-78.4367563609738,4,1,0,90,0,0
55855,-77.9232587743226,4,1,0,90,0,0
55926,-77.4234348179601,4,1,0,90,0,0
55998,-76.9230769230769,4,1,0,90,0,0
56213,-66.6666666666667,4,1,0,90,0,0
56356,-90.9090909090909,4,1,0,90,0,0
57141,-90.9090909090909,4,1,0,90,0,0
57212,-89.8938261895399,4,1,0,90,0,0
57283,-88.9009877887532,4,1,0,90,0,0
57355,-87.9163141296823,4,1,0,90,0,0
57426,-86.9664460168911,4,1,0,90,0,0
57498,-86.0239331677579,4,1,0,90,0,0
57569,-85.1143048626108,4,1,0,90,0,0
57641,-84.2113018492595,4,1,0,90,0,0
57712,-83.3394094057601,4,1,0,90,0,0
57783,-82.485386447283,4,1,0,90,0,0
57855,-81.6370259267195,4,1,0,90,0,0
57926,-80.8173654811567,4,1,0,90,0,0
57998,-80.0027997480227,4,1,0,90,0,0
58069,-79.21546884746,4,1,0,90,0,0
58141,-78.4327180402113,4,1,0,90,0,0
58212,-77.6758409785933,4,1,0,90,0,0
58283,-76.9334320522313,4,1,0,90,0,0
58356,-90.9090909090909,4,1,0,90,0,0
59426,-90.9235542120754,4,1,0,90,0,0
59498,-89.8938261895399,4,1,0,90,0,0
59569,-88.9009877887532,4,1,0,90,0,0
59641,-87.9163141296823,4,1,0,90,0,0
59712,-86.9664460168911,4,1,0,90,0,0
59783,-86.0368837034249,4,1,0,90,0,0
59855,-85.1143048626108,4,1,0,90,0,0
59926,-84.2237123277577,4,1,0,90,0,0
59998,-83.3394094057601,4,1,0,90,0,0
60069,-82.485386447283,4,1,0,90,0,0
60141,-81.6370259267195,4,1,0,90,0,0
60212,-80.8173654811567,4,1,0,90,0,0
60283,-80.014000700035,4,1,0,90,0,0
60355,-79.21546884746,4,1,0,90,0,0
60426,-78.4434836318715,4,1,0,90,0,0
60498,-77.6758409785933,4,1,0,90,0,0
60569,-76.9334320522313,4,1,0,90,0,0
60642,-90.9090909090909,4,1,0,90,0,0
61712,-90.9090909090909,4,1,0,90,0,0
61783,-89.8938261895399,4,1,0,90,0,0
61855,-88.8871607434482,4,1,0,90,0,0
61926,-87.9163141296823,4,1,0,90,0,0
61998,-86.9532141498669,4,1,0,90,0,0
62069,-86.0239331677579,4,1,0,90,0,0
62141,-85.101630556176,4,1,0,90,0,0
62212,-84.2113018492595,4,1,0,90,0,0
62283,-83.3394094057601,4,1,0,90,0,0
62355,-82.4734829352767,4,1,0,90,0,0
62426,-81.6370259267195,4,1,0,90,0,0
62498,-80.8059384941675,4,1,0,90,0,0
62569,-80.0027997480227,4,1,0,90,0,0
62641,-79.2044903333102,4,1,0,90,0,0
62712,-78.4327180402113,4,1,0,90,0,0
62783,-77.6758409785933,4,1,0,90,0,0
62855,-76.9230769230769,4,1,0,90,0,0
62999,-90.9090909090909,4,1,0,90,0,0
63998,-76.9230769230769,4,1,0,90,0,0
64045,-78.5133054761381,4,1,0,90,0,0
64093,-80.2066951246911,4,1,0,90,0,0
64141,-81.9747416762342,4,1,0,90,0,0
64212,-84.7377165915025,4,1,0,90,0,0
64283,-87.6934414148858,4,1,0,90,0,0
64355,-90.9090909090909,4,1,0,90,0,0
64426,-76.8899418479431,4,1,0,90,0,0
64474,-78.5133054761381,4,1,0,90,0,0
64521,-80.1706714574444,4,1,0,90,0,0
64569,-81.9371126922194,4,1,0,90,0,0
64641,-84.7377165915025,4,1,0,90,0,0
64712,-87.6934414148858,4,1,0,90,0,0
64783,-90.8628149656401,4,1,0,90,0,0
64855,-76.9230769230769,4,1,0,90,0,0
64902,-78.9183222958057,4,1,0,90,0,0
64950,-81.0657596371882,4,1,0,90,0,0
64998,-83.3333333333333,4,1,0,90,0,0
65069,-86.9300911854103,4,1,0,90,0,0
65141,-90.9090909090909,4,1,0,90,0,0
66283,-90.9235542120754,4,1,0,90,0,0
66355,-89.8938261895399,4,1,0,90,0,0
66426,-88.9009877887532,4,1,0,90,0,0
66498,-87.9163141296823,4,1,0,90,0,0
66569,-86.9664460168911,4,1,0,90,0,0
66641,-86.0239331677579,4,1,0,90,0,0
66712,-85.1143048626108,4,1,0,90,0,0
66783,-84.2237123277577,4,1,0,90,0,0
66855,-83.3394094057601,4,1,0,90,0,0
66926,-82.485386447283,4,1,0,90,0,0
66998,-81.6370259267195,4,1,0,90,0,0
67069,-80.8173654811567,4,1,0,90,0,0
67141,-80.0027997480227,4,1,0,90,0,0
67212,-79.21546884746,4,1,0,90,0,0
67283,-78.4434836318715,4,1,0,90,0,0
67355,-77.6758409785933,4,1,0,90,0,0
67426,-76.9334320522313,4,1,0,90,0,0
67499,-90.9090909090909,4,1,0,90,0,0
68569,-90.9240246406571,4,1,0,90,0,0
68641,-89.8611900316584,4,1,0,90,0,0
68712,-88.8371719765669,4,1,0,90,0,0
68783,-87.836229469174,4,1,0,90,0,0
68855,-86.8439632854789,4,1,0,90,0,0
68926,-85.887190627667,4,1,0,90,0,0
68998,-84.9382337144172,4,1,0,90,0,0
69069,-84.022770398482,4,1,0,90,0,0
69141,-83.1143479240183,4,1,0,90,0,0
69212,-82.2375752172944,4,1,0,90,0,0
69283,-81.3791075498052,4,1,0,90,0,0
69355,-80.5266603622609,4,1,0,90,0,0
69426,-79.703362373101,4,1,0,90,0,0
69498,-78.8854842157771,4,1,0,90,0,0
69569,-78.0952380952381,4,1,0,90,0,0
69641,-77.3098680075424,4,1,0,90,0,0
69712,-76.9230769230769,4,1,0,90,0,0
69856,-90.9090909090909,4,1,0,90,0,0
69999,-76.9230769230769,4,1,0,90,0,0
70071,-90.9090909090909,4,1,0,90,0,0
70565,-76.9230769230769,4,1,0,90,0,0
70642,-90.9090909090909,4,1,0,90,0,0
71142,-76.9230769230769,4,1,0,90,0,0
71213,-90.9090909090909,4,1,0,90,0,0
71713,-76.9230769230769,4,1,0,90,0,0
71785,-90.9090909090909,4,1,0,90,0,0
72273,-76.9230769230769,4,1,0,90,0,0
72356,-90.9090909090909,4,1,0,90,0,0
72559,-76.9230769230769,4,1,0,90,0,0
72642,-90.9090909090909,4,1,0,90,0,0
72856,-76.9230769230769,4,1,0,90,0,0
72928,-90.9090909090909,4,1,0,90,0,0
73141,-76.9230769230769,4,1,0,90,0,0
73236,-78.2576933613369,4,1,0,90,0,0
73331,-79.6394387138742,4,1,0,90,0,0
73426,-81.0708542238199,4,1,0,90,0,0
73521,-82.5546671804258,4,1,0,90,0,0
73617,-84.1103150456374,4,1,0,90,0,0
73712,-85.7085708570857,4,1,0,90,0,0
73807,-87.3687429911306,4,1,0,90,0,0
73902,-89.0945004678241,4,1,0,90,0,0
73998,-90.9090909090909,4,1,0,90,0,0
74045,-89.5709364234262,4,1,0,90,0,0
74093,-88.2443690219068,4,1,0,90,0,0
74141,-86.9565217391304,4,1,0,90,0,0
74188,-85.7314148681055,4,1,0,90,0,0
74236,-84.51536643026,4,1,0,90,0,0
74283,-71.4285714285714,4,1,0,90,0,0
74535,-83.3333333333333,4,1,0,90,0,0
74713,-71.4285714285714,4,1,0,90,0,0
74999,-83.3333333333333,4,1,0,90,0,0
75142,-71.4285714285714,4,1,0,90,0,0
75392,-83.3333333333333,4,1,0,90,0,0
75535,-71.4285714285714,4,1,0,90,0,0
75855,-100,4,1,0,90,0,0
75902,-98.7023743787963,4,1,0,90,0,0
75950,-97.4114441416894,4,1,0,90,0,0
75998,-96.1538461538461,4,1,0,90,0,0
76069,-94.3520717867511,4,1,0,90,0,0
76141,-92.5925925925926,4,1,0,90,0,0
76188,-91.4790174002047,4,1,0,90,0,0
76236,-90.3690596562184,4,1,0,90,0,0
76283,-89.3080189857607,4,1,0,90,0,0
76355,-87.7300613496933,4,1,0,90,0,0
76426,-86.2276893391221,4,1,0,90,0,0
76498,-84.755808440019,4,1,0,90,0,0
76569,-71.4285714285714,4,1,0,90,0,0
76785,-83.3333333333333,4,1,0,90,0,0
76999,-71.4285714285714,4,1,0,90,0,0
77249,-83.3333333333333,4,1,0,90,0,0
77392,-71.4285714285714,4,1,0,90,0,0
77713,-83.3333333333333,4,1,0,90,0,0
77856,-71.4285714285714,4,1,0,90,0,0
78141,-100,4,1,0,90,0,0
78188,-98.7005805916505,4,1,0,90,0,0
78236,-97.4079126875853,4,1,0,90,0,0
78283,-96.1745689655172,4,1,0,90,0,0
78355,-94.3446088794926,4,1,0,90,0,0
78426,-92.6070038910506,4,1,0,90,0,0
78498,-90.9090909090909,4,1,0,90,0,0
78569,-89.2946473236618,4,1,0,90,0,0
78617,-88.2352941176471,4,1,0,90,0,0
78664,-87.2220864891278,4,1,0,90,0,0
78712,-86.2110601304033,4,1,0,90,0,0
78783,-84.7578347578348,4,1,0,90,0,0
78855,-83.3333333333333,4,1,0,90,0,0
78998,-83.7700172230569,4,1,0,90,0,0
79069,-83.9885369975751,4,1,0,90,0,0
79141,-84.2113018492596,4,1,0,90,0,0
79283,-84.6541253147682,4,1,0,90,0,0
79355,-84.880439625724,4,1,0,90,0,0
79426,-85.1047987788988,4,1,0,90,0,0
79569,-85.5602964293735,4,1,0,90,0,0
79641,-85.7914884035127,4,1,0,90,0,0
79712,-86.0206961429915,4,1,0,90,0,0
79855,-86.4860774818402,4,1,0,90,0,0
79926,-86.7190167292591,4,1,0,90,0,0
79998,-86.9565217391304,4,1,0,90,0,0
80141,-87.4321119865371,4,1,0,90,0,0
80212,-87.6701821668265,4,1,0,90,0,0
80283,-87.9095523765574,4,1,0,90,0,0
80426,-88.3956536870191,4,1,0,90,0,0
80498,-88.6424444530614,4,1,0,90,0,0
80569,-88.8871607434482,4,1,0,90,0,0
80712,-89.3841642228739,4,1,0,90,0,0
80783,-89.6329987452948,4,1,0,90,0,0
80855,-89.8867568417741,4,1,0,90,0,0
80998,-90.3950334137372,4,1,0,90,0,0
81069,-90.6495360456816,4,1,0,90,0,0
81141,-76.9230769230769,4,1,0,90,0,0
81355,-79.9962662186129,4,1,0,90,0,0
81569,-83.3252309188138,4,1,0,90,0,0
81712,-85.7085708570857,4,1,0,90,0,0
81998,-90.9090909090909,4,1,0,90,0,0
82283,-90.9090909090909,4,1,0,90,0,0
82355,-90.3986080354318,4,1,0,90,0,0
82426,-89.8938261895399,4,1,0,90,0,0
82498,-89.3876593415187,4,1,0,90,0,0
82569,-88.8940737284181,4,1,0,90,0,0
82641,-88.399071925754,4,1,0,90,0,0
82712,-87.9163141296823,4,1,0,90,0,0
82783,-87.4388004895961,4,1,0,90,0,0
82855,-86.9598295800365,4,1,0,90,0,0
82926,-86.4926220204313,4,1,0,90,0,0
82998,-86.023933167758,4,1,0,90,0,0
83069,-85.5667016020362,4,1,0,90,0,0
83141,-85.1079672375279,4,1,0,90,0,0
83212,-84.6603955262573,4,1,0,90,0,0
83283,-84.2175066312997,4,1,0,90,0,0
83355,-83.7730870712401,4,1,0,90,0,0
83426,-71.4285714285714,4,1,0,90,0,0
83713,-83.3333333333333,4,1,0,90,0,0
83856,-71.4285714285714,4,1,0,90,0,0
84142,-83.3333333333333,4,1,0,90,0,0
84249,-71.4285714285714,4,1,0,90,0,0
84535,-83.3333333333333,4,1,0,90,0,0
84713,-71.4285714285714,4,1,0,90,0,0
84998,-100,4,1,0,90,0,0
85045,-98.7005805916505,4,1,0,90,0,0
85093,-97.4079126875853,4,1,0,90,0,0
85141,-96.148666846216,4,1,0,90,0,0
85212,-94.3446088794926,4,1,0,90,0,0
85283,-92.6070038910506,4,1,0,90,0,0
85331,-91.4681014604151,4,1,0,90,0,0
85379,-90.3568716780562,4,1,0,90,0,0
85426,-89.2946473236618,4,1,0,90,0,0
85498,-87.7149877149877,4,1,0,90,0,0
85569,-86.2110601304033,4,1,0,90,0,0
85641,-84.7377165915025,4,1,0,90,0,0
85712,-71.4285714285714,4,1,0,90,0,0
85999,-83.3333333333333,4,1,0,90,0,0
86142,-71.4285714285714,4,1,0,90,0,0
86392,-83.3333333333333,4,1,0,90,0,0
86535,-71.4285714285714,4,1,0,90,0,0
86856,-83.3333333333333,4,1,0,90,0,0
86999,-71.4285714285714,4,1,0,90,0,0
87283,-100,4,1,0,90,0,0
87331,-98.7005805916505,4,1,0,90,0,0
87379,-97.4079126875853,4,1,0,90,0,0
87426,-96.1745689655172,4,1,0,90,0,0
87498,-94.3446088794926,4,1,0,90,0,0
87569,-92.6070038910506,4,1,0,90,0,0
87641,-90.9090909090909,4,1,0,90,0,0
87712,-89.2946473236618,4,1,0,90,0,0
87760,-88.2352941176471,4,1,0,90,0,0
87807,-87.2220864891278,4,1,0,90,0,0
87855,-86.2110601304033,4,1,0,90,0,0
87926,-84.7578347578348,4,1,0,90,0,0
87998,-83.3333333333333,4,1,0,90,0,0
88141,-83.7700172230569,4,1,0,90,0,0
88212,-83.9885369975751,4,1,0,90,0,0
88284,-84.2113018492596,4,1,0,90,0,0
88426,-84.6541253147682,4,1,0,90,0,0
88498,-84.880439625724,4,1,0,90,0,0
88569,-85.1047987788988,4,1,0,90,0,0
88712,-85.5602964293735,4,1,0,90,0,0
88784,-85.7914884035127,4,1,0,90,0,0
88855,-86.0206961429915,4,1,0,90,0,0
88998,-86.4860774818402,4,1,0,90,0,0
89069,-86.7190167292591,4,1,0,90,0,0
89141,-86.9565217391304,4,1,0,90,0,0
89284,-87.4321119865371,4,1,0,90,0,0
89355,-87.6701821668265,4,1,0,90,0,0
89426,-87.9095523765574,4,1,0,90,0,0
89569,-88.3956536870191,4,1,0,90,0,0
89641,-88.6424444530614,4,1,0,90,0,0
89712,-88.8871607434482,4,1,0,90,0,0
89855,-89.3841642228739,4,1,0,90,0,0
89926,-89.6329987452948,4,1,0,90,0,0
89998,-89.8867568417741,4,1,0,90,0,0
90141,-90.3950334137372,4,1,0,90,0,0
90212,-90.6495360456816,4,1,0,90,0,0
90284,-76.9230769230769,4,1,0,90,0,0
90474,-79.6394387138742,4,1,0,90,0,0
90664,-82.5546671804258,4,1,0,90,0,0
90855,-85.7085708570857,4,1,0,90,0,0
91141,-90.9090909090909,4,1,0,90,0,0
91426,-83.3089739842151,4,1,0,90,0,0
91521,-85.6885147324113,4,1,0,90,0,0
91617,-88.2352941176471,4,1,0,90,0,0
91712,-90.9090909090909,4,1,0,90,0,0
91998,-90.9090909090909,4,1,0,90,0,0
92093,-89.5569124784719,4,1,0,90,0,0
92188,-88.2443690219068,4,1,0,90,0,0
92283,-86.969743043941,4,1,0,90,0,0
92379,-85.718567361007,4,1,0,90,0,0
92474,-84.51536643026,4,1,0,90,0,0
92569,-83.3454757394725,4,1,0,90,0,0
92642,-100,4,1,0,80,0,0
99426,-100,4,1,0,80,0,0
99712,-98.7681002809596,4,1,0,80,0,0
99783,-98.4659139877618,4,1,0,80,0,0
99855,-98.1613540682189,4,1,0,80,0,0
99926,-97.8628635059317,4,1,0,80,0,0
99998,-97.5620169932966,4,1,0,80,0,0
100283,-96.3890998059563,4,1,0,80,0,0
100355,-96.0972327361427,4,1,0,80,0,0
100426,-95.8111451213887,4,1,0,80,0,0
100498,-95.52276242632,4,1,0,80,0,0
100569,-95.2400800266756,4,1,0,80,0,0
100712,-94.67578205925,4,1,0,80,0,0
100783,-94.3980831198876,4,1,0,80,0,0
100855,-94.1181316418156,4,1,0,80,0,0
100998,-93.5670119978707,4,1,0,80,0,0
101106,-93.022309070184,4,1,0,90,0,0
101188,-92.844662955589,4,1,0,90,0,0
101236,-92.6639360882436,4,1,0,90,0,0
101283,-92.4876548206913,4,1,0,90,0,0
101426,-91.9554106805103,4,1,0,90,0,0
101498,-91.6897395770635,4,1,0,90,0,0
101569,-91.429257362356,4,1,0,90,0,0
101641,-91.166613469518,4,1,0,90,0,0
101712,-90.9090909090909,4,1,0,90,0,0
108569,-90.9090909090909,4,1,0,90,0,0
108641,-91.9151634713162,4,1,0,90,0,0
108712,-92.9437532308297,4,1,0,90,0,0
108783,-93.9956246886221,4,1,0,90,0,0
108855,-95.0869075529671,4,1,0,90,0,0
108998,-97.331231041469,4,1,0,90,0,0
109069,-98.4853717810508,4,1,0,90,0,0
109141,-99.6840605129052,4,1,0,90,0,0
109283,-102.135766540197,4,1,0,90,0,0
109426,-104.729708549045,4,1,0,90,0,0
109498,-106.086265497804,4,1,0,90,0,0
109569,-107.458840668722,4,1,0,90,0,0
109641,-108.887501564672,4,1,0,90,0,0
109713,300,4,1,0,90,1,0
109713,-105.080018446024,4,1,0,90,0,0
109788,-106.595810498228,4,1,0,90,0,0
109863,-108.1351486667,4,1,0,90,0,0
109938,-109.719597087675,4,1,0,90,0,0
110014,315.789473684211,4,1,0,90,1,8
110014,-105.783609170218,4,1,0,90,0,0
110091,-107.445270218719,4,1,0,90,0,0
110170,-109.182306186267,4,1,0,90,0,0
110249,-110.976429361334,4,1,0,90,0,0
110329,333.333333333333,4,1,0,90,1,8
110329,-106.892052966465,4,1,0,90,0,0
110411,-108.801831327939,4,1,0,90,0,0
110494,-110.781092912247,4,1,0,90,0,0
110578,-112.858894021619,4,1,0,90,0,0
110662,352.941176470588,4,1,0,80,1,8
110662,-108.6016271872,4,1,0,80,0,0
110749,-110.82025782853,4,1,0,80,0,0
110837,-113.131428106502,4,1,0,80,0,0
110925,-115.541051116394,4,1,0,80,0,0
111014,375,4,1,0,80,1,0
111014,-111.111109041505,4,1,0,80,0,0
111107,-111.111111111111,4,1,0,70,0,0
121467,-111.111111111111,4,1,0,80,0,0
121606,-109.881053759306,4,1,0,80,0,0
121700,-108.665139317764,4,1,0,80,0,0
121794,-107.475840326727,4,1,0,80,0,0
121888,-106.312292358804,4,1,0,80,0,0
121981,-105.185652676975,4,1,0,80,0,0
122075,-104.070906977954,4,1,0,80,0,0
122169,-102.979541397776,4,1,0,80,0,0
122263,-101.910828025478,4,1,0,80,0,0
122356,-100.875091418052,4,1,0,80,0,0
122450,-99.8493938309716,4,1,0,80,0,0
122544,-98.8443448679192,4,1,0,80,0,0
122638,-97.8593272171254,4,1,0,80,0,0
122731,-96.9039197635544,4,1,0,80,0,0
122825,-95.957011258956,4,1,0,80,0,0
122919,-95.0284293384438,4,1,0,80,0,0
122967,-100,4,1,0,90,0,0
123014,352.941176470588,4,1,0,90,1,0
123014,-100,4,1,0,90,0,0
123189,-99.2942762842924,4,1,0,90,0,0
123277,-98.9451366368994,4,1,0,90,0,0
123365,-98.5984436838964,4,1,0,90,0,0
123454,-98.2502734303628,4,1,0,90,0,0
123630,-97.5689459931085,4,1,0,90,0,0
123718,-97.2318135859552,4,1,0,90,0,0
123895,-96.5607247731723,4,1,0,90,0,0
123983,-96.2305120405297,4,1,0,90,0,0
124071,-95.9025500952487,4,1,0,90,0,0
124248,-95.2496232608712,4,1,0,90,0,0
124336,-94.9283019864385,4,1,0,90,0,0
124424,-94.6091413553248,4,1,0,90,0,0
124601,-93.9736490623395,4,1,0,90,0,0
124689,-93.6608648985592,4,1,0,90,0,0
124777,-93.3501559842027,4,1,0,90,0,0
124865,-93.0415017343695,4,1,0,90,0,0
125042,-92.4268263122599,4,1,0,90,0,0
125130,-92.1242377902294,4,1,0,90,0,0
125307,-91.5215831187613,4,1,0,90,0,0
125395,-91.2248832585246,4,1,0,90,0,0
125483,-90.9301008989033,4,1,0,90,0,0
125660,-90.3429186932466,4,1,0,90,0,0
125748,-90.0537996748902,4,1,0,90,0,0
125837,333.333333333333,4,1,0,90,1,0
125837,-95.0469117583062,4,1,0,90,0,0
126002,-94.4783825498322,4,1,0,90,0,0
126086,-94.1932768662869,4,1,0,90,0,0
126169,-93.9132503847497,4,1,0,90,0,0
126252,-93.6348839453108,4,1,0,90,0,0
126419,-93.0797680367197,4,1,0,90,0,0
126502,-92.806313495526,4,1,0,90,0,0
126669,-92.2609498951366,4,1,0,90,0,0
126752,-91.9922783810125,4,1,0,90,0,0
126836,-91.7219583593074,4,1,0,90,0,0
127002,-91.1923994446696,4,1,0,90,0,0
127086,-90.9267530991258,4,1,0,90,0,0
127169,-90.6657849922071,4,1,0,90,0,0
127336,-90.1452177652819,4,1,0,90,0,0
127419,-89.8887102067514,4,1,0,90,0,0
127502,-89.6336582869789,4,1,0,90,0,0
127586,-89.3770028736462,4,1,0,90,0,0
127752,-88.8741009127402,4,1,0,90,0,0
127836,-88.6217707525975,4,1,0,90,0,0
127919,-88.3738479260589,4,1,0,90,0,0
128002,-88.1273083771133,4,1,0,90,0,0
128086,-87.8791950481283,4,1,0,90,0,0
128169,-87.635403868577,4,1,0,90,0,0
128252,-87.392961579747,4,1,0,90,0,0
128336,-87.1489602536244,4,1,0,90,0,0
128419,-86.9091982938879,4,1,0,90,0,0
128503,315.789473684211,4,1,0,90,1,0
128503,-91.4857927821173,4,1,0,90,0,0
128659,-91.0134556863306,4,1,0,90,0,0
128738,-90.7776226497944,4,1,0,90,0,0
128817,-90.5430086303465,4,1,0,90,0,0
128975,-90.0774000306558,4,1,0,90,0,0
129054,-89.8463868855336,4,1,0,90,0,0
129133,-89.6165556252733,4,1,0,90,0,0
129291,-89.1604026642036,4,1,0,90,0,0
129370,-88.9340631449013,4,1,0,90,0,0
129449,-88.7088698711551,4,1,0,90,0,0
129607,-88.2618874064117,4,1,0,90,0,0
129686,-88.0400811061725,4,1,0,90,0,0
129765,-87.8193868308221,4,1,0,90,0,0
129923,-87.3813010708656,4,1,0,90,0,0
130002,-87.1638931513277,4,1,0,90,0,0
130080,-86.9502960132143,4,1,0,90,0,0
130238,-86.5208170400866,4,1,0,90,0,0
130317,-86.3076646479406,4,1,0,90,0,0
130396,-86.0955599178024,4,1,0,90,0,0
130554,-85.6744626985798,4,1,0,90,0,0
130633,-85.465455024521,4,1,0,90,0,0
130712,-85.2574646406957,4,1,0,90,0,0
130870,-84.8445061792768,4,1,0,90,0,0
130949,-84.6395234980168,4,1,0,90,0,0
131029,300,4,1,0,90,1,0
131029,-88.8795000519606,4,1,0,90,0,0
131103,-88.6765969660523,4,1,0,90,0,0
131178,-88.4746181853001,4,1,0,90,0,0
131253,-88.2735574081844,4,1,0,90,0,0
131328,-88.0734083903373,4,1,0,90,0,0
131403,-87.8741649438958,4,1,0,90,0,0
131478,-87.6758209368645,4,1,0,90,0,0
131553,-87.4783702924861,4,1,0,90,0,0
131628,-87.2818069886213,4,1,0,90,0,0
131703,-87.0861250571361,4,1,0,90,0,0
131778,-86.8913185832979,4,1,0,90,0,0
131853,-86.6973817051797,4,1,0,90,0,0
131928,-86.504308613072,4,1,0,90,0,0
132003,-86.3120935489027,4,1,0,90,0,0
132078,-86.1207308056645,4,1,0,90,0,0
132153,-85.9302147268504,4,1,0,90,0,0
132228,-85.7405397058959,4,1,0,90,0,0
132303,-85.5517001856297,4,1,0,90,0,0
132378,-85.36369065773,4,1,0,90,0,0
132453,-85.17650566219,4,1,0,90,0,0
132528,-84.9901397867884,4,1,0,90,0,0
132603,-84.8045876665684,4,1,0,90,0,0
132678,-84.6198439833226,4,1,0,90,0,0
132753,-84.4359034650848,4,1,0,90,0,0
132828,-84.2527608856289,4,1,0,90,0,0
132903,-84.0704110639734,4,1,0,90,0,0
132978,-83.8888488638933,4,1,0,90,0,0
133053,-83.7080691934377,4,1,0,90,0,0
133128,-83.5280670044535,4,1,0,90,0,0
133203,-83.3488372921161,4,1,0,90,0,0
133278,-83.1703750944647,4,1,0,90,0,0
133353,-82.9926754919454,4,1,0,90,0,0
133429,285.714285714286,4,1,0,90,1,1
133429,-86.9565215068386,4,1,0,90,0,1
140285,-74.0740740740741,4,1,0,90,0,1
140570,-75.6715853197124,4,1,0,90,0,1
140713,-76.4993880048959,4,1,0,90,0,1
140999,-78.2105427811669,4,1,0,90,0,1
141285,-80,4,1,0,90,0,1
141428,-100,4,1,0,90,0,1
141499,-99.0768430633208,4,1,0,90,0,1
141570,-98.1705745941768,4,1,0,90,0,1
141642,-97.2683175899923,4,1,0,90,0,1
141713,-96.3946869070209,4,1,0,90,0,1
141856,-94.6819085487078,4,1,0,90,0,1
141928,-93.8423645320197,4,1,0,90,0,1
141999,-93.0289341960689,4,1,0,90,0,1
142142,-91.4326853851692,4,1,0,90,0,1
142213,-90.6603212373587,4,1,0,90,0,1
142285,-89.8902913766663,4,1,0,90,0,1
142356,-89.1436593355171,4,1,0,90,0,1
142428,-88.3990719257541,4,1,0,90,0,1
142499,-87.6769071453228,4,1,0,90,0,1
142570,-86.9664460168911,4,1,0,90,0,1
142571,-86.9565217391304,4,1,0,90,0,1
149500,-80,4,1,0,90,0,1
149643,-74.0740740740741,4,1,0,90,0,1
149929,-80,4,1,0,90,0,1
150143,-74.0740740740741,4,1,0,90,0,1
150358,-80,4,1,0,90,0,1
150500,-74.0740740740741,4,1,0,90,0,1
150713,-100,4,1,0,90,0,1
150785,-98.9462227279474,4,1,0,90,0,1
150856,-97.9144227944776,4,1,0,90,0,1
150999,-95.9002637257252,4,1,0,90,0,1
151142,-93.9672993798158,4,1,0,90,0,1
151213,-93.0362376145509,4,1,0,90,0,1
151285,-92.1107170819325,4,1,0,90,0,1
151356,-91.2159080543647,4,1,0,90,0,1
151428,-90.3260771384699,4,1,0,90,0,1
151499,-89.4654439722657,4,1,0,90,0,1
151570,-88.6210563629919,4,1,0,90,0,1
151642,-87.7808988764045,4,1,0,90,0,1
151713,-86.9678653737444,4,1,0,90,0,1
158570,-74.0685875120361,4,1,0,90,0,1
158856,-75.6715853197124,4,1,0,90,0,1
158999,-76.4993880048959,4,1,0,90,0,1
159285,-78.2105427811669,4,1,0,90,0,1
159570,-79.993600511959,4,1,0,90,0,1
159713,-100,4,1,0,90,0,1
159785,-99.2597226566573,4,1,0,90,0,1
159856,-98.5303249844753,4,1,0,90,0,1
159928,-97.8015204438052,4,1,0,90,0,1
159999,-97.0933197348292,4,1,0,90,0,1
160142,-95.697627663852,4,1,0,90,0,1
160213,-95.0194630202615,4,1,0,90,0,1
160285,-94.3414924189872,4,1,0,90,0,1
160428,-93.0232558139535,4,1,0,90,0,1
160499,-92.3823386705483,4,1,0,90,0,1
160570,-91.7501927525058,4,1,0,90,0,1
160642,-91.1179173047473,4,1,0,90,0,1
160713,-90.5028995151631,4,1,0,90,0,1
160785,-89.8876404494382,4,1,0,90,0,1
160857,-89.2890639654849,4,1,0,90,0,0
160893,-100,4,1,0,20,0,0
161107,-100,4,1,0,90,0,0
161143,-74.0740740740741,4,1,0,90,0,1
161286,-86.9565217391304,4,1,0,90,0,1
163143,-74.0740740740741,4,1,0,90,0,1
163428,-75.6773119418798,4,1,0,90,0,1
163570,-76.4993880048959,4,1,0,90,0,1
163856,-78.2105427811669,4,1,0,90,0,1
164142,-80,4,1,0,90,0,1
164285,-100,4,1,0,90,0,1
164428,-98.1579286358367,4,1,0,90,0,1
164499,-97.2683175899923,4,1,0,90,0,1
164570,-96.3946869070209,4,1,0,90,0,1
164713,-94.6819085487078,4,1,0,90,0,1
164785,-93.8423645320197,4,1,0,90,0,1
164856,-93.0289341960689,4,1,0,90,0,1
164999,-91.4326853851692,4,1,0,90,0,1
165070,-90.6603212373587,4,1,0,90,0,1
165142,-89.8902913766663,4,1,0,90,0,1
165285,-88.3990719257541,4,1,0,90,0,1
165356,-87.6769071453228,4,1,0,90,0,1
165428,-86.9565217391304,4,1,0,90,0,1
167714,-74.054826555801,4,1,0,90,0,1
167808,-75.9291328093779,4,1,0,90,0,1
167904,-77.9220779220779,4,1,0,90,0,1
167999,-80,4,1,0,90,0,1
168285,-76.9230769230769,4,1,0,90,0,1
168380,-78.940104885454,4,1,0,90,0,1
168475,-81.0657596371882,4,1,0,90,0,1
168570,-83.3090591319546,4,1,0,90,0,1
168857,-86.9565217391304,4,1,0,90,0,1
168951,-87.9868902054708,4,1,0,90,0,1
169047,-89.0646931223683,4,1,0,90,0,1
169142,-90.1575820201498,4,1,0,90,0,1
169237,-91.2776252125016,4,1,0,90,0,1
169332,-92.4258474576271,4,1,0,90,0,1
169428,-93.6158798283262,4,1,0,90,0,1
169523,-94.8240728161934,4,1,0,90,0,1
169618,-96.0638590696394,4,1,0,90,0,1
169713,-97.3364942128016,4,1,0,90,0,1
169808,-98.6433013001696,4,1,0,90,0,1
169904,-100,4,1,0,90,0,1
170250,-100,4,1,0,90,0,1
170286,-83.3333333333333,4,1,0,90,0,0
170321,-100,4,1,0,80,0,0
183713,-100,4,1,0,80,0,0
183904,-99.5860566448802,4,1,0,80,0,0
183999,-99.3803674312425,4,1,0,80,0,0
184189,-98.9715275522356,4,1,0,80,0,0
184285,-98.7662323631728,4,1,0,80,0,0
184380,-98.5639123684664,4,1,0,80,0,0
184475,-98.3624195734974,4,1,0,80,0,0
184570,-98.1617489155178,4,1,0,80,0,0
184666,-97.959795979598,4,1,0,80,0,0
184761,-97.760763094296,4,1,0,80,0,0
184856,-97.5625373516606,4,1,0,80,0,0
184951,-97.3651138517903,4,1,0,80,0,0
185047,-97.1664222094679,4,1,0,80,0,0
185142,-96.970596970597,4,1,0,80,0,0
185332,-96.5813049357674,4,1,0,80,0,0
185428,-96.3857962213225,4,1,0,80,0,0
185523,-96.1931017066858,4,1,0,80,0,0
185618,-96.0011761246692,4,1,0,80,0,0
185713,-95.8100148818881,4,1,0,80,0,0
185808,-95.619613421471,4,1,0,80,0,0
185904,-95.4279749478079,4,1,0,80,0,0
185999,-95.239087404938,4,1,0,80,0,0
186189,-94.8635467469129,4,1,0,80,0,0
186285,-94.674923883101,4,1,0,80,0,0
186380,-94.4890028113114,4,1,0,80,0,0
186475,-94.3038105258815,4,1,0,80,0,0
186570,-94.1193427500721,4,1,0,80,0,0
186666,-93.933664871974,4,1,0,80,0,0
186761,-93.7506409336095,4,1,0,80,0,0
186856,-93.5683288299353,4,1,0,80,0,0
186951,-93.3867244162053,4,1,0,80,0,0
187047,-93.2039230879025,4,1,0,80,0,0
187142,-93.023729089503,4,1,0,80,0,0
187237,-92.8442304958056,4,1,0,80,0,0
187332,-92.6654232890042,4,1,0,80,0,0
187428,-92.4854321786986,4,1,0,80,0,0
187523,-92.3080029887518,4,1,0,80,0,0
187618,-92.1312532752852,4,1,0,80,0,0
187713,-91.95517914261,4,1,0,80,0,0
187808,-91.7797767247611,4,1,0,80,0,0
187904,-91.6032064128256,4,1,0,80,0,0
187999,-91.4291429142914,4,1,0,80,0,0
188094,-91.2557396685965,4,1,0,80,0,0
188189,-91.0829929261732,4,1,0,80,0,0
188286,375,4,1,0,80,1,0
188286,-69.2640692640693,4,1,0,80,0,0
188332,-100,4,1,0,70,0,0
194285,-100,4,1,0,70,0,0
194472,-98.7686837426747,4,1,0,70,0,0
194566,-98.1611151102677,4,1,0,70,0,0
194660,-97.5609756097561,4,1,0,70,0,0
194847,-96.3886389924174,4,1,0,70,0,0
195035,-95.2380952380952,4,1,0,70,0,0
195128,-94.6790380609733,4,1,0,70,0,0
195222,-94.1205998619564,4,1,0,70,0,0
195410,-93.0232558139535,4,1,0,70,0,0
195597,-91.9568415890142,4,1,0,70,0,0
195691,-91.4299646470803,4,1,0,70,0,0
195785,-90.9090909090909,4,1,0,70,0,0
195972,-89.8903337927728,4,1,0,70,0,0
196066,-89.3868065073595,4,1,0,70,0,0
196160,-88.8888888888889,4,1,0,70,0,0
196347,-87.9146641659829,4,1,0,70,0,0
196535,-86.9565217391304,4,1,0,70,0,0
196628,-86.4902266043937,4,1,0,70,0,0
196722,-86.0239720135344,4,1,0,70,0,0
196910,-85.1063829787234,4,1,0,70,0,0
197097,-84.2128901863912,4,1,0,70,0,0
197191,-83.7708030827656,4,1,0,70,0,0
197285,-83.3333333333333,4,1,0,70,0,0
197378,-82.904990880451,4,1,0,70,0,0
197472,-82.4764941991533,4,1,0,70,0,0
197566,-82.0524041354412,4,1,0,70,0,0
197660,-81.6326530612245,4,1,0,70,0,0
197753,-81.2215724496426,4,1,0,70,0,0
197847,-80.8102575153539,4,1,0,70,0,0
197941,-80.4030874785592,4,1,0,70,0,0
198035,-80,4,1,0,70,0,0
198128,-79.6051584142652,4,1,0,70,0,0
198222,-79.2100121455352,4,1,0,70,0,0
198316,-78.8187693762808,4,1,0,70,0,0
198410,-78.4313725490196,4,1,0,70,0,0
198503,-78.0518264127381,4,1,0,70,0,0
198597,-77.6719138359569,4,1,0,70,0,0
198691,-77.295681747913,4,1,0,70,0,0
198739,-76.9230769230769,4,1,0,80,0,0
198847,-76.6792761476332,4,1,0,80,0,0
198910,-76.4331210191083,4,1,0,80,0,0
198972,-76.1924112358409,4,1,0,80,0,0
199066,-75.8303422476113,4,1,0,80,0,0
199160,-75.4716981132076,4,1,0,80,0,0
199222,-75.2369965390982,4,1,0,80,0,0
199285,-75,4,1,0,80,0,0
199347,-74.76821852258,4,1,0,80,0,0
199441,-74.4195276840643,4,1,0,80,0,0
199535,-74.0740740740741,4,1,0,80,0,0
199597,-73.8479716423789,4,1,0,80,0,0
199660,-73.6196319018405,4,1,0,80,0,0
199722,-73.3962910407594,4,1,0,80,0,0
199816,-73.0602503531246,4,1,0,80,0,0
199910,-72.7272727272727,4,1,0,80,0,0
199972,-72.5093053608546,4,1,0,80,0,0
200035,-72.289156626506,4,1,0,80,0,0
200097,-72.0738035748607,4,1,0,80,0,0
200191,-71.7497369176313,4,1,0,80,0,0
200285,-58.8235294117647,4,1,0,80,0,0
200378,-59.0148455122489,4,1,0,80,0,0
200472,-59.20948755285,4,1,0,80,0,0
200566,-59.405417774101,4,1,0,80,0,0
200660,-59.6026490066225,4,1,0,80,0,0
200753,-59.7990751076383,4,1,0,80,0,0
200847,-59.998933352296,4,1,0,80,0,0
200941,-60.2001319943635,4,1,0,80,0,0
201035,-60.4026845637584,4,1,0,80,0,0
201128,-60.6044281635511,4,1,0,80,0,0
201222,-60.8097151402677,4,1,0,80,0,0
201316,-61.0163975918862,4,1,0,80,0,0
201410,-61.2244897959184,4,1,0,80,0,0
201503,-61.4317697810299,4,1,0,80,0,0
201597,-61.6427097221969,4,1,0,80,0,0
201691,-61.8551032751132,4,1,0,80,0,0
201785,-62.0689655172414,4,1,0,80,0,0
201878,-62.2820129546587,4,1,0,80,0,0
201972,-62.4988426140257,4,1,0,80,0,0
202066,-62.7171872967499,4,1,0,80,0,0
202160,-62.9370629370629,4,1,0,80,0,0
202253,-63.1561219334194,4,1,0,80,0,0
202347,-63.3790914724606,4,1,0,80,0,0
202441,-63.6036409550911,4,1,0,80,0,0
202535,-63.8297872340426,4,1,0,80,0,0
202628,-64.0551158685874,4,1,0,80,0,0
202722,-64.2844898192415,4,1,0,80,0,0
202816,-64.5155123965362,4,1,0,80,0,0
202910,-64.7482014388489,4,1,0,80,0,0
203003,-64.9800727776815,4,1,0,80,0,0
203097,-65.2161310892543,4,1,0,80,0,0
203191,-65.4539107499564,4,1,0,80,0,0
203285,-65.6934306569343,4,1,0,80,0,0
203378,-65.9321338568833,4,1,0,80,0,0
203472,-66.1751730358228,4,1,0,80,0,0
203566,-66.4200106272017,4,1,0,80,0,0
203660,-66.6666666666667,4,1,0,80,0,0
203753,-66.9125081781954,4,1,0,80,0,0
203847,-67.1628425304969,4,1,0,80,0,0
203941,-67.4150570281445,4,1,0,80,0,0
204035,-67.6691729323308,4,1,0,80,0,0
204128,-67.9224778119906,4,1,0,80,0,0
204222,-68.1804407991758,4,1,0,80,0,0
204316,-68.4403706933263,4,1,0,80,0,0
204410,-68.7022900763359,4,1,0,80,0,0
204503,-68.9634034205848,4,1,0,80,0,0
204597,-69.2293491415561,4,1,0,80,0,0
204691,-69.4973539525976,4,1,0,80,0,0
204785,-69.7674418604651,4,1,0,80,0,0
204878,-70.0367303741518,4,1,0,80,0,0
204972,-70.3110351867669,4,1,0,80,0,0
205066,-70.5874971242131,4,1,0,80,0,0
205160,-70.8661417322835,4,1,0,80,0,0
205253,-71.1439954467843,4,1,0,80,0,0
205347,-71.4270597447673,4,1,0,80,0,0
205441,-71.7123855257846,4,1,0,80,0,0
205535,-72,4,1,0,80,0,0
205628,-72.2868341579387,4,1,0,80,0,0
205722,-72.5790843207673,4,1,0,80,0,0
205816,-72.8737071664543,4,1,0,80,0,0
205910,-73.1707317073171,4,1,0,80,0,0
206003,-73.4669888330177,4,1,0,80,0,0
206097,-73.768879368757,4,1,0,80,0,0
206191,-74.0732611987797,4,1,0,80,0,0
206285,-74.3801652892562,4,1,0,80,0,0
206378,-74.6863174666401,4,1,0,80,0,0
206472,-74.9983333703696,4,1,0,80,0,0
206566,-75.3129672193337,4,1,0,80,0,0
206660,-75.6302521008403,4,1,0,80,0,0
206753,-75.9468034834267,4,1,0,80,0,0
206847,-76.269462836998,4,1,0,80,0,0
206941,-76.594875519143,4,1,0,80,0,0
207035,-76.9230769230769,4,1,0,80,0,0
209285,-76.9230769230769,4,1,0,80,0,0
209378,-76.5579543714592,4,1,0,80,0,0
209472,-76.1924112358409,4,1,0,80,0,0
209566,-75.8303422476113,4,1,0,80,0,0
209660,-75.4716981132076,4,1,0,80,0,0
209753,-75.1201923076923,4,1,0,80,0,0
209847,-74.76821852258,4,1,0,80,0,0
209941,-74.4195276840643,4,1,0,80,0,0
210035,-74.0740740740741,4,1,0,80,0,0
210128,-73.7354372511429,4,1,0,80,0,0
210222,-73.3962910407594,4,1,0,80,0,0
210316,-73.0602503531245,4,1,0,80,0,0
210410,-72.7272727272727,4,1,0,80,0,0
210503,-72.400810889082,4,1,0,80,0,0
210597,-72.0738035748607,4,1,0,80,0,0
210691,-71.7497369176313,4,1,0,80,0,0
210785,-62.5,4,1,0,80,0,0
210878,-63.4840020314881,4,1,0,80,0,0
210972,-64.5105797350765,4,1,0,80,0,0
211066,-65.5709040041965,4,1,0,80,0,0
211160,-66.6666666666667,4,1,0,80,0,0
211253,-67.7874186550976,4,1,0,80,0,0
211347,-68.9591761677087,4,1,0,80,0,0
211441,-70.1721556886228,4,1,0,80,0,0
211535,-71.4285714285714,4,1,0,80,0,0
211628,-72.716695753345,4,1,0,80,0,0
211722,-74.0667588386332,4,1,0,80,0,0
211816,-75.4679009861139,4,1,0,80,0,0
211910,-76.9230769230769,4,1,0,80,0,0
212003,-78.4190715181932,4,1,0,80,0,0
212097,-79.9914675767918,4,1,0,80,0,0
212191,-81.6282107096212,4,1,0,80,0,0
212239,-83.3333333333333,4,1,0,90,0,0
224286,352.941176470588,4,1,0,90,1,0
224286,-88.5425889853019,4,1,0,90,0,0
224461,-87.915802879421,4,1,0,90,0,0
224549,-87.6057258172572,4,1,0,90,0,0
224637,-87.2978283374234,4,1,0,90,0,0
224726,-86.9886255180196,4,1,0,90,0,0
224902,-86.3835719526106,4,1,0,90,0,0
224990,-86.0841905902097,4,1,0,90,0,0
225167,-85.4882668201077,4,1,0,90,0,0
225255,-85.1950485218823,4,1,0,90,0,0
225343,-84.9038347814073,4,1,0,90,0,0
225520,-84.3240861321646,4,1,0,90,0,0
225608,-84.0387862341404,4,1,0,90,0,0
225696,-83.6820083682008,4,1,0,90,0,0
225873,-83.191187115153,4,1,0,90,0,0
225961,-82.913489138832,4,1,0,90,0,0
226049,-82.6376389448545,4,1,0,90,0,0
226137,-82.3636181518586,4,1,0,90,0,0
226314,-81.8179297804476,4,1,0,90,0,0
226402,-81.5493093900745,4,1,0,90,0,0
226579,-81.0143228078652,4,1,0,90,0,0
226667,-80.7509447323122,4,1,0,90,0,0
226755,-80.4892735950689,4,1,0,90,0,0
226932,-79.9680604420074,4,1,0,90,0,0
227020,-79.7114304753406,4,1,0,90,0,0
227109,333.333333333333,4,1,0,90,1,0
227109,-84.1303531053302,4,1,0,90,0,0
227274,-83.625732860008,4,1,0,90,0,0
227358,-83.3726825161122,4,1,0,90,0,0
227441,-83.1241444071817,4,1,0,90,0,0
227524,-82.877083702937,4,1,0,90,0,0
227608,-82.628537149812,4,1,0,90,0,0
227691,-82.3844094140757,4,1,0,90,0,0
227774,-82.1417199897883,4,1,0,90,0,0
227941,-81.6577243266964,4,1,0,90,0,0
228024,-81.4192911878239,4,1,0,90,0,0
228108,-81.1793988547802,4,1,0,90,0,0
228274,-80.7094589884076,4,1,0,90,0,0
228358,-80.4737252399991,4,1,0,90,0,0
228441,-80.2421465089498,4,1,0,90,0,0
228608,-79.7802144098522,4,1,0,90,0,0
228691,-79.5526042588968,4,1,0,90,0,0
228774,-79.3262891407986,4,1,0,90,0,0
228858,-79.0985545997675,4,1,0,90,0,0
228941,-78.8748118814068,4,1,0,90,0,0
229108,-78.4284446100465,4,1,0,90,0,0
229191,-78.208471585079,4,1,0,90,0,0
229274,-77.9897290522986,4,1,0,90,0,0
229358,-77.7695933621043,4,1,0,90,0,0
229441,-77.5532955572677,4,1,0,90,0,0
229608,-77.1217194768903,4,1,0,90,0,0
229691,-76.9090055495788,4,1,0,90,0,0
229775,315.789473684211,4,1,0,90,1,0
229775,-80.9584310402219,4,1,0,90,0,0
229931,-80.5393934989203,4,1,0,90,0,0
230010,-80.3301764799277,4,1,0,90,0,0
230089,-80.1220436098947,4,1,0,90,0,0
230168,-79.9149864836149,4,1,0,90,0,0
230326,-79.5040662736826,4,1,0,90,0,0
230405,-79.3001868084856,4,1,0,90,0,0
230563,-78.8955488306832,4,1,0,90,0,0
230642,-78.694774433598,4,1,0,90,0,0
230721,-78.4950193091385,4,1,0,90,0,0
230879,-78.0985359876319,4,1,0,90,0,0
230958,-77.9017925398987,4,1,0,90,0,0
231037,-77.7060378614631,4,1,0,90,0,0
231195,-77.3174651461589,4,1,0,90,0,0
231274,-77.1246324611,4,1,0,90,0,0
231352,-76.9351820558889,4,1,0,90,0,0
231431,-76.7442491593029,4,1,0,90,0,0
231589,-76.3652123958477,4,1,0,90,0,0
231668,-76.1770945909342,4,1,0,90,0,0
231747,-75.9899013260357,4,1,0,90,0,0
231826,-75.8036258021234,4,1,0,90,0,0
231905,-75.6182612866718,4,1,0,90,0,0
231984,-75.4338011128477,4,1,0,90,0,0
232142,-75.0675674464263,4,1,0,90,0,0
232221,-74.8857809414879,4,1,0,90,0,0
232301,300,4,1,0,90,1,0
232301,-78.6367045756889,4,1,0,90,0,0
232450,-78.2776497157072,4,1,0,90,0,0
232525,-78.0993490672041,4,1,0,90,0,0
232600,-77.9218588383341,4,1,0,90,0,0
232675,-77.7451735162956,4,1,0,90,0,0
232825,-77.3941957903789,4,1,0,90,0,0
232900,-77.2198926080892,4,1,0,90,0,0
233050,-76.8736310213037,4,1,0,90,0,0
233125,-76.7016621261146,4,1,0,90,0,0
233200,-76.5304609139845,4,1,0,90,0,0
233350,-76.190341068288,4,1,0,90,0,0
233425,-76.0214123128833,4,1,0,90,0,0
233500,-75.853230995857,4,1,0,90,0,0
233575,-75.6857921675105,4,1,0,90,0,0
233650,-75.5190909217531,4,1,0,90,0,0
233725,-75.3531223956227,4,1,0,90,0,0
233800,-75.1878817688126,4,1,0,90,0,0
233875,-75.0233642632052,4,1,0,90,0,0
233950,-74.8595651424114,4,1,0,90,0,0
234025,-74.6964797113157,4,1,0,90,0,0
234100,-74.5341033156283,4,1,0,90,0,0
234175,-74.3724313414415,4,1,0,90,0,0
234250,-74.2114592147932,4,1,0,90,0,0
234325,-74.0511824012354,4,1,0,90,0,0
234400,-73.8915964054086,4,1,0,90,0,0
234475,-73.7326967706211,4,1,0,90,0,0
234550,-73.5744790784346,4,1,0,90,0,0
234625,-73.4169389482543,4,1,0,90,0,0
234701,285.714285714286,4,1,0,90,1,0
234701,-76.923076717588,4,1,0,90,0,0
234736,-100,4,1,0,80,0,0
243271,-100,4,1,0,80,0,0
243319,-98.3493810178817,4,1,0,80,0,0
243366,-96.7851099830795,4,1,0,80,0,0
243414,-95.2380952380952,4,1,0,80,0,0
243461,-93.7704918032787,4,1,0,80,0,0
243509,-92.317624273725,4,1,0,80,0,0
243557,-90.9090909090909,4,1,0,80,0,0
243604,-89.5709364234262,4,1,0,80,0,0
243652,-88.2443690219068,4,1,0,80,0,0
243700,-86.9565217391304,4,1,0,80,0,0
243747,-85.7314148681055,4,1,0,80,0,0
243795,-84.51536643026,4,1,0,80,0,0
243808,-83.3576216846401,4,1,0,90,0,0
243843,-71.4285714285714,4,1,0,90,0,0
244058,-83.3333333333333,4,1,0,90,0,0
244272,-71.4285714285714,4,1,0,90,0,0
244558,-83.3333333333333,4,1,0,90,0,0
244701,-71.4285714285714,4,1,0,90,0,0
244915,-83.3333333333333,4,1,0,90,0,0
245058,-71.4285714285714,4,1,0,90,0,0
245414,-100,4,1,0,90,0,0
245485,-98.052660449808,4,1,0,90,0,0
245557,-96.1538461538461,4,1,0,90,0,0
245700,-92.5925925925926,4,1,0,90,0,0
245771,-90.9206510681587,4,1,0,90,0,0
245842,-89.3080189857607,4,1,0,90,0,0
245914,-87.7300613496933,4,1,0,90,0,0
245985,-86.2276893391221,4,1,0,90,0,0
246057,-84.755808440019,4,1,0,90,0,0
246128,-71.4285714285714,4,1,0,90,0,0
246415,-83.3333333333333,4,1,0,90,0,0
246558,-71.4285714285714,4,1,0,90,0,0
246772,-83.3333333333333,4,1,0,90,0,0
246915,-71.4285714285714,4,1,0,90,0,0
247272,-83.3333333333333,4,1,0,90,0,0
247415,-71.4285714285714,4,1,0,90,0,0
247700,-100,4,1,0,90,0,0
247771,-98.0499862675089,4,1,0,90,0,0
247842,-96.1745689655172,4,1,0,90,0,0
247914,-94.3446088794926,4,1,0,90,0,0
247985,-92.6070038910506,4,1,0,90,0,0
248057,-90.9090909090909,4,1,0,90,0,0
248128,-89.2946473236618,4,1,0,90,0,0
248200,-87.7149877149877,4,1,0,90,0,0
248271,-86.2110601304033,4,1,0,90,0,0
248342,-84.7578347578348,4,1,0,90,0,0
248415,-71.4285714285714,4,1,0,90,0,0
248701,-83.3333333333333,4,1,0,90,0,0
248772,-71.4285714285714,4,1,0,90,0,0
249058,-83.3333333333333,4,1,0,90,0,0
249272,-71.4285714285714,4,1,0,90,0,0
249558,-83.3333333333333,4,1,0,90,0,0
249701,-71.4285714285714,4,1,0,90,0,0
249985,-100,4,1,0,90,0,0
250057,-98.0499862675089,4,1,0,90,0,0
250128,-96.1745689655172,4,1,0,90,0,0
250271,-92.6070038910506,4,1,0,90,0,0
250342,-90.9322465613856,4,1,0,90,0,0
250414,-89.2946473236618,4,1,0,90,0,0
250485,-87.7365446055542,4,1,0,90,0,0
250557,-86.2110601304033,4,1,0,90,0,0
250628,-84.7578347578348,4,1,0,90,0,0
250700,-71.4285714285714,4,1,0,90,0,0
250915,-83.3333333333333,4,1,0,90,0,0
251058,-71.4285714285714,4,1,0,90,0,0
251415,-83.3333333333333,4,1,0,90,0,0
251558,-71.4285714285714,4,1,0,90,0,0
251772,-83.3333333333333,4,1,0,90,0,0
251915,-71.4285714285714,4,1,0,90,0,0
252271,-100,4,1,0,90,0,0
252342,-98.052660449808,4,1,0,90,0,0
252414,-96.1538461538461,4,1,0,90,0,0
252485,-94.3520717867511,4,1,0,90,0,0
252557,-92.5925925925926,4,1,0,90,0,0
252628,-90.9206510681587,4,1,0,90,0,0
252700,-89.2857142857143,4,1,0,90,0,0
252842,-86.2276893391221,4,1,0,90,0,0
252914,-84.755808440019,4,1,0,90,0,0
252986,-71.4285714285714,4,1,0,90,0,0
253057,-72.7203260315843,4,1,0,90,0,0
253128,-74.0596627756161,4,1,0,90,0,0
253200,-75.4692043351837,4,1,0,90,0,0
253271,-76.9127155172414,4,1,0,90,0,0
253342,-78.4125240318594,4,1,0,90,0,0
253414,-79.9943961894088,4,1,0,90,0,0
253485,-81.6180674671241,4,1,0,90,0,0
253557,-71.4285714285714,4,1,0,90,0,0
253628,-72.7180269514366,4,1,0,90,0,0
253700,-74.0740740740741,4,1,0,90,0,0
253771,-75.4617414248021,4,1,0,90,0,0
253842,-76.9023931164292,4,1,0,90,0,0
253914,-78.4206196874143,4,1,0,90,0,0
253985,-79.9776286353468,4,1,0,90,0,0
254057,-81.62100456621,4,1,0,90,0,0
254128,-71.4107053526763,4,1,0,90,0,0
254200,-72.7203260315843,4,1,0,90,0,0
254271,-74.0596627756161,4,1,0,90,0,0
254342,-75.4492600422833,4,1,0,90,0,0
254414,-76.9127155172414,4,1,0,90,0,0
254485,-78.4125240318594,4,1,0,90,0,0
254557,-79.9943961894088,4,1,0,90,0,0
254628,-81.6180674671241,4,1,0,90,0,0
254700,-71.4285714285714,4,1,0,90,0,0
254771,-72.7203260315843,4,1,0,90,0,0
254842,-74.0596627756161,4,1,0,90,0,0
254985,-76.9127155172414,4,1,0,90,0,0
255128,-79.9943961894088,4,1,0,90,0,0
255271,-71.4285714285714,4,1,0,90,0,0
255342,-72.7180269514366,4,1,0,90,0,0
255414,-74.0740740740741,4,1,0,90,0,0
255485,-75.4617414248021,4,1,0,90,0,0
255557,-76.9230769230769,4,1,0,90,0,0
255628,-78.4206196874143,4,1,0,90,0,0
255700,-80,4,1,0,90,0,0
255771,-81.62100456621,4,1,0,90,0,0
255842,-71.4107321450971,4,1,0,90,0,0
255914,-72.7183534119617,4,1,0,90,0,0
255985,-74.0555709892035,4,1,0,90,0,0
256057,-75.4628010681621,4,1,0,90,0,0
256128,-76.9038587285543,4,1,0,90,0,0
256200,-78.4225287735829,4,1,0,90,0,0
256271,-79.9800091998021,4,1,0,90,0,0
256342,-81.6006066169089,4,1,0,90,0,0
256414,-71.4285714285714,4,1,0,90,0,0
256485,-72.7160579048648,4,1,0,90,0,0
256557,-74.0699590763476,4,1,0,90,0,0
256628,-75.4553506154228,4,1,0,90,0,0
256700,-76.9142022074376,4,1,0,90,0,0
256771,-78.4091066420053,4,1,0,90,0,0
256842,-79.9632728128787,4,1,0,90,0,0
256914,-81.6035380554961,4,1,0,90,0,0
256985,-71.410758937538,4,1,0,90,0,0
257128,-74.0514796549071,4,1,0,90,0,0
257200,-75.4563988876326,4,1,0,90,0,0
257271,-76.8950039794175,4,1,0,90,0,0
257414,-79.9656273842641,4,1,0,90,0,0
257557,-71.4285714285714,4,1,0,90,0,0
257628,-72.7140889649251,4,1,0,90,0,0
257700,-74.0658445357923,4,1,0,90,0,0
257771,-75.4489608884194,4,1,0,90,0,0
257842,-76.8847172806467,4,1,0,90,0,0
257914,-78.3975969765939,4,1,0,90,0,0
257985,-79.9489221431678,4,1,0,90,0,0
258057,-81.5860790186849,4,1,0,90,0,0
258128,-71.4107857299989,4,1,0,90,0,0
258200,-72.7144084937561,4,1,0,90,0,0
258271,-74.0473887726522,4,1,0,90,0,0
258342,-75.4301533292901,4,1,0,90,0,0
258414,-76.8861512691264,4,1,0,90,0,0
258485,-78.3780385559553,4,1,0,90,0,0
258557,-79.9512507400041,4,1,0,90,0,0
258628,-81.5657073196723,4,1,0,90,0,0
258700,-71.4285714285714,4,1,0,90,0,0
258771,-72.7144084937561,4,1,0,90,0,0
258842,-74.0473887726522,4,1,0,90,0,0
258914,-75.4499977933188,4,1,0,90,0,0
258985,-76.8861512691264,4,1,0,90,0,0
259057,-78.399464631887,4,1,0,90,0,0
259128,-79.9512507400041,4,1,0,90,0,0
259200,-81.5889119096949,4,1,0,90,0,0
259271,-83.2708801732034,4,1,0,90,0,0
259842,-71.4285714285714,4,1,0,90,0,0
259914,-72.7144084937561,4,1,0,90,0,0
259985,-74.0473887726522,4,1,0,90,0,0
260057,-75.4499977933188,4,1,0,90,0,0
260128,-76.8861512691264,4,1,0,90,0,0
260200,-78.399464631887,4,1,0,90,0,0
260271,-79.9512507400041,4,1,0,90,0,0
260342,-81.5657073196723,4,1,0,90,0,0
260414,-71.4285714285714,4,1,0,90,0,0
260485,-72.7121201316089,4,1,0,90,0,0
260557,-74.061730452332,4,1,0,90,0,0
260628,-75.442572243517,4,1,0,90,0,0
260700,-76.8964589180668,4,1,0,90,0,0
260771,-78.3860906896921,4,1,0,90,0,0
260842,-79.9345766234405,4,1,0,90,0,0
260914,-81.5686274509804,4,1,0,90,0,0
260986,-83.2708801732034,4,1,0,90,0,0
261080,-82.1507777982456,4,1,0,90,0,0
261176,-81.0375242022501,4,1,0,90,0,0
261271,-79.9651763200655,4,1,0,90,0,0
261366,-78.920837980491,4,1,0,90,0,0
261461,-77.9034259241337,4,1,0,90,0,0
261557,-76.9016092687767,4,1,0,90,0,0
261604,-76.4204730647919,4,1,0,90,0,0
261652,-75.9352744462256,4,1,0,90,0,0
261700,-75.4561980731141,4,1,0,90,0,0
261747,-74.9929238960261,4,1,0,90,0,0
261795,-74.5256277529004,4,1,0,90,0,0
261842,-74.0736756349388,4,1,0,90,0,0
261890,-73.6177304986922,4,1,0,90,0,0
261938,-73.1673639757571,4,1,0,90,0,0
261985,-72.7316876500449,4,1,0,90,0,0
262033,-72.2920644943882,4,1,0,90,0,0
262080,-71.866719490487,4,1,0,90,0,0
262128,-62.5,4,1,0,90,0,0
263985,-76.9230769230769,4,1,0,90,0,0
264057,-75.9538598047915,4,1,0,90,0,0
264128,-75.0087627059236,4,1,0,90,0,0
264200,-74.0740740740741,4,1,0,90,0,0
264271,-73.174901692597,4,1,0,90,0,0
264342,-72.2972972972973,4,1,0,90,0,0
264414,-62.5,4,1,0,90,0,0
267808,-71.4285714285714,4,1,0,70,0,0
268915,-100.017500875044,4,1,0,90,0,0
268986,-90.9090909090909,4,1,0,90,0,0
269057,-89.8938261895399,4,1,0,90,0,0
269128,-88.9009877887532,4,1,0,90,0,0
269200,-87.9163141296823,4,1,0,90,0,0
269271,-86.9664460168911,4,1,0,90,0,0
269342,-86.0368837034249,4,1,0,90,0,0
269414,-85.1143048626108,4,1,0,90,0,0
269485,-84.2237123277577,4,1,0,90,0,0
269557,-83.3394094057601,4,1,0,90,0,0
269604,-82.772105148816,4,1,0,90,0,0
269652,-82.2006472491909,4,1,0,90,0,0
269700,-81.6370259267195,4,1,0,90,0,0
269771,-80.8173654811567,4,1,0,90,0,0
269842,-80.014000700035,4,1,0,90,0,0
269890,-79.479869271956,4,1,0,90,0,0
269938,-78.9528217172066,4,1,0,90,0,0
269985,-78.4434836318715,4,1,0,90,0,0
270057,-77.6758409785933,4,1,0,90,0,0
270129,-76.9334320522313,4,1,0,90,0,0
270201,-100,4,1,0,90,0,0
270414,-97.8244332876921,4,1,0,90,0,0
270557,-95.7415128052412,4,1,0,90,0,0
270700,-93.7454439422656,4,1,0,90,0,0
270771,-92.7849927849928,4,1,0,90,0,0
270842,-91.8440222825311,4,1,0,90,0,0
270914,-90.9090909090909,4,1,0,90,0,0
270985,-90.0055991041433,4,1,0,90,0,0
271057,-89.1075388026608,4,1,0,90,0,0
271128,-88.2393303142583,4,1,0,90,0,0
271200,-87.3760021742085,4,1,0,90,0,0
271271,-86.5410497981158,4,1,0,90,0,0
271342,-85.7219037461672,4,1,0,90,0,0
271414,-84.9069061138254,4,1,0,90,0,0
271485,-84.1182626896913,4,1,0,90,0,0
271557,-71.4285714285714,4,1,0,90,0,0
271772,-83.3333333333333,4,1,0,90,0,0
271951,-71.4285714285714,4,1,0,90,0,0
272201,-83.3333333333333,4,1,0,90,0,0
272415,-71.4285714285714,4,1,0,90,0,0
272630,-83.3333333333333,4,1,0,90,0,0
272808,-71.4285714285714,4,1,0,90,0,0
273058,-83.3333333333333,4,1,0,90,0,0
273272,-71.4285714285714,4,1,0,90,0,0
273557,-90.9090909090909,4,1,0,90,0,0
273628,-88.9027043829655,4,1,0,90,0,0
273700,-86.9565217391304,4,1,0,90,0,0
273771,-85.1190476190476,4,1,0,90,0,0
273843,-71.4285714285714,4,1,0,90,0,1
273915,-83.3333333333333,4,1,0,90,0,1
277700,-83.3333333333333,4,1,0,90,0,1
277771,-83.1419978656663,4,1,0,90,0,1
277842,-82.9515390075499,4,1,0,90,0,1
277914,-82.7592866799717,4,1,0,90,0,1
277985,-82.5705751999229,4,1,0,90,0,1
278057,-82.380082668461,4,1,0,90,0,1
278128,-82.193094629156,4,1,0,90,0,1
278200,-82.004337841286,4,1,0,90,0,1
278271,-81.8190497406358,4,1,0,90,0,1
278342,-81.6345970661078,4,1,0,90,0,1
278414,-81.448393841475,4,1,0,90,0,1
278485,-81.2656067263015,4,1,0,90,0,1
278557,-81.0810810810811,4,1,0,90,0,1
278628,-80.899937067338,4,1,0,90,0,1
278700,-80.7170664322492,4,1,0,90,0,1
278771,-80.5375434639601,4,1,0,90,0,1
278842,-80.3588172782397,4,1,0,90,0,1
278914,-80.1783820869457,4,1,0,90,0,1
278985,-80.0012446712512,4,1,0,90,0,1
279057,-79.8224098854357,4,1,0,90,0,1
279128,-79.6468401486989,4,1,0,90,0,1
279200,-79.4695845697329,4,1,0,90,0,1
279271,-79.2955617925547,4,1,0,90,0,1
279342,-79.1222995014464,4,1,0,90,0,1
279414,-78.9473684210526,4,1,0,90,0,1
279485,-78.7756227594448,4,1,0,90,0,1
279557,-78.6022195725947,4,1,0,90,0,1
279628,-78.4319707138499,4,1,0,90,0,1
279700,-78.2600754900767,4,1,0,90,0,1
279771,-78.0913039516447,4,1,0,90,0,1
279842,-77.9232587743226,4,1,0,90,0,1
279914,-77.7535837416077,4,1,0,90,0,1
279985,-77.586987355524,4,1,0,90,0,1
280057,-77.4187720196332,4,1,0,90,0,1
280128,-77.2536057692308,4,1,0,90,0,1
280200,-77.0868313744303,4,1,0,90,0,1
280271,-76.9230769230769,4,1,0,90,0,1
280414,-90.9090909090909,4,1,0,90,0,1
280485,-88.9027043829655,4,1,0,90,0,1
280557,-86.9565217391304,4,1,0,90,0,1
280628,-85.1190476190476,4,1,0,90,0,1
280700,-71.4285714285714,4,1,0,90,0,1
280951,-83.3333333333333,4,1,0,90,0,1
281094,-71.4285714285714,4,1,0,90,0,1
281415,-83.3333333333333,4,1,0,90,0,1
281558,-71.4285714285714,4,1,0,90,0,1
281808,-83.3333333333333,4,1,0,90,0,1
281951,-71.4285714285714,4,1,0,90,0,1
282272,-83.3333333333333,4,1,0,90,0,1
282415,-71.4285714285714,4,1,0,90,0,1
282701,-90.9090909090909,4,1,0,90,0,1
282771,-88.9027043829655,4,1,0,90,0,1
282842,-86.9829683698297,4,1,0,90,0,1
282914,-85.1190476190476,4,1,0,90,0,1
282985,-71.4285714285714,4,1,0,90,0,1
283094,-83.3333333333333,4,1,0,90,0,1
284986,-83.3292819291166,4,1,0,90,0,0
285022,-83.7159324020709,4,1,0,80,0,0
285176,-84.1103150456375,4,1,0,80,0,0
285271,-84.5042646551299,4,1,0,80,0,0
285366,-84.9019219338221,4,1,0,80,0,0
285461,-85.3033394714577,4,1,0,80,0,0
285557,-85.7128569285393,4,1,0,80,0,0
285652,-86.1219977891669,4,1,0,80,0,0
285747,-86.5350633614379,4,1,0,80,0,0
285842,-86.9521103896104,4,1,0,80,0,0
285938,-87.3776508972268,4,1,0,80,0,0
286033,-87.8028789508734,4,1,0,80,0,0
286128,-88.2322660352105,4,1,0,80,0,0
286223,-88.6658734674875,4,1,0,80,0,0
286319,-89.1083961528464,4,1,0,80,0,0
286414,-89.5506792058516,4,1,0,80,0,0
286509,-89.9973746390129,4,1,0,80,0,0
286604,-90.4485488126649,4,1,0,80,0,0
286700,-90.9090909090909,4,1,0,80,0,0
286795,-91.3694759848606,4,1,0,80,0,0
286890,-91.8345477925418,4,1,0,80,0,0
286985,-92.30437826485,4,1,0,80,0,0
287080,-92.7790408141171,4,1,0,80,0,0
287176,-93.2636848405703,4,1,0,80,0,0
287271,-93.74829076191,4,1,0,80,0,0
287366,-94.2379590939081,4,1,0,80,0,0
287461,-94.7327695793954,4,1,0,80,0,0
287557,-95.2380952380952,4,1,0,80,0,0
287652,-95.7434923472238,4,1,0,80,0,0
287747,-96.2542820239232,4,1,0,80,0,0
287842,-96.7705510388437,4,1,0,80,0,0
287938,-97.2979109900091,4,1,0,80,0,0
288033,-97.8254665829576,4,1,0,80,0,0
288128,-98.3587742453805,4,1,0,80,0,0
288223,-98.8979285673071,4,1,0,80,0,0
288319,-99.4487960545402,4,1,0,80,0,0
288414,-100,4,1,0,80,0,0
288557,-97.2195216799533,4,1,0,80,0,0
288700,-94.5894816496406,4,1,0,80,0,0
288771,-93.3358222885944,4,1,0,80,0,0
288842,-92.1149594694178,4,1,0,80,0,0
288985,-89.750493627715,4,1,0,80,0,0
289057,-88.6053517632465,4,1,0,80,0,0
289128,-87.5043752187609,4,1,0,80,0,0
289200,-86.4154856550294,4,1,0,80,0,0
289271,-85.3679358033123,4,1,0,80,0,0
289342,-84.3454790823212,4,1,0,80,0,0
289414,-83.3333333333333,4,1,0,80,0,0
289808,-71.4285714285714,4,1,0,90,0,0
290094,-83.3333333333333,4,1,0,90,0,0
290272,-71.4285714285714,4,1,0,90,0,0
290558,-83.3333333333333,4,1,0,90,0,0
290701,-71.4285714285714,4,1,0,90,0,0
290951,-83.3333333333333,4,1,0,90,0,0
291094,-71.4285714285714,4,1,0,90,0,0
291415,-83.3333333333333,4,1,0,90,0,0
291558,-71.4285714285714,4,1,0,90,0,0
291842,-90.9090909090909,4,1,0,90,0,0
291914,-88.9027043829655,4,1,0,90,0,0
291985,-86.9829683698297,4,1,0,90,0,0
292057,-85.1190476190476,4,1,0,90,0,0
292129,-71.4285714285714,4,1,0,90,0,1
292272,-83.3333333333333,4,1,0,90,0,1
294271,-83.3333333333333,4,1,0,90,0,1
294342,-83.1038895567534,4,1,0,90,0,1
294414,-82.8725008701033,4,1,0,90,0,1
294485,-82.6455842653297,4,1,0,90,0,1
294557,-82.4167371740635,4,1,0,90,0,1
294628,-82.1923062171595,4,1,0,90,0,1
294700,-81.9659590743928,4,1,0,90,0,1
294771,-81.7439731461703,4,1,0,90,0,1
294842,-81.5231863658843,4,1,0,90,0,1
294914,-81.3005045714936,4,1,0,90,0,1
294985,-81.0821036700719,4,1,0,90,0,1
295057,-80.8618217493019,4,1,0,90,0,1
295128,-80.6457682610168,4,1,0,90,0,1
295200,-80.4278476261963,4,1,0,90,0,1
295271,-80.2141039077706,4,1,0,90,0,1
295342,-80.0014932616568,4,1,0,90,0,1
295414,-79.7870360028296,4,1,0,90,0,1
295485,-79.5766802822131,4,1,0,90,0,1
295557,-79.3644915191467,4,1,0,90,0,1
295628,-79.1563550400768,4,1,0,90,0,1
295700,-78.9463989685025,4,1,0,90,0,1
295771,-78.7404467960024,4,1,0,90,0,1
295842,-78.5355663869242,4,1,0,90,0,1
295914,-78.3288862897036,4,1,0,90,0,1
295985,-78.12613926358,4,1,0,90,0,1
296057,-77.9216057014035,4,1,0,90,0,1
296128,-77.7209589090777,4,1,0,90,0,1
296200,-77.5185386145777,4,1,0,90,0,1
296271,-77.3199595901284,4,1,0,90,0,1
296319,-77.1862843970609,4,1,0,90,0,1
296366,-77.0558412139082,4,1,0,90,0,1
296414,-76.9230769230769,4,1,0,90,0,1
296485,-76.7275331185106,4,1,0,90,0,1
296557,-76.53024783944,4,1,0,90,0,1
296628,-76.3366936202045,4,1,0,90,0,1
296700,-76.141410552496,4,1,0,90,0,1
296771,-75.9498157074001,4,1,0,90,0,1
296842,-75.7591826634143,4,1,0,90,0,1
296914,-75.5668394513206,4,1,0,90,0,1
296985,-75.378121702427,4,1,0,90,0,1
297057,-75.1877061258859,4,1,0,90,0,1
297128,-75.0008749518776,4,1,0,90,0,1
297200,-74.8123581776924,4,1,0,90,0,1
297271,-74.6273854297256,4,1,0,90,0,1
297342,-74.4433251120297,4,1,0,90,0,1
297414,-74.2575972833432,4,1,0,90,0,1
297485,-74.0753543034912,4,1,0,90,0,1
297557,-73.8914557616716,4,1,0,90,0,1
297628,-73.711003336429,4,1,0,90,0,1
297700,-73.528907188197,4,1,0,90,0,1
297771,-73.3502190580504,4,1,0,90,0,1
297842,-73.1723973093864,4,1,0,90,0,1
297914,-72.9929493511359,4,1,0,90,0,1
297985,-72.8168535507985,4,1,0,90,0,1
298057,-72.6391431089418,4,1,0,90,0,1
298128,-72.464748250093,4,1,0,90,0,1
298200,-72.2887502108281,4,1,0,90,0,1
298271,-72.116031767398,4,1,0,90,0,1
298342,-71.9441367039312,4,1,0,90,0,1
298414,-71.7706554137781,4,1,0,90,0,1
298485,-71.6004009355162,4,1,0,90,0,1
298557,-71.4285714285714,4,1,0,90,0,1
298986,-62.5,4,1,0,90,0,0
299022,-100,4,1,0,70,0,0
304093,-100.024018372479,4,1,0,80,0,0
304200,-99.0247106179662,4,1,0,80,0,0
304271,-98.0586448377686,4,1,0,80,0,0
304342,-97.1112464412094,4,1,0,80,0,0
304414,-96.1690182618096,4,1,0,80,0,0
304485,-95.2576118036188,4,1,0,80,0,0
304557,-94.3508424182359,4,1,0,80,0,0
304628,-93.4734151592278,4,1,0,80,0,0
304700,-92.6001399507157,4,1,0,80,0,0
304771,-91.7548264773587,4,1,0,80,0,0
304842,-90.9248065221357,4,1,0,80,0,0
304914,-90.098292315581,4,1,0,80,0,0
304985,-89.2978413184864,4,1,0,80,0,0
305057,-88.5005112949707,4,1,0,80,0,0
305128,-87.7280768733861,4,1,0,80,0,0
305200,-86.9584121393943,4,1,0,80,0,0
305271,-86.2125487073732,4,1,0,80,0,0
305342,-85.4793713674634,4,1,0,80,0,0
305414,-84.7484937112523,4,1,0,80,0,0
305485,-84.0399041238875,4,1,0,80,0,0
305522,-71.4285714285714,4,1,0,90,0,0
305842,-83.3333333333333,4,1,0,90,0,0
305985,-71.5,4,1,0,90,0,0
306271,-83.3333333333333,4,1,0,90,0,0
306414,-71.5000715000715,4,1,0,90,0,0
306700,-100,4,1,0,90,0,0
306842,-97.5755506231859,4,1,0,90,0,0
306985,-95.25,4,1,0,90,0,0
307057,-94.1205533596838,4,1,0,90,0,0
307128,-93.0327201692984,4,1,0,90,0,0
307200,-91.9549477071601,4,1,0,90,0,0
307271,-90.9163219853643,4,1,0,90,0,0
307342,-89.9008966493629,4,1,0,90,0,0
307414,-88.8940737284181,4,1,0,90,0,0
307485,-87.9230769230769,4,1,0,90,0,0
307557,-86.9598295800365,4,1,0,90,0,0
307628,-86.0304079482162,4,1,0,90,0,0
307700,-85.1079672375279,4,1,0,90,0,0
307771,-84.2175066312997,4,1,0,90,0,0
307843,-71.4196450887278,4,1,0,90,0,0
307938,-72.2868707310903,4,1,0,90,0,0
308033,-73.1660478811932,4,1,0,90,0,0
308128,-74.0668740279938,4,1,0,90,0,0
308223,-74.9901587718147,4,1,0,90,0,0
308319,-75.9468438538206,4,1,0,90,0,0
308414,-76.9179004037685,4,1,0,90,0,0
308509,-77.9141104294479,4,1,0,90,0,0
308604,-78.9364640883978,4,1,0,90,0,0
308700,-79.9972004479283,4,1,0,90,0,0
308795,-81.075329834019,4,1,0,90,0,0
308890,-82.1829163071613,4,1,0,90,0,0
308986,-71.4285714285714,4,1,0,90,0,0
309057,-72.0671279761501,4,1,0,90,0,0
309128,-72.7172046361385,4,1,0,90,0,0
309200,-73.388524757102,4,1,0,90,0,0
309271,-74.0627706279882,4,1,0,90,0,0
309342,-74.7495204389909,4,1,0,90,0,0
309414,-75.4590723987218,4,1,0,90,0,0
309485,-76.1720854697449,4,1,0,90,0,0
309557,-76.9090346449296,4,1,0,90,0,0
309628,-77.6498468810237,4,1,0,90,0,0
309700,-78.4158112619924,4,1,0,90,0,0
309771,-79.1860807081439,4,1,0,90,0,0
309842,-79.9716328094433,4,1,0,90,0,0
309914,-80.7843274729475,4,1,0,90,0,0
309985,-81.6020735922197,4,1,0,90,0,0
310057,-82.4484194248476,4,1,0,90,0,0
310128,-83.3003800042357,4,1,0,90,0,0
310700,-83.3333333333333,4,1,0,90,0,0
310747,-82.9542154680089,4,1,0,90,0,0
310795,-82.5705751999229,4,1,0,90,0,0
310842,-82.1983502781508,4,1,0,90,0,0
310890,-81.8216536184839,4,1,0,90,0,0
310938,-81.448393841475,4,1,0,90,0,0
310985,-81.0861954773394,4,1,0,90,0,0
311033,-80.7196006404822,4,1,0,90,0,0
311080,-80.3638409602401,4,1,0,90,0,0
311128,-80.0037341299477,4,1,0,90,0,0
311176,-79.6468401486989,4,1,0,90,0,0
311223,-79.300453409827,4,1,0,90,0,0
311271,-78.9497927222478,4,1,0,90,0,0
311342,-78.4367563609738,4,1,0,90,0,0
311414,-77.9232587743226,4,1,0,90,0,0
311485,-77.4234348179601,4,1,0,90,0,0
311557,-76.9230769230769,4,1,0,90,0,0
311628,-76.4359614698537,4,1,0,90,0,0
311700,-75.948245303084,4,1,0,90,0,0
311771,-75.4733597534126,4,1,0,90,0,0
311842,-75.0043759845965,4,1,0,90,0,0
311914,-74.53470168725,4,1,0,90,0,0
311985,-74.0772754775694,4,1,0,90,0,0
312057,-73.6191048878962,4,1,0,90,0,0
312128,-73.1728142076503,4,1,0,90,0,0
312200,-72.7257298031229,4,1,0,90,0,0
312271,-72.2901729228174,4,1,0,90,0,0
312342,-71.8598021130304,4,1,0,90,0,0
312414,-71.4285714285714,4,1,0,90,0,0
312451,-111.111111111111,4,1,0,80,0,0
320986,-111.111111111111,4,1,0,80,0,0
321129,-110.090761195308,4,1,0,80,0,0
321271,-109.095922956175,4,1,0,80,0,0
321342,-108.605215922289,4,1,0,80,0,0
321414,-108.11208509386,4,1,0,80,0,0
321557,-107.145833333333,4,1,0,80,0,0
321700,-106.196700324186,4,1,0,80,0,0
321843,-105.264235130378,4,1,0,80,0,0
322128,-103.453824955243,4,1,0,80,0,0
322413,-101.704635342509,4,1,0,80,0,0
322556,-100.849069553111,4,1,0,80,0,0
322699,-100.007778166686,4,1,0,80,0,0
322842,-99.1804069038666,4,1,0,80,0,0
322985,-98.3666131129982,4,1,0,80,0,0
323128,-97.5660652969856,4,1,0,80,0,0
323270,-96.7839063587949,4,1,0,80,0,0
323556,-95.2460321869734,4,1,0,80,0,0
323699,-94.4952779921361,4,1,0,80,0,0
323842,-93.7562665208276,4,1,0,80,0,0
324128,-92.3123866961032,4,1,0,80,0,0
324270,-91.6118919111491,4,1,0,80,0,0
324413,-90.9171262904823,4,1,0,80,0,0
324556,-90.2328192711897,4,1,0,80,0,0
324699,-89.5587364608366,4,1,0,80,0,0
324842,-88.8946504191513,4,1,0,80,0,0
324985,-88.2403404021687,4,1,0,80,0,0
325128,-87.595592117589,4,1,0,80,0,0
325270,-86.9646088029896,4,1,0,80,0,0
325413,-86.3383024442654,4,1,0,80,0,0
325556,-85.7209527143024,4,1,0,80,0,0
325842,-84.5123654588777,4,1,0,80,0,0
325985,-83.9207623523269,4,1,0,80,0,0
326128,-71.4285714285714,4,1,0,80,0,0
327201,-76.9230769230769,4,1,0,80,0,0
327772,-125,4,1,0,80,0,0
328058,-111.111111111111,4,1,0,80,0,0
328183,-108.128544423441,4,1,0,80,0,0
328255,-105.301914580265,4,1,0,80,0,0
328326,-102.582496413199,4,1,0,80,0,0
328379,-100,4,1,0,90,0,0
328416,-100.034977264778,4,1,0,90,0,0
332986,-100.030009002701,4,1,0,90,0,0
333129,-98.8006101658219,4,1,0,90,0,0
333200,-98.197173794818,4,1,0,90,0,0
333271,-97.6010637946519,4,1,0,90,0,0
333414,-96.422150350654,4,1,0,90,0,0
333557,-95.2713769598792,4,1,0,90,0,0
333629,-94.7023013266997,4,1,0,90,0,0
333700,-94.147747972411,4,1,0,90,0,0
333771,-93.5996514641683,4,1,0,90,0,0
333843,-93.0503141615303,4,1,0,90,0,0
333914,-92.5148846274887,4,1,0,90,0,0
333986,-91.9781700492301,4,1,0,90,0,0
334129,-90.9304514145176,4,1,0,90,0,0
334271,-89.9134145358831,4,1,0,90,0,0
334343,-89.4063771263226,4,1,0,90,0,0
334414,-88.9119508944586,4,1,0,90,0,0
334557,-87.932550295854,4,1,0,90,0,0
334700,-86.9744915842411,4,1,0,90,0,0
334771,-86.5065262966213,4,1,0,90,0,0
334843,-86.0370846941231,4,1,0,90,0,0
334914,-85.5791259030963,4,1,0,90,0,0
334986,-85.1196689927495,4,1,0,90,0,0
335057,-84.6713991425069,4,1,0,90,0,0
335129,-84.2216117274614,4,1,0,90,0,0
335271,-83.3483918039646,4,1,0,90,0,0
335343,-82.9125144298734,4,1,0,90,0,0
335414,-82.4871323803214,4,1,0,90,0,0
335486,-82.060193449964,4,1,0,90,0,0
335557,-81.6434901248769,4,1,0,90,0,0
335629,-81.2252174824154,4,1,0,90,0,0
335700,-80.8169299680516,4,1,0,90,0,0
335771,-80.412726529078,4,1,0,90,0,0
335843,-80.0069382913113,4,1,0,90,0,0
335914,-79.610776688822,4,1,0,90,0,0
335986,-79.2130218628634,4,1,0,90,0,0
336057,-78.8246644674555,4,1,0,90,0,0
336129,-78.4347068360972,4,1,0,90,0,0
336200,-78.0539252893238,4,1,0,90,0,0
336271,-77.676823085008,4,1,0,90,0,0
336343,-77.2981125731108,4,1,0,90,0,0
336414,-76.9282608286345,4,1,0,90,0,0
336915,-111.111111111111,4,1,0,90,0,0
337022,-108.12854442344,4,1,0,90,0,0
337112,-105.263157894737,4,1,0,90,0,0
337183,-102.582496413199,4,1,0,90,0,0
337249,-100.034977264778,4,1,0,90,0,0
337326,-97.5776185602184,4,1,0,90,0,0
337397,-95.26982011992,4,1,0,90,0,0
337469,-93.0383864671438,4,1,0,90,0,0
337540,-71.422618551546,4,1,0,90,0,0
337701,-72.2840755735493,4,1,0,90,0,0
337843,-73.1665670622385,4,1,0,90,0,0
337986,-74.0708729472774,4,1,0,90,0,0
338129,-74.9978121991774,4,1,0,90,0,0
338272,-75.9415152857776,4,1,0,90,0,0
338415,-76.9161730389517,4,1,0,90,0,0
338488,-90.9090909090909,4,1,0,90,0,0
339826,-71.4285714285714,4,1,0,90,0,0
339986,-72.2901729228174,4,1,0,90,0,0
340129,-73.1728142076503,4,1,0,90,0,0
340272,-74.0708729472774,4,1,0,90,0,0
340415,-74.9978121991774,4,1,0,90,0,0
340558,-75.948245303084,4,1,0,90,0,0
340700,-76.9161730389517,4,1,0,90,0,0
340774,-90.9090909090909,4,1,0,90,0,0
342128,-71.4285714285714,4,1,0,90,0,0
342271,-72.2840755735493,4,1,0,90,0,0
342414,-73.1665670622385,4,1,0,90,0,0
342557,-74.0708729472774,4,1,0,90,0,0
342700,-74.9978121991774,4,1,0,90,0,0
342842,-75.9415152857776,4,1,0,90,0,0
342985,-76.9161730389517,4,1,0,90,0,0
343058,-90.9090909090909,4,1,0,90,0,0
344415,-71.4285714285714,4,1,0,90,0,0
344557,-72.1656924298189,4,1,0,90,0,0
344700,-72.9181857955374,4,1,0,90,0,0
344842,-73.6811081638668,4,1,0,90,0,0
344985,-74.4657085412168,4,1,0,90,0,0
345128,-75.2671985548698,4,1,0,90,0,0
345271,-76.0861294985924,4,1,0,90,0,0
345414,-76.9230769230769,4,1,0,90,0,0
345558,-90.9090909090909,4,1,0,90,0,0
346700,-71.4285714285714,4,1,0,90,0,0
346985,-73.5248687055916,4,1,0,90,0,0
347128,-74.623745819398,4,1,0,90,0,0
347271,-75.7559681697613,4,1,0,90,0,0
347414,-76.9230769230769,4,1,0,90,0,0
347701,-66.6666666666667,4,1,0,90,0,0
348128,-71.4166527615552,4,1,0,90,0,0
348271,-73.1623931623932,4,1,0,90,0,0
348414,-74.9956194147538,4,1,0,90,0,0
348557,-76.9230769230769,4,1,0,90,0,0
348772,-66.6666666666667,4,1,0,90,0,0
349271,-71.4285714285714,4,1,0,90,0,0
349414,-73.1707317073171,4,1,0,90,0,0
349557,-75,4,1,0,90,0,0
349700,-76.9230769230769,4,1,0,90,0,0
349915,-66.6666666666667,4,1,0,90,0,0
350414,-71.4285714285714,4,1,0,90,0,0
350557,-73.5294117647059,4,1,0,90,0,0
350700,-75.7575757575758,4,1,0,90,0,0
350842,-78.1079309591435,4,1,0,90,0,0
350914,-79.3562708102109,4,1,0,90,0,0
350985,-80.6269733874605,4,1,0,90,0,0
351057,-81.9578175149014,4,1,0,90,0,0
351128,-71.4285714285714,4,1,0,90,0,0
351557,-71.4285714285714,4,1,0,90,0,0
351700,-73.1707317073171,4,1,0,90,0,0
351842,-74.9868904037756,4,1,0,90,0,0
351985,-76.9092864826103,4,1,0,90,0,0
352272,-66.6666666666667,4,1,0,90,0,0
352700,-71.4285714285714,4,1,0,90,0,0
352843,-73.1707317073171,4,1,0,90,0,0
352986,-75,4,1,0,90,0,0
353129,-76.9230769230769,4,1,0,90,0,0
353415,-66.6666666666667,4,1,0,90,0,0
353772,-71.4285714285714,4,1,0,90,0,0
353985,-73.1623931623932,4,1,0,90,0,0
354128,-74.9956194147538,4,1,0,90,0,0
354271,-76.9230769230769,4,1,0,90,0,0
354558,-66.6666666666667,4,1,0,90,0,0
354985,-71.4285714285714,4,1,0,90,0,0
355128,-73.5172981878089,4,1,0,90,0,0
355271,-75.7479312539784,4,1,0,90,0,0
355342,-76.9065058164584,4,1,0,90,0,0
355414,-78.1181619256018,4,1,0,90,0,0
355461,-78.9299137740438,4,1,0,90,0,0
355509,-79.7765363128492,4,1,0,90,0,0
355557,-80.6415179579851,4,1,0,90,0,0
355628,-81.9559228650138,4,1,0,90,0,0
355700,-71.4285714285714,4,1,0,90,0,0
356128,-71.4285714285714,4,1,0,90,0,0
356176,-72.5669718548661,4,1,0,90,0,0
356223,-73.7422467263956,4,1,0,90,0,0
356271,-74.9824807288017,4,1,0,90,0,0
356319,-76.2651461154669,4,1,0,90,0,0
356366,-77.5643349039507,4,1,0,90,0,0
356414,-78.9376613795647,4,1,0,90,0,0
356557,-83.3333333333333,4,1,0,90,0,0
356772,-71.4285714285714,4,1,0,90,0,0
357319,-72.5888324873096,4,1,0,90,0,0
357366,-73.7620357634113,4,1,0,90,0,0
357414,-75,4,1,0,90,0,0
357461,-76.253110558123,4,1,0,90,0,0
357509,-77.5768535262206,4,1,0,90,0,0
357557,-78.9473684210526,4,1,0,90,0,0
357700,-83.3333333333333,4,1,0,90,0,0
357915,-71.4285714285714,4,1,0,90,0,0
358414,-71.4285714285714,4,1,0,90,0,0
358461,-72.5642760487145,4,1,0,90,0,0
358509,-73.7620357634113,4,1,0,90,0,0
358557,-75,4,1,0,90,0,0
358604,-76.253110558123,4,1,0,90,0,0
358652,-77.5768535262206,4,1,0,90,0,0
358700,-78.9473684210526,4,1,0,90,0,0
358842,-83.3009708737864,4,1,0,90,0,0
359058,-71.4285714285714,4,1,0,90,0,0
359557,-71.4285714285714,4,1,0,90,0,0
359604,-72.1066451221975,4,1,0,90,0,0
359652,-72.8125637364879,4,1,0,90,0,0
359700,-73.5324407826983,4,1,0,90,0,0
359747,-74.2512479201331,4,1,0,90,0,0
359795,-75,4,1,0,90,0,0
359842,-75.7479312539784,4,1,0,90,0,0
359985,-78.1181619256018,4,1,0,90,0,0
360057,-79.3686082703424,4,1,0,90,0,0
360128,-80.6415179579851,4,1,0,90,0,0
360200,-81.9747416762342,4,1,0,90,0,0
360272,-71.4285714285714,4,1,0,90,0,0
360700,-71.4285714285714,4,1,0,90,0,0
360747,-72.1066451221975,4,1,0,90,0,0
360795,-72.8125637364879,4,1,0,90,0,0
360842,-73.5172981878089,4,1,0,90,0,0
360890,-74.2512479201331,4,1,0,90,0,0
360938,-75,4,1,0,90,0,0
360985,-75.7479312539784,4,1,0,90,0,0
361128,-78.1181619256018,4,1,0,90,0,0
361200,-79.3686082703424,4,1,0,90,0,0
361271,-80.6415179579851,4,1,0,90,0,0
361342,-81.9559228650138,4,1,0,90,0,0
361415,-71.4285714285714,4,1,0,90,0,0
361842,-71.4285714285714,4,1,0,90,0,0
361890,-72.1066451221975,4,1,0,90,0,0
361938,-72.8125637364879,4,1,0,90,0,0
361985,-73.5172981878089,4,1,0,90,0,0
362033,-74.2512479201331,4,1,0,90,0,0
362080,-74.9842470069313,4,1,0,90,0,0
362128,-75.7479312539784,4,1,0,90,0,0
362271,-78.1181619256018,4,1,0,90,0,0
362342,-79.3509668815292,4,1,0,90,0,0
362414,-80.6415179579851,4,1,0,90,0,0
362485,-81.9559228650138,4,1,0,90,0,0
362558,-71.4285714285714,4,1,0,90,0,0
362842,-76.9230769230769,4,1,0,90,0,0
362890,-78.9183222958057,4,1,0,90,0,0
362938,-81.0657596371882,4,1,0,90,0,0
362985,-83.2847990681421,4,1,0,90,0,0
363129,-71.4285714285714,4,1,0,90,0,0
363415,-76.9230769230769,4,1,0,90,0,0
363461,-78.9183222958057,4,1,0,90,0,0
363509,-81.0657596371882,4,1,0,90,0,0
363557,-83.3333333333333,4,1,0,90,0,0
363701,-71.4285714285714,4,1,0,90,0,0
363985,-76.9230769230769,4,1,0,90,0,0
364033,-78.9183222958057,4,1,0,90,0,0
364080,-81.0198300283286,4,1,0,90,0,0
364128,-83.2847990681421,4,1,0,90,0,0
364271,-83.3333333333333,4,1,0,90,0,0
364319,-82.4112494236976,4,1,0,90,0,0
364366,-81.5279361459521,4,1,0,90,0,0
364414,-80.6451612903226,4,1,0,90,0,0
364461,-79.7991071428572,4,1,0,90,0,0
364509,-78.9531802120141,4,1,0,90,0,0
364557,-78.125,4,1,0,90,0,0
364604,-77.3307376162665,4,1,0,90,0,0
364652,-76.5360736459002,4,1,0,90,0,0
364700,-75.7575757575758,4,1,0,90,0,0
364747,-75.0104909777591,4,1,0,90,0,0
364795,-74.262567511425,4,1,0,90,0,0
364842,-73.5445381608722,4,1,0,90,0,0
364915,-72.4711129130347,4,1,0,90,0,0
364985,-71.4428457234213,4,1,0,90,0,0
368558,-62.5,4,1,0,90,0,0
369843,-55.5555555555556,4,1,0,90,0,0
369915,-47.6190476190476,4,1,0,70,0,0
370415,-52.6315789473684,4,1,0,65,0,0
370986,-52.6315789473684,4,1,0,60,0,0
371558,-58.8235294117647,4,1,0,55,0,0
372129,-58.8235294117647,4,1,0,50,0,0
372701,-66.6666666666667,4,1,0,45,0,0
373272,-66.6666666666667,4,1,0,40,0,0
374129,-76.9230769230769,4,1,0,40,0,0
375272,-90.9090909090909,4,1,0,40,0,0
376415,-111.111111111111,4,1,0,40,0,0

[HitObjects]
256,192,1142,5,0,0:0:0:0:
256,192,1570,1,8,0:0:0:0:
256,192,2570,1,0,0:0:0:0:
256,192,2856,1,0,0:0:0:0:
256,192,3142,1,0,0:0:0:0:
256,192,3427,1,8,0:0:0:0:
256,192,3856,1,0,0:0:0:0:
256,192,5713,1,0,0:0:0:0:
256,192,5856,1,8,0:0:0:0:
256,192,5999,1,0,0:0:0:0:
256,192,6142,1,0,0:0:0:0:
256,192,6284,1,8,0:0:0:0:
256,192,6570,1,0,0:0:0:0:
256,192,6713,1,8,0:0:0:0:
256,192,6856,1,0,0:0:0:0:
256,192,6999,1,0,0:0:0:0:
256,192,7142,1,8,0:0:0:0:
256,192,7284,1,0,0:0:0:0:
256,192,7427,1,8,0:0:0:0:
256,192,7570,1,0,0:0:0:0:
256,192,7713,1,0,0:0:0:0:
256,192,7856,1,8,0:0:0:0:
256,192,7999,1,8,0:0:0:0:
256,192,8142,1,0,0:0:0:0:
256,192,8284,1,8,0:0:0:0:
256,192,8427,1,0,0:0:0:0:
256,192,8570,1,0,0:0:0:0:
256,192,8713,1,8,0:0:0:0:
256,192,8856,1,0,0:0:0:0:
256,192,8999,1,8,0:0:0:0:
256,192,9142,1,0,0:0:0:0:
256,192,9427,1,8,0:0:0:0:
256,192,9713,1,8,0:0:0:0:
256,192,9999,1,8,0:0:0:0:
256,192,10284,1,0,0:0:0:0:
256,192,10713,1,8,0:0:0:0:
256,192,11713,1,0,0:0:0:0:
256,192,11999,1,0,0:0:0:0:
256,192,12284,1,0,0:0:0:0:
256,192,12570,1,8,0:0:0:0:
256,192,12999,1,0,0:0:0:0:
256,192,14856,1,0,0:0:0:0:
256,192,14999,1,8,0:0:0:0:
256,192,15142,1,0,0:0:0:0:
256,192,15284,1,0,0:0:0:0:
256,192,15427,1,8,0:0:0:0:
256,192,15713,1,0,0:0:0:0:
256,192,15856,1,8,0:0:0:0:
256,192,15999,1,8,0:0:0:0:
256,192,16142,1,0,0:0:0:0:
256,192,16284,1,8,0:0:0:0:
256,192,16427,1,0,0:0:0:0:
256,192,16570,1,8,0:0:0:0:
256,192,16713,1,8,0:0:0:0:
256,192,16856,1,8,0:0:0:0:
256,192,16999,1,0,0:0:0:0:
256,192,17142,1,0,0:0:0:0:
256,192,17237,1,0,0:0:0:0:
256,192,17332,1,8,0:0:0:0:
256,192,17427,1,8,0:0:0:0:
256,192,17522,1,0,0:0:0:0:
256,192,17618,1,0,0:0:0:0:
256,192,17713,1,8,0:0:0:0:
256,192,17808,1,0,0:0:0:0:
256,192,17903,1,0,0:0:0:0:
256,192,17999,1,8,0:0:0:0:
256,192,18094,1,8,0:0:0:0:
256,192,18189,1,8,0:0:0:0:
256,192,18284,1,0,0:0:0:0:
256,192,18570,1,0,0:0:0:0:
256,192,18856,1,8,0:0:0:0:
256,192,18999,1,0,0:0:0:0:
256,192,19142,1,0,0:0:0:0:
256,192,19213,1,0,0:0:0:0:
256,192,19284,1,8,0:0:0:0:
384,96,19427,1,4,0:0:0:0:
256,192,19713,1,0,0:0:0:0:
256,192,19856,1,8,0:0:0:0:
256,192,19999,1,0,0:0:0:0:
256,192,20284,1,8,0:0:0:0:
256,192,20570,1,8,0:0:0:0:
256,192,20713,1,8,0:0:0:0:
256,192,20856,1,0,0:0:0:0:
256,192,21142,1,8,0:0:0:0:
256,192,21284,1,8,0:0:0:0:
256,192,21427,1,0,0:0:0:0:
256,192,21570,1,0,0:0:0:0:
256,192,21713,1,8,0:0:0:0:
256,192,21999,1,0,0:0:0:0:
256,192,22142,1,8,0:0:0:0:
256,192,22284,1,0,0:0:0:0:
256,192,22570,1,8,0:0:0:0:
256,192,22713,1,8,0:0:0:0:
256,192,22856,1,0,0:0:0:0:
256,192,22999,1,0,0:0:0:0:
256,192,23142,1,8,0:0:0:0:
256,192,23284,1,0,0:0:0:0:
256,192,23427,1,8,0:0:0:0:
256,192,23713,1,8,0:0:0:0:
256,192,23856,1,8,0:0:0:0:
256,192,23999,1,0,0:0:0:0:
256,192,24284,1,0,0:0:0:0:
256,192,24427,1,8,0:0:0:0:
256,192,24570,1,8,0:0:0:0:
256,192,24713,1,0,0:0:0:0:
256,192,24856,1,8,0:0:0:0:
256,192,25142,1,0,0:0:0:0:
256,192,25284,1,0,0:0:0:0:
256,192,25427,1,0,0:0:0:0:
256,192,25713,1,8,0:0:0:0:
256,192,25856,1,0,0:0:0:0:
256,192,25999,1,0,0:0:0:0:
256,192,26142,1,0,0:0:0:0:
256,192,26284,1,8,0:0:0:0:
256,192,26427,1,8,0:0:0:0:
256,192,26570,1,0,0:0:0:0:
256,192,26713,1,8,0:0:0:0:
256,192,26856,1,0,0:0:0:0:
256,192,27142,1,8,0:0:0:0:
256,192,27427,1,8,0:0:0:0:
256,192,27570,1,8,0:0:0:0:
256,192,27713,1,0,0:0:0:0:
256,192,27856,1,0,0:0:0:0:
256,192,27999,1,8,0:0:0:0:
256,192,28142,1,0,0:0:0:0:
256,192,28284,1,8,0:0:0:0:
256,192,28356,1,8,0:0:0:0:
256,192,28427,1,0,0:0:0:0:
256,192,28570,1,0,0:0:0:0:
256,192,28713,1,8,0:0:0:0:
256,192,28856,1,0,0:0:0:0:
256,192,29142,1,8,0:0:0:0:
256,192,29427,1,0,0:0:0:0:
256,192,29570,1,8,0:0:0:0:
256,192,29713,1,0,0:0:0:0:
256,192,29856,1,8,0:0:0:0:
256,192,29999,1,0,0:0:0:0:
256,192,30142,1,0,0:0:0:0:
256,192,30284,1,8,0:0:0:0:
256,192,30570,1,0,0:0:0:0:
256,192,30713,1,0,0:0:0:0:
256,192,30856,1,8,0:0:0:0:
256,192,30927,1,0,0:0:0:0:
256,192,30999,1,0,0:0:0:0:
256,192,31142,1,8,0:0:0:0:
256,192,31213,1,0,0:0:0:0:
256,192,31284,1,8,0:0:0:0:
256,192,31427,1,0,0:0:0:0:
256,192,31570,1,8,0:0:0:0:
256,192,31642,1,8,0:0:0:0:
256,192,31713,1,0,0:0:0:0:
256,192,31784,1,0,0:0:0:0:
256,192,31856,1,8,0:0:0:0:
256,192,31999,1,0,0:0:0:0:
256,192,32142,1,8,0:0:0:0:
256,192,32284,1,0,0:0:0:0:
256,192,32356,1,0,0:0:0:0:
256,192,32427,1,8,0:0:0:0:
256,192,32570,1,8,0:0:0:0:
256,192,32713,1,0,0:0:0:0:
256,192,32856,1,0,0:0:0:0:
256,192,32927,1,8,0:0:0:0:
256,192,32999,1,0,0:0:0:0:
384,96,33142,1,12,0:0:0:0:
384,96,34284,1,4,0:0:0:0:
256,192,34856,1,8,0:0:0:0:
256,192,35142,1,8,0:0:0:0:
256,192,35213,1,0,0:0:0:0:
256,192,35284,1,8,0:0:0:0:
256,192,35356,1,8,0:0:0:0:
384,96,35427,1,4,0:0:0:0:
256,192,35570,1,8,0:0:0:0:
256,192,35642,1,8,0:0:0:0:
256,192,35713,1,0,0:0:0:0:
256,192,35856,1,8,0:0:0:0:
256,192,35999,1,0,0:0:0:0:
256,192,36070,1,0,0:0:0:0:
256,192,36142,1,8,0:0:0:0:
256,192,36213,1,8,0:0:0:0:
256,192,36284,1,0,0:0:0:0:
256,192,36427,1,8,0:0:0:0:
256,192,36570,1,0,0:0:0:0:
256,192,36713,1,8,0:0:0:0:
256,192,36784,1,0,0:0:0:0:
256,192,36856,1,0,0:0:0:0:
256,192,36999,1,8,0:0:0:0:
256,192,37142,1,0,0:0:0:0:
256,192,37213,1,8,0:0:0:0:
256,192,37284,1,0,0:0:0:0:
256,192,37356,1,0,0:0:0:0:
256,192,37427,1,8,0:0:0:0:
256,192,37499,1,0,0:0:0:0:
256,192,37570,1,8,0:0:0:0:
256,192,37713,1,0,0:0:0:0:
256,192,37856,1,8,0:0:0:0:
256,192,37927,1,8,0:0:0:0:
256,192,37999,1,0,0:0:0:0:
256,192,38142,1,8,0:0:0:0:
256,192,38284,1,0,0:0:0:0:
256,192,38356,1,8,0:0:0:0:
256,192,38427,1,0,0:0:0:0:
256,192,38499,1,0,0:0:0:0:
256,192,38570,1,8,0:0:0:0:
256,192,38713,1,0,0:0:0:0:
256,192,38856,1,8,0:0:0:0:
256,192,38999,1,8,0:0:0:0:
256,192,39070,1,8,0:0:0:0:
256,192,39142,1,0,0:0:0:0:
256,192,39284,1,8,0:0:0:0:
256,192,39427,1,0,0:0:0:0:
256,192,39499,1,0,0:0:0:0:
256,192,39570,1,8,0:0:0:0:
256,192,39642,1,0,0:0:0:0:
256,192,39713,1,0,0:0:0:0:
256,192,39784,1,0,0:0:0:0:
256,192,39856,1,8,0:0:0:0:
256,192,39927,1,8,0:0:0:0:
256,192,39999,1,0,0:0:0:0:
256,192,40142,1,8,0:0:0:0:
256,192,40213,1,8,0:0:0:0:
256,192,40284,1,0,0:0:0:0:
256,192,40427,1,8,0:0:0:0:
256,192,40570,1,0,0:0:0:0:
256,192,40642,1,0,0:0:0:0:
256,192,40713,1,8,0:0:0:0:
256,192,40784,1,0,0:0:0:0:
256,192,40856,1,0,0:0:0:0:
256,192,40927,1,0,0:0:0:0:
256,192,40999,1,8,0:0:0:0:
256,192,41142,1,0,0:0:0:0:
256,192,41284,1,8,0:0:0:0:
256,192,41356,1,0,0:0:0:0:
256,192,41427,1,0,0:0:0:0:
256,192,41570,1,8,0:0:0:0:
256,192,41713,1,8,0:0:0:0:
256,192,41784,1,8,0:0:0:0:
256,192,41856,1,0,0:0:0:0:
256,192,41927,1,0,0:0:0:0:
256,192,41999,1,8,0:0:0:0:
256,192,42070,1,0,0:0:0:0:
256,192,42142,1,8,0:0:0:0:
256,192,42284,1,0,0:0:0:0:
256,192,42356,1,0,0:0:0:0:
256,192,42427,1,8,0:0:0:0:
256,192,42499,1,0,0:0:0:0:
256,192,42570,1,0,0:0:0:0:
256,192,42642,1,0,0:0:0:0:
256,192,42713,1,8,0:0:0:0:
256,192,42784,1,0,0:0:0:0:
256,192,42856,1,8,0:0:0:0:
256,192,42927,1,8,0:0:0:0:
256,192,42999,1,0,0:0:0:0:
256,192,43070,1,8,0:0:0:0:
256,192,43142,1,0,0:0:0:0:
256,192,43213,1,0,0:0:0:0:
256,192,43284,1,8,0:0:0:0:
256,192,43356,1,8,0:0:0:0:
256,192,43427,1,0,0:0:0:0:
256,192,43999,1,8,0:0:0:0:
256,192,44070,1,8,0:0:0:0:
256,192,44142,1,0,0:0:0:0:
256,192,44213,1,0,0:0:0:0:
256,192,44284,1,8,0:0:0:0:
256,192,44356,1,0,0:0:0:0:
256,192,44427,1,0,0:0:0:0:
256,192,44499,1,0,0:0:0:0:
384,96,44570,1,12,0:0:0:0:
384,96,44713,1,12,0:0:0:0:
384,96,44856,1,12,0:0:0:0:
384,96,44999,1,12,0:0:0:0:
384,96,45142,1,4,0:0:0:0:
384,96,45284,1,4,0:0:0:0:
384,96,45427,1,4,0:0:0:0:
256,192,45570,1,0,0:0:0:0:
256,192,45642,1,0,0:0:0:0:
256,192,45713,1,8,0:0:0:0:
256,192,45856,1,8,0:0:0:0:
256,192,45927,1,0,0:0:0:0:
256,192,45999,1,8,0:0:0:0:
256,192,46142,1,8,0:0:0:0:
256,192,46213,1,0,0:0:0:0:
256,192,46284,1,8,0:0:0:0:
256,192,46427,1,0,0:0:0:0:
256,192,46499,1,0,0:0:0:0:
256,192,46570,1,8,0:0:0:0:
256,192,46642,1,0,0:0:0:0:
256,192,46713,1,8,0:0:0:0:
256,192,46784,1,8,0:0:0:0:
384,96,46856,1,4,0:0:0:0:
384,96,46999,1,4,0:0:0:0:
384,96,47142,1,4,0:0:0:0:
384,96,47284,1,4,0:0:0:0:
384,96,47427,1,12,0:0:0:0:
384,96,47570,1,12,0:0:0:0:
384,96,47712,1,12,0:0:0:0:
384,96,47856,1,8,0:0:0:0:
256,192,47927,1,8,0:0:0:0:
256,192,47999,1,0,0:0:0:0:
256,192,48142,1,0,0:0:0:0:
256,192,48213,1,8,0:0:0:0:
256,192,48284,1,8,0:0:0:0:
256,192,48427,1,0,0:0:0:0:
256,192,48499,1,8,0:0:0:0:
256,192,48570,1,8,0:0:0:0:
256,192,48713,1,0,0:0:0:0:
256,192,48784,1,8,0:0:0:0:
256,192,48856,1,0,0:0:0:0:
256,192,48927,1,0,0:0:0:0:
256,192,48999,1,8,0:0:0:0:
256,192,49070,1,8,0:0:0:0:
256,192,49142,1,0,0:0:0:0:
384,96,51427,1,12,0:0:0:0:
384,96,51618,1,4,0:0:0:0:
384,96,51808,1,12,0:0:0:0:
384,96,51999,1,4,0:0:0:0:
384,96,52284,1,12,0:0:0:0:
256,192,52570,1,0,0:0:0:0:
256,192,52665,1,0,0:0:0:0:
256,192,52761,1,0,0:0:0:0:
256,192,52856,1,8,0:0:0:0:
256,192,53142,1,8,0:0:0:0:
256,192,53237,1,8,0:0:0:0:
256,192,53332,1,0,0:0:0:0:
256,192,53427,1,8,0:0:0:0:
256,192,53713,1,0,0:0:0:0:
256,192,53903,1,0,0:0:0:0:
256,192,54094,1,8,0:0:0:0:
256,192,54284,1,0,0:0:0:0:
256,192,54380,1,0,0:0:0:0:
256,192,54475,1,8,0:0:0:0:
256,192,54570,1,0,0:0:0:0:
256,192,54665,1,8,0:0:0:0:
256,192,54761,1,8,0:0:0:0:
256,192,54856,1,0,0:0:0:0:
256,192,54903,1,0,0:0:0:0:
256,192,54951,1,0,0:0:0:0:
256,192,54999,1,8,0:0:0:0:
256,192,55046,1,8,0:0:0:0:
256,192,55094,1,8,0:0:0:0:
256,192,55142,1,0,0:0:0:0:
256,192,55213,1,0,0:0:0:0:
256,192,55284,1,8,0:0:0:0:
256,192,55356,1,0,0:0:0:0:
256,192,55427,1,8,0:0:0:0:
256,192,55499,1,8,0:0:0:0:
256,192,55570,1,0,0:0:0:0:
256,192,55642,1,8,0:0:0:0:
256,192,55713,1,0,0:0:0:0:
256,192,55784,1,0,0:0:0:0:
256,192,55856,1,8,0:0:0:0:
256,192,55927,1,8,0:0:0:0:
256,192,55999,1,0,0:0:0:0:
384,96,56284,1,12,0:0:0:0:
256,192,56427,1,8,0:0:0:0:
256,192,56499,1,8,0:0:0:0:
256,192,56570,1,0,0:0:0:0:
256,192,56713,1,0,0:0:0:0:
256,192,56784,1,0,0:0:0:0:
256,192,56856,1,8,0:0:0:0:
256,192,56999,1,8,0:0:0:0:
256,192,57070,1,8,0:0:0:0:
256,192,57142,1,0,0:0:0:0:
256,192,57213,1,8,0:0:0:0:
256,192,57284,1,0,0:0:0:0:
256,192,57356,1,0,0:0:0:0:
256,192,57427,1,8,0:0:0:0:
256,192,57499,1,8,0:0:0:0:
256,192,57570,1,8,0:0:0:0:
256,192,57642,1,8,0:0:0:0:
256,192,57713,1,0,0:0:0:0:
256,192,57784,1,8,0:0:0:0:
256,192,57856,1,0,0:0:0:0:
256,192,57927,1,0,0:0:0:0:
256,192,57999,1,8,0:0:0:0:
256,192,58070,1,0,0:0:0:0:
256,192,58142,1,8,0:0:0:0:
256,192,58213,1,8,0:0:0:0:
256,192,58284,1,0,0:0:0:0:
256,192,58427,1,0,0:0:0:0:
256,192,58499,1,0,0:0:0:0:
256,192,58570,1,8,0:0:0:0:
256,192,58713,1,8,0:0:0:0:
256,192,58784,1,0,0:0:0:0:
256,192,58856,1,8,0:0:0:0:
256,192,58999,1,0,0:0:0:0:
256,192,59070,1,0,0:0:0:0:
256,192,59142,1,8,0:0:0:0:
256,192,59284,1,0,0:0:0:0:
256,192,59356,1,0,0:0:0:0:
256,192,59427,1,8,0:0:0:0:
256,192,59499,1,0,0:0:0:0:
256,192,59570,1,8,0:0:0:0:
256,192,59642,1,8,0:0:0:0:
256,192,59713,1,0,0:0:0:0:
256,192,59784,1,8,0:0:0:0:
256,192,59856,1,8,0:0:0:0:
256,192,59927,1,8,0:0:0:0:
256,192,59999,1,0,0:0:0:0:
256,192,60070,1,0,0:0:0:0:
256,192,60142,1,8,0:0:0:0:
256,192,60213,1,0,0:0:0:0:
256,192,60284,1,8,0:0:0:0:
256,192,60356,1,8,0:0:0:0:
256,192,60427,1,8,0:0:0:0:
256,192,60499,1,8,0:0:0:0:
256,192,60570,1,0,0:0:0:0:
256,192,60713,1,0,0:0:0:0:
256,192,60784,1,0,0:0:0:0:
256,192,60856,1,8,0:0:0:0:
256,192,60999,1,8,0:0:0:0:
256,192,61070,1,8,0:0:0:0:
256,192,61142,1,0,0:0:0:0:
256,192,61284,1,0,0:0:0:0:
256,192,61356,1,0,0:0:0:0:
256,192,61427,1,8,0:0:0:0:
256,192,61570,1,0,0:0:0:0:
256,192,61642,1,0,0:0:0:0:
256,192,61713,1,8,0:0:0:0:
256,192,61784,1,0,0:0:0:0:
256,192,61856,1,8,0:0:0:0:
256,192,61927,1,8,0:0:0:0:
256,192,61999,1,0,0:0:0:0:
256,192,62070,1,0,0:0:0:0:
256,192,62142,1,8,0:0:0:0:
256,192,62213,1,8,0:0:0:0:
256,192,62284,1,0,0:0:0:0:
256,192,62356,1,8,0:0:0:0:
256,192,62427,1,0,0:0:0:0:
256,192,62499,1,0,0:0:0:0:
256,192,62570,1,8,0:0:0:0:
256,192,62642,1,8,0:0:0:0:
256,192,62713,1,0,0:0:0:0:
256,192,62784,1,8,0:0:0:0:
256,192,62856,1,0,0:0:0:0:
256,192,62999,1,0,0:0:0:0:
256,192,63070,1,0,0:0:0:0:
256,192,63142,1,8,0:0:0:0:
256,192,63284,1,8,0:0:0:0:
256,192,63356,1,8,0:0:0:0:
256,192,63427,1,0,0:0:0:0:
256,192,63570,1,0,0:0:0:0:
256,192,63642,1,0,0:0:0:0:
256,192,63713,1,8,0:0:0:0:
256,192,63856,1,0,0:0:0:0:
256,192,63927,1,0,0:0:0:0:
256,192,63999,1,8,0:0:0:0:
256,192,64046,1,8,0:0:0:0:
256,192,64094,1,8,0:0:0:0:
256,192,64142,1,0,0:0:0:0:
256,192,64213,1,0,0:0:0:0:
256,192,64284,1,8,0:0:0:0:
256,192,64356,1,8,0:0:0:0:
256,192,64427,1,0,0:0:0:0:
256,192,64475,1,0,0:0:0:0:
256,192,64522,1,0,0:0:0:0:
256,192,64570,1,8,0:0:0:0:
256,192,64642,1,8,0:0:0:0:
256,192,64713,1,0,0:0:0:0:
256,192,64784,1,0,0:0:0:0:
256,192,64856,1,8,0:0:0:0:
256,192,64903,1,0,0:0:0:0:
256,192,64951,1,0,0:0:0:0:
256,192,64999,1,8,0:0:0:0:
256,192,65070,1,8,0:0:0:0:
256,192,65142,1,0,0:0:0:0:
256,192,65284,1,0,0:0:0:0:
256,192,65356,1,0,0:0:0:0:
256,192,65427,1,8,0:0:0:0:
256,192,65570,1,8,0:0:0:0:
256,192,65642,1,8,0:0:0:0:
256,192,65713,1,0,0:0:0:0:
256,192,65856,1,0,0:0:0:0:
256,192,65927,1,0,0:0:0:0:
256,192,65999,1,8,0:0:0:0:
256,192,66142,1,8,0:0:0:0:
256,192,66213,1,8,0:0:0:0:
256,192,66284,1,0,0:0:0:0:
256,192,66356,1,8,0:0:0:0:
256,192,66427,1,0,0:0:0:0:
256,192,66499,1,0,0:0:0:0:
256,192,66570,1,8,0:0:0:0:
256,192,66642,1,8,0:0:0:0:
256,192,66713,1,8,0:0:0:0:
256,192,66784,1,8,0:0:0:0:
256,192,66856,1,0,0:0:0:0:
256,192,66927,1,8,0:0:0:0:
256,192,66999,1,0,0:0:0:0:
256,192,67070,1,0,0:0:0:0:
256,192,67142,1,8,0:0:0:0:
256,192,67213,1,0,0:0:0:0:
256,192,67284,1,8,0:0:0:0:
256,192,67356,1,8,0:0:0:0:
256,192,67427,1,0,0:0:0:0:
256,192,67570,1,0,0:0:0:0:
256,192,67642,1,0,0:0:0:0:
256,192,67713,1,8,0:0:0:0:
256,192,67856,1,8,0:0:0:0:
256,192,67927,1,8,0:0:0:0:
256,192,67999,1,0,0:0:0:0:
256,192,68142,1,0,0:0:0:0:
256,192,68213,1,0,0:0:0:0:
256,192,68284,1,8,0:0:0:0:
256,192,68427,1,0,0:0:0:0:
256,192,68499,1,0,0:0:0:0:
256,192,68570,1,8,0:0:0:0:
256,192,68642,1,0,0:0:0:0:
256,192,68713,1,8,0:0:0:0:
256,192,68784,1,8,0:0:0:0:
256,192,68856,1,0,0:0:0:0:
256,192,68927,1,8,0:0:0:0:
256,192,68999,1,8,0:0:0:0:
256,192,69070,1,8,0:0:0:0:
256,192,69142,1,0,0:0:0:0:
256,192,69213,1,8,0:0:0:0:
256,192,69284,1,0,0:0:0:0:
256,192,69356,1,0,0:0:0:0:
256,192,69427,1,8,0:0:0:0:
256,192,69499,1,8,0:0:0:0:
256,192,69570,1,8,0:0:0:0:
256,192,69642,1,8,0:0:0:0:
256,192,69713,1,0,0:0:0:0:
256,192,69856,1,0,0:0:0:0:
256,192,69927,1,0,0:0:0:0:
384,96,69999,1,12,0:0:0:0:
256,192,70142,1,8,0:0:0:0:
256,192,70213,1,8,0:0:0:0:
256,192,70284,1,0,0:0:0:0:
256,192,70427,1,8,0:0:0:0:
256,192,70499,1,8,0:0:0:0:
384,96,70570,1,4,0:0:0:0:
256,192,70713,1,0,0:0:0:0:
256,192,70784,1,0,0:0:0:0:
256,192,70856,1,8,0:0:0:0:
256,192,70927,1,0,0:0:0:0:
256,192,70999,1,0,0:0:0:0:
256,192,71070,1,0,0:0:0:0:
384,96,71142,1,12,0:0:0:0:
256,192,71284,1,0,0:0:0:0:
256,192,71356,1,8,0:0:0:0:
256,192,71427,1,8,0:0:0:0:
256,192,71570,1,0,0:0:0:0:
256,192,71642,1,0,0:0:0:0:
384,96,71713,1,12,0:0:0:0:
256,192,71856,1,0,0:0:0:0:
256,192,71927,1,0,0:0:0:0:
256,192,71999,1,8,0:0:0:0:
256,192,72070,1,0,0:0:0:0:
256,192,72142,1,8,0:0:0:0:
256,192,72213,1,8,0:0:0:0:
384,96,72284,1,4,0:0:0:0:
256,192,72427,1,8,0:0:0:0:
256,192,72499,1,8,0:0:0:0:
384,96,72570,1,4,0:0:0:0:
256,192,72713,1,0,0:0:0:0:
256,192,72784,1,0,0:0:0:0:
384,96,72856,1,12,0:0:0:0:
256,192,72999,1,0,0:0:0:0:
256,192,73070,1,0,0:0:0:0:
256,192,73142,1,8,0:0:0:0:
256,192,73237,1,8,0:0:0:0:
256,192,73332,1,8,0:0:0:0:
256,192,73427,1,8,0:0:0:0:
256,192,73522,1,0,0:0:0:0:
256,192,73618,1,0,0:0:0:0:
256,192,73713,1,8,0:0:0:0:
256,192,73808,1,0,0:0:0:0:
256,192,73903,1,0,0:0:0:0:
256,192,73999,1,8,0:0:0:0:
256,192,74046,1,8,0:0:0:0:
256,192,74094,1,8,0:0:0:0:
256,192,74142,1,0,0:0:0:0:
256,192,74189,1,0,0:0:0:0:
256,192,74237,1,0,0:0:0:0:
384,96,74284,1,12,0:0:0:0:
384,96,74427,1,12,0:0:0:0:
256,192,74570,1,8,0:0:0:0:
384,96,74713,1,4,0:0:0:0:
384,96,74856,1,4,0:0:0:0:
256,192,74999,1,0,0:0:0:0:
384,96,75142,1,12,0:0:0:0:
384,96,75284,1,12,0:0:0:0:
256,192,75427,1,8,0:0:0:0:
384,96,75570,1,12,0:0:0:0:
384,96,75713,1,12,0:0:0:0:
256,192,75856,1,0,0:0:0:0:
256,192,75903,1,0,0:0:0:0:
256,192,75951,1,0,0:0:0:0:
256,192,75999,1,8,0:0:0:0:
256,192,76070,1,0,0:0:0:0:
256,192,76142,1,8,0:0:0:0:
256,192,76189,1,0,0:0:0:0:
256,192,76237,1,0,0:0:0:0:
256,192,76284,1,8,0:0:0:0:
256,192,76356,1,8,0:0:0:0:
256,192,76427,1,0,0:0:0:0:
256,192,76499,1,0,0:0:0:0:
384,96,76570,1,12,0:0:0:0:
384,96,76713,1,12,0:0:0:0:
256,192,76856,1,8,0:0:0:0:
384,96,76999,1,4,0:0:0:0:
384,96,77142,1,4,0:0:0:0:
256,192,77284,1,0,0:0:0:0:
384,96,77427,1,12,0:0:0:0:
384,96,77570,1,12,0:0:0:0:
256,192,77713,1,8,0:0:0:0:
384,96,77856,1,12,0:0:0:0:
384,96,77999,1,12,0:0:0:0:
256,192,78142,1,0,0:0:0:0:
256,192,78189,1,8,0:0:0:0:
256,192,78237,1,8,0:0:0:0:
256,192,78284,1,0,0:0:0:0:
256,192,78356,1,8,0:0:0:0:
256,192,78427,1,0,0:0:0:0:
256,192,78499,1,0,0:0:0:0:
256,192,78570,1,8,0:0:0:0:
256,192,78618,1,0,0:0:0:0:
256,192,78665,1,0,0:0:0:0:
256,192,78713,1,8,0:0:0:0:
256,192,78784,1,8,0:0:0:0:
256,192,78856,1,0,0:0:0:0:
256,192,78999,1,0,0:0:0:0:
256,192,79070,1,0,0:0:0:0:
256,192,79142,1,8,0:0:0:0:
256,192,79284,1,8,0:0:0:0:
256,192,79356,1,8,0:0:0:0:
256,192,79427,1,0,0:0:0:0:
256,192,79570,1,8,0:0:0:0:
256,192,79642,1,8,0:0:0:0:
256,192,79713,1,0,0:0:0:0:
256,192,79856,1,8,0:0:0:0:
256,192,79927,1,0,0:0:0:0:
256,192,79999,1,0,0:0:0:0:
256,192,80142,1,0,0:0:0:0:
256,192,80213,1,0,0:0:0:0:
256,192,80284,1,8,0:0:0:0:
256,192,80427,1,0,0:0:0:0:
256,192,80499,1,0,0:0:0:0:
256,192,80570,1,8,0:0:0:0:
256,192,80713,1,0,0:0:0:0:
256,192,80784,1,8,0:0:0:0:
256,192,80856,1,8,0:0:0:0:
256,192,80999,1,8,0:0:0:0:
256,192,81070,1,8,0:0:0:0:
256,192,81142,1,0,0:0:0:0:
256,192,81356,1,0,0:0:0:0:
256,192,81570,1,0,0:0:0:0:
256,192,81713,1,8,0:0:0:0:
256,192,81999,1,0,0:0:0:0:
256,192,82284,1,8,0:0:0:0:
256,192,82356,1,8,0:0:0:0:
256,192,82427,1,0,0:0:0:0:
256,192,82499,1,0,0:0:0:0:
256,192,82570,1,8,0:0:0:0:
256,192,82642,1,0,0:0:0:0:
256,192,82713,1,8,0:0:0:0:
256,192,82784,1,8,0:0:0:0:
256,192,82856,1,0,0:0:0:0:
256,192,82927,1,0,0:0:0:0:
256,192,82999,1,0,0:0:0:0:
256,192,83070,1,8,0:0:0:0:
256,192,83142,1,0,0:0:0:0:
256,192,83213,1,0,0:0:0:0:
256,192,83284,1,0,0:0:0:0:
256,192,83356,1,0,0:0:0:0:
384,96,83427,1,12,0:0:0:0:
384,96,83570,1,12,0:0:0:0:
256,192,83713,1,8,0:0:0:0:
384,96,83856,1,4,0:0:0:0:
384,96,83999,1,4,0:0:0:0:
256,192,84142,1,0,0:0:0:0:
384,96,84284,1,12,0:0:0:0:
384,96,84427,1,12,0:0:0:0:
256,192,84570,1,8,0:0:0:0:
384,96,84713,1,12,0:0:0:0:
384,96,84856,1,12,0:0:0:0:
256,192,84999,1,0,0:0:0:0:
256,192,85046,1,0,0:0:0:0:
256,192,85094,1,0,0:0:0:0:
256,192,85142,1,8,0:0:0:0:
256,192,85213,1,0,0:0:0:0:
256,192,85284,1,8,0:0:0:0:
256,192,85332,1,0,0:0:0:0:
256,192,85380,1,0,0:0:0:0:
256,192,85427,1,8,0:0:0:0:
256,192,85499,1,8,0:0:0:0:
256,192,85570,1,0,0:0:0:0:
256,192,85642,1,0,0:0:0:0:
384,96,85713,1,12,0:0:0:0:
384,96,85856,1,12,0:0:0:0:
256,192,85999,1,8,0:0:0:0:
384,96,86142,1,4,0:0:0:0:
384,96,86284,1,4,0:0:0:0:
256,192,86427,1,0,0:0:0:0:
384,96,86570,1,12,0:0:0:0:
384,96,86713,1,12,0:0:0:0:
256,192,86856,1,8,0:0:0:0:
384,96,86999,1,12,0:0:0:0:
384,96,87142,1,12,0:0:0:0:
256,192,87284,1,0,0:0:0:0:
256,192,87332,1,8,0:0:0:0:
256,192,87380,1,8,0:0:0:0:
256,192,87427,1,0,0:0:0:0:
256,192,87499,1,8,0:0:0:0:
256,192,87570,1,0,0:0:0:0:
256,192,87642,1,0,0:0:0:0:
256,192,87713,1,8,0:0:0:0:
256,192,87761,1,0,0:0:0:0:
256,192,87808,1,0,0:0:0:0:
256,192,87856,1,8,0:0:0:0:
256,192,87927,1,8,0:0:0:0:
256,192,87999,1,0,0:0:0:0:
256,192,88142,1,0,0:0:0:0:
256,192,88213,1,0,0:0:0:0:
256,192,88285,1,8,0:0:0:0:
256,192,88427,1,8,0:0:0:0:
256,192,88499,1,8,0:0:0:0:
256,192,88570,1,0,0:0:0:0:
256,192,88713,1,8,0:0:0:0:
256,192,88785,1,8,0:0:0:0:
256,192,88856,1,0,0:0:0:0:
256,192,88999,1,8,0:0:0:0:
256,192,89070,1,0,0:0:0:0:
256,192,89142,1,0,0:0:0:0:
256,192,89285,1,0,0:0:0:0:
256,192,89356,1,0,0:0:0:0:
256,192,89427,1,8,0:0:0:0:
256,192,89570,1,0,0:0:0:0:
256,192,89642,1,0,0:0:0:0:
256,192,89713,1,8,0:0:0:0:
256,192,89856,1,0,0:0:0:0:
256,192,89927,1,8,0:0:0:0:
256,192,89999,1,8,0:0:0:0:
256,192,90142,1,8,0:0:0:0:
256,192,90213,1,0,0:0:0:0:
256,192,90285,1,8,0:0:0:0:
256,192,90475,1,0,0:0:0:0:
256,192,90665,1,8,0:0:0:0:
256,192,90856,1,0,0:0:0:0:
256,192,91142,1,8,0:0:0:0:
256,192,91427,1,8,0:0:0:0:
256,192,91522,1,0,0:0:0:0:
256,192,91618,1,0,0:0:0:0:
256,192,91713,1,8,0:0:0:0:
256,192,91999,1,8,0:0:0:0:
256,192,92094,1,8,0:0:0:0:
256,192,92189,1,0,0:0:0:0:
256,192,92284,1,8,0:0:0:0:
256,192,92380,1,8,0:0:0:0:
256,192,92475,1,8,0:0:0:0:
256,192,92570,1,0,0:0:0:0:
256,192,92999,1,0,0:0:0:0:
256,192,93142,1,8,0:0:0:0:
256,192,93427,1,8,0:0:0:0:
256,192,93570,1,8,0:0:0:0:
256,192,93713,1,0,0:0:0:0:
256,192,93927,1,0,0:0:0:0:
256,192,93999,1,0,0:0:0:0:
256,192,94142,1,0,0:0:0:0:
256,192,94284,1,8,0:0:0:0:
256,192,94427,1,8,0:0:0:0:
256,192,94570,1,0,0:0:0:0:
256,192,94713,1,0,0:0:0:0:
256,192,94856,1,8,0:0:0:0:
256,192,95142,1,8,0:0:0:0:
256,192,95284,1,0,0:0:0:0:
256,192,95427,1,8,0:0:0:0:
256,192,95570,1,0,0:0:0:0:
256,192,95713,1,0,0:0:0:0:
256,192,95856,1,8,0:0:0:0:
256,192,95999,1,0,0:0:0:0:
256,192,96213,1,0,0:0:0:0:
256,192,96284,1,8,0:0:0:0:
256,192,96427,1,0,0:0:0:0:
256,192,96570,1,8,0:0:0:0:
256,192,96784,1,0,0:0:0:0:
256,192,96856,1,8,0:0:0:0:
256,192,96927,1,8,0:0:0:0:
256,192,96999,1,0,0:0:0:0:
256,192,97142,1,0,0:0:0:0:
256,192,97570,1,0,0:0:0:0:
256,192,97713,1,8,0:0:0:0:
256,192,97999,1,0,0:0:0:0:
256,192,98142,1,8,0:0:0:0:
256,192,98284,1,0,0:0:0:0:
256,192,98499,1,0,0:0:0:0:
256,192,98570,1,0,0:0:0:0:
256,192,98713,1,0,0:0:0:0:
256,192,98856,1,8,0:0:0:0:
256,192,98999,1,8,0:0:0:0:
256,192,99142,1,0,0:0:0:0:
256,192,99284,1,0,0:0:0:0:
256,192,99427,1,8,0:0:0:0:
256,192,99713,1,0,0:0:0:0:
256,192,99784,1,0,0:0:0:0:
256,192,99856,1,0,0:0:0:0:
256,192,99927,1,0,0:0:0:0:
256,192,99999,1,8,0:0:0:0:
256,192,100284,1,0,0:0:0:0:
256,192,100356,1,8,0:0:0:0:
256,192,100427,1,0,0:0:0:0:
256,192,100499,1,0,0:0:0:0:
256,192,100570,1,8,0:0:0:0:
256,192,100713,1,0,0:0:0:0:
256,192,100784,1,0,0:0:0:0:
256,192,100856,1,0,0:0:0:0:
256,192,100999,1,0,0:0:0:0:
256,192,101142,1,8,0:0:0:0:
256,192,101189,1,8,0:0:0:0:
256,192,101237,1,8,0:0:0:0:
256,192,101284,1,8,0:0:0:0:
256,192,101427,1,0,0:0:0:0:
256,192,101499,1,0,0:0:0:0:
256,192,101570,1,8,0:0:0:0:
256,192,101642,1,0,0:0:0:0:
256,192,101713,1,8,0:0:0:0:
256,192,101927,1,0,0:0:0:0:
256,192,101999,1,0,0:0:0:0:
256,192,102070,1,0,0:0:0:0:
256,192,102142,1,8,0:0:0:0:
256,192,102284,1,0,0:0:0:0:
256,192,102499,1,0,0:0:0:0:
256,192,102570,1,0,0:0:0:0:
256,192,102642,1,0,0:0:0:0:
256,192,102713,1,8,0:0:0:0:
256,192,102856,1,8,0:0:0:0:
256,192,103070,1,0,0:0:0:0:
256,192,103142,1,8,0:0:0:0:
256,192,103213,1,0,0:0:0:0:
256,192,103284,1,8,0:0:0:0:
256,192,103427,1,8,0:0:0:0:
256,192,103642,1,8,0:0:0:0:
256,192,103713,1,0,0:0:0:0:
256,192,103784,1,0,0:0:0:0:
256,192,103856,1,8,0:0:0:0:
256,192,103999,1,8,0:0:0:0:
256,192,104213,1,8,0:0:0:0:
256,192,104284,1,8,0:0:0:0:
256,192,104356,1,8,0:0:0:0:
256,192,104427,1,0,0:0:0:0:
256,192,104570,1,0,0:0:0:0:
256,192,104642,1,8,0:0:0:0:
256,192,104713,1,0,0:0:0:0:
256,192,104784,1,0,0:0:0:0:
256,192,104856,1,8,0:0:0:0:
256,192,104927,1,0,0:0:0:0:
256,192,104999,1,8,0:0:0:0:
256,192,105070,1,8,0:0:0:0:
256,192,105142,1,0,0:0:0:0:
256,192,105356,1,8,0:0:0:0:
256,192,105427,1,0,0:0:0:0:
256,192,105499,1,0,0:0:0:0:
256,192,105570,1,8,0:0:0:0:
256,192,105713,1,8,0:0:0:0:
256,192,105784,1,8,0:0:0:0:
256,192,105856,1,0,0:0:0:0:
256,192,105927,1,8,0:0:0:0:
256,192,105999,1,0,0:0:0:0:
256,192,106070,1,0,0:0:0:0:
256,192,106142,1,8,0:0:0:0:
256,192,106213,1,0,0:0:0:0:
256,192,106284,1,8,0:0:0:0:
256,192,106427,1,0,0:0:0:0:
256,192,106499,1,8,0:0:0:0:
256,192,106570,1,8,0:0:0:0:
256,192,106642,1,0,0:0:0:0:
256,192,106713,1,8,0:0:0:0:
256,192,106856,1,0,0:0:0:0:
256,192,106999,1,0,0:0:0:0:
256,192,107142,1,8,0:0:0:0:
256,192,107213,1,8,0:0:0:0:
256,192,107284,1,0,0:0:0:0:
256,192,107356,1,0,0:0:0:0:
256,192,107427,1,8,0:0:0:0:
256,192,107570,1,8,0:0:0:0:
256,192,107642,1,0,0:0:0:0:
256,192,107784,1,0,0:0:0:0:
256,192,107856,1,8,0:0:0:0:
256,192,107999,1,8,0:0:0:0:
256,192,108142,1,0,0:0:0:0:
256,192,108213,1,0,0:0:0:0:
256,192,108284,1,8,0:0:0:0:
256,192,108427,1,0,0:0:0:0:
256,192,108499,1,0,0:0:0:0:
256,192,108570,1,8,0:0:0:0:
256,192,108642,1,8,0:0:0:0:
256,192,108713,1,0,0:0:0:0:
256,192,108784,1,0,0:0:0:0:
256,192,108856,1,0,0:0:0:0:
256,192,108999,1,0,0:0:0:0:
256,192,109070,1,0,0:0:0:0:
256,192,109142,1,8,0:0:0:0:
256,192,109284,1,0,0:0:0:0:
256,192,109427,1,0,0:0:0:0:
256,192,109499,1,0,0:0:0:0:
256,192,109570,1,0,0:0:0:0:
256,192,109642,1,0,0:0:0:0:
256,192,109713,1,8,0:0:0:0:
256,192,109789,1,0,0:0:0:0:
256,192,109864,1,0,0:0:0:0:
256,192,109939,1,0,0:0:0:0:
256,192,110014,1,8,0:0:0:0:
256,192,110092,1,8,0:0:0:0:
256,192,110171,1,0,0:0:0:0:
256,192,110250,1,0,0:0:0:0:
256,192,110329,1,8,0:0:0:0:
256,192,110412,1,0,0:0:0:0:
256,192,110495,1,0,0:0:0:0:
256,192,110579,1,0,0:0:0:0:
256,192,110662,1,8,0:0:0:0:
256,192,110750,1,8,0:0:0:0:
256,192,110838,1,0,0:0:0:0:
256,192,110926,1,0,0:0:0:0:
256,192,111014,1,8,0:0:0:0:
256,192,111389,1,8,0:0:0:0:
256,192,111576,1,0,0:0:0:0:
256,192,111764,1,0,0:0:0:0:
256,192,111951,1,8,0:0:0:0:
256,192,112326,1,8,0:0:0:0:
256,192,112514,1,0,0:0:0:0:
256,192,112889,1,8,0:0:0:0:
256,192,113076,1,0,0:0:0:0:
256,192,113264,1,0,0:0:0:0:
256,192,113451,1,8,0:0:0:0:
256,192,113639,1,0,0:0:0:0:
256,192,113826,1,8,0:0:0:0:
256,192,114014,1,0,0:0:0:0:
256,192,114389,1,0,0:0:0:0:
256,192,114576,1,8,0:0:0:0:
256,192,114764,1,0,0:0:0:0:
256,192,114951,1,8,0:0:0:0:
256,192,115326,1,8,0:0:0:0:
256,192,115514,1,0,0:0:0:0:
256,192,115701,1,0,0:0:0:0:
256,192,115889,1,8,0:0:0:0:
256,192,116264,1,0,0:0:0:0:
256,192,116545,1,0,0:0:0:0:
256,192,116826,1,0,0:0:0:0:
256,192,117014,1,8,0:0:0:0:
256,192,117201,1,0,0:0:0:0:
256,192,117389,1,0,0:0:0:0:
256,192,117576,1,0,0:0:0:0:
256,192,117764,1,8,0:0:0:0:
256,192,118139,1,8,0:0:0:0:
256,192,118326,1,8,0:0:0:0:
256,192,118514,1,0,0:0:0:0:
256,192,118889,1,8,0:0:0:0:
256,192,119264,1,0,0:0:0:0:
256,192,119639,1,0,0:0:0:0:
256,192,120014,1,8,0:0:0:0:
256,192,120764,1,0,0:0:0:0:
256,192,121326,1,8,0:0:0:0:
256,192,121514,1,0,0:0:0:0:
256,192,121607,1,8,0:0:0:0:
256,192,121701,1,8,0:0:0:0:
256,192,121795,1,8,0:0:0:0:
256,192,121889,1,0,0:0:0:0:
256,192,121982,1,0,0:0:0:0:
256,192,122076,1,8,0:0:0:0:
256,192,122170,1,0,0:0:0:0:
256,192,122264,1,8,0:0:0:0:
256,192,122357,1,8,0:0:0:0:
256,192,122451,1,0,0:0:0:0:
256,192,122545,1,0,0:0:0:0:
256,192,122639,1,0,0:0:0:0:
256,192,122732,1,8,0:0:0:0:
256,192,122826,1,0,0:0:0:0:
256,192,122920,1,0,0:0:0:0:
256,192,123014,1,8,0:0:0:0:
256,192,123190,1,8,0:0:0:0:
256,192,123278,1,0,0:0:0:0:
256,192,123366,1,8,0:0:0:0:
256,192,123455,1,8,0:0:0:0:
256,192,123631,1,0,0:0:0:0:
256,192,123719,1,8,0:0:0:0:
256,192,123896,1,0,0:0:0:0:
256,192,123984,1,8,0:0:0:0:
256,192,124072,1,0,0:0:0:0:
256,192,124249,1,8,0:0:0:0:
256,192,124337,1,8,0:0:0:0:
256,192,124425,1,0,0:0:0:0:
256,192,124602,1,8,0:0:0:0:
256,192,124690,1,0,0:0:0:0:
256,192,124778,1,8,0:0:0:0:
256,192,124866,1,0,0:0:0:0:
256,192,125043,1,8,0:0:0:0:
256,192,125131,1,0,0:0:0:0:
256,192,125308,1,8,0:0:0:0:
256,192,125396,1,8,0:0:0:0:
256,192,125484,1,0,0:0:0:0:
256,192,125661,1,0,0:0:0:0:
256,192,125749,1,8,0:0:0:0:
256,192,125837,1,0,0:0:0:0:
256,192,126003,1,8,0:0:0:0:
256,192,126087,1,0,0:0:0:0:
256,192,126170,1,8,0:0:0:0:
256,192,126253,1,8,0:0:0:0:
256,192,126420,1,0,0:0:0:0:
256,192,126503,1,8,0:0:0:0:
256,192,126670,1,0,0:0:0:0:
256,192,126753,1,8,0:0:0:0:
256,192,126837,1,0,0:0:0:0:
256,192,127003,1,8,0:0:0:0:
256,192,127087,1,8,0:0:0:0:
256,192,127170,1,0,0:0:0:0:
256,192,127337,1,8,0:0:0:0:
256,192,127420,1,0,0:0:0:0:
256,192,127503,1,0,0:0:0:0:
256,192,127587,1,8,0:0:0:0:
256,192,127753,1,8,0:0:0:0:
256,192,127837,1,0,0:0:0:0:
256,192,127920,1,0,0:0:0:0:
256,192,128003,1,8,0:0:0:0:
256,192,128087,1,8,0:0:0:0:
256,192,128170,1,0,0:0:0:0:
256,192,128253,1,8,0:0:0:0:
256,192,128337,1,0,0:0:0:0:
256,192,128420,1,0,0:0:0:0:
256,192,128503,1,8,0:0:0:0:
256,192,128660,1,0,0:0:0:0:
256,192,128739,1,0,0:0:0:0:
256,192,128818,1,8,0:0:0:0:
256,192,128976,1,8,0:0:0:0:
256,192,129055,1,8,0:0:0:0:
256,192,129134,1,0,0:0:0:0:
256,192,129292,1,8,0:0:0:0:
256,192,129371,1,0,0:0:0:0:
256,192,129450,1,8,0:0:0:0:
256,192,129608,1,0,0:0:0:0:
256,192,129687,1,0,0:0:0:0:
256,192,129766,1,8,0:0:0:0:
256,192,129924,1,0,0:0:0:0:
256,192,130003,1,8,0:0:0:0:
256,192,130081,1,0,0:0:0:0:
256,192,130239,1,8,0:0:0:0:
256,192,130318,1,8,0:0:0:0:
256,192,130397,1,0,0:0:0:0:
256,192,130555,1,0,0:0:0:0:
256,192,130634,1,0,0:0:0:0:
256,192,130713,1,8,0:0:0:0:
256,192,130871,1,8,0:0:0:0:
256,192,130950,1,8,0:0:0:0:
256,192,131029,1,0,0:0:0:0:
256,192,131104,1,0,0:0:0:0:
256,192,131179,1,8,0:0:0:0:
256,192,131254,1,0,0:0:0:0:
256,192,131329,1,8,0:0:0:0:
256,192,131404,1,8,0:0:0:0:
256,192,131479,1,0,0:0:0:0:
256,192,131554,1,8,0:0:0:0:
256,192,131629,1,0,0:0:0:0:
256,192,131704,1,0,0:0:0:0:
256,192,131779,1,8,0:0:0:0:
256,192,131854,1,0,0:0:0:0:
256,192,131929,1,8,0:0:0:0:
256,192,132004,1,0,0:0:0:0:
256,192,132079,1,8,0:0:0:0:
256,192,132154,1,8,0:0:0:0:
256,192,132229,1,0,0:0:0:0:
256,192,132304,1,0,0:0:0:0:
256,192,132379,1,0,0:0:0:0:
256,192,132454,1,0,0:0:0:0:
256,192,132529,1,8,0:0:0:0:
256,192,132604,1,0,0:0:0:0:
256,192,132679,1,8,0:0:0:0:
256,192,132754,1,0,0:0:0:0:
256,192,132829,1,8,0:0:0:0:
256,192,132904,1,0,0:0:0:0:
256,192,132979,1,8,0:0:0:0:
256,192,133054,1,8,0:0:0:0:
256,192,133129,1,0,0:0:0:0:
256,192,133204,1,0,0:0:0:0:
256,192,133279,1,8,0:0:0:0:
256,192,133354,1,0,0:0:0:0:
256,192,133429,1,8,0:0:0:0:
256,192,133571,1,8,0:0:0:0:
256,192,133643,1,8,0:0:0:0:
256,192,133714,1,0,0:0:0:0:
256,192,133857,1,0,0:0:0:0:
256,192,133929,1,0,0:0:0:0:
256,192,134000,1,8,0:0:0:0:
256,192,134071,1,0,0:0:0:0:
256,192,134143,1,0,0:0:0:0:
256,192,134214,1,0,0:0:0:0:
256,192,134286,1,8,0:0:0:0:
256,192,134429,1,0,0:0:0:0:
256,192,134500,1,8,0:0:0:0:
256,192,134571,1,8,0:0:0:0:
256,192,134714,1,0,0:0:0:0:
256,192,134786,1,8,0:0:0:0:
256,192,134857,1,0,0:0:0:0:
256,192,135000,1,0,0:0:0:0:
256,192,135071,1,0,0:0:0:0:
256,192,135143,1,8,0:0:0:0:
256,192,135214,1,0,0:0:0:0:
256,192,135286,1,8,0:0:0:0:
256,192,135357,1,8,0:0:0:0:
256,192,135429,1,0,0:0:0:0:
256,192,135500,1,0,0:0:0:0:
256,192,135571,1,8,0:0:0:0:
256,192,135643,1,0,0:0:0:0:
256,192,135714,1,8,0:0:0:0:
256,192,135857,1,0,0:0:0:0:
256,192,135929,1,8,0:0:0:0:
256,192,136000,1,0,0:0:0:0:
256,192,136143,1,8,0:0:0:0:
256,192,136214,1,8,0:0:0:0:
256,192,136286,1,8,0:0:0:0:
256,192,136357,1,0,0:0:0:0:
256,192,136429,1,8,0:0:0:0:
256,192,136500,1,8,0:0:0:0:
256,192,136571,1,0,0:0:0:0:
256,192,136643,1,0,0:0:0:0:
256,192,136714,1,8,0:0:0:0:
256,192,136786,1,8,0:0:0:0:
256,192,136857,1,0,0:0:0:0:
256,192,136929,1,0,0:0:0:0:
256,192,137000,1,8,0:0:0:0:
256,192,137071,1,0,0:0:0:0:
256,192,137143,1,8,0:0:0:0:
256,192,137286,1,8,0:0:0:0:
256,192,137357,1,0,0:0:0:0:
256,192,137429,1,8,0:0:0:0:
256,192,137500,1,0,0:0:0:0:
256,192,137571,1,0,0:0:0:0:
256,192,137643,1,0,0:0:0:0:
256,192,137714,1,8,0:0:0:0:
256,192,137786,1,8,0:0:0:0:
256,192,137857,1,0,0:0:0:0:
256,192,137929,1,0,0:0:0:0:
256,192,138000,1,8,0:0:0:0:
256,192,138143,1,0,0:0:0:0:
256,192,138214,1,0,0:0:0:0:
256,192,138286,1,8,0:0:0:0:
256,192,138429,1,8,0:0:0:0:
256,192,138500,1,8,0:0:0:0:
256,192,138571,1,0,0:0:0:0:
256,192,138714,1,0,0:0:0:0:
256,192,138786,1,0,0:0:0:0:
256,192,138857,1,8,0:0:0:0:
256,192,138929,1,0,0:0:0:0:
256,192,139000,1,8,0:0:0:0:
256,192,139071,1,8,0:0:0:0:
256,192,139143,1,0,0:0:0:0:
256,192,139286,1,0,0:0:0:0:
256,192,139357,1,0,0:0:0:0:
256,192,139429,1,8,0:0:0:0:
256,192,139571,1,0,0:0:0:0:
256,192,139643,1,0,0:0:0:0:
256,192,139714,1,8,0:0:0:0:
256,192,139786,1,0,0:0:0:0:
256,192,139857,1,8,0:0:0:0:
256,192,139929,1,0,0:0:0:0:
256,192,140000,1,8,0:0:0:0:
256,192,140071,1,8,0:0:0:0:
256,192,140143,1,8,0:0:0:0:
256,192,140214,1,8,0:0:0:0:
384,96,140286,1,4,0:0:0:0:
384,96,140571,1,4,0:0:0:0:
384,96,140714,1,12,0:0:0:0:
384,96,141000,1,12,0:0:0:0:
384,96,141286,1,4,0:0:0:0:
256,192,141429,1,8,0:0:0:0:
256,192,141500,1,0,0:0:0:0:
256,192,141571,1,8,0:0:0:0:
256,192,141643,1,8,0:0:0:0:
256,192,141714,1,0,0:0:0:0:
256,192,141857,1,8,0:0:0:0:
256,192,141929,1,0,0:0:0:0:
256,192,142000,1,0,0:0:0:0:
256,192,142143,1,0,0:0:0:0:
256,192,142214,1,8,0:0:0:0:
256,192,142286,1,0,0:0:0:0:
256,192,142357,1,0,0:0:0:0:
256,192,142429,1,8,0:0:0:0:
256,192,142500,1,8,0:0:0:0:
256,192,142571,1,0,0:0:0:0:
256,192,142714,1,0,0:0:0:0:
256,192,142786,1,0,0:0:0:0:
256,192,142857,1,8,0:0:0:0:
256,192,143000,1,0,0:0:0:0:
256,192,143071,1,8,0:0:0:0:
256,192,143143,1,0,0:0:0:0:
256,192,143214,1,0,0:0:0:0:
256,192,143286,1,8,0:0:0:0:
256,192,143357,1,0,0:0:0:0:
256,192,143429,1,8,0:0:0:0:
256,192,143500,1,0,0:0:0:0:
256,192,143571,1,8,0:0:0:0:
256,192,143643,1,8,0:0:0:0:
256,192,143714,1,0,0:0:0:0:
256,192,143857,1,0,0:0:0:0:
256,192,143929,1,0,0:0:0:0:
256,192,144000,1,8,0:0:0:0:
256,192,144143,1,0,0:0:0:0:
256,192,144214,1,8,0:0:0:0:
256,192,144286,1,0,0:0:0:0:
256,192,144357,1,0,0:0:0:0:
256,192,144429,1,8,0:0:0:0:
256,192,144500,1,0,0:0:0:0:
256,192,144571,1,8,0:0:0:0:
256,192,144643,1,8,0:0:0:0:
256,192,144714,1,0,0:0:0:0:
256,192,144786,1,0,0:0:0:0:
256,192,144857,1,8,0:0:0:0:
256,192,145000,1,0,0:0:0:0:
256,192,145071,1,8,0:0:0:0:
256,192,145143,1,0,0:0:0:0:
256,192,145286,1,8,0:0:0:0:
256,192,145357,1,8,0:0:0:0:
256,192,145429,1,0,0:0:0:0:
256,192,145500,1,0,0:0:0:0:
256,192,145571,1,8,0:0:0:0:
256,192,145714,1,0,0:0:0:0:
256,192,145786,1,0,0:0:0:0:
256,192,145857,1,8,0:0:0:0:
256,192,145929,1,8,0:0:0:0:
256,192,146000,1,8,0:0:0:0:
256,192,146071,1,0,0:0:0:0:
256,192,146143,1,8,0:0:0:0:
256,192,146214,1,0,0:0:0:0:
256,192,146286,1,8,0:0:0:0:
256,192,146429,1,0,0:0:0:0:
256,192,146500,1,8,0:0:0:0:
256,192,146571,1,0,0:0:0:0:
256,192,146643,1,8,0:0:0:0:
256,192,146714,1,0,0:0:0:0:
256,192,146786,1,0,0:0:0:0:
256,192,146857,1,8,0:0:0:0:
256,192,146929,1,0,0:0:0:0:
256,192,147000,1,8,0:0:0:0:
256,192,147071,1,8,0:0:0:0:
256,192,147143,1,0,0:0:0:0:
256,192,147286,1,0,0:0:0:0:
256,192,147357,1,0,0:0:0:0:
256,192,147429,1,8,0:0:0:0:
256,192,147500,1,0,0:0:0:0:
256,192,147571,1,0,0:0:0:0:
256,192,147643,1,0,0:0:0:0:
256,192,147714,1,8,0:0:0:0:
256,192,147857,1,8,0:0:0:0:
256,192,147929,1,8,0:0:0:0:
256,192,148000,1,0,0:0:0:0:
256,192,148143,1,0,0:0:0:0:
256,192,148214,1,8,0:0:0:0:
256,192,148286,1,8,0:0:0:0:
256,192,148429,1,0,0:0:0:0:
256,192,148500,1,0,0:0:0:0:
256,192,148571,1,8,0:0:0:0:
256,192,148643,1,0,0:0:0:0:
256,192,148714,1,8,0:0:0:0:
256,192,148786,1,0,0:0:0:0:
256,192,148857,1,8,0:0:0:0:
256,192,148929,1,8,0:0:0:0:
256,192,149000,1,0,0:0:0:0:
256,192,149071,1,0,0:0:0:0:
256,192,149143,1,8,0:0:0:0:
256,192,149286,1,8,0:0:0:0:
256,192,149357,1,8,0:0:0:0:
256,192,149429,1,0,0:0:0:0:
256,192,149571,1,8,0:0:0:0:
384,96,149714,1,12,0:0:0:0:
256,192,150000,1,8,0:0:0:0:
384,96,150143,1,12,0:0:0:0:
256,192,150429,1,8,0:0:0:0:
384,96,150571,1,12,0:0:0:0:
256,192,150714,1,0,0:0:0:0:
256,192,150786,1,8,0:0:0:0:
256,192,150857,1,0,0:0:0:0:
256,192,151000,1,8,0:0:0:0:
256,192,151143,1,0,0:0:0:0:
256,192,151214,1,8,0:0:0:0:
256,192,151286,1,0,0:0:0:0:
256,192,151357,1,0,0:0:0:0:
256,192,151429,1,8,0:0:0:0:
256,192,151500,1,0,0:0:0:0:
256,192,151571,1,0,0:0:0:0:
256,192,151643,1,0,0:0:0:0:
256,192,151714,1,8,0:0:0:0:
256,192,151857,1,8,0:0:0:0:
256,192,151929,1,8,0:0:0:0:
256,192,152000,1,0,0:0:0:0:
256,192,152143,1,0,0:0:0:0:
256,192,152214,1,8,0:0:0:0:
256,192,152286,1,0,0:0:0:0:
256,192,152357,1,0,0:0:0:0:
256,192,152429,1,8,0:0:0:0:
256,192,152500,1,8,0:0:0:0:
256,192,152571,1,0,0:0:0:0:
256,192,152714,1,0,0:0:0:0:
256,192,152786,1,8,0:0:0:0:
256,192,152857,1,8,0:0:0:0:
256,192,153000,1,0,0:0:0:0:
256,192,153071,1,8,0:0:0:0:
256,192,153143,1,0,0:0:0:0:
256,192,153286,1,0,0:0:0:0:
256,192,153357,1,0,0:0:0:0:
256,192,153429,1,8,0:0:0:0:
256,192,153500,1,0,0:0:0:0:
256,192,153571,1,0,0:0:0:0:
256,192,153643,1,0,0:0:0:0:
256,192,153714,1,8,0:0:0:0:
256,192,153857,1,8,0:0:0:0:
256,192,153929,1,0,0:0:0:0:
256,192,154000,1,8,0:0:0:0:
256,192,154143,1,8,0:0:0:0:
256,192,154214,1,8,0:0:0:0:
256,192,154286,1,0,0:0:0:0:
256,192,154429,1,8,0:0:0:0:
256,192,154500,1,8,0:0:0:0:
256,192,154571,1,8,0:0:0:0:
256,192,154643,1,0,0:0:0:0:
256,192,154714,1,8,0:0:0:0:
256,192,154786,1,0,0:0:0:0:
256,192,154857,1,8,0:0:0:0:
256,192,154929,1,0,0:0:0:0:
256,192,155000,1,8,0:0:0:0:
256,192,155071,1,8,0:0:0:0:
256,192,155143,1,0,0:0:0:0:
256,192,155214,1,0,0:0:0:0:
256,192,155286,1,8,0:0:0:0:
256,192,155357,1,0,0:0:0:0:
256,192,155429,1,8,0:0:0:0:
256,192,155571,1,8,0:0:0:0:
256,192,155643,1,8,0:0:0:0:
256,192,155714,1,0,0:0:0:0:
256,192,155786,1,0,0:0:0:0:
256,192,155857,1,8,0:0:0:0:
256,192,155929,1,8,0:0:0:0:
256,192,156000,1,8,0:0:0:0:
256,192,156071,1,0,0:0:0:0:
256,192,156143,1,8,0:0:0:0:
256,192,156214,1,8,0:0:0:0:
256,192,156286,1,0,0:0:0:0:
256,192,156357,1,0,0:0:0:0:
256,192,156429,1,8,0:0:0:0:
256,192,156500,1,0,0:0:0:0:
256,192,156571,1,8,0:0:0:0:
256,192,156714,1,0,0:0:0:0:
256,192,156786,1,0,0:0:0:0:
256,192,156857,1,8,0:0:0:0:
256,192,157000,1,0,0:0:0:0:
256,192,157071,1,8,0:0:0:0:
256,192,157143,1,0,0:0:0:0:
256,192,157286,1,8,0:0:0:0:
256,192,157357,1,0,0:0:0:0:
256,192,157429,1,8,0:0:0:0:
256,192,157500,1,0,0:0:0:0:
256,192,157571,1,0,0:0:0:0:
256,192,157643,1,0,0:0:0:0:
256,192,157714,1,8,0:0:0:0:
256,192,157786,1,8,0:0:0:0:
256,192,157857,1,0,0:0:0:0:
256,192,157929,1,8,0:0:0:0:
256,192,158000,1,0,0:0:0:0:
256,192,158071,1,0,0:0:0:0:
256,192,158143,1,8,0:0:0:0:
256,192,158214,1,0,0:0:0:0:
256,192,158286,1,8,0:0:0:0:
256,192,158357,1,0,0:0:0:0:
256,192,158429,1,8,0:0:0:0:
256,192,158500,1,8,0:0:0:0:
384,96,158571,1,4,0:0:0:0:
384,96,158857,1,4,0:0:0:0:
384,96,159000,1,12,0:0:0:0:
384,96,159286,1,12,0:0:0:0:
384,96,159571,1,4,0:0:0:0:
256,192,159714,1,8,0:0:0:0:
256,192,159786,1,0,0:0:0:0:
256,192,159857,1,8,0:0:0:0:
256,192,159929,1,8,0:0:0:0:
256,192,160000,1,0,0:0:0:0:
256,192,160143,1,8,0:0:0:0:
256,192,160214,1,8,0:0:0:0:
256,192,160286,1,0,0:0:0:0:
256,192,160429,1,8,0:0:0:0:
256,192,160500,1,0,0:0:0:0:
256,192,160571,1,8,0:0:0:0:
256,192,160643,1,0,0:0:0:0:
256,192,160714,1,8,0:0:0:0:
256,192,160786,1,8,0:0:0:0:
256,192,160857,1,0,0:0:0:0:
384,96,161143,1,12,0:0:0:0:
256,192,161286,1,0,0:0:0:0:
256,192,161357,1,0,0:0:0:0:
256,192,161429,1,8,0:0:0:0:
256,192,161500,1,0,0:0:0:0:
256,192,161571,1,0,0:0:0:0:
256,192,161643,1,0,0:0:0:0:
256,192,161714,1,8,0:0:0:0:
256,192,161786,1,0,0:0:0:0:
256,192,161857,1,8,0:0:0:0:
256,192,161929,1,8,0:0:0:0:
256,192,162000,1,0,0:0:0:0:
256,192,162143,1,0,0:0:0:0:
256,192,162214,1,0,0:0:0:0:
256,192,162286,1,8,0:0:0:0:
256,192,162429,1,8,0:0:0:0:
256,192,162500,1,8,0:0:0:0:
256,192,162571,1,0,0:0:0:0:
256,192,162643,1,0,0:0:0:0:
256,192,162714,1,8,0:0:0:0:
256,192,162786,1,0,0:0:0:0:
256,192,162857,1,8,0:0:0:0:
256,192,162929,1,8,0:0:0:0:
256,192,163000,1,8,0:0:0:0:
256,192,163071,1,0,0:0:0:0:
384,96,163143,1,12,0:0:0:0:
384,96,163429,1,4,0:0:0:0:
384,96,163571,1,12,0:0:0:0:
384,96,163857,1,12,0:0:0:0:
384,96,164143,1,12,0:0:0:0:
256,192,164429,1,0,0:0:0:0:
256,192,164500,1,0,0:0:0:0:
256,192,164571,1,8,0:0:0:0:
256,192,164714,1,0,0:0:0:0:
256,192,164786,1,8,0:0:0:0:
256,192,164857,1,8,0:0:0:0:
256,192,165000,1,0,0:0:0:0:
256,192,165071,1,0,0:0:0:0:
256,192,165143,1,8,0:0:0:0:
256,192,165286,1,8,0:0:0:0:
256,192,165357,1,8,0:0:0:0:
256,192,165429,1,0,0:0:0:0:
256,192,165571,1,0,0:0:0:0:
256,192,165643,1,0,0:0:0:0:
256,192,165714,1,8,0:0:0:0:
256,192,165786,1,0,0:0:0:0:
256,192,165857,1,0,0:0:0:0:
256,192,165929,1,0,0:0:0:0:
256,192,166000,1,8,0:0:0:0:
256,192,166071,1,0,0:0:0:0:
256,192,166143,1,8,0:0:0:0:
256,192,166214,1,8,0:0:0:0:
256,192,166286,1,0,0:0:0:0:
256,192,166357,1,0,0:0:0:0:
256,192,166429,1,0,0:0:0:0:
256,192,166500,1,0,0:0:0:0:
256,192,166571,1,8,0:0:0:0:
256,192,166714,1,0,0:0:0:0:
256,192,166786,1,0,0:0:0:0:
256,192,166857,1,8,0:0:0:0:
256,192,167000,1,0,0:0:0:0:
256,192,167071,1,0,0:0:0:0:
256,192,167143,1,8,0:0:0:0:
256,192,167214,1,8,0:0:0:0:
256,192,167286,1,0,0:0:0:0:
256,192,167429,1,8,0:0:0:0:
256,192,167571,1,0,0:0:0:0:
256,192,167643,1,8,0:0:0:0:
256,192,167714,1,0,0:0:0:0:
256,192,167809,1,0,0:0:0:0:
256,192,167905,1,0,0:0:0:0:
256,192,168000,1,8,0:0:0:0:
256,192,168286,1,8,0:0:0:0:
256,192,168381,1,0,0:0:0:0:
256,192,168476,1,0,0:0:0:0:
256,192,168571,1,8,0:0:0:0:
256,192,168857,1,8,0:0:0:0:
256,192,168952,1,8,0:0:0:0:
256,192,169048,1,0,0:0:0:0:
256,192,169143,1,8,0:0:0:0:
256,192,169238,1,0,0:0:0:0:
256,192,169333,1,0,0:0:0:0:
256,192,169429,1,8,0:0:0:0:
256,192,169524,1,8,0:0:0:0:
256,192,169619,1,8,0:0:0:0:
256,192,169714,1,0,0:0:0:0:
256,192,169809,1,0,0:0:0:0:
256,192,169905,1,8,0:0:0:0:
384,96,170286,1,12,0:0:0:0:
256,192,170571,1,0,0:0:0:0:
256,192,170667,1,8,0:0:0:0:
256,192,170762,1,0,0:0:0:0:
256,192,170857,1,8,0:0:0:0:
256,192,170952,1,8,0:0:0:0:
256,192,171048,1,0,0:0:0:0:
256,192,171143,1,0,0:0:0:0:
256,192,171238,1,8,0:0:0:0:
256,192,171333,1,0,0:0:0:0:
256,192,171429,1,8,0:0:0:0:
256,192,171714,1,0,0:0:0:0:
256,192,171809,1,0,0:0:0:0:
256,192,171905,1,8,0:0:0:0:
256,192,172000,1,8,0:0:0:0:
256,192,172095,1,0,0:0:0:0:
256,192,172190,1,8,0:0:0:0:
256,192,172286,1,0,0:0:0:0:
256,192,172476,1,0,0:0:0:0:
256,192,172571,1,8,0:0:0:0:
256,192,172857,1,8,0:0:0:0:
256,192,172952,1,8,0:0:0:0:
256,192,173048,1,0,0:0:0:0:
256,192,173143,1,8,0:0:0:0:
256,192,173238,1,0,0:0:0:0:
256,192,173333,1,0,0:0:0:0:
256,192,173429,1,8,0:0:0:0:
256,192,173524,1,8,0:0:0:0:
256,192,173619,1,0,0:0:0:0:
256,192,173714,1,8,0:0:0:0:
256,192,173809,1,0,0:0:0:0:
256,192,174000,1,8,0:0:0:0:
256,192,174095,1,8,0:0:0:0:
256,192,174190,1,0,0:0:0:0:
256,192,174286,1,8,0:0:0:0:
256,192,174381,1,0,0:0:0:0:
256,192,174476,1,0,0:0:0:0:
256,192,174571,1,0,0:0:0:0:
256,192,174762,1,0,0:0:0:0:
256,192,174857,1,8,0:0:0:0:
256,192,175143,1,0,0:0:0:0:
256,192,175238,1,8,0:0:0:0:
256,192,175333,1,0,0:0:0:0:
256,192,175429,1,8,0:0:0:0:
256,192,175524,1,0,0:0:0:0:
256,192,175619,1,8,0:0:0:0:
256,192,175714,1,0,0:0:0:0:
256,192,175809,1,0,0:0:0:0:
256,192,175905,1,0,0:0:0:0:
256,192,176000,1,8,0:0:0:0:
256,192,176190,1,8,0:0:0:0:
256,192,176286,1,0,0:0:0:0:
256,192,176381,1,0,0:0:0:0:
256,192,176476,1,8,0:0:0:0:
256,192,176571,1,8,0:0:0:0:
256,192,176667,1,0,0:0:0:0:
256,192,176762,1,8,0:0:0:0:
256,192,176857,1,0,0:0:0:0:
256,192,177048,1,0,0:0:0:0:
256,192,177143,1,8,0:0:0:0:
256,192,177333,1,0,0:0:0:0:
256,192,177429,1,8,0:0:0:0:
256,192,177524,1,8,0:0:0:0:
256,192,177619,1,0,0:0:0:0:
256,192,177714,1,8,0:0:0:0:
256,192,177809,1,8,0:0:0:0:
256,192,177905,1,0,0:0:0:0:
256,192,178000,1,0,0:0:0:0:
256,192,178095,1,8,0:0:0:0:
256,192,178190,1,0,0:0:0:0:
256,192,178286,1,8,0:0:0:0:
256,192,178381,1,0,0:0:0:0:
256,192,178571,1,8,0:0:0:0:
256,192,178667,1,8,0:0:0:0:
256,192,178762,1,0,0:0:0:0:
256,192,178857,1,8,0:0:0:0:
256,192,178952,1,0,0:0:0:0:
256,192,179048,1,0,0:0:0:0:
256,192,179143,1,0,0:0:0:0:
256,192,179333,1,0,0:0:0:0:
256,192,179429,1,8,0:0:0:0:
256,192,179714,1,8,0:0:0:0:
256,192,179809,1,8,0:0:0:0:
256,192,179905,1,0,0:0:0:0:
256,192,180000,1,8,0:0:0:0:
256,192,180095,1,0,0:0:0:0:
256,192,180190,1,0,0:0:0:0:
256,192,180286,1,8,0:0:0:0:
256,192,180381,1,0,0:0:0:0:
256,192,180476,1,0,0:0:0:0:
256,192,180571,1,8,0:0:0:0:
256,192,180857,1,0,0:0:0:0:
256,192,180952,1,0,0:0:0:0:
256,192,181048,1,0,0:0:0:0:
256,192,181143,1,8,0:0:0:0:
256,192,181238,1,8,0:0:0:0:
256,192,181333,1,8,0:0:0:0:
256,192,181429,1,0,0:0:0:0:
256,192,181619,1,0,0:0:0:0:
256,192,181714,1,8,0:0:0:0:
256,192,182000,1,8,0:0:0:0:
256,192,182095,1,8,0:0:0:0:
256,192,182190,1,0,0:0:0:0:
256,192,182286,1,8,0:0:0:0:
256,192,182381,1,0,0:0:0:0:
256,192,182476,1,8,0:0:0:0:
256,192,182571,1,8,0:0:0:0:
256,192,182667,1,8,0:0:0:0:
256,192,182762,1,0,0:0:0:0:
256,192,182857,1,8,0:0:0:0:
256,192,182952,1,0,0:0:0:0:
256,192,183143,1,8,0:0:0:0:
256,192,183238,1,8,0:0:0:0:
256,192,183333,1,0,0:0:0:0:
256,192,183429,1,8,0:0:0:0:
256,192,183524,1,0,0:0:0:0:
256,192,183619,1,8,0:0:0:0:
256,192,183714,1,0,0:0:0:0:
256,192,183905,1,0,0:0:0:0:
256,192,184000,1,8,0:0:0:0:
256,192,184190,1,0,0:0:0:0:
256,192,184286,1,0,0:0:0:0:
256,192,184381,1,8,0:0:0:0:
256,192,184476,1,0,0:0:0:0:
256,192,184571,1,8,0:0:0:0:
256,192,184667,1,0,0:0:0:0:
256,192,184762,1,8,0:0:0:0:
256,192,184857,1,8,0:0:0:0:
256,192,184952,1,0,0:0:0:0:
256,192,185048,1,0,0:0:0:0:
256,192,185143,1,8,0:0:0:0:
256,192,185333,1,8,0:0:0:0:
256,192,185429,1,8,0:0:0:0:
256,192,185524,1,0,0:0:0:0:
256,192,185619,1,0,0:0:0:0:
256,192,185714,1,8,0:0:0:0:
256,192,185809,1,0,0:0:0:0:
256,192,185905,1,0,0:0:0:0:
256,192,186000,1,8,0:0:0:0:
256,192,186190,1,0,0:0:0:0:
256,192,186286,1,8,0:0:0:0:
256,192,186381,1,0,0:0:0:0:
256,192,186476,1,0,0:0:0:0:
256,192,186571,1,8,0:0:0:0:
256,192,186667,1,8,0:0:0:0:
256,192,186762,1,0,0:0:0:0:
256,192,186857,1,8,0:0:0:0:
256,192,186952,1,0,0:0:0:0:
256,192,187048,1,0,0:0:0:0:
256,192,187143,1,8,0:0:0:0:
256,192,187238,1,8,0:0:0:0:
256,192,187333,1,0,0:0:0:0:
256,192,187429,1,8,0:0:0:0:
256,192,187524,1,0,0:0:0:0:
256,192,187619,1,0,0:0:0:0:
256,192,187714,1,8,0:0:0:0:
256,192,187809,1,8,0:0:0:0:
256,192,187905,1,0,0:0:0:0:
256,192,188000,1,8,0:0:0:0:
256,192,188095,1,8,0:0:0:0:
256,192,188190,1,0,0:0:0:0:
256,192,188286,1,8,0:0:0:0:
256,192,188661,1,0,0:0:0:0:
256,192,189036,1,8,0:0:0:0:
256,192,189411,1,0,0:0:0:0:
256,192,189598,1,0,0:0:0:0:
256,192,189786,1,8,0:0:0:0:
256,192,190161,1,0,0:0:0:0:
256,192,190536,1,0,0:0:0:0:
256,192,190629,1,0,0:0:0:0:
256,192,190723,1,0,0:0:0:0:
256,192,190911,1,8,0:0:0:0:
256,192,191098,1,0,0:0:0:0:
256,192,191286,1,8,0:0:0:0:
256,192,191661,1,0,0:0:0:0:
256,192,192036,1,8,0:0:0:0:
256,192,192317,1,0,0:0:0:0:
256,192,192411,1,8,0:0:0:0:
256,192,192598,1,0,0:0:0:0:
256,192,192786,1,8,0:0:0:0:
256,192,193161,1,0,0:0:0:0:
256,192,193536,1,8,0:0:0:0:
256,192,193629,1,0,0:0:0:0:
256,192,193723,1,0,0:0:0:0:
256,192,193911,1,8,0:0:0:0:
256,192,194098,1,0,0:0:0:0:
256,192,194192,1,0,0:0:0:0:
256,192,194286,1,8,0:0:0:0:
256,192,194473,1,0,0:0:0:0:
256,192,194567,1,8,0:0:0:0:
256,192,194661,1,8,0:0:0:0:
256,192,194848,1,0,0:0:0:0:
256,192,195036,1,8,0:0:0:0:
256,192,195129,1,8,0:0:0:0:
256,192,195223,1,0,0:0:0:0:
256,192,195411,1,8,0:0:0:0:
256,192,195598,1,0,0:0:0:0:
256,192,195692,1,0,0:0:0:0:
256,192,195786,1,8,0:0:0:0:
256,192,195973,1,8,0:0:0:0:
256,192,196067,1,0,0:0:0:0:
256,192,196161,1,8,0:0:0:0:
256,192,196348,1,0,0:0:0:0:
256,192,196536,1,8,0:0:0:0:
256,192,196629,1,0,0:0:0:0:
256,192,196723,1,0,0:0:0:0:
256,192,196911,1,8,0:0:0:0:
256,192,197098,1,0,0:0:0:0:
256,192,197192,1,0,0:0:0:0:
256,192,197286,1,8,0:0:0:0:
256,192,197379,1,0,0:0:0:0:
256,192,197473,1,8,0:0:0:0:
256,192,197567,1,8,0:0:0:0:
256,192,197661,1,0,0:0:0:0:
256,192,197754,1,0,0:0:0:0:
256,192,197848,1,8,0:0:0:0:
256,192,197942,1,8,0:0:0:0:
256,192,198036,1,0,0:0:0:0:
256,192,198129,1,0,0:0:0:0:
256,192,198223,1,8,0:0:0:0:
256,192,198317,1,0,0:0:0:0:
256,192,198411,1,8,0:0:0:0:
256,192,198504,1,8,0:0:0:0:
256,192,198598,1,0,0:0:0:0:
256,192,198692,1,0,0:0:0:0:
256,192,198786,1,8,0:0:0:0:
256,192,198848,1,8,0:0:0:0:
256,192,198911,1,8,0:0:0:0:
256,192,198973,1,0,0:0:0:0:
256,192,199067,1,0,0:0:0:0:
256,192,199161,1,8,0:0:0:0:
256,192,199223,1,8,0:0:0:0:
256,192,199286,1,8,0:0:0:0:
256,192,199348,1,0,0:0:0:0:
256,192,199442,1,0,0:0:0:0:
256,192,199536,1,0,0:0:0:0:
256,192,199598,1,0,0:0:0:0:
256,192,199661,1,0,0:0:0:0:
256,192,199723,1,8,0:0:0:0:
256,192,199817,1,0,0:0:0:0:
256,192,199911,1,8,0:0:0:0:
256,192,199973,1,0,0:0:0:0:
256,192,200036,1,0,0:0:0:0:
256,192,200098,1,8,0:0:0:0:
256,192,200192,1,0,0:0:0:0:
256,192,200286,1,8,0:0:0:0:
256,192,200379,1,0,0:0:0:0:
256,192,200473,1,0,0:0:0:0:
256,192,200567,1,0,0:0:0:0:
256,192,200661,1,8,0:0:0:0:
256,192,200754,1,8,0:0:0:0:
256,192,200848,1,0,0:0:0:0:
256,192,200942,1,0,0:0:0:0:
256,192,201036,1,8,0:0:0:0:
256,192,201129,1,0,0:0:0:0:
256,192,201223,1,0,0:0:0:0:
256,192,201317,1,0,0:0:0:0:
256,192,201411,1,8,0:0:0:0:
256,192,201504,1,8,0:0:0:0:
256,192,201598,1,0,0:0:0:0:
256,192,201692,1,0,0:0:0:0:
256,192,201786,1,8,0:0:0:0:
256,192,201879,1,0,0:0:0:0:
256,192,201973,1,0,0:0:0:0:
256,192,202067,1,0,0:0:0:0:
256,192,202161,1,8,0:0:0:0:
256,192,202254,1,8,0:0:0:0:
256,192,202348,1,0,0:0:0:0:
256,192,202442,1,0,0:0:0:0:
256,192,202536,1,8,0:0:0:0:
256,192,202629,1,0,0:0:0:0:
256,192,202723,1,0,0:0:0:0:
256,192,202817,1,0,0:0:0:0:
256,192,202911,1,8,0:0:0:0:
256,192,203004,1,8,0:0:0:0:
256,192,203098,1,0,0:0:0:0:
256,192,203192,1,0,0:0:0:0:
256,192,203286,1,8,0:0:0:0:
256,192,203379,1,0,0:0:0:0:
256,192,203473,1,0,0:0:0:0:
256,192,203567,1,0,0:0:0:0:
256,192,203661,1,8,0:0:0:0:
256,192,203754,1,0,0:0:0:0:
256,192,203848,1,0,0:0:0:0:
256,192,203942,1,0,0:0:0:0:
256,192,204036,1,8,0:0:0:0:
256,192,204129,1,8,0:0:0:0:
256,192,204223,1,0,0:0:0:0:
256,192,204317,1,0,0:0:0:0:
256,192,204411,1,8,0:0:0:0:
256,192,204504,1,8,0:0:0:0:
256,192,204598,1,0,0:0:0:0:
256,192,204692,1,0,0:0:0:0:
256,192,204786,1,8,0:0:0:0:
256,192,204879,1,0,0:0:0:0:
256,192,204973,1,0,0:0:0:0:
256,192,205067,1,0,0:0:0:0:
256,192,205161,1,8,0:0:0:0:
256,192,205254,1,0,0:0:0:0:
256,192,205348,1,0,0:0:0:0:
256,192,205442,1,0,0:0:0:0:
256,192,205536,1,8,0:0:0:0:
256,192,205629,1,8,0:0:0:0:
256,192,205723,1,0,0:0:0:0:
256,192,205817,1,0,0:0:0:0:
256,192,205911,1,8,0:0:0:0:
256,192,206004,1,8,0:0:0:0:
256,192,206098,1,0,0:0:0:0:
256,192,206192,1,0,0:0:0:0:
256,192,206286,1,8,0:0:0:0:
256,192,206379,1,0,0:0:0:0:
256,192,206473,1,0,0:0:0:0:
256,192,206567,1,0,0:0:0:0:
256,192,206661,1,8,0:0:0:0:
256,192,206754,1,0,0:0:0:0:
256,192,206848,1,0,0:0:0:0:
256,192,206942,1,0,0:0:0:0:
256,192,207036,1,8,0:0:0:0:
256,192,207129,1,0,0:0:0:0:
256,192,207223,1,0,0:0:0:0:
256,192,207317,1,8,0:0:0:0:
256,192,207411,1,0,0:0:0:0:
256,192,207504,1,0,0:0:0:0:
256,192,207598,1,8,0:0:0:0:
256,192,207692,1,8,0:0:0:0:
256,192,207786,1,0,0:0:0:0:
256,192,207879,1,8,0:0:0:0:
256,192,207973,1,0,0:0:0:0:
256,192,208067,1,0,0:0:0:0:
256,192,208161,1,8,0:0:0:0:
256,192,208254,1,8,0:0:0:0:
256,192,208348,1,0,0:0:0:0:
256,192,208442,1,0,0:0:0:0:
256,192,208536,1,8,0:0:0:0:
256,192,208629,1,0,0:0:0:0:
256,192,208723,1,8,0:0:0:0:
256,192,208817,1,8,0:0:0:0:
256,192,208911,1,0,0:0:0:0:
256,192,209004,1,0,0:0:0:0:
256,192,209098,1,8,0:0:0:0:
256,192,209192,1,8,0:0:0:0:
256,192,209286,1,0,0:0:0:0:
256,192,209379,1,0,0:0:0:0:
256,192,209473,1,8,0:0:0:0:
256,192,209567,1,0,0:0:0:0:
256,192,209661,1,8,0:0:0:0:
256,192,209754,1,8,0:0:0:0:
256,192,209848,1,0,0:0:0:0:
256,192,209942,1,0,0:0:0:0:
256,192,210036,1,8,0:0:0:0:
256,192,210129,1,8,0:0:0:0:
256,192,210223,1,8,0:0:0:0:
256,192,210317,1,8,0:0:0:0:
256,192,210411,1,0,0:0:0:0:
256,192,210504,1,0,0:0:0:0:
256,192,210598,1,8,0:0:0:0:
256,192,210692,1,8,0:0:0:0:
256,192,210786,1,0,0:0:0:0:
256,192,210879,1,8,0:0:0:0:
256,192,210973,1,0,0:0:0:0:
256,192,211067,1,8,0:0:0:0:
256,192,211161,1,0,0:0:0:0:
256,192,211254,1,0,0:0:0:0:
256,192,211348,1,0,0:0:0:0:
256,192,211442,1,0,0:0:0:0:
256,192,211536,1,8,0:0:0:0:
256,192,211629,1,8,0:0:0:0:
256,192,211723,1,0,0:0:0:0:
256,192,211817,1,8,0:0:0:0:
256,192,211911,1,8,0:0:0:0:
256,192,212004,1,0,0:0:0:0:
256,192,212098,1,8,0:0:0:0:
256,192,212192,1,8,0:0:0:0:
256,192,212286,1,0,0:0:0:0:
256,192,212473,1,0,0:0:0:0:
256,192,212567,1,0,0:0:0:0:
256,192,212661,1,0,0:0:0:0:
256,192,212754,1,8,0:0:0:0:
256,192,212942,1,0,0:0:0:0:
256,192,213036,1,8,0:0:0:0:
256,192,213223,1,0,0:0:0:0:
256,192,213317,1,8,0:0:0:0:
256,192,213411,1,0,0:0:0:0:
256,192,213598,1,8,0:0:0:0:
256,192,213692,1,8,0:0:0:0:
256,192,213786,1,0,0:0:0:0:
256,192,213973,1,8,0:0:0:0:
256,192,214067,1,8,0:0:0:0:
256,192,214161,1,0,0:0:0:0:
256,192,214254,1,8,0:0:0:0:
256,192,214442,1,0,0:0:0:0:
256,192,214536,1,8,0:0:0:0:
256,192,214723,1,0,0:0:0:0:
256,192,214817,1,8,0:0:0:0:
256,192,214911,1,0,0:0:0:0:
256,192,215098,1,0,0:0:0:0:
256,192,215192,1,8,0:0:0:0:
256,192,215286,1,8,0:0:0:0:
256,192,215473,1,8,0:0:0:0:
256,192,215567,1,8,0:0:0:0:
256,192,215661,1,0,0:0:0:0:
256,192,215754,1,8,0:0:0:0:
256,192,215848,1,0,0:0:0:0:
256,192,215942,1,0,0:0:0:0:
256,192,216036,1,8,0:0:0:0:
256,192,216223,1,0,0:0:0:0:
256,192,216317,1,8,0:0:0:0:
256,192,216411,1,0,0:0:0:0:
256,192,216598,1,8,0:0:0:0:
256,192,216692,1,8,0:0:0:0:
256,192,216786,1,0,0:0:0:0:
256,192,216973,1,0,0:0:0:0:
256,192,217067,1,8,0:0:0:0:
256,192,217161,1,0,0:0:0:0:
256,192,217348,1,8,0:0:0:0:
256,192,217442,1,0,0:0:0:0:
256,192,217536,1,0,0:0:0:0:
256,192,217629,1,8,0:0:0:0:
256,192,217817,1,0,0:0:0:0:
256,192,217911,1,8,0:0:0:0:
256,192,218098,1,8,0:0:0:0:
256,192,218192,1,8,0:0:0:0:
256,192,218286,1,0,0:0:0:0:
256,192,218473,1,0,0:0:0:0:
256,192,218567,1,0,0:0:0:0:
256,192,218661,1,0,0:0:0:0:
256,192,218754,1,8,0:0:0:0:
256,192,218942,1,0,0:0:0:0:
256,192,219036,1,8,0:0:0:0:
256,192,219223,1,8,0:0:0:0:
256,192,219317,1,8,0:0:0:0:
256,192,219411,1,0,0:0:0:0:
256,192,219598,1,0,0:0:0:0:
256,192,219692,1,0,0:0:0:0:
256,192,219786,1,8,0:0:0:0:
256,192,219973,1,0,0:0:0:0:
256,192,220067,1,8,0:0:0:0:
256,192,220161,1,8,0:0:0:0:
256,192,220254,1,0,0:0:0:0:
256,192,220442,1,0,0:0:0:0:
256,192,220536,1,8,0:0:0:0:
256,192,220723,1,0,0:0:0:0:
256,192,220817,1,8,0:0:0:0:
256,192,220911,1,8,0:0:0:0:
256,192,221098,1,8,0:0:0:0:
256,192,221192,1,8,0:0:0:0:
256,192,221286,1,0,0:0:0:0:
256,192,221473,1,8,0:0:0:0:
256,192,221567,1,8,0:0:0:0:
256,192,221661,1,0,0:0:0:0:
256,192,221754,1,8,0:0:0:0:
256,192,221848,1,8,0:0:0:0:
256,192,221942,1,8,0:0:0:0:
256,192,222036,1,0,0:0:0:0:
256,192,222223,1,0,0:0:0:0:
256,192,222317,1,8,0:0:0:0:
256,192,222411,1,0,0:0:0:0:
256,192,222598,1,8,0:0:0:0:
256,192,222692,1,8,0:0:0:0:
256,192,222786,1,0,0:0:0:0:
256,192,222973,1,0,0:0:0:0:
256,192,223067,1,8,0:0:0:0:
256,192,223254,1,8,0:0:0:0:
256,192,223348,1,8,0:0:0:0:
256,192,223442,1,0,0:0:0:0:
256,192,223536,1,0,0:0:0:0:
256,192,223629,1,8,0:0:0:0:
256,192,223817,1,8,0:0:0:0:
256,192,223911,1,0,0:0:0:0:
256,192,224098,1,8,0:0:0:0:
256,192,224192,1,8,0:0:0:0:
256,192,224286,1,0,0:0:0:0:
256,192,224462,1,0,0:0:0:0:
256,192,224550,1,0,0:0:0:0:
256,192,224638,1,0,0:0:0:0:
256,192,224727,1,8,0:0:0:0:
256,192,224903,1,0,0:0:0:0:
256,192,224991,1,8,0:0:0:0:
256,192,225168,1,8,0:0:0:0:
256,192,225256,1,0,0:0:0:0:
256,192,225344,1,8,0:0:0:0:
256,192,225521,1,8,0:0:0:0:
256,192,225609,1,8,0:0:0:0:
256,192,225697,1,0,0:0:0:0:
256,192,225874,1,8,0:0:0:0:
256,192,225962,1,8,0:0:0:0:
256,192,226050,1,0,0:0:0:0:
256,192,226138,1,8,0:0:0:0:
256,192,226315,1,0,0:0:0:0:
256,192,226403,1,8,0:0:0:0:
256,192,226580,1,0,0:0:0:0:
256,192,226668,1,8,0:0:0:0:
256,192,226756,1,8,0:0:0:0:
256,192,226933,1,0,0:0:0:0:
256,192,227021,1,8,0:0:0:0:
256,192,227109,1,0,0:0:0:0:
256,192,227275,1,0,0:0:0:0:
256,192,227359,1,8,0:0:0:0:
256,192,227442,1,0,0:0:0:0:
256,192,227525,1,8,0:0:0:0:
256,192,227609,1,8,0:0:0:0:
256,192,227692,1,0,0:0:0:0:
256,192,227775,1,8,0:0:0:0:
256,192,227942,1,8,0:0:0:0:
256,192,228025,1,0,0:0:0:0:
256,192,228109,1,0,0:0:0:0:
256,192,228275,1,8,0:0:0:0:
256,192,228359,1,8,0:0:0:0:
256,192,228442,1,0,0:0:0:0:
256,192,228609,1,8,0:0:0:0:
256,192,228692,1,8,0:0:0:0:
256,192,228775,1,0,0:0:0:0:
256,192,228859,1,0,0:0:0:0:
256,192,228942,1,8,0:0:0:0:
256,192,229109,1,0,0:0:0:0:
256,192,229192,1,8,0:0:0:0:
256,192,229275,1,0,0:0:0:0:
256,192,229359,1,0,0:0:0:0:
256,192,229442,1,8,0:0:0:0:
256,192,229609,1,8,0:0:0:0:
256,192,229692,1,8,0:0:0:0:
256,192,229775,1,0,0:0:0:0:
256,192,229932,1,8,0:0:0:0:
256,192,230011,1,0,0:0:0:0:
256,192,230090,1,0,0:0:0:0:
256,192,230169,1,8,0:0:0:0:
256,192,230327,1,0,0:0:0:0:
256,192,230406,1,8,0:0:0:0:
256,192,230564,1,0,0:0:0:0:
256,192,230643,1,8,0:0:0:0:
256,192,230722,1,0,0:0:0:0:
256,192,230880,1,8,0:0:0:0:
256,192,230959,1,8,0:0:0:0:
256,192,231038,1,0,0:0:0:0:
256,192,231196,1,0,0:0:0:0:
256,192,231275,1,8,0:0:0:0:
256,192,231353,1,0,0:0:0:0:
256,192,231432,1,8,0:0:0:0:
256,192,231590,1,0,0:0:0:0:
256,192,231669,1,8,0:0:0:0:
256,192,231748,1,8,0:0:0:0:
256,192,231827,1,0,0:0:0:0:
256,192,231906,1,8,0:0:0:0:
256,192,231985,1,0,0:0:0:0:
256,192,232143,1,8,0:0:0:0:
256,192,232222,1,8,0:0:0:0:
256,192,232301,1,0,0:0:0:0:
256,192,232451,1,0,0:0:0:0:
256,192,232526,1,8,0:0:0:0:
256,192,232601,1,8,0:0:0:0:
256,192,232676,1,0,0:0:0:0:
256,192,232826,1,8,0:0:0:0:
256,192,232901,1,0,0:0:0:0:
256,192,233051,1,0,0:0:0:0:
256,192,233126,1,8,0:0:0:0:
256,192,233201,1,0,0:0:0:0:
256,192,233351,1,8,0:0:0:0:
256,192,233426,1,0,0:0:0:0:
256,192,233501,1,0,0:0:0:0:
256,192,233576,1,0,0:0:0:0:
256,192,233651,1,8,0:0:0:0:
256,192,233726,1,8,0:0:0:0:
256,192,233801,1,0,0:0:0:0:
256,192,233876,1,0,0:0:0:0:
256,192,233951,1,8,0:0:0:0:
256,192,234026,1,0,0:0:0:0:
256,192,234101,1,8,0:0:0:0:
256,192,234176,1,8,0:0:0:0:
256,192,234251,1,0,0:0:0:0:
256,192,234326,1,0,0:0:0:0:
256,192,234401,1,8,0:0:0:0:
256,192,234476,1,0,0:0:0:0:
256,192,234551,1,8,0:0:0:0:
256,192,234626,1,8,0:0:0:0:
256,192,234701,1,0,0:0:0:0:
256,192,235129,1,0,0:0:0:0:
256,192,235272,1,8,0:0:0:0:
256,192,235558,1,0,0:0:0:0:
256,192,235701,1,8,0:0:0:0:
256,192,235843,1,0,0:0:0:0:
256,192,236058,1,0,0:0:0:0:
256,192,236129,1,0,0:0:0:0:
256,192,236272,1,0,0:0:0:0:
256,192,236415,1,8,0:0:0:0:
256,192,236558,1,0,0:0:0:0:
256,192,236629,1,0,0:0:0:0:
256,192,236701,1,0,0:0:0:0:
256,192,236843,1,0,0:0:0:0:
256,192,236986,1,8,0:0:0:0:
256,192,237272,1,0,0:0:0:0:
256,192,237415,1,0,0:0:0:0:
256,192,237558,1,8,0:0:0:0:
256,192,237843,1,8,0:0:0:0:
256,192,237986,1,8,0:0:0:0:
256,192,238129,1,0,0:0:0:0:
256,192,238272,1,0,0:0:0:0:
256,192,238343,1,0,0:0:0:0:
256,192,238415,1,0,0:0:0:0:
256,192,238558,1,0,0:0:0:0:
256,192,238701,1,8,0:0:0:0:
256,192,238843,1,0,0:0:0:0:
256,192,238986,1,8,0:0:0:0:
256,192,239058,1,8,0:0:0:0:
256,192,239129,1,8,0:0:0:0:
256,192,239272,1,0,0:0:0:0:
256,192,239701,1,0,0:0:0:0:
256,192,239843,1,8,0:0:0:0:
256,192,240129,1,0,0:0:0:0:
256,192,240272,1,8,0:0:0:0:
256,192,240415,1,0,0:0:0:0:
256,192,240629,1,0,0:0:0:0:
256,192,240701,1,0,0:0:0:0:
256,192,240843,1,0,0:0:0:0:
256,192,240986,1,8,0:0:0:0:
256,192,241129,1,0,0:0:0:0:
256,192,241201,1,0,0:0:0:0:
256,192,241272,1,8,0:0:0:0:
256,192,241415,1,0,0:0:0:0:
256,192,241558,1,8,0:0:0:0:
256,192,241843,1,0,0:0:0:0:
256,192,241986,1,0,0:0:0:0:
256,192,242129,1,8,0:0:0:0:
256,192,242415,1,0,0:0:0:0:
256,192,242558,1,0,0:0:0:0:
256,192,242701,1,8,0:0:0:0:
256,192,242772,1,0,0:0:0:0:
256,192,242843,1,0,0:0:0:0:
256,192,242986,1,0,0:0:0:0:
256,192,243129,1,8,0:0:0:0:
256,192,243272,1,8,0:0:0:0:
256,192,243320,1,8,0:0:0:0:
256,192,243367,1,8,0:0:0:0:
256,192,243415,1,0,0:0:0:0:
256,192,243462,1,0,0:0:0:0:
256,192,243510,1,0,0:0:0:0:
256,192,243558,1,8,0:0:0:0:
256,192,243605,1,0,0:0:0:0:
256,192,243653,1,8,0:0:0:0:
256,192,243701,1,8,0:0:0:0:
256,192,243748,1,0,0:0:0:0:
256,192,243796,1,0,0:0:0:0:
384,96,243843,1,12,0:0:0:0:
384,96,243986,1,12,0:0:0:0:
256,192,244129,1,8,0:0:0:0:
384,96,244272,1,4,0:0:0:0:
384,96,244415,1,4,0:0:0:0:
256,192,244558,1,0,0:0:0:0:
384,96,244701,1,12,0:0:0:0:
384,96,244843,1,12,0:0:0:0:
256,192,244986,1,8,0:0:0:0:
384,96,245129,1,12,0:0:0:0:
384,96,245272,1,12,0:0:0:0:
256,192,245415,1,0,0:0:0:0:
256,192,245486,1,8,0:0:0:0:
256,192,245558,1,0,0:0:0:0:
256,192,245701,1,0,0:0:0:0:
256,192,245772,1,0,0:0:0:0:
256,192,245843,1,8,0:0:0:0:
256,192,245915,1,0,0:0:0:0:
256,192,245986,1,0,0:0:0:0:
256,192,246058,1,0,0:0:0:0:
384,96,246129,1,12,0:0:0:0:
384,96,246271,1,12,0:0:0:0:
256,192,246415,1,8,0:0:0:0:
384,96,246558,1,4,0:0:0:0:
384,96,246701,1,4,0:0:0:0:
256,192,246843,1,0,0:0:0:0:
384,96,246986,1,12,0:0:0:0:
384,96,247129,1,12,0:0:0:0:
256,192,247272,1,8,0:0:0:0:
384,96,247415,1,12,0:0:0:0:
384,96,247558,1,12,0:0:0:0:
256,192,247701,1,0,0:0:0:0:
256,192,247772,1,0,0:0:0:0:
256,192,247843,1,8,0:0:0:0:
256,192,247915,1,8,0:0:0:0:
256,192,247986,1,0,0:0:0:0:
256,192,248058,1,0,0:0:0:0:
256,192,248129,1,8,0:0:0:0:
256,192,248201,1,0,0:0:0:0:
256,192,248272,1,0,0:0:0:0:
256,192,248343,1,0,0:0:0:0:
384,96,248415,1,12,0:0:0:0:
384,96,248558,1,12,0:0:0:0:
256,192,248701,1,8,0:0:0:0:
384,96,248843,1,4,0:0:0:0:
384,96,248986,1,4,0:0:0:0:
256,192,249129,1,0,0:0:0:0:
384,96,249272,1,12,0:0:0:0:
384,96,249415,1,12,0:0:0:0:
256,192,249558,1,8,0:0:0:0:
384,96,249701,1,12,0:0:0:0:
384,96,249843,1,12,0:0:0:0:
256,192,249986,1,0,0:0:0:0:
256,192,250058,1,8,0:0:0:0:
256,192,250129,1,0,0:0:0:0:
256,192,250272,1,0,0:0:0:0:
256,192,250343,1,0,0:0:0:0:
256,192,250415,1,8,0:0:0:0:
256,192,250486,1,0,0:0:0:0:
256,192,250558,1,0,0:0:0:0:
256,192,250629,1,0,0:0:0:0:
384,96,250701,1,12,0:0:0:0:
384,96,250843,1,12,0:0:0:0:
256,192,250986,1,8,0:0:0:0:
384,96,251129,1,4,0:0:0:0:
384,96,251272,1,12,0:0:0:0:
256,192,251415,1,0,0:0:0:0:
384,96,251558,1,12,0:0:0:0:
384,96,251701,1,12,0:0:0:0:
256,192,251843,1,8,0:0:0:0:
384,96,251986,1,12,0:0:0:0:
384,96,252129,1,12,0:0:0:0:
256,192,252272,1,8,0:0:0:0:
256,192,252343,1,0,0:0:0:0:
256,192,252415,1,8,0:0:0:0:
256,192,252486,1,8,0:0:0:0:
256,192,252558,1,0,0:0:0:0:
256,192,252629,1,0,0:0:0:0:
256,192,252701,1,8,0:0:0:0:
256,192,252843,1,0,0:0:0:0:
256,192,252915,1,0,0:0:0:0:
256,192,252986,1,8,0:0:0:0:
256,192,253058,1,0,0:0:0:0:
256,192,253129,1,0,0:0:0:0:
256,192,253201,1,8,0:0:0:0:
256,192,253272,1,0,0:0:0:0:
256,192,253343,1,0,0:0:0:0:
256,192,253415,1,8,0:0:0:0:
256,192,253486,1,0,0:0:0:0:
256,192,253558,1,8,0:0:0:0:
256,192,253629,1,0,0:0:0:0:
256,192,253701,1,0,0:0:0:0:
256,192,253772,1,8,0:0:0:0:
256,192,253843,1,0,0:0:0:0:
256,192,253915,1,0,0:0:0:0:
256,192,253986,1,8,0:0:0:0:
256,192,254058,1,8,0:0:0:0:
256,192,254129,1,8,0:0:0:0:
256,192,254201,1,0,0:0:0:0:
256,192,254272,1,0,0:0:0:0:
256,192,254343,1,8,0:0:0:0:
256,192,254415,1,0,0:0:0:0:
256,192,254486,1,0,0:0:0:0:
256,192,254558,1,8,0:0:0:0:
256,192,254629,1,0,0:0:0:0:
256,192,254701,1,0,0:0:0:0:
256,192,254772,1,0,0:0:0:0:
256,192,254843,1,8,0:0:0:0:
256,192,254986,1,8,0:0:0:0:
256,192,255129,1,0,0:0:0:0:
256,192,255272,1,8,0:0:0:0:
256,192,255343,1,0,0:0:0:0:
256,192,255415,1,0,0:0:0:0:
256,192,255486,1,8,0:0:0:0:
256,192,255558,1,0,0:0:0:0:
256,192,255629,1,0,0:0:0:0:
256,192,255701,1,8,0:0:0:0:
256,192,255772,1,0,0:0:0:0:
256,192,255843,1,8,0:0:0:0:
256,192,255915,1,8,0:0:0:0:
256,192,255986,1,0,0:0:0:0:
256,192,256058,1,8,0:0:0:0:
256,192,256129,1,8,0:0:0:0:
256,192,256201,1,0,0:0:0:0:
256,192,256272,1,8,0:0:0:0:
256,192,256343,1,8,0:0:0:0:
256,192,256415,1,8,0:0:0:0:
256,192,256486,1,0,0:0:0:0:
256,192,256558,1,0,0:0:0:0:
256,192,256629,1,8,0:0:0:0:
256,192,256701,1,0,0:0:0:0:
256,192,256772,1,0,0:0:0:0:
256,192,256843,1,8,0:0:0:0:
256,192,256915,1,0,0:0:0:0:
256,192,256986,1,8,0:0:0:0:
256,192,257129,1,0,0:0:0:0:
256,192,257201,1,0,0:0:0:0:
256,192,257272,1,8,0:0:0:0:
256,192,257415,1,0,0:0:0:0:
256,192,257558,1,8,0:0:0:0:
256,192,257629,1,0,0:0:0:0:
256,192,257701,1,0,0:0:0:0:
256,192,257772,1,8,0:0:0:0:
256,192,257843,1,0,0:0:0:0:
256,192,257915,1,0,0:0:0:0:
256,192,257986,1,8,0:0:0:0:
256,192,258058,1,0,0:0:0:0:
256,192,258129,1,8,0:0:0:0:
256,192,258201,1,0,0:0:0:0:
256,192,258272,1,0,0:0:0:0:
256,192,258343,1,8,0:0:0:0:
256,192,258415,1,0,0:0:0:0:
256,192,258486,1,0,0:0:0:0:
256,192,258558,1,8,0:0:0:0:
256,192,258629,1,8,0:0:0:0:
256,192,258701,1,8,0:0:0:0:
256,192,258772,1,0,0:0:0:0:
256,192,258843,1,0,0:0:0:0:
256,192,258915,1,8,0:0:0:0:
256,192,258986,1,0,0:0:0:0:
256,192,259058,1,0,0:0:0:0:
256,192,259129,1,8,0:0:0:0:
256,192,259201,1,0,0:0:0:0:
256,192,259272,1,8,0:0:0:0:
256,192,259320,1,0,0:0:0:0:
256,192,259367,1,8,0:0:0:0:
256,192,259415,1,0,0:0:0:0:
256,192,259486,1,0,0:0:0:0:
256,192,259558,1,8,0:0:0:0:
256,192,259605,1,8,0:0:0:0:
256,192,259653,1,8,0:0:0:0:
256,192,259701,1,0,0:0:0:0:
256,192,259772,1,0,0:0:0:0:
256,192,259843,1,8,0:0:0:0:
256,192,259915,1,0,0:0:0:0:
256,192,259986,1,0,0:0:0:0:
256,192,260058,1,8,0:0:0:0:
256,192,260129,1,0,0:0:0:0:
256,192,260201,1,0,0:0:0:0:
256,192,260272,1,8,0:0:0:0:
256,192,260343,1,0,0:0:0:0:
256,192,260415,1,8,0:0:0:0:
256,192,260486,1,0,0:0:0:0:
256,192,260558,1,0,0:0:0:0:
256,192,260629,1,8,0:0:0:0:
256,192,260701,1,0,0:0:0:0:
256,192,260772,1,0,0:0:0:0:
256,192,260843,1,8,0:0:0:0:
256,192,260915,1,8,0:0:0:0:
256,192,260986,1,0,0:0:0:0:
256,192,261081,1,0,0:0:0:0:
256,192,261177,1,8,0:0:0:0:
256,192,261272,1,8,0:0:0:0:
256,192,261367,1,0,0:0:0:0:
256,192,261462,1,8,0:0:0:0:
256,192,261558,1,8,0:0:0:0:
256,192,261605,1,8,0:0:0:0:
256,192,261653,1,0,0:0:0:0:
256,192,261701,1,0,0:0:0:0:
256,192,261748,1,8,0:0:0:0:
256,192,261796,1,0,0:0:0:0:
256,192,261843,1,0,0:0:0:0:
256,192,261891,1,0,0:0:0:0:
256,192,261939,1,8,0:0:0:0:
256,192,261986,1,0,0:0:0:0:
256,192,262034,1,8,0:0:0:0:
256,192,262081,1,8,0:0:0:0:
384,96,262129,1,4,0:0:0:0:
384,96,262343,1,4,0:0:0:0:
384,96,262558,1,4,0:0:0:0:
384,96,262986,1,4,0:0:0:0:
384,96,263201,1,4,0:0:0:0:
384,96,263415,1,4,0:0:0:0:
384,96,263843,1,4,0:0:0:0:
256,192,263986,1,0,0:0:0:0:
256,192,264058,1,8,0:0:0:0:
256,192,264129,1,0,0:0:0:0:
256,192,264201,1,8,0:0:0:0:
256,192,264272,1,0,0:0:0:0:
256,192,264343,1,0,0:0:0:0:
384,96,264415,1,12,0:0:0:0:
384,96,264629,1,12,0:0:0:0:
384,96,264843,1,4,0:0:0:0:
384,96,265272,1,12,0:0:0:0:
384,96,265486,1,12,0:0:0:0:
384,96,265701,1,4,0:0:0:0:
384,96,266129,1,12,0:0:0:0:
384,96,266343,1,12,0:0:0:0:
384,96,266558,1,12,0:0:0:0:
256,192,267843,8,0,268843,0:0:0:0:
256,192,268986,5,8,0:0:0:0:
256,192,269058,1,0,0:0:0:0:
256,192,269129,1,0,0:0:0:0:
256,192,269201,1,8,0:0:0:0:
256,192,269272,1,0,0:0:0:0:
256,192,269343,1,8,0:0:0:0:
256,192,269415,1,8,0:0:0:0:
256,192,269486,1,8,0:0:0:0:
256,192,269558,1,0,0:0:0:0:
256,192,269605,1,0,0:0:0:0:
256,192,269653,1,0,0:0:0:0:
256,192,269701,1,8,0:0:0:0:
256,192,269772,1,0,0:0:0:0:
256,192,269843,1,8,0:0:0:0:
256,192,269891,1,8,0:0:0:0:
256,192,269939,1,8,0:0:0:0:
256,192,269986,1,0,0:0:0:0:
256,192,270058,1,8,0:0:0:0:
256,192,270129,1,0,0:0:0:0:
256,192,270272,1,8,0:0:0:0:
256,192,270415,1,8,0:0:0:0:
256,192,270558,1,8,0:0:0:0:
256,192,270701,1,0,0:0:0:0:
256,192,270772,1,0,0:0:0:0:
256,192,270843,1,8,0:0:0:0:
256,192,270915,1,0,0:0:0:0:
256,192,270986,1,8,0:0:0:0:
256,192,271058,1,8,0:0:0:0:
256,192,271129,1,0,0:0:0:0:
256,192,271201,1,8,0:0:0:0:
256,192,271272,1,0,0:0:0:0:
256,192,271343,1,0,0:0:0:0:
256,192,271415,1,8,0:0:0:0:
256,192,271486,1,0,0:0:0:0:
384,96,271558,1,12,0:0:0:0:
384,96,271701,1,12,0:0:0:0:
256,192,271843,1,0,0:0:0:0:
256,192,271915,1,0,0:0:0:0:
384,96,271986,1,12,0:0:0:0:
384,96,272129,1,4,0:0:0:0:
256,192,272272,1,8,0:0:0:0:
256,192,272343,1,8,0:0:0:0:
384,96,272415,1,4,0:0:0:0:
384,96,272558,1,12,0:0:0:0:
256,192,272701,1,0,0:0:0:0:
256,192,272772,1,8,0:0:0:0:
384,96,272843,1,4,0:0:0:0:
384,96,272986,1,4,0:0:0:0:
256,192,273129,1,0,0:0:0:0:
256,192,273201,1,0,0:0:0:0:
384,96,273272,1,12,0:0:0:0:
384,96,273415,1,12,0:0:0:0:
256,192,273558,1,0,0:0:0:0:
256,192,273629,1,0,0:0:0:0:
256,192,273701,1,8,0:0:0:0:
256,192,273772,1,0,0:0:0:0:
384,96,273843,1,12,0:0:0:0:
256,192,273986,1,0,0:0:0:0:
256,192,274058,1,0,0:0:0:0:
256,192,274129,1,8,0:0:0:0:
256,192,274272,1,8,0:0:0:0:
256,192,274343,1,0,0:0:0:0:
256,192,274415,1,8,0:0:0:0:
256,192,274558,1,8,0:0:0:0:
256,192,274629,1,8,0:0:0:0:
256,192,274701,1,0,0:0:0:0:
256,192,274772,1,0,0:0:0:0:
256,192,274843,1,8,0:0:0:0:
256,192,274915,1,8,0:0:0:0:
256,192,274986,1,8,0:0:0:0:
256,192,275058,1,0,0:0:0:0:
256,192,275129,1,8,0:0:0:0:
256,192,275272,1,0,0:0:0:0:
256,192,275343,1,0,0:0:0:0:
256,192,275415,1,8,0:0:0:0:
256,192,275486,1,0,0:0:0:0:
256,192,275558,1,0,0:0:0:0:
256,192,275629,1,0,0:0:0:0:
256,192,275701,1,8,0:0:0:0:
256,192,275772,1,8,0:0:0:0:
256,192,275843,1,0,0:0:0:0:
256,192,275986,1,0,0:0:0:0:
256,192,276058,1,0,0:0:0:0:
256,192,276129,1,8,0:0:0:0:
256,192,276272,1,0,0:0:0:0:
256,192,276343,1,0,0:0:0:0:
256,192,276415,1,8,0:0:0:0:
256,192,276486,1,8,0:0:0:0:
256,192,276558,1,0,0:0:0:0:
256,192,276629,1,8,0:0:0:0:
256,192,276701,1,0,0:0:0:0:
256,192,276843,1,0,0:0:0:0:
256,192,276915,1,0,0:0:0:0:
256,192,276986,1,8,0:0:0:0:
256,192,277058,1,0,0:0:0:0:
256,192,277129,1,0,0:0:0:0:
256,192,277201,1,8,0:0:0:0:
256,192,277272,1,0,0:0:0:0:
256,192,277415,1,8,0:0:0:0:
256,192,277486,1,0,0:0:0:0:
256,192,277558,1,8,0:0:0:0:
256,192,277701,1,8,0:0:0:0:
256,192,277772,1,8,0:0:0:0:
256,192,277843,1,0,0:0:0:0:
256,192,277915,1,8,0:0:0:0:
256,192,277986,1,0,0:0:0:0:
256,192,278058,1,0,0:0:0:0:
256,192,278129,1,8,0:0:0:0:
256,192,278201,1,8,0:0:0:0:
256,192,278272,1,0,0:0:0:0:
256,192,278343,1,8,0:0:0:0:
256,192,278415,1,8,0:0:0:0:
256,192,278486,1,0,0:0:0:0:
256,192,278558,1,8,0:0:0:0:
256,192,278629,1,0,0:0:0:0:
256,192,278701,1,8,0:0:0:0:
256,192,278772,1,0,0:0:0:0:
256,192,278843,1,0,0:0:0:0:
256,192,278915,1,8,0:0:0:0:
256,192,278986,1,0,0:0:0:0:
256,192,279058,1,0,0:0:0:0:
256,192,279129,1,8,0:0:0:0:
256,192,279201,1,0,0:0:0:0:
256,192,279272,1,8,0:0:0:0:
256,192,279343,1,8,0:0:0:0:
256,192,279415,1,8,0:0:0:0:
256,192,279486,1,0,0:0:0:0:
256,192,279558,1,8,0:0:0:0:
256,192,279629,1,8,0:0:0:0:
256,192,279701,1,0,0:0:0:0:
256,192,279772,1,0,0:0:0:0:
256,192,279843,1,8,0:0:0:0:
256,192,279915,1,0,0:0:0:0:
256,192,279986,1,8,0:0:0:0:
256,192,280058,1,8,0:0:0:0:
256,192,280129,1,8,0:0:0:0:
256,192,280201,1,0,0:0:0:0:
256,192,280272,1,8,0:0:0:0:
256,192,280415,1,0,0:0:0:0:
256,192,280486,1,8,0:0:0:0:
256,192,280558,1,0,0:0:0:0:
256,192,280629,1,0,0:0:0:0:
384,96,280701,1,12,0:0:0:0:
384,96,280843,1,12,0:0:0:0:
256,192,280986,1,0,0:0:0:0:
256,192,281058,1,0,0:0:0:0:
384,96,281129,1,12,0:0:0:0:
384,96,281272,1,4,0:0:0:0:
256,192,281415,1,8,0:0:0:0:
256,192,281486,1,8,0:0:0:0:
384,96,281558,1,4,0:0:0:0:
384,96,281701,1,12,0:0:0:0:
256,192,281843,1,0,0:0:0:0:
256,192,281915,1,8,0:0:0:0:
384,96,281986,1,4,0:0:0:0:
384,96,282129,1,4,0:0:0:0:
256,192,282272,1,0,0:0:0:0:
256,192,282343,1,0,0:0:0:0:
384,96,282415,1,12,0:0:0:0:
384,96,282558,1,12,0:0:0:0:
256,192,282701,1,0,0:0:0:0:
256,192,282772,1,8,0:0:0:0:
256,192,282843,1,8,0:0:0:0:
256,192,282915,1,0,0:0:0:0:
384,96,282986,1,12,0:0:0:0:
256,192,283129,1,0,0:0:0:0:
256,192,283201,1,0,0:0:0:0:
256,192,283272,1,8,0:0:0:0:
256,192,283415,1,0,0:0:0:0:
256,192,283486,1,8,0:0:0:0:
256,192,283558,1,8,0:0:0:0:
256,192,283701,1,8,0:0:0:0:
256,192,283772,1,8,0:0:0:0:
256,192,283843,1,0,0:0:0:0:
256,192,283915,1,8,0:0:0:0:
256,192,283986,1,8,0:0:0:0:
256,192,284058,1,0,0:0:0:0:
256,192,284129,1,0,0:0:0:0:
256,192,284201,1,0,0:0:0:0:
256,192,284272,1,8,0:0:0:0:
256,192,284343,1,8,0:0:0:0:
256,192,284415,1,0,0:0:0:0:
256,192,284486,1,0,0:0:0:0:
256,192,284558,1,8,0:0:0:0:
256,192,284629,1,8,0:0:0:0:
256,192,284701,1,0,0:0:0:0:
256,192,284772,1,8,0:0:0:0:
256,192,284843,1,0,0:0:0:0:
256,192,284915,1,0,0:0:0:0:
256,192,284986,1,8,0:0:0:0:
256,192,285081,1,0,0:0:0:0:
256,192,285177,1,0,0:0:0:0:
256,192,285272,1,8,0:0:0:0:
256,192,285367,1,0,0:0:0:0:
256,192,285462,1,8,0:0:0:0:
256,192,285558,1,8,0:0:0:0:
256,192,285653,1,8,0:0:0:0:
256,192,285748,1,0,0:0:0:0:
256,192,285843,1,8,0:0:0:0:
256,192,285939,1,0,0:0:0:0:
256,192,286034,1,0,0:0:0:0:
256,192,286129,1,8,0:0:0:0:
256,192,286224,1,0,0:0:0:0:
256,192,286320,1,8,0:0:0:0:
256,192,286415,1,8,0:0:0:0:
256,192,286510,1,0,0:0:0:0:
256,192,286605,1,8,0:0:0:0:
256,192,286701,1,0,0:0:0:0:
256,192,286796,1,0,0:0:0:0:
256,192,286891,1,8,0:0:0:0:
256,192,286986,1,8,0:0:0:0:
256,192,287081,1,0,0:0:0:0:
256,192,287177,1,0,0:0:0:0:
256,192,287272,1,8,0:0:0:0:
256,192,287367,1,0,0:0:0:0:
256,192,287462,1,8,0:0:0:0:
256,192,287558,1,8,0:0:0:0:
256,192,287653,1,0,0:0:0:0:
256,192,287748,1,8,0:0:0:0:
256,192,287843,1,0,0:0:0:0:
256,192,287939,1,0,0:0:0:0:
256,192,288034,1,8,0:0:0:0:
256,192,288129,1,8,0:0:0:0:
256,192,288224,1,0,0:0:0:0:
256,192,288320,1,8,0:0:0:0:
256,192,288415,1,0,0:0:0:0:
256,192,288558,1,0,0:0:0:0:
256,192,288701,1,8,0:0:0:0:
256,192,288772,1,0,0:0:0:0:
256,192,288843,1,0,0:0:0:0:
256,192,288986,1,0,0:0:0:0:
256,192,289058,1,8,0:0:0:0:
256,192,289129,1,0,0:0:0:0:
256,192,289201,1,0,0:0:0:0:
256,192,289272,1,8,0:0:0:0:
256,192,289343,1,8,0:0:0:0:
256,192,289415,1,0,0:0:0:0:
384,96,289843,1,12,0:0:0:0:
384,96,289986,1,12,0:0:0:0:
256,192,290129,1,0,0:0:0:0:
256,192,290201,1,0,0:0:0:0:
384,96,290272,1,12,0:0:0:0:
384,96,290415,1,4,0:0:0:0:
256,192,290558,1,8,0:0:0:0:
256,192,290629,1,8,0:0:0:0:
384,96,290701,1,4,0:0:0:0:
384,96,290843,1,12,0:0:0:0:
256,192,290986,1,0,0:0:0:0:
256,192,291058,1,8,0:0:0:0:
384,96,291129,1,4,0:0:0:0:
384,96,291272,1,4,0:0:0:0:
256,192,291415,1,0,0:0:0:0:
256,192,291486,1,0,0:0:0:0:
384,96,291558,1,12,0:0:0:0:
384,96,291701,1,12,0:0:0:0:
256,192,291843,1,8,0:0:0:0:
256,192,291915,1,8,0:0:0:0:
256,192,291986,1,8,0:0:0:0:
256,192,292058,1,0,0:0:0:0:
384,96,292129,1,12,0:0:0:0:
256,192,292272,1,0,0:0:0:0:
256,192,292343,1,0,0:0:0:0:
256,192,292415,1,8,0:0:0:0:
256,192,292558,1,0,0:0:0:0:
256,192,292629,1,8,0:0:0:0:
256,192,292701,1,8,0:0:0:0:
256,192,292843,1,8,0:0:0:0:
256,192,292915,1,8,0:0:0:0:
256,192,292986,1,0,0:0:0:0:
256,192,293058,1,0,0:0:0:0:
256,192,293129,1,8,0:0:0:0:
256,192,293201,1,0,0:0:0:0:
256,192,293272,1,8,0:0:0:0:
256,192,293343,1,8,0:0:0:0:
256,192,293415,1,0,0:0:0:0:
256,192,293486,1,8,0:0:0:0:
256,192,293558,1,0,0:0:0:0:
256,192,293701,1,8,0:0:0:0:
256,192,293772,1,0,0:0:0:0:
256,192,293843,1,0,0:0:0:0:
256,192,293915,1,0,0:0:0:0:
256,192,293986,1,8,0:0:0:0:
256,192,294058,1,8,0:0:0:0:
256,192,294129,1,0,0:0:0:0:
256,192,294272,1,0,0:0:0:0:
256,192,294343,1,0,0:0:0:0:
256,192,294415,1,8,0:0:0:0:
256,192,294486,1,0,0:0:0:0:
256,192,294558,1,0,0:0:0:0:
256,192,294629,1,0,0:0:0:0:
256,192,294701,1,8,0:0:0:0:
256,192,294772,1,8,0:0:0:0:
256,192,294843,1,0,0:0:0:0:
256,192,294915,1,0,0:0:0:0:
256,192,294986,1,8,0:0:0:0:
256,192,295058,1,0,0:0:0:0:
256,192,295129,1,8,0:0:0:0:
256,192,295201,1,8,0:0:0:0:
256,192,295272,1,0,0:0:0:0:
256,192,295343,1,0,0:0:0:0:
256,192,295415,1,0,0:0:0:0:
256,192,295486,1,0,0:0:0:0:
256,192,295558,1,8,0:0:0:0:
256,192,295629,1,0,0:0:0:0:
256,192,295701,1,0,0:0:0:0:
256,192,295772,1,0,0:0:0:0:
256,192,295843,1,8,0:0:0:0:
256,192,295915,1,8,0:0:0:0:
256,192,295986,1,0,0:0:0:0:
256,192,296058,1,0,0:0:0:0:
256,192,296129,1,8,0:0:0:0:
256,192,296201,1,0,0:0:0:0:
256,192,296272,1,8,0:0:0:0:
256,192,296320,1,0,0:0:0:0:
256,192,296367,1,0,0:0:0:0:
256,192,296415,1,8,0:0:0:0:
256,192,296486,1,0,0:0:0:0:
256,192,296558,1,8,0:0:0:0:
256,192,296629,1,0,0:0:0:0:
256,192,296701,1,0,0:0:0:0:
256,192,296772,1,0,0:0:0:0:
256,192,296843,1,8,0:0:0:0:
256,192,296915,1,8,0:0:0:0:
256,192,296986,1,0,0:0:0:0:
256,192,297058,1,0,0:0:0:0:
256,192,297129,1,8,0:0:0:0:
256,192,297201,1,0,0:0:0:0:
256,192,297272,1,0,0:0:0:0:
256,192,297343,1,0,0:0:0:0:
256,192,297415,1,8,0:0:0:0:
256,192,297486,1,8,0:0:0:0:
256,192,297558,1,0,0:0:0:0:
256,192,297629,1,0,0:0:0:0:
256,192,297701,1,8,0:0:0:0:
256,192,297772,1,0,0:0:0:0:
256,192,297843,1,0,0:0:0:0:
256,192,297915,1,0,0:0:0:0:
256,192,297986,1,8,0:0:0:0:
256,192,298058,1,8,0:0:0:0:
256,192,298129,1,0,0:0:0:0:
256,192,298201,1,0,0:0:0:0:
256,192,298272,1,8,0:0:0:0:
256,192,298343,1,8,0:0:0:0:
256,192,298415,1,8,0:0:0:0:
256,192,298486,1,0,0:0:0:0:
256,192,298558,1,8,0:0:0:0:
384,96,298986,1,4,0:0:0:0:
256,192,299272,1,0,0:0:0:0:
256,192,299558,1,0,0:0:0:0:
256,192,299701,1,8,0:0:0:0:
256,192,299986,1,0,0:0:0:0:
256,192,300129,1,8,0:0:0:0:
256,192,300272,1,0,0:0:0:0:
256,192,300415,1,8,0:0:0:0:
256,192,300701,1,8,0:0:0:0:
256,192,300986,1,0,0:0:0:0:
256,192,301129,1,8,0:0:0:0:
256,192,301272,1,0,0:0:0:0:
256,192,301558,1,8,0:0:0:0:
256,192,301843,1,0,0:0:0:0:
256,192,301986,1,8,0:0:0:0:
256,192,302272,1,8,0:0:0:0:
256,192,302415,1,0,0:0:0:0:
256,192,302701,1,8,0:0:0:0:
256,192,302986,1,8,0:0:0:0:
256,192,303272,1,0,0:0:0:0:
256,192,303415,1,0,0:0:0:0:
256,192,303558,1,8,0:0:0:0:
256,192,303843,1,8,0:0:0:0:
256,192,303986,1,0,0:0:0:0:
256,192,304129,1,0,0:0:0:0:
256,192,304201,1,0,0:0:0:0:
256,192,304272,1,0,0:0:0:0:
256,192,304343,1,0,0:0:0:0:
256,192,304415,1,8,0:0:0:0:
256,192,304486,1,0,0:0:0:0:
256,192,304558,1,8,0:0:0:0:
256,192,304629,1,8,0:0:0:0:
256,192,304701,1,0,0:0:0:0:
256,192,304772,1,0,0:0:0:0:
256,192,304843,1,8,0:0:0:0:
256,192,304915,1,8,0:0:0:0:
256,192,304986,1,0,0:0:0:0:
256,192,305058,1,8,0:0:0:0:
256,192,305129,1,8,0:0:0:0:
256,192,305201,1,0,0:0:0:0:
256,192,305272,1,8,0:0:0:0:
256,192,305343,1,8,0:0:0:0:
256,192,305415,1,8,0:0:0:0:
256,192,305486,1,8,0:0:0:0:
384,96,305558,1,4,0:0:0:0:
256,192,305843,1,0,0:0:0:0:
256,192,305915,1,8,0:0:0:0:
384,96,305986,1,4,0:0:0:0:
256,192,306272,1,8,0:0:0:0:
256,192,306343,1,0,0:0:0:0:
384,96,306415,1,12,0:0:0:0:
384,96,306558,1,12,0:0:0:0:
256,192,306701,1,8,0:0:0:0:
256,192,306843,1,0,0:0:0:0:
256,192,306986,1,0,0:0:0:0:
256,192,307058,1,0,0:0:0:0:
256,192,307129,1,8,0:0:0:0:
256,192,307201,1,0,0:0:0:0:
256,192,307272,1,8,0:0:0:0:
256,192,307343,1,8,0:0:0:0:
256,192,307415,1,0,0:0:0:0:
256,192,307486,1,8,0:0:0:0:
256,192,307558,1,0,0:0:0:0:
256,192,307629,1,0,0:0:0:0:
256,192,307701,1,8,0:0:0:0:
256,192,307772,1,8,0:0:0:0:
256,192,307843,1,0,0:0:0:0:
256,192,307939,1,0,0:0:0:0:
256,192,308034,1,8,0:0:0:0:
256,192,308129,1,0,0:0:0:0:
256,192,308224,1,0,0:0:0:0:
256,192,308320,1,8,0:0:0:0:
256,192,308415,1,0,0:0:0:0:
256,192,308510,1,0,0:0:0:0:
256,192,308605,1,8,0:0:0:0:
256,192,308701,1,0,0:0:0:0:
256,192,308796,1,0,0:0:0:0:
256,192,308891,1,8,0:0:0:0:
256,192,308986,1,0,0:0:0:0:
256,192,309058,1,0,0:0:0:0:
256,192,309129,1,0,0:0:0:0:
256,192,309201,1,8,0:0:0:0:
256,192,309272,1,0,0:0:0:0:
256,192,309343,1,0,0:0:0:0:
256,192,309415,1,0,0:0:0:0:
256,192,309486,1,8,0:0:0:0:
256,192,309558,1,0,0:0:0:0:
256,192,309629,1,0,0:0:0:0:
256,192,309701,1,0,0:0:0:0:
256,192,309772,1,8,0:0:0:0:
256,192,309843,1,0,0:0:0:0:
256,192,309915,1,0,0:0:0:0:
256,192,309986,1,0,0:0:0:0:
256,192,310058,1,8,0:0:0:0:
256,192,310129,1,0,0:0:0:0:
256,192,310201,1,0,0:0:0:0:
256,192,310272,1,8,0:0:0:0:
256,192,310343,1,8,0:0:0:0:
256,192,310415,1,0,0:0:0:0:
256,192,310486,1,8,0:0:0:0:
256,192,310558,1,8,0:0:0:0:
256,192,310629,1,0,0:0:0:0:
256,192,310701,1,8,0:0:0:0:
256,192,310748,1,8,0:0:0:0:
256,192,310796,1,0,0:0:0:0:
256,192,310843,1,8,0:0:0:0:
256,192,310891,1,8,0:0:0:0:
256,192,310939,1,8,0:0:0:0:
256,192,310986,1,0,0:0:0:0:
256,192,311034,1,0,0:0:0:0:
256,192,311081,1,8,0:0:0:0:
256,192,311129,1,8,0:0:0:0:
256,192,311177,1,8,0:0:0:0:
256,192,311224,1,8,0:0:0:0:
256,192,311272,1,0,0:0:0:0:
256,192,311343,1,0,0:0:0:0:
256,192,311415,1,8,0:0:0:0:
256,192,311486,1,0,0:0:0:0:
256,192,311558,1,8,0:0:0:0:
256,192,311629,1,8,0:0:0:0:
256,192,311701,1,0,0:0:0:0:
256,192,311772,1,0,0:0:0:0:
256,192,311843,1,8,0:0:0:0:
256,192,311915,1,0,0:0:0:0:
256,192,311986,1,8,0:0:0:0:
256,192,312058,1,8,0:0:0:0:
256,192,312129,1,0,0:0:0:0:
256,192,312201,1,0,0:0:0:0:
256,192,312272,1,8,0:0:0:0:
256,192,312343,1,8,0:0:0:0:
256,192,312415,1,0,0:0:0:0:
256,192,312701,1,0,0:0:0:0:
256,192,312843,1,8,0:0:0:0:
256,192,312987,1,0,0:0:0:0:
256,192,313272,1,8,0:0:0:0:
256,192,313558,1,8,0:0:0:0:
256,192,313701,1,8,0:0:0:0:
256,192,313844,1,0,0:0:0:0:
256,192,314130,1,8,0:0:0:0:
256,192,314272,1,8,0:0:0:0:
256,192,314415,1,0,0:0:0:0:
256,192,314558,1,0,0:0:0:0:
256,192,314701,1,8,0:0:0:0:
256,192,314987,1,0,0:0:0:0:
256,192,315130,1,8,0:0:0:0:
256,192,315272,1,0,0:0:0:0:
256,192,315558,1,8,0:0:0:0:
256,192,315701,1,8,0:0:0:0:
256,192,315844,1,0,0:0:0:0:
256,192,315987,1,0,0:0:0:0:
256,192,316130,1,8,0:0:0:0:
256,192,316272,1,0,0:0:0:0:
256,192,316415,1,8,0:0:0:0:
256,192,316701,1,8,0:0:0:0:
256,192,316844,1,8,0:0:0:0:
256,192,316987,1,0,0:0:0:0:
256,192,317272,1,0,0:0:0:0:
256,192,317415,1,8,0:0:0:0:
256,192,317558,1,8,0:0:0:0:
256,192,317701,1,0,0:0:0:0:
256,192,317844,1,8,0:0:0:0:
256,192,318130,1,0,0:0:0:0:
256,192,318272,1,0,0:0:0:0:
256,192,318415,1,0,0:0:0:0:
256,192,318701,1,8,0:0:0:0:
256,192,318844,1,0,0:0:0:0:
256,192,318987,1,0,0:0:0:0:
256,192,319130,1,0,0:0:0:0:
256,192,319272,1,8,0:0:0:0:
256,192,319415,1,8,0:0:0:0:
256,192,319558,1,0,0:0:0:0:
256,192,319701,1,8,0:0:0:0:
256,192,319844,1,0,0:0:0:0:
256,192,320130,1,8,0:0:0:0:
256,192,320415,1,8,0:0:0:0:
256,192,320558,1,8,0:0:0:0:
256,192,320701,1,0,0:0:0:0:
256,192,320844,1,0,0:0:0:0:
256,192,320987,1,8,0:0:0:0:
256,192,321130,1,0,0:0:0:0:
256,192,321272,1,8,0:0:0:0:
256,192,321343,1,8,0:0:0:0:
256,192,321415,1,0,0:0:0:0:
256,192,321558,1,0,0:0:0:0:
256,192,321701,1,8,0:0:0:0:
256,192,321844,1,0,0:0:0:0:
256,192,322129,1,8,0:0:0:0:
256,192,322414,1,0,0:0:0:0:
256,192,322557,1,8,0:0:0:0:
256,192,322700,1,0,0:0:0:0:
256,192,322843,1,8,0:0:0:0:
256,192,322986,1,8,0:0:0:0:
256,192,323129,1,0,0:0:0:0:
256,192,323271,1,8,0:0:0:0:
256,192,323557,1,0,0:0:0:0:
256,192,323700,1,0,0:0:0:0:
256,192,323843,1,8,0:0:0:0:
256,192,324129,1,8,0:0:0:0:
256,192,324271,1,8,0:0:0:0:
256,192,324414,1,0,0:0:0:0:
256,192,324557,1,8,0:0:0:0:
256,192,324700,1,0,0:0:0:0:
256,192,324843,1,0,0:0:0:0:
256,192,324986,1,8,0:0:0:0:
256,192,325129,1,0,0:0:0:0:
256,192,325271,1,0,0:0:0:0:
256,192,325414,1,8,0:0:0:0:
256,192,325557,1,8,0:0:0:0:
256,192,325843,1,0,0:0:0:0:
256,192,325986,1,0,0:0:0:0:
384,96,326129,1,12,0:0:0:0:
384,96,327271,1,4,0:0:0:0:
256,192,327843,1,0,0:0:0:0:
256,192,328129,1,0,0:0:0:0:
256,192,328200,1,0,0:0:0:0:
256,192,328271,1,8,0:0:0:0:
256,192,328343,1,8,0:0:0:0:
384,96,328414,1,4,0:0:0:0:
256,192,328557,1,8,0:0:0:0:
256,192,328629,1,8,0:0:0:0:
256,192,328700,1,0,0:0:0:0:
256,192,328843,1,8,0:0:0:0:
256,192,328986,1,0,0:0:0:0:
256,192,329058,1,8,0:0:0:0:
256,192,329129,1,8,0:0:0:0:
256,192,329200,1,8,0:0:0:0:
256,192,329271,1,0,0:0:0:0:
256,192,329414,1,8,0:0:0:0:
256,192,329557,1,0,0:0:0:0:
256,192,329700,1,8,0:0:0:0:
256,192,329771,1,8,0:0:0:0:
256,192,329843,1,0,0:0:0:0:
256,192,329986,1,8,0:0:0:0:
256,192,330129,1,0,0:0:0:0:
256,192,330200,1,8,0:0:0:0:
256,192,330271,1,8,0:0:0:0:
256,192,330343,1,0,0:0:0:0:
256,192,330414,1,8,0:0:0:0:
256,192,330486,1,0,0:0:0:0:
256,192,330557,1,8,0:0:0:0:
256,192,330700,1,0,0:0:0:0:
256,192,330843,1,8,0:0:0:0:
256,192,330914,1,0,0:0:0:0:
256,192,330986,1,0,0:0:0:0:
256,192,331129,1,8,0:0:0:0:
256,192,331271,1,0,0:0:0:0:
256,192,331343,1,8,0:0:0:0:
256,192,331414,1,8,0:0:0:0:
256,192,331486,1,0,0:0:0:0:
256,192,331557,1,8,0:0:0:0:
256,192,331700,1,0,0:0:0:0:
256,192,331843,1,8,0:0:0:0:
256,192,331986,1,0,0:0:0:0:
256,192,332057,1,8,0:0:0:0:
256,192,332129,1,0,0:0:0:0:
256,192,332271,1,8,0:0:0:0:
256,192,332414,1,0,0:0:0:0:
256,192,332486,1,8,0:0:0:0:
256,192,332557,1,8,0:0:0:0:
256,192,332629,1,0,0:0:0:0:
256,192,332700,1,8,0:0:0:0:
256,192,332771,1,0,0:0:0:0:
256,192,332843,1,8,0:0:0:0:
256,192,332914,1,8,0:0:0:0:
256,192,332986,1,0,0:0:0:0:
256,192,333129,1,8,0:0:0:0:
256,192,333200,1,8,0:0:0:0:
256,192,333271,1,0,0:0:0:0:
256,192,333414,1,8,0:0:0:0:
256,192,333557,1,0,0:0:0:0:
256,192,333629,1,8,0:0:0:0:
256,192,333700,1,8,0:0:0:0:
256,192,333771,1,0,0:0:0:0:
256,192,333843,1,0,0:0:0:0:
256,192,333914,1,0,0:0:0:0:
256,192,333986,1,8,0:0:0:0:
256,192,334129,1,0,0:0:0:0:
256,192,334271,1,8,0:0:0:0:
256,192,334343,1,8,0:0:0:0:
256,192,334414,1,0,0:0:0:0:
256,192,334557,1,8,0:0:0:0:
256,192,334700,1,8,0:0:0:0:
256,192,334771,1,0,0:0:0:0:
256,192,334843,1,0,0:0:0:0:
256,192,334914,1,0,0:0:0:0:
256,192,334986,1,8,0:0:0:0:
256,192,335057,1,0,0:0:0:0:
256,192,335129,1,8,0:0:0:0:
256,192,335271,1,0,0:0:0:0:
256,192,335343,1,0,0:0:0:0:
256,192,335414,1,8,0:0:0:0:
256,192,335486,1,8,0:0:0:0:
256,192,335557,1,0,0:0:0:0:
256,192,335629,1,0,0:0:0:0:
256,192,335700,1,8,0:0:0:0:
256,192,335771,1,0,0:0:0:0:
256,192,335843,1,8,0:0:0:0:
256,192,335914,1,0,0:0:0:0:
256,192,335986,1,0,0:0:0:0:
256,192,336057,1,8,0:0:0:0:
256,192,336129,1,8,0:0:0:0:
256,192,336200,1,0,0:0:0:0:
256,192,336271,1,8,0:0:0:0:
256,192,336343,1,8,0:0:0:0:
256,192,336414,1,0,0:0:0:0:
256,192,336986,1,8,0:0:0:0:
256,192,337057,1,8,0:0:0:0:
256,192,337129,1,0,0:0:0:0:
256,192,337200,1,0,0:0:0:0:
256,192,337271,1,8,0:0:0:0:
256,192,337343,1,0,0:0:0:0:
256,192,337414,1,0,0:0:0:0:
256,192,337486,1,0,0:0:0:0:
384,96,337557,1,12,0:0:0:0:
384,96,337701,1,4,0:0:0:0:
384,96,337843,1,12,0:0:0:0:
384,96,337986,1,12,0:0:0:0:
384,96,338129,1,4,0:0:0:0:
384,96,338272,1,12,0:0:0:0:
384,96,338415,1,12,0:0:0:0:
256,192,338558,1,0,0:0:0:0:
256,192,338629,1,8,0:0:0:0:
256,192,338701,1,8,0:0:0:0:
256,192,338843,1,8,0:0:0:0:
256,192,338915,1,0,0:0:0:0:
256,192,338986,1,8,0:0:0:0:
256,192,339129,1,8,0:0:0:0:
256,192,339201,1,8,0:0:0:0:
256,192,339272,1,8,0:0:0:0:
256,192,339415,1,0,0:0:0:0:
256,192,339486,1,8,0:0:0:0:
256,192,339558,1,0,0:0:0:0:
256,192,339629,1,0,0:0:0:0:
256,192,339701,1,8,0:0:0:0:
256,192,339772,1,8,0:0:0:0:
384,96,339843,1,4,0:0:0:0:
384,96,339986,1,12,0:0:0:0:
384,96,340129,1,4,0:0:0:0:
384,96,340272,1,4,0:0:0:0:
384,96,340415,1,12,0:0:0:0:
384,96,340558,1,4,0:0:0:0:
384,96,340701,1,4,0:0:0:0:
384,96,340843,1,8,0:0:0:0:
256,192,340915,1,0,0:0:0:0:
256,192,340986,1,0,0:0:0:0:
256,192,341129,1,8,0:0:0:0:
256,192,341201,1,8,0:0:0:0:
256,192,341272,1,8,0:0:0:0:
256,192,341415,1,8,0:0:0:0:
256,192,341486,1,0,0:0:0:0:
256,192,341558,1,8,0:0:0:0:
256,192,341701,1,8,0:0:0:0:
256,192,341772,1,8,0:0:0:0:
256,192,341843,1,0,0:0:0:0:
256,192,341915,1,8,0:0:0:0:
256,192,341986,1,8,0:0:0:0:
256,192,342058,1,8,0:0:0:0:
384,96,342129,1,4,0:0:0:0:
384,96,342272,1,4,0:0:0:0:
384,96,342415,1,12,0:0:0:0:
384,96,342558,1,12,0:0:0:0:
384,96,342701,1,4,0:0:0:0:
384,96,342843,1,12,0:0:0:0:
384,96,342986,1,4,0:0:0:0:
256,192,343129,1,0,0:0:0:0:
256,192,343201,1,8,0:0:0:0:
256,192,343272,1,8,0:0:0:0:
256,192,343415,1,8,0:0:0:0:
256,192,343486,1,0,0:0:0:0:
256,192,343558,1,8,0:0:0:0:
256,192,343701,1,8,0:0:0:0:
256,192,343772,1,8,0:0:0:0:
256,192,343843,1,8,0:0:0:0:
256,192,343986,1,8,0:0:0:0:
256,192,344058,1,0,0:0:0:0:
256,192,344129,1,8,0:0:0:0:
256,192,344201,1,8,0:0:0:0:
256,192,344272,1,0,0:0:0:0:
256,192,344343,1,0,0:0:0:0:
384,96,344415,1,12,0:0:0:0:
384,96,344558,1,4,0:0:0:0:
384,96,344701,1,12,0:0:0:0:
384,96,344843,1,12,0:0:0:0:
384,96,344986,1,4,0:0:0:0:
384,96,345129,1,4,0:0:0:0:
384,96,345272,1,12,0:0:0:0:
384,96,345415,1,12,0:0:0:0:
256,192,345558,1,0,0:0:0:0:
256,192,345701,1,8,0:0:0:0:
256,192,345772,1,0,0:0:0:0:
256,192,345843,1,8,0:0:0:0:
256,192,345986,1,8,0:0:0:0:
256,192,346058,1,8,0:0:0:0:
256,192,346129,1,0,0:0:0:0:
256,192,346201,1,8,0:0:0:0:
256,192,346272,1,0,0:0:0:0:
256,192,346343,1,8,0:0:0:0:
256,192,346415,1,8,0:0:0:0:
256,192,346486,1,0,0:0:0:0:
256,192,346558,1,0,0:0:0:0:
256,192,346629,1,8,0:0:0:0:
384,96,346701,1,4,0:0:0:0:
384,96,346986,1,12,0:0:0:0:
384,96,347129,1,4,0:0:0:0:
384,96,347272,1,4,0:0:0:0:
384,96,347415,1,4,0:0:0:0:
384,96,347701,1,12,0:0:0:0:
384,96,348129,1,4,0:0:0:0:
384,96,348272,1,12,0:0:0:0:
384,96,348415,1,12,0:0:0:0:
384,96,348558,1,4,0:0:0:0:
384,96,348843,1,12,0:0:0:0:
384,96,349272,1,12,0:0:0:0:
384,96,349415,1,4,0:0:0:0:
384,96,349558,1,4,0:0:0:0:
384,96,349701,1,12,0:0:0:0:
384,96,349986,1,4,0:0:0:0:
256,192,350415,1,12,0:0:0:0:
256,192,350558,1,4,0:0:0:0:
256,192,350701,1,8,0:0:0:0:
256,192,350843,1,0,0:0:0:0:
256,192,350915,1,0,0:0:0:0:
256,192,350986,1,8,0:0:0:0:
256,192,351058,1,8,0:0:0:0:
384,96,351129,1,4,0:0:0:0:
384,96,351558,1,12,0:0:0:0:
384,96,351701,1,4,0:0:0:0:
384,96,351843,1,4,0:0:0:0:
384,96,351986,1,12,0:0:0:0:
384,96,352272,1,4,0:0:0:0:
384,96,352701,1,4,0:0:0:0:
384,96,352844,1,4,0:0:0:0:
384,96,352987,1,12,0:0:0:0:
384,96,353130,1,4,0:0:0:0:
384,96,353415,1,12,0:0:0:0:
384,96,353843,1,4,0:0:0:0:
384,96,353986,1,12,0:0:0:0:
384,96,354129,1,12,0:0:0:0:
384,96,354272,1,4,0:0:0:0:
384,96,354558,1,12,0:0:0:0:
384,96,354986,1,4,0:0:0:0:
384,96,355129,1,12,0:0:0:0:
256,192,355272,1,0,0:0:0:0:
256,192,355343,1,0,0:0:0:0:
256,192,355415,1,8,0:0:0:0:
256,192,355462,1,8,0:0:0:0:
256,192,355510,1,8,0:0:0:0:
256,192,355558,1,0,0:0:0:0:
256,192,355629,1,0,0:0:0:0:
384,96,355701,1,12,0:0:0:0:
256,192,356129,1,0,0:0:0:0:
256,192,356177,1,0,0:0:0:0:
256,192,356224,1,0,0:0:0:0:
256,192,356272,1,8,0:0:0:0:
256,192,356320,1,8,0:0:0:0:
256,192,356367,1,8,0:0:0:0:
256,192,356415,1,0,0:0:0:0:
256,192,356558,1,0,0:0:0:0:
384,96,356843,1,4,0:0:0:0:
256,192,357272,1,8,0:0:0:0:
256,192,357320,1,8,0:0:0:0:
256,192,357367,1,8,0:0:0:0:
256,192,357415,1,0,0:0:0:0:
256,192,357462,1,0,0:0:0:0:
256,192,357510,1,0,0:0:0:0:
256,192,357558,1,8,0:0:0:0:
256,192,357701,1,0,0:0:0:0:
384,96,357986,1,12,0:0:0:0:
256,192,358415,1,0,0:0:0:0:
256,192,358462,1,8,0:0:0:0:
256,192,358510,1,8,0:0:0:0:
256,192,358558,1,0,0:0:0:0:
256,192,358605,1,8,0:0:0:0:
256,192,358653,1,8,0:0:0:0:
256,192,358701,1,0,0:0:0:0:
256,192,358843,1,0,0:0:0:0:
384,96,359129,1,12,0:0:0:0:
256,192,359558,1,8,0:0:0:0:
256,192,359605,1,0,0:0:0:0:
256,192,359653,1,0,0:0:0:0:
256,192,359701,1,8,0:0:0:0:
256,192,359748,1,0,0:0:0:0:
256,192,359796,1,0,0:0:0:0:
256,192,359843,1,8,0:0:0:0:
256,192,359986,1,0,0:0:0:0:
256,192,360058,1,0,0:0:0:0:
256,192,360129,1,8,0:0:0:0:
256,192,360201,1,8,0:0:0:0:
384,96,360272,1,4,0:0:0:0:
256,192,360701,1,8,0:0:0:0:
256,192,360748,1,8,0:0:0:0:
256,192,360796,1,8,0:0:0:0:
256,192,360843,1,0,0:0:0:0:
256,192,360891,1,0,0:0:0:0:
256,192,360939,1,0,0:0:0:0:
256,192,360986,1,8,0:0:0:0:
256,192,361129,1,8,0:0:0:0:
256,192,361201,1,8,0:0:0:0:
256,192,361272,1,0,0:0:0:0:
256,192,361343,1,0,0:0:0:0:
384,96,361415,1,12,0:0:0:0:
256,192,361843,1,0,0:0:0:0:
256,192,361891,1,0,0:0:0:0:
256,192,361939,1,0,0:0:0:0:
256,192,361986,1,8,0:0:0:0:
256,192,362034,1,8,0:0:0:0:
256,192,362081,1,8,0:0:0:0:
256,192,362129,1,0,0:0:0:0:
256,192,362272,1,8,0:0:0:0:
256,192,362343,1,0,0:0:0:0:
256,192,362415,1,0,0:0:0:0:
256,192,362486,1,0,0:0:0:0:
384,96,362558,1,12,0:0:0:0:
256,192,362843,1,0,0:0:0:0:
256,192,362891,1,0,0:0:0:0:
256,192,362939,1,0,0:0:0:0:
256,192,362986,1,0,0:0:0:0:
384,96,363129,1,12,0:0:0:0:
256,192,363415,1,0,0:0:0:0:
256,192,363462,1,8,0:0:0:0:
256,192,363510,1,8,0:0:0:0:
256,192,363558,1,0,0:0:0:0:
384,96,363701,1,12,0:0:0:0:
256,192,363986,1,0,0:0:0:0:
256,192,364034,1,0,0:0:0:0:
256,192,364081,1,0,0:0:0:0:
256,192,364129,1,0,0:0:0:0:
256,192,364272,1,8,0:0:0:0:
256,192,364320,1,8,0:0:0:0:
256,192,364367,1,8,0:0:0:0:
256,192,364415,1,0,0:0:0:0:
256,192,364462,1,0,0:0:0:0:
256,192,364510,1,0,0:0:0:0:
256,192,364558,1,8,0:0:0:0:
256,192,364605,1,8,0:0:0:0:
256,192,364653,1,8,0:0:0:0:
256,192,364701,1,0,0:0:0:0:
256,192,364748,1,0,0:0:0:0:
256,192,364796,1,0,0:0:0:0:
256,192,364843,1,8,0:0:0:0:
256,192,364915,1,0,0:0:0:0:
256,192,364986,1,8,0:0:0:0:
256,192,365058,1,0,0:0:0:0:
256,192,365129,1,8,0:0:0:0:
256,192,365201,1,8,0:0:0:0:
256,192,365272,1,0,0:0:0:0:
256,192,365343,1,0,0:0:0:0:
256,192,365415,1,8,0:0:0:0:
256,192,365486,1,0,0:0:0:0:
256,192,365558,1,8,0:0:0:0:
256,192,365629,1,8,0:0:0:0:
256,192,365701,1,0,0:0:0:0:
256,192,365772,1,8,0:0:0:0:
256,192,365843,1,8,0:0:0:0:
256,192,365915,1,8,0:0:0:0:
256,192,365986,1,0,0:0:0:0:
256,192,366058,1,8,0:0:0:0:
256,192,366129,2,0,L|256:128,32,48.99020979021
384,96,368558,1,4,0:0:0:0:
384,96,368748,1,4,0:0:0:0:
384,96,368939,1,12,0:0:0:0:
384,96,369129,1,4,0:0:0:0:
384,96,369320,1,12,0:0:0:0:
384,96,369843,1,4,0:0:0:0:
256,192,369915,12,0,378701,0:0:0:0:
