osu file format v14

[General]
AudioFilename: audio.ogg
AudioLeadIn: 0
PreviewTime: 69821
Countdown: 0
SampleSet: Soft
StackLeniency: 0.7
Mode: 3
LetterboxInBreaks: 0
SpecialStyle: 0
WidescreenStoryboard: 1

[Editor]
Bookmarks: 10405,22742,28349,33116,41807,46293,50779,69845,87789,96761,101247,112462
DistanceSpacing: 1.2
BeatDivisor: 4
GridSize: 32
TimelineZoom: 1.9

[Metadata]
Title:Seiga Itten (Ponchi Remix)
TitleUnicode:星河一天 (Ponchi♪Remix)
Artist:D-D-Dice
ArtistUnicode:打打だいず
Creator:ML-ysg
Version:Futsuu
Source:太鼓の達人
Tags:星屑物語 Ponchi♪ Hoshikuzu Monogatari Taiko no Tatsujin Instrumental Electronic 1st solo Album video game
BeatmapID:4561160
BeatmapSetID:2162800

[Difficulty]
HPDrainRate:7.3
CircleSize:4
OverallDifficulty:7
ApproachRate:5
SliderMultiplier:1.4
SliderTickRate:1

[Events]
//Background and Video events
0,0,"BG.jpg",0,0
//Break Periods
//Storyboard Layer 0 (Background)
//Storyboard Layer 1 (Fail)
//Storyboard Layer 2 (Pass)
//Storyboard Layer 3 (Foreground)
//Storyboard Layer 4 (Overlay)
//Storyboard Sound Samples
Sample,30358,0,"Ride.wav",10
Sample,33442,0,"Ride.wav",30
Sample,34564,0,"Ride.wav",30
Sample,58115,0,"Hat Open.wav",30
Sample,70451,0,"Hat Open.wav",30
Sample,70732,0,"Hat Open.wav",30
Sample,71853,0,"Hat Open.wav",30
Sample,72694,0,"Hat Open.wav",30
Sample,72975,0,"Hat Open.wav",30
Sample,77601,0,"Hat Open.wav",30
Sample,77881,0,"Hat Open.wav",30
Sample,78162,0,"Hat Open.wav",30
Sample,79423,0,"Hat Open.wav",30
Sample,79704,0,"Hat Open.wav",30
Sample,81666,0,"Hat Open.wav",30
Sample,82788,0,"Hat Open.wav",30
Sample,83068,0,"Hat Open.wav",30
Sample,88676,0,"Short Crash.wav",40
Sample,89797,0,"Short Crash.wav",40
Sample,99237,0,"Short Crash.wav",40
Sample,99423,0,"Short Crash.wav",40
Sample,99610,0,"Short Crash.wav",40
Sample,99797,0,"Short Crash.wav",40
Sample,99984,0,"Short Crash.wav",40
Sample,108582,0,"Hat Open.wav",30
Sample,109143,0,"Hat Open.wav",30

[TimingPoints]
1480,280.373831775701,4,2,1,50,1,0
69891,-100,4,2,1,50,0,1
87835,-100,4,2,1,50,0,0
92601,-100,4,2,1,50,0,1
96807,-100,4,2,1,50,0,0
101293,-100,4,2,1,50,0,1
112508,-100,4,2,1,50,0,0

[HitObjects]
64,192,1199,128,0,1339:0:0:0:0:
192,192,1339,128,2,1480:0:0:0:0:
320,192,1480,1,2,0:0:0:0:
448,192,1480,1,0,0:0:0:40:Edge.wav
64,192,1620,1,0,0:0:0:0:
192,192,1760,1,0,0:0:0:40:Edge.wav
448,192,1900,1,0,0:0:0:0:
64,192,2040,1,0,0:0:0:40:Edge.wav
192,192,2180,1,0,0:0:0:0:
320,192,2321,1,0,0:0:0:40:Edge.wav
192,192,2461,1,0,0:0:0:0:
64,192,2601,1,0,0:0:0:40:Edge.wav
448,192,2741,1,0,0:0:0:0:
192,192,2881,1,0,0:0:0:40:Edge.wav
64,192,3022,1,0,0:0:0:0:
320,192,3162,128,0,3302:0:0:0:40:Edge.wav
192,192,3442,128,0,3582:0:0:0:40:Edge.wav
448,192,3582,1,2,0:0:0:0:
64,192,3722,1,2,0:0:0:0:
320,192,3722,1,0,0:0:0:40:Edge.wav
192,192,3863,1,0,0:0:0:0:
448,192,4003,1,0,0:0:0:40:Edge.wav
64,192,4143,1,0,0:0:0:0:
320,192,4283,1,0,0:0:0:40:Edge.wav
192,192,4423,1,0,0:0:0:0:
448,192,4564,1,0,0:0:0:40:Edge.wav
320,192,4704,1,0,0:0:0:0:
64,192,4844,1,0,0:0:0:40:Edge.wav
448,192,4984,1,0,0:0:0:0:
192,192,5124,1,0,0:0:0:40:Edge.wav
320,192,5405,128,0,5545:0:0:0:40:Edge.wav
64,192,5685,128,0,5825:0:0:0:40:Edge.wav
192,192,5965,1,2,0:0:0:0:
448,192,5965,1,0,0:0:0:40:Edge.wav
320,192,6106,1,0,0:0:0:0:
64,192,6246,1,0,0:0:0:40:Edge.wav
192,192,6386,1,0,0:0:0:0:
448,192,6526,1,0,0:0:0:40:Edge.wav
64,192,6666,1,0,0:0:0:0:
320,192,6807,1,0,0:0:0:40:Edge.wav
448,192,6947,1,0,0:0:0:0:
192,192,7087,1,0,0:0:0:40:Edge.wav
64,192,7227,1,0,0:0:0:0:
320,192,7367,1,0,0:0:0:40:Edge.wav
192,192,7648,128,0,7788:0:0:0:40:Edge.wav
448,192,7928,128,0,8068:0:0:0:40:Edge.wav
192,192,8068,1,2,0:0:0:0:
64,192,8208,128,2,8489:0:0:0:0:
320,192,8208,1,4,0:0:0:0:
448,192,8489,128,8,8629:0:0:0:30:soft-hitclap.wav
320,192,8629,128,8,8769:0:0:0:30:soft-hitclap.wav
64,192,8769,128,8,8909:0:0:0:30:soft-hitclap.wav
192,192,8909,128,8,9050:0:0:0:30:soft-hitclap.wav
320,192,9050,128,8,9190:0:0:0:30:soft-hitclap.wav
448,192,9190,128,8,9330:0:0:0:30:soft-hitclap.wav
192,192,9330,128,8,9470:0:0:0:30:soft-hitclap.wav
320,192,9470,128,2,9610:0:0:0:0:
64,192,9610,128,0,9751:0:0:0:50:Tom1.wav
448,192,9751,128,0,9891:0:0:0:50:Tom2.wav
64,192,9891,1,2,0:0:0:0:
192,192,9891,1,8,0:0:0:0:
320,192,10031,128,2,10171:0:0:0:0:
448,192,10031,1,8,0:0:0:0:
192,192,10171,128,0,10311:0:0:0:0:
320,192,10311,128,0,10451:0:0:0:0:
64,192,10451,128,4,11293:0:0:0:0:
448,192,10451,1,2,0:0:0:0:
320,192,11012,1,0,0:0:0:30:Hat Open.wav
192,192,11293,1,0,0:0:0:0:
448,192,11433,1,0,0:0:0:0:
64,192,11573,1,2,0:0:0:0:
320,192,11573,128,4,12134:0:0:0:0:
64,192,12134,1,8,0:0:0:0:
192,192,12134,128,0,12414:0:0:0:0:
320,192,12414,128,0,12694:0:0:0:0:
192,192,12694,1,4,0:0:0:0:
448,192,12694,128,2,13536:0:0:0:0:
64,192,13255,1,0,0:0:0:30:Hat Open.wav
320,192,13536,1,0,0:0:0:0:
192,192,13676,1,0,0:0:0:0:
64,192,13816,128,2,14096:0:0:0:0:
448,192,13816,1,4,0:0:0:0:
320,192,14096,128,8,14237:0:0:0:0:
192,192,14237,128,2,14377:0:0:0:0:
64,192,14377,1,10,0:0:0:0:
448,192,14377,1,0,0:0:0:50:Tom3.wav
192,192,14517,1,10,0:0:0:0:
320,192,14517,1,0,0:0:0:50:Tom3.wav
64,192,14797,128,2,15078:0:0:0:0:
448,192,15078,1,2,0:0:0:0:
192,192,15218,1,4,0:0:0:0:
320,192,15218,1,8,0:0:0:0:
64,192,15358,1,2,0:0:0:0:
192,192,15498,1,8,0:0:0:0:
448,192,15498,1,0,0:0:0:30:Hat Open.wav
320,192,15638,1,2,0:0:0:0:
64,192,15779,1,8,0:0:0:0:
448,192,15779,1,0,0:0:0:30:Hat Open.wav
192,192,15919,1,2,0:0:0:0:
64,192,16059,1,8,0:0:0:0:
320,192,16059,1,0,0:0:0:30:Hat Open.wav
448,192,16199,1,2,0:0:0:0:
192,192,16339,1,8,0:0:0:0:
320,192,16339,1,0,0:0:0:30:Hat Open.wav
64,192,16480,1,2,0:0:0:0:
192,192,16620,1,8,0:0:0:0:
448,192,16620,1,0,0:0:0:30:Hat Open.wav
320,192,16760,1,2,0:0:0:0:
64,192,16900,128,8,17040:0:0:0:0:
448,192,16900,1,0,0:0:0:30:Hat Open.wav
192,192,17040,128,8,17180:0:0:0:0:
320,192,17180,128,4,17367:0:0:0:0:
448,192,17180,1,2,0:0:0:0:
64,192,17367,128,2,17554:0:0:0:0:
448,192,17554,128,2,17741:0:0:0:0:
192,192,17741,128,6,17928:0:0:0:0:
320,192,17741,1,8,0:0:0:0:
448,192,17928,128,2,18115:0:0:0:0:
64,192,18115,128,2,18302:0:0:0:0:
192,192,18302,1,2,0:0:0:0:
320,192,18302,128,4,18489:0:0:0:0:
64,192,18489,128,2,18676:0:0:0:0:
192,192,18676,128,2,18863:0:0:0:0:
320,192,18863,1,6,0:0:0:0:
448,192,18863,128,8,19050:0:0:0:0:
192,192,19050,128,2,19237:0:0:0:0:
320,192,19237,128,2,19423:0:0:0:0:
64,192,19423,128,2,20545:0:0:0:0:
448,192,19423,1,4,0:0:0:0:
448,192,19984,128,0,20545:0:0:0:0:
320,192,20545,128,0,20732:0:0:0:0:
192,192,20732,128,0,20919:0:0:0:0:
448,192,20919,128,0,21106:0:0:0:0:
64,192,21106,128,0,21293:0:0:0:0:
320,192,21293,128,0,21480:0:0:0:0:
192,192,21480,128,0,21666:0:0:0:0:
448,192,21666,128,0,21807:0:0:0:0:
320,192,21807,128,0,21947:0:0:0:0:
64,192,21947,128,0,22087:0:0:0:20:Tick.wav
192,192,22087,128,0,22227:0:0:0:0:
448,192,22227,128,0,22367:0:0:0:20:Tick.wav
320,192,22367,128,0,22508:0:0:0:0:
64,192,22508,128,0,22648:0:0:0:20:Tick.wav
192,192,22648,128,0,22788:0:0:0:0:
448,192,22788,1,0,0:0:0:0:
320,192,23068,1,0,0:0:0:0:
64,192,23349,1,0,0:0:0:0:
192,192,23349,1,0,0:0:0:0:
64,192,23629,128,0,23909:0:0:0:0:
448,192,23629,1,0,0:0:0:0:
192,192,23909,1,0,0:0:0:0:
320,192,23909,1,0,0:0:0:0:
448,192,24330,1,0,0:0:0:0:
192,192,24470,1,0,0:0:0:0:
64,192,25451,1,0,0:0:0:0:
448,192,25592,1,0,0:0:0:0:
320,192,25732,1,0,0:0:0:0:
64,192,25872,1,0,0:0:0:0:
192,192,26012,1,0,0:0:0:0:
448,192,26152,1,0,0:0:0:0:
192,192,26573,1,0,0:0:0:0:
320,192,26713,1,0,0:0:0:0:
64,192,27274,1,0,0:0:0:0:
448,192,27414,128,0,27835:0:0:0:0:
192,192,27694,1,0,0:0:0:0:
64,192,27835,128,0,28115:0:0:0:0:
320,192,28115,128,2,28395:0:0:0:0:
192,192,28395,128,2,28816:0:0:0:0:
448,192,28395,1,4,0:0:0:0:
320,192,28816,1,0,0:0:0:0:
64,192,28956,128,0,29377:0:0:0:30:Hat Open.wav
320,192,29377,1,0,0:0:0:0:
192,192,29517,1,2,0:0:0:0:
448,192,29517,128,4,29937:0:0:0:0:
64,192,29937,1,0,0:0:0:0:
320,192,30078,128,0,30498:0:0:0:10:Ride.wav
192,192,30358,1,2,0:0:0:0:
448,192,30498,1,0,0:0:0:0:
64,192,30638,128,4,30919:0:0:0:0:
192,192,30638,1,2,0:0:0:0:
448,192,30919,128,8,31059:0:0:0:15:soft-hitclap.wav
320,192,31059,128,8,31199:0:0:0:15:soft-hitclap.wav
192,192,31199,128,8,31339:0:0:0:20:soft-hitclap.wav
64,192,31339,128,8,31480:0:0:0:20:soft-hitclap.wav
320,192,31480,128,8,31620:0:0:0:25:soft-hitclap.wav
192,192,31620,128,8,31760:0:0:0:25:soft-hitclap.wav
448,192,31760,1,0,0:0:0:0:
64,192,31900,128,0,32040:0:0:0:0:
448,192,32180,128,0,32321:0:0:0:0:
192,192,32461,128,0,32601:0:0:0:0:
320,192,32741,128,0,32881:0:0:0:0:
64,192,33022,1,2,0:0:0:0:
192,192,33162,128,4,33442:0:0:0:0:
448,192,33162,1,8,0:0:0:0:
320,192,33442,1,2,0:0:0:0:
64,192,33582,1,2,0:0:0:0:
320,192,33722,1,8,0:0:0:0:
448,192,33722,1,0,0:0:0:30:Ride.wav
64,192,33863,128,2,34143:0:0:0:0:
192,192,33863,1,4,0:0:0:0:
448,192,34143,1,2,0:0:0:0:
192,192,34283,1,8,0:0:0:0:
320,192,34283,1,0,0:0:0:30:Ride.wav
64,192,34423,1,0,0:0:0:0:
448,192,34564,1,2,0:0:0:0:
320,192,34704,1,2,0:0:0:0:
64,192,34844,1,8,0:0:0:0:
192,192,34844,1,0,0:0:0:30:Ride.wav
320,192,34984,1,0,0:0:0:0:
192,192,35124,128,2,35265:0:0:0:0:
448,192,35124,1,4,0:0:0:0:
64,192,35265,128,0,35405:0:0:0:0:
320,192,35405,128,8,35545:0:0:0:0:
192,192,35545,128,0,35685:0:0:0:50:Tom3.wav
448,192,35685,1,2,0:0:0:0:
64,192,35872,1,8,0:0:0:0:
192,192,35872,1,4,0:0:0:0:
320,192,36059,1,8,0:0:0:0:
448,192,36059,1,4,0:0:0:0:
64,192,36246,128,8,36526:0:0:0:0:
192,192,36246,1,4,0:0:0:0:
448,192,36526,1,2,0:0:0:0:
192,192,36666,1,8,0:0:0:0:
320,192,36666,128,0,36947:0:0:0:0:
64,192,36947,128,10,37087:0:0:0:0:
192,192,37087,128,8,37227:0:0:0:0:
320,192,37227,128,8,37367:0:0:0:0:
64,192,37367,1,2,0:0:0:0:
448,192,37367,128,4,37578:0:0:0:0:
192,192,37578,128,8,37788:0:0:0:0:
320,192,37788,128,8,37928:0:0:0:0:
448,192,37788,1,0,0:0:0:30:Hat Open.wav
64,192,37928,1,2,0:0:0:0:
192,192,38068,1,8,0:0:0:0:
448,192,38068,1,0,0:0:0:30:Hat Open.wav
320,192,38208,1,2,0:0:0:0:
64,192,38349,1,8,0:0:0:0:
192,192,38349,1,0,0:0:0:30:Hat Open.wav
320,192,38489,128,2,38699:0:0:0:0:
448,192,38489,1,4,0:0:0:0:
64,192,38699,128,0,38909:0:0:0:0:
320,192,38909,1,8,0:0:0:0:
448,192,38909,128,0,39050:0:0:0:30:Hat Open.wav
192,192,39050,1,2,0:0:0:0:
64,192,39190,1,8,0:0:0:0:
320,192,39190,1,0,0:0:0:30:Hat Open.wav
448,192,39330,1,2,0:0:0:0:
64,192,39470,1,8,0:0:0:0:
192,192,39470,1,0,0:0:0:30:Hat Open.wav
320,192,39610,128,4,39821:0:0:0:0:
448,192,39610,1,2,0:0:0:0:
192,192,39821,128,8,40031:0:0:0:0:
320,192,40031,128,8,40171:0:0:0:0:
64,192,40171,128,8,40381:0:0:0:0:
448,192,40171,1,2,0:0:0:0:
192,192,40381,128,8,40592:0:0:0:0:
320,192,40592,128,8,40732:0:0:0:0:
64,192,40732,1,2,0:0:0:0:
448,192,40732,128,8,41293:0:0:0:0:
192,192,41012,1,10,0:0:0:0:
64,192,41293,128,8,41853:0:0:0:0:
320,192,41293,1,0,0:0:0:0:
448,192,41573,1,0,0:0:0:50:Tom1.wav
192,192,41853,128,2,42694:0:0:0:0:
320,192,41853,1,4,0:0:0:0:
320,192,42414,1,8,0:0:0:0:
448,192,42414,1,0,0:0:0:30:soft-hitfinish.wav
64,192,42694,1,0,0:0:0:0:
448,192,42835,1,2,0:0:0:0:
320,192,42975,128,2,43536:0:0:0:0:
64,192,43255,1,2,0:0:0:0:
192,192,43536,128,8,43816:0:0:0:0:
448,192,43536,1,0,0:0:0:30:soft-hitfinish.wav
64,192,43816,128,0,44096:0:0:0:0:
448,192,43956,1,2,0:0:0:0:
320,192,44096,128,2,44377:0:0:0:0:
192,192,44377,128,0,44657:0:0:0:0:
64,192,44657,1,8,0:0:0:0:
448,192,44657,128,0,44937:0:0:0:30:soft-hitfinish.wav
192,192,44937,1,0,0:0:0:0:
320,192,45078,128,2,45779:0:0:0:0:
64,192,45218,1,2,0:0:0:0:
448,192,45498,1,2,0:0:0:0:
64,192,45779,1,8,0:0:0:0:
192,192,45779,1,0,0:0:0:30:soft-hitfinish.wav
448,192,45989,1,0,0:0:0:50:Tom3.wav
192,192,46199,1,0,0:0:0:50:Tom3.wav
320,192,46339,1,0,0:0:0:0:
64,192,46900,1,0,0:0:0:30:Clap Kick.wav
448,192,46900,1,0,0:0:0:0:
320,192,47180,1,0,0:0:0:0:
192,192,47321,1,0,0:0:0:0:
64,192,47461,1,0,0:0:0:0:
320,192,48022,1,0,0:0:0:30:Clap Kick.wav
448,192,48022,1,0,0:0:0:0:
192,192,48302,1,0,0:0:0:0:
64,192,48582,1,0,0:0:0:0:
448,192,48863,1,0,0:0:0:0:
192,192,49143,1,0,0:0:0:30:Clap Kick.wav
320,192,49143,1,0,0:0:0:0:
64,192,49423,1,0,0:0:0:0:
192,192,49564,1,0,0:0:0:0:
320,192,49704,128,2,49984:0:0:0:10:soft-hitwhistle.wav
64,192,49984,128,2,50265:0:0:0:20:soft-hitwhistle.wav
320,192,50265,1,2,0:0:0:40:soft-hitwhistle.wav
448,192,50265,128,0,50545:0:0:0:30:Clap Kick.wav
64,192,50545,1,2,0:0:0:0:
192,192,50545,128,0,50825:0:0:0:30:Clap.wav
320,192,50825,128,4,51106:0:0:0:0:
448,192,50825,1,2,0:0:0:0:
64,192,51106,128,8,51293:0:0:0:0:
448,192,51293,1,8,0:0:0:0:
192,192,51386,1,8,0:0:0:0:
320,192,51666,128,8,51853:0:0:0:0:
64,192,51853,1,8,0:0:0:0:
448,192,51947,1,2,0:0:0:0:
192,192,52227,128,8,52414:0:0:0:0:
320,192,52414,1,8,0:0:0:0:
64,192,52508,128,8,52694:0:0:0:0:
448,192,52694,1,8,0:0:0:0:
320,192,52788,128,8,52975:0:0:0:0:
192,192,52975,1,8,0:0:0:0:
64,192,53068,1,2,0:0:0:0:
448,192,53068,128,4,53349:0:0:0:0:
64,192,53349,1,8,0:0:0:0:
192,192,53349,128,2,53489:0:0:0:0:
320,192,53489,128,8,53629:0:0:0:0:
192,192,53629,128,8,53769:0:0:0:0:
448,192,53629,1,2,0:0:0:0:
64,192,53769,128,8,53909:0:0:0:0:
320,192,53909,128,2,54050:0:0:0:0:
448,192,53909,1,8,0:0:0:0:
192,192,54050,128,8,54190:0:0:0:0:
448,192,54190,128,0,55311:0:0:0:0:
64,192,54751,128,0,55311:0:0:0:0:
320,192,55451,1,0,0:0:0:50:Tom1.wav
64,192,55592,1,8,0:0:0:0:
192,192,55592,1,0,0:0:0:0:
448,192,55732,1,2,0:0:0:0:
192,192,55872,1,10,0:0:0:0:
320,192,55872,1,0,0:0:0:50:Tom3.wav
64,192,56012,1,10,0:0:0:0:
448,192,56012,1,0,0:0:0:50:Tom3.wav
192,192,56293,128,0,56573:0:0:0:0:
448,192,56573,1,2,0:0:0:0:
64,192,56713,1,4,0:0:0:0:
320,192,56713,1,8,0:0:0:0:
192,192,56853,1,2,0:0:0:0:
320,192,56994,1,8,0:0:0:0:
448,192,56994,1,0,0:0:0:30:Hat Open.wav
64,192,57134,1,0,0:0:0:50:Tom2.wav
448,192,57274,1,0,0:0:0:0:
192,192,57414,128,2,57694:0:0:0:0:
320,192,57414,1,4,0:0:0:0:
64,192,57694,1,2,0:0:0:0:
320,192,57835,1,8,0:0:0:0:
448,192,57835,1,0,0:0:0:30:Hat Open.wav
192,192,57975,1,2,0:0:0:0:
448,192,58115,128,8,58255:0:0:0:0:
64,192,58255,128,8,58395:0:0:0:0:
192,192,58395,1,8,0:0:0:0:
320,192,58536,128,0,58816:0:0:0:0:
192,192,58816,1,2,0:0:0:0:
64,192,58956,1,8,0:0:0:0:
448,192,58956,1,4,0:0:0:0:
320,192,59096,1,2,0:0:0:0:
64,192,59237,1,8,0:0:0:0:
192,192,59237,1,0,0:0:0:30:Hat Open.wav
448,192,59377,1,0,0:0:0:50:Tom2.wav
192,192,59517,1,0,0:0:0:50:Tom3.wav
320,192,59657,128,2,59937:0:0:0:0:
448,192,59657,1,4,0:0:0:0:
64,192,59937,1,2,0:0:0:0:
192,192,60078,1,8,0:0:0:0:
448,192,60078,1,0,0:0:0:30:Hat Open.wav
320,192,60218,1,2,0:0:0:0:
64,192,60358,1,10,0:0:0:0:
192,192,60358,1,0,0:0:0:50:Tom3.wav
320,192,60498,1,10,0:0:0:0:
448,192,60498,1,0,0:0:0:50:Tom3.wav
64,192,60638,1,0,0:0:0:0:
448,192,60779,128,2,61059:0:0:0:0:
192,192,61059,1,2,0:0:0:0:
64,192,61199,1,8,0:0:0:0:
320,192,61199,1,4,0:0:0:0:
448,192,61339,1,2,0:0:0:0:
64,192,61480,1,8,0:0:0:0:
192,192,61480,1,0,0:0:0:30:Hat Open.wav
320,192,61620,1,2,0:0:0:0:
64,192,61760,1,8,0:0:0:0:
448,192,61760,1,0,0:0:0:30:Hat Open.wav
320,192,61900,1,2,0:0:0:0:
192,192,62040,1,8,0:0:0:0:
448,192,62040,1,0,0:0:0:30:Hat Open.wav
64,192,62180,1,2,0:0:0:0:
192,192,62321,1,8,0:0:0:0:
320,192,62321,1,0,0:0:0:30:Hat Open.wav
448,192,62461,1,2,0:0:0:0:
64,192,62601,1,8,0:0:0:0:
320,192,62601,1,0,0:0:0:30:Hat Open.wav
192,192,62741,1,2,0:0:0:0:
64,192,62881,1,8,0:0:0:0:
448,192,62881,128,0,63022:0:0:0:30:Hat Open.wav
320,192,63022,128,8,63162:0:0:0:0:
64,192,63162,1,4,0:0:0:0:
192,192,63162,128,2,63349:0:0:0:0:
448,192,63349,128,2,63536:0:0:0:0:
64,192,63536,128,2,63722:0:0:0:0:
320,192,63722,128,12,63909:0:0:0:0:
448,192,63722,1,2,0:0:0:0:
192,192,63909,128,2,64096:0:0:0:0:
448,192,64096,128,2,64283:0:0:0:0:
64,192,64283,128,2,64470:0:0:0:0:
320,192,64283,1,4,0:0:0:0:
448,192,64470,128,2,64657:0:0:0:0:
192,192,64657,128,2,64844:0:0:0:0:
320,192,64844,128,12,65031:0:0:0:0:
448,192,64844,1,2,0:0:0:0:
64,192,65031,128,2,65218:0:0:0:0:
448,192,65218,128,2,65405:0:0:0:0:
192,192,65405,128,2,66526:0:0:0:0:
320,192,65405,1,4,0:0:0:0:
448,192,66526,128,0,66807:0:0:0:0:
64,192,66807,128,0,67087:0:0:0:30:Tick.wav
320,192,67087,128,0,67367:0:0:0:30:Tick.wav
192,192,67367,128,0,67648:0:0:0:30:Tick.wav
64,192,67648,1,2,0:0:0:0:
448,192,67648,128,8,67788:0:0:0:30:soft-hitclap.wav
320,192,67788,128,8,67928:0:0:0:30:soft-hitclap.wav
192,192,67928,128,2,68068:0:0:0:0:
448,192,67928,1,8,0:0:0:30:soft-hitclap.wav
64,192,68068,128,8,68208:0:0:0:30:soft-hitclap.wav
192,192,68208,1,2,0:0:0:0:
448,192,68208,128,8,68349:0:0:0:30:soft-hitclap.wav
320,192,68349,128,8,68489:0:0:0:30:soft-hitclap.wav
64,192,68489,1,2,0:0:0:0:
192,192,68489,128,8,68769:0:0:0:30:soft-hitclap.wav
448,192,68769,1,0,0:0:0:0:
448,192,68909,1,0,0:0:0:0:
64,192,69050,1,0,0:0:0:0:
64,192,69190,1,0,0:0:0:0:
320,192,69470,1,2,0:0:0:0:
192,192,69610,1,8,0:0:0:0:
448,192,69610,1,0,0:0:0:30:Clap.wav
192,192,69751,1,0,0:0:0:0:
64,192,69891,1,4,0:0:0:0:
320,192,69891,1,2,0:0:0:0:
448,192,70031,1,0,0:0:0:0:
64,192,70171,1,8,0:0:0:0:
192,192,70171,1,0,0:0:0:30:Hat Open.wav
320,192,70311,1,0,0:0:0:50:Tom1.wav
192,192,70451,1,2,0:0:0:0:
448,192,70592,128,2,70872:0:0:0:0:
64,192,70732,1,8,0:0:0:0:
192,192,70872,128,2,71152:0:0:0:0:
320,192,70872,1,4,0:0:0:0:
448,192,71152,1,2,0:0:0:0:
64,192,71293,1,8,0:0:0:0:
320,192,71293,1,0,0:0:0:30:Hat Open.wav
192,192,71433,1,2,0:0:0:0:
448,192,71573,1,0,0:0:0:30:Hat Open.wav
64,192,71713,128,2,71994:0:0:0:0:
320,192,71853,1,8,0:0:0:0:
192,192,71994,1,0,0:0:0:0:
64,192,72134,1,4,0:0:0:0:
448,192,72134,1,2,0:0:0:0:
320,192,72274,1,0,0:0:0:0:
192,192,72414,1,8,0:0:0:0:
448,192,72414,1,0,0:0:0:30:Hat Open.wav
64,192,72554,1,0,0:0:0:50:Tom1.wav
320,192,72694,1,2,0:0:0:0:
192,192,72835,128,2,73115:0:0:0:0:
64,192,72975,1,8,0:0:0:0:
320,192,73115,1,2,0:0:0:0:
448,192,73115,128,4,73395:0:0:0:0:
64,192,73395,1,2,0:0:0:0:
192,192,73536,1,8,0:0:0:0:
320,192,73536,1,0,0:0:0:30:Hat Open.wav
448,192,73676,1,2,0:0:0:0:
64,192,73816,1,8,0:0:0:0:
192,192,73816,1,0,0:0:0:30:Hat Open.wav
320,192,73956,1,2,0:0:0:0:
64,192,74096,128,8,74237:0:0:0:0:
448,192,74096,1,0,0:0:0:30:Hat Open.wav
192,192,74237,128,8,74377:0:0:0:0:
320,192,74377,1,4,0:0:0:0:
448,192,74377,128,2,74657:0:0:0:0:
64,192,74657,1,8,0:0:0:0:
192,192,74657,1,2,0:0:0:0:
320,192,74797,1,0,0:0:0:30:Hat Open.wav
64,192,74937,1,2,0:0:0:0:
448,192,74937,1,0,0:0:0:0:
192,192,75078,1,0,0:0:0:30:Hat Open.wav
320,192,75218,1,2,0:0:0:0:
448,192,75218,1,8,0:0:0:0:
192,192,75358,1,0,0:0:0:30:Hat Open.wav
64,192,75498,128,2,75779:0:0:0:0:
448,192,75498,1,0,0:0:0:0:
192,192,75779,1,8,0:0:0:0:
320,192,75779,1,2,0:0:0:0:
448,192,75919,1,0,0:0:0:30:Hat Open.wav
64,192,76059,1,2,0:0:0:0:
192,192,76059,1,0,0:0:0:0:
320,192,76199,1,0,0:0:0:30:Hat Open.wav
64,192,76339,1,8,0:0:0:0:
448,192,76339,1,2,0:0:0:0:
192,192,76480,1,0,0:0:0:30:Hat Open.wav
320,192,76620,1,2,0:0:0:0:
448,192,76620,128,4,76900:0:0:0:0:
64,192,76900,128,8,77040:0:0:0:0:
192,192,77040,128,8,77180:0:0:0:0:
320,192,77180,128,8,77321:0:0:0:0:
448,192,77321,128,2,77461:0:0:0:0:
64,192,77461,1,8,0:0:0:0:
192,192,77461,1,0,0:0:0:0:
320,192,77601,128,2,77741:0:0:0:0:
192,192,77881,128,2,78022:0:0:0:0:
64,192,78162,128,2,78302:0:0:0:0:
448,192,78302,128,8,78442:0:0:0:0:
320,192,78442,128,2,78582:0:0:0:0:
64,192,78582,1,8,0:0:0:0:
192,192,78582,1,4,0:0:0:0:
448,192,78722,1,0,0:0:0:0:
192,192,78863,1,4,0:0:0:0:
320,192,78863,1,2,0:0:0:0:
64,192,79003,1,0,0:0:0:0:
320,192,79143,1,8,0:0:0:0:
448,192,79143,1,0,0:0:0:30:Hat Open.wav
192,192,79283,1,0,0:0:0:50:Tom1.wav
448,192,79423,1,2,0:0:0:0:
64,192,79564,128,2,79844:0:0:0:0:
320,192,79704,1,8,0:0:0:0:
192,192,79844,128,2,80124:0:0:0:0:
448,192,79844,1,4,0:0:0:0:
320,192,80124,1,2,0:0:0:0:
64,192,80265,1,8,0:0:0:0:
448,192,80265,1,0,0:0:0:30:Hat Open.wav
192,192,80405,1,2,0:0:0:0:
320,192,80545,1,0,0:0:0:30:Hat Open.wav
64,192,80685,1,2,0:0:0:0:
320,192,80825,1,8,0:0:0:0:
448,192,80825,1,0,0:0:0:30:Hat Open.wav
192,192,80965,1,0,0:0:0:0:
64,192,81106,1,2,0:0:0:0:
448,192,81106,1,4,0:0:0:0:
320,192,81246,1,0,0:0:0:0:
64,192,81386,1,8,0:0:0:0:
192,192,81386,1,0,0:0:0:30:Hat Open.wav
448,192,81526,1,0,0:0:0:50:Tom1.wav
192,192,81666,128,2,81947:0:0:0:0:
320,192,81807,1,2,0:0:0:0:
64,192,81947,1,8,0:0:0:0:
448,192,81947,1,0,0:0:0:30:Hat Open.wav
192,192,82087,1,2,0:0:0:0:
320,192,82087,128,4,82367:0:0:0:0:
448,192,82367,1,2,0:0:0:0:
64,192,82508,128,8,82928:0:0:0:0:
192,192,82508,1,0,0:0:0:30:Hat Open.wav
448,192,82648,1,2,0:0:0:0:
320,192,82788,1,8,0:0:0:0:
192,192,82928,1,2,0:0:0:0:
320,192,83068,128,8,83208:0:0:0:0:
64,192,83208,128,8,83349:0:0:0:0:
448,192,83349,128,0,83489:0:0:0:50:Tom1.wav
320,192,83489,128,2,83629:0:0:0:0:
64,192,83629,1,12,0:0:0:0:
192,192,83629,1,0,0:0:0:30:Clap.wav
64,192,83909,128,0,84050:0:0:0:50:Tom1.wav
192,192,84050,128,2,84190:0:0:0:0:
320,192,84190,1,12,0:0:0:0:
448,192,84190,1,0,0:0:0:30:Clap.wav
192,192,84470,128,0,84610:0:0:0:50:Tom1.wav
448,192,84610,128,0,84751:0:0:0:50:Tom2.wav
64,192,84751,128,0,84891:0:0:0:30:Clap.wav
320,192,84751,1,0,0:0:0:0:
192,192,84891,128,2,85031:0:0:0:0:
448,192,85031,128,0,85171:0:0:0:50:Tom3.wav
320,192,85171,128,2,85311:0:0:0:0:
64,192,85311,1,12,0:0:0:0:
192,192,85311,128,0,85451:0:0:0:30:Clap.wav
448,192,85451,128,0,85592:0:0:0:0:
192,192,85592,1,2,0:0:0:0:
320,192,85592,128,4,85872:0:0:0:0:
64,192,85872,128,8,86012:0:0:0:0:
448,192,85872,1,2,0:0:0:0:
192,192,86012,128,8,86152:0:0:0:0:
320,192,86152,128,8,86293:0:0:0:0:
448,192,86152,1,2,0:0:0:0:
64,192,86293,128,8,86433:0:0:0:0:
192,192,86433,1,8,0:0:0:0:
448,192,86433,128,2,86573:0:0:0:0:
320,192,86573,128,8,86713:0:0:0:0:
64,192,86713,1,2,0:0:0:0:
192,192,86713,1,8,0:0:0:0:
448,192,86853,1,10,0:0:0:0:
64,192,86994,1,10,0:0:0:0:
320,192,87134,1,2,0:0:0:0:
448,192,87134,1,8,0:0:0:0:
64,192,87414,128,8,87554:0:0:0:0:
192,192,87554,128,8,87694:0:0:0:0:
320,192,87694,128,8,87835:0:0:0:0:
64,192,87835,1,2,0:0:0:0:
448,192,87835,1,0,0:0:0:40:Short Crash.wav
192,192,87975,1,0,0:0:0:0:
320,192,88115,1,0,0:0:0:0:
64,192,88255,1,2,0:0:0:0:
448,192,88255,1,0,0:0:0:40:Short Crash.wav
192,192,88395,1,0,0:0:0:0:
320,192,88536,128,0,88816:0:0:0:0:
64,192,88676,1,2,0:0:0:0:
192,192,88816,128,0,89096:0:0:0:0:
320,192,89096,1,2,0:0:0:0:
448,192,89096,1,0,0:0:0:40:Short Crash.wav
64,192,89237,1,0,0:0:0:0:
448,192,89377,1,0,0:0:0:0:
192,192,89517,1,2,0:0:0:0:
320,192,89517,1,0,0:0:0:40:Short Crash.wav
64,192,89657,128,0,89937:0:0:0:0:
448,192,89797,1,2,0:0:0:0:
320,192,89937,1,0,0:0:0:0:
192,192,90078,128,0,90218:0:0:0:0:
448,192,90358,128,0,90498:0:0:0:0:
64,192,90638,128,0,90779:0:0:0:0:
448,192,90779,128,0,90919:0:0:0:0:
192,192,90919,1,0,0:0:0:0:
64,192,91059,1,2,0:0:0:0:
320,192,91059,128,4,91339:0:0:0:0:
192,192,91339,128,8,91480:0:0:0:0:
448,192,91480,128,8,91620:0:0:0:0:
64,192,91620,128,8,91760:0:0:0:0:
320,192,91760,128,8,91900:0:0:0:0:
192,192,91900,128,8,92040:0:0:0:0:
448,192,92040,128,8,92180:0:0:0:0:
64,192,92180,128,0,92461:0:0:0:0:
320,192,92461,1,0,0:0:0:0:
64,192,92601,1,2,0:0:0:0:
192,192,92601,1,4,0:0:0:0:
320,192,92741,1,8,0:0:0:0:
448,192,92741,1,0,0:0:0:30:Hat Open.wav
64,192,92881,1,2,0:0:0:0:
192,192,93022,1,8,0:0:0:0:
448,192,93022,1,0,0:0:0:30:Hat Open.wav
320,192,93162,1,2,0:0:0:0:
64,192,93302,1,4,0:0:0:0:
192,192,93302,128,8,93582:0:0:0:0:
320,192,93582,1,8,0:0:0:0:
448,192,93582,1,0,0:0:0:30:Hat Open.wav
64,192,93722,1,2,0:0:0:0:
192,192,93863,1,8,0:0:0:0:
320,192,93863,1,0,0:0:0:30:Hat Open.wav
448,192,94003,1,2,0:0:0:0:
64,192,94143,1,8,0:0:0:0:
192,192,94143,1,0,0:0:0:30:Hat Open.wav
320,192,94283,1,2,0:0:0:0:
192,192,94423,1,8,0:0:0:0:
448,192,94423,128,4,94704:0:0:0:0:
64,192,94704,1,8,0:0:0:0:
320,192,94704,1,0,0:0:0:30:Hat Open.wav
192,192,94844,1,2,0:0:0:0:
64,192,94984,1,8,0:0:0:0:
448,192,94984,1,0,0:0:0:30:Hat Open.wav
320,192,95124,1,2,0:0:0:0:
192,192,95265,1,8,0:0:0:0:
448,192,95265,1,0,0:0:0:30:Hat Open.wav
64,192,95405,1,2,0:0:0:0:
192,192,95545,128,8,95825:0:0:0:0:
320,192,95545,1,4,0:0:0:0:
448,192,95825,128,8,95965:0:0:0:0:
64,192,95965,128,8,96106:0:0:0:0:
320,192,95965,1,2,0:0:0:0:
192,192,96106,128,8,96246:0:0:0:0:
448,192,96246,128,8,96433:0:0:0:0:
320,192,96433,128,8,96620:0:0:0:0:
192,192,96620,128,0,96807:0:0:0:50:Tom2.wav
64,192,96807,128,4,97367:0:0:0:0:
448,192,96807,1,2,0:0:0:0:
320,192,97367,1,0,0:0:0:30:Clap Kick.wav
448,192,97367,1,0,0:0:0:0:
192,192,97928,1,0,0:0:0:0:
320,192,98208,1,0,0:0:0:0:
64,192,98489,128,0,99050:0:0:0:30:Clap Kick.wav
448,192,98489,1,0,0:0:0:0:
192,192,98769,128,0,99050:0:0:0:0:
448,192,99237,128,2,99423:0:0:0:0:
64,192,99423,128,2,99610:0:0:0:0:
320,192,99610,128,2,99797:0:0:0:0:
64,192,99797,128,2,99984:0:0:0:0:
320,192,99984,128,2,100171:0:0:0:0:
192,192,100171,128,2,100451:0:0:0:0:
448,192,100171,1,4,0:0:0:0:
320,192,100451,1,2,0:0:0:0:
64,192,100592,1,8,0:0:0:0:
448,192,100592,1,4,0:0:0:0:
192,192,100872,1,2,0:0:0:0:
448,192,101012,128,8,101152:0:0:0:0:
320,192,101152,128,8,101293:0:0:0:0:
64,192,101293,1,4,0:0:0:0:
192,192,101293,1,2,0:0:0:0:
448,192,101433,1,0,0:0:0:30:Hat Open.wav
64,192,101573,1,8,0:0:0:0:
320,192,101573,1,2,0:0:0:0:
192,192,101713,1,0,0:0:0:30:Hat Open.wav
448,192,101853,128,2,101994:0:0:0:0:
64,192,101994,128,0,102134:0:0:0:30:Hat Open.wav
192,192,102134,128,8,102274:0:0:0:0:
320,192,102134,1,2,0:0:0:0:
448,192,102274,128,0,102414:0:0:0:30:Hat Open.wav
64,192,102414,1,2,0:0:0:0:
320,192,102554,1,0,0:0:0:30:Hat Open.wav
192,192,102694,1,8,0:0:0:0:
448,192,102694,1,2,0:0:0:0:
64,192,102835,1,0,0:0:0:30:Hat Open.wav
320,192,102975,128,2,103115:0:0:0:0:
192,192,103115,128,0,103255:0:0:0:30:Hat Open.wav
64,192,103255,1,8,0:0:0:0:
448,192,103255,128,2,103395:0:0:0:0:
320,192,103395,128,0,103536:0:0:0:30:Hat Open.wav
64,192,103536,1,2,0:0:0:0:
192,192,103536,1,4,0:0:0:0:
192,192,103816,1,8,0:0:0:0:
448,192,103816,1,2,0:0:0:0:
320,192,103956,1,0,0:0:0:30:Hat Open.wav
64,192,104096,128,2,104237:0:0:0:0:
192,192,104237,128,0,104377:0:0:0:30:Hat Open.wav
320,192,104377,128,8,104517:0:0:0:0:
448,192,104377,1,2,0:0:0:0:
64,192,104517,128,0,104657:0:0:0:30:Hat Open.wav
192,192,104657,1,2,0:0:0:0:
448,192,104657,128,4,104937:0:0:0:0:
64,192,104937,1,10,0:0:0:0:
320,192,104937,128,0,105218:0:0:0:30:Hat Open.wav
192,192,105218,128,4,105498:0:0:0:0:
448,192,105218,1,2,0:0:0:0:
64,192,105498,128,10,105779:0:0:0:0:
320,192,105498,1,0,0:0:0:30:Hat Open.wav
448,192,105779,128,2,105919:0:0:0:0:
320,192,105919,128,2,106059:0:0:0:0:
64,192,106059,1,12,0:0:0:0:
192,192,106059,1,0,0:0:0:30:Clap.wav
64,192,106339,128,2,106480:0:0:0:0:
192,192,106480,128,2,106620:0:0:0:0:
320,192,106620,1,12,0:0:0:0:
448,192,106620,1,0,0:0:0:30:Clap.wav
64,192,106900,128,0,107040:0:0:0:50:Tom1.wav
320,192,107040,128,2,107180:0:0:0:0:
64,192,107180,1,0,0:0:0:30:Clap.wav
192,192,107180,128,0,107321:0:0:0:0:
448,192,107321,128,2,107461:0:0:0:0:
320,192,107461,128,0,107601:0:0:0:50:Tom3.wav
192,192,107601,128,2,107741:0:0:0:0:
64,192,107741,1,12,0:0:0:0:
448,192,107741,1,0,0:0:0:30:Clap.wav
64,192,108022,128,4,109143:0:0:0:0:
192,192,108022,1,2,0:0:0:0:
320,192,108302,1,10,0:0:0:0:
448,192,108302,1,0,0:0:0:30:Hat Open.wav
192,192,108582,1,2,0:0:0:0:
320,192,108863,1,10,0:0:0:0:
448,192,108863,1,0,0:0:0:30:Hat Open.wav
448,192,109143,128,2,109704:0:0:0:0:
64,192,109423,1,10,0:0:0:0:
192,192,109423,1,0,0:0:0:30:Hat Open.wav
320,192,109704,128,8,109891:0:0:0:0:
64,192,109891,128,8,110078:0:0:0:0:
320,192,110078,128,8,110265:0:0:0:0:
192,192,110545,128,4,111526:0:0:0:0:
448,192,110545,1,2,0:0:0:0:
320,192,111526,128,8,111666:0:0:0:10:soft-hitclap.wav
64,192,111666,128,8,111807:0:0:0:13:soft-hitclap.wav
448,192,111807,128,8,111947:0:0:0:20:soft-hitclap.wav
64,192,111947,128,8,112087:0:0:0:26:soft-hitclap.wav
192,192,112087,128,8,112227:0:0:0:33:soft-hitclap.wav
448,192,112227,128,8,112367:0:0:0:40:soft-hitclap.wav
320,192,112367,128,8,112508:0:0:0:0:
192,192,112508,128,0,113068:0:0:0:30:Ride.wav
448,192,113068,128,0,113208:0:0:0:0:
320,192,113208,128,0,113349:0:0:0:0:
64,192,113349,128,0,113489:0:0:0:0:
192,192,113489,128,0,113629:0:0:0:0:
448,192,113629,128,0,113909:0:0:0:0:
64,192,113909,128,0,114190:0:0:0:0:
320,192,114190,128,0,114377:0:0:0:0:
192,192,114377,128,0,114564:0:0:0:0:
64,192,114564,128,0,115451:0:0:0:0:
448,192,115451,1,8,0:0:0:30:soft-hitclap.wav
64,192,115872,1,6,0:0:0:0:
192,192,115872,1,0,0:0:0:50:Snare.wav
320,192,116012,1,0,0:0:0:20:Snare.wav
192,192,116152,1,0,0:0:0:20:Snare.wav
448,192,116293,1,0,0:0:0:50:Snare.wav
64,192,116433,1,0,0:0:0:20:Snare.wav
448,192,116573,1,0,0:0:0:20:Snare.wav
192,192,116713,1,0,0:0:0:50:Snare.wav
320,192,116853,1,0,0:0:0:20:Snare.wav
192,192,116994,1,0,0:0:0:20:Snare.wav
448,192,117134,1,0,0:0:0:50:Snare.wav
192,192,117554,128,0,117694:0:0:0:50:Snare.wav
448,192,117835,128,0,117975:0:0:0:50:Snare.wav
64,192,118115,1,2,0:0:0:0:
192,192,118115,1,0,0:0:0:50:Snare.wav
320,192,118255,1,0,0:0:0:20:Snare.wav
64,192,118395,1,0,0:0:0:20:Snare.wav
448,192,118536,1,0,0:0:0:50:Snare.wav
192,192,118676,1,0,0:0:0:20:Snare.wav
448,192,118816,1,0,0:0:0:20:Snare.wav
64,192,118956,1,0,0:0:0:50:Snare.wav
320,192,119096,1,0,0:0:0:20:Snare.wav
64,192,119237,1,0,0:0:0:20:Snare.wav
448,192,119377,1,0,0:0:0:50:Snare.wav
192,192,119797,128,0,119937:0:0:0:50:Snare.wav
320,192,120078,1,0,0:0:0:20:Snare.wav
64,192,120218,128,2,122741:0:0:0:0:
448,192,120218,1,0,0:0:0:60:Snare.wav
448,192,122741,1,0,0:0:0:60:Snare.wav
192,192,122881,1,0,0:0:0:60:Snare.wav
320,192,123162,1,0,0:0:0:60:Snare.wav
64,192,123302,1,0,0:0:0:60:Snare.wav
192,192,123582,1,0,0:0:0:60:Snare.wav
448,192,123582,1,0,0:0:0:0:
64,192,123863,1,2,0:0:0:0:
192,192,123863,1,8,0:0:0:30:soft-hitclap.wav
320,192,124003,1,8,0:0:0:30:soft-hitclap.wav
64,192,124143,1,8,0:0:0:30:soft-hitclap.wav
192,192,124283,1,8,0:0:0:0:
448,192,124283,1,2,0:0:0:0:
320,192,124423,1,8,0:0:0:0:
64,192,124564,1,8,0:0:0:0:
192,192,124564,1,0,0:0:0:0:
320,192,124704,1,8,0:0:0:0:
448,192,124704,1,2,0:0:0:0:
